  0
SECTION
  2
HEADER
  9
$ACADVER
  1
AC1015
  9
$ACADMAINTVER
 70
    20
  9
$DWGCODEPAGE
  3
ANSI_1252
  9
$INSBASE
 10
0.0
 20
0.0
 30
0.0
  9
$EXTMIN
 10
-0.0490442427761004
 20
-22.73784467780024
 30
0.0
  9
$EXTMAX
 10
1.476823066271663
 20
0.282
 30
0.0
  9
$LIMMIN
 10
0.0
 20
0.0
  9
$LIMMAX
 10
1.0
 20
0.5
  9
$ORTHOMODE
 70
     0
  9
$REGENMODE
 70
     1
  9
$FILLMODE
 70
     1
  9
$QTEXTMODE
 70
     0
  9
$MIRRTEXT
 70
     0
  9
$LTSCALE
 40
1.0
  9
$ATTMODE
 70
     1
  9
$TEXTSIZE
 40
0.005
  9
$TRACEWID
 40
1.0
  9
$TEXTSTYLE
  7
style1
  9
$CLAYER
  8
Dimensione
  9
$CELTYPE
  6
ByLayer
  9
$CECOLOR
 62
   256
  9
$CELTSCALE
 40
1.0
  9
$DISPSILH
 70
     0
  9
$DIMSCALE
 40
0.001
  9
$DIMASZ
 40
1.5
  9
$DIMEXO
 40
0.0625
  9
$DIMDLI
 40
0.38
  9
$DIMRND
 40
0.0
  9
$DIMDLE
 40
0.0
  9
$DIMEXE
 40
0.18
  9
$DIMTP
 40
0.0
  9
$DIMTM
 40
0.0
  9
$DIMTXT
 40
3.0
  9
$DIMCEN
 40
0.0
  9
$DIMTSZ
 40
0.0
  9
$DIMTOL
 70
     0
  9
$DIMLIM
 70
     0
  9
$DIMTIH
 70
     1
  9
$DIMTOH
 70
     1
  9
$DIMSE1
 70
     0
  9
$DIMSE2
 70
     0
  9
$DIMTAD
 70
     0
  9
$DIMZIN
 70
     0
  9
$DIMBLK
  1
ArchTick
  9
$DIMASO
 70
     1
  9
$DIMSHO
 70
     1
  9
$DIMPOST
  1

  9
$DIMAPOST
  1

  9
$DIMALT
 70
     0
  9
$DIMALTD
 70
     2
  9
$DIMALTF
 40
25.4
  9
$DIMLFAC
 40
1.0
  9
$DIMTOFL
 70
     0
  9
$DIMTVP
 40
0.0
  9
$DIMTIX
 70
     0
  9
$DIMSOXD
 70
     0
  9
$DIMSAH
 70
     0
  9
$DIMBLK1
  1

  9
$DIMBLK2
  1

  9
$DIMSTYLE
  2
Bovelacci
  9
$DIMCLRD
 70
     5
  9
$DIMCLRE
 70
     5
  9
$DIMCLRT
 70
     4
  9
$DIMTFAC
 40
1.0
  9
$DIMGAP
 40
2.0
  9
$DIMJUST
 70
     0
  9
$DIMSD1
 70
     0
  9
$DIMSD2
 70
     0
  9
$DIMTOLJ
 70
     1
  9
$DIMTZIN
 70
     0
  9
$DIMALTZ
 70
     0
  9
$DIMALTTZ
 70
     0
  9
$DIMUPT
 70
     0
  9
$DIMDEC
 70
     2
  9
$DIMTDEC
 70
     2
  9
$DIMALTU
 70
     2
  9
$DIMALTTD
 70
     2
  9
$DIMTXSTY
  7
ROMANS
  9
$DIMAUNIT
 70
     0
  9
$DIMADEC
 70
     0
  9
$DIMALTRND
 40
0.0
  9
$DIMAZIN
 70
     0
  9
$DIMDSEP
 70
    46
  9
$DIMATFIT
 70
     3
  9
$DIMFRAC
 70
     0
  9
$DIMLDRBLK
  1

  9
$DIMLUNIT
 70
     2
  9
$DIMLWD
 70
    -2
  9
$DIMLWE
 70
    -2
  9
$DIMTMOVE
 70
     2
  9
$LUNITS
 70
     2
  9
$LUPREC
 70
     2
  9
$SKETCHINC
 40
1.0
  9
$FILLETRAD
 40
0.0
  9
$AUNITS
 70
     0
  9
$AUPREC
 70
     0
  9
$MENU
  1
.
  9
$ELEVATION
 40
0.0
  9
$PELEVATION
 40
0.0
  9
$THICKNESS
 40
0.0
  9
$LIMCHECK
 70
     0
  9
$CHAMFERA
 40
0.0
  9
$CHAMFERB
 40
0.0
  9
$CHAMFERC
 40
0.0
  9
$CHAMFERD
 40
0.0
  9
$SKPOLY
 70
     0
  9
$TDCREATE
 40
2454297.625402373
  9
$TDUCREATE
 40
2454297.542069039
  9
$TDUPDATE
 40
2454337.467212813
  9
$TDUUPDATE
 40
2454337.383879479
  9
$TDINDWG
 40
0.3331259259
  9
$TDUSRTIMER
 40
0.3331253704
  9
$USRTIMER
 70
     1
  9
$ANGBASE
 50
0.0
  9
$ANGDIR
 70
     0
  9
$PDMODE
 70
     0
  9
$PDSIZE
 40
0.0
  9
$PLINEWID
 40
0.0
  9
$SPLFRAME
 70
     0
  9
$SPLINETYPE
 70
     6
  9
$SPLINESEGS
 70
     8
  9
$HANDSEED
  5
2939
  9
$SURFTAB1
 70
     6
  9
$SURFTAB2
 70
     6
  9
$SURFTYPE
 70
     6
  9
$SURFU
 70
     6
  9
$SURFV
 70
     6
  9
$UCSBASE
  2

  9
$UCSNAME
  2

  9
$UCSORG
 10
0.0
 20
0.0
 30
0.0
  9
$UCSXDIR
 10
1.0
 20
0.0
 30
0.0
  9
$UCSYDIR
 10
0.0
 20
1.0
 30
0.0
  9
$UCSORTHOREF
  2

  9
$UCSORTHOVIEW
 70
     0
  9
$UCSORGTOP
 10
0.0
 20
0.0
 30
0.0
  9
$UCSORGBOTTOM
 10
0.0
 20
0.0
 30
0.0
  9
$UCSORGLEFT
 10
0.0
 20
0.0
 30
0.0
  9
$UCSORGRIGHT
 10
0.0
 20
0.0
 30
0.0
  9
$UCSORGFRONT
 10
0.0
 20
0.0
 30
0.0
  9
$UCSORGBACK
 10
0.0
 20
0.0
 30
0.0
  9
$PUCSBASE
  2

  9
$PUCSNAME
  2

  9
$PUCSORG
 10
0.0
 20
0.0
 30
0.0
  9
$PUCSXDIR
 10
1.0
 20
0.0
 30
0.0
  9
$PUCSYDIR
 10
0.0
 20
1.0
 30
0.0
  9
$PUCSORTHOREF
  2

  9
$PUCSORTHOVIEW
 70
     0
  9
$PUCSORGTOP
 10
0.0
 20
0.0
 30
0.0
  9
$PUCSORGBOTTOM
 10
0.0
 20
0.0
 30
0.0
  9
$PUCSORGLEFT
 10
0.0
 20
0.0
 30
0.0
  9
$PUCSORGRIGHT
 10
0.0
 20
0.0
 30
0.0
  9
$PUCSORGFRONT
 10
0.0
 20
0.0
 30
0.0
  9
$PUCSORGBACK
 10
0.0
 20
0.0
 30
0.0
  9
$USERI1
 70
     0
  9
$USERI2
 70
     0
  9
$USERI3
 70
     0
  9
$USERI4
 70
     0
  9
$USERI5
 70
     0
  9
$USERR1
 40
0.0
  9
$USERR2
 40
0.0
  9
$USERR3
 40
0.0
  9
$USERR4
 40
0.0
  9
$USERR5
 40
0.0
  9
$WORLDVIEW
 70
     1
  9
$SHADEDGE
 70
     3
  9
$SHADEDIF
 70
    70
  9
$TILEMODE
 70
     1
  9
$MAXACTVP
 70
    64
  9
$PINSBASE
 10
0.0
 20
0.0
 30
0.0
  9
$PLIMCHECK
 70
     0
  9
$PEXTMIN
 10
29.06606628894805
 20
20.36233246326446
 30
0.0
  9
$PEXTMAX
 10
261.5945966005325
 20
183.2609921693802
 30
0.0
  9
$PLIMMIN
 10
-3.17498779296875
 20
-3.174999952316281
  9
$PLIMMAX
 10
293.8356628417969
 20
206.7983276844024
  9
$UNITMODE
 70
     0
  9
$VISRETAIN
 70
     1
  9
$PLINEGEN
 70
     0
  9
$PSLTSCALE
 70
     1
  9
$TREEDEPTH
 70
  3020
  9
$CMLSTYLE
  2
Standard
  9
$CMLJUST
 70
     0
  9
$CMLSCALE
 40
20.0
  9
$PROXYGRAPHICS
 70
     1
  9
$MEASUREMENT
 70
     1
  9
$CELWEIGHT
370
    -1
  9
$ENDCAPS
280
     0
  9
$JOINSTYLE
280
     0
  9
$LWDISPLAY
290
     0
  9
$INSUNITS
 70
     4
  9
$HYPERLINKBASE
  1

  9
$STYLESHEET
  1

  9
$XEDIT
290
     1
  9
$CEPSNTYPE
380
     0
  9
$PSTYLEMODE
290
     1
  9
$FINGERPRINTGUID
  2
{4F38C4E7-9F37-4C76-96D9-79C94F9B03D9}
  9
$VERSIONGUID
  2
{7918A702-E37A-4437-B4EA-3B2826EF04C6}
  9
$EXTNAMES
290
     1
  9
$PSVPSCALE
 40
0.0
  9
$OLESTARTUP
290
     0
  0
ENDSEC
  0
SECTION
  2
CLASSES
  0
CLASS
  1
ACDBDICTIONARYWDFLT
  2
AcDbDictionaryWithDefault
  3
ObjectDBX Classes
 90
        0
280
     0
281
     0
  0
CLASS
  1
TABLESTYLE
  2
AcDbTableStyle
  3
ObjectDBX Classes
 90
     2047
280
     0
281
     0
  0
CLASS
  1
SORTENTSTABLE
  2
AcDbSortentsTable
  3
ObjectDBX Classes
 90
        0
280
     0
281
     0
  0
CLASS
  1
DICTIONARYVAR
  2
AcDbDictionaryVar
  3
ObjectDBX Classes
 90
        0
280
     0
281
     0
  0
CLASS
  1
DIMASSOC
  2
AcDbDimAssoc
  3
"AcDbDimAssoc|Product Desc:     AcDim ARX App For Dimension|Company:          Autodesk, Inc.|WEB Address:      www.autodesk.com"
 90
        0
280
     0
281
     0
  0
CLASS
  1
ACDBPLACEHOLDER
  2
AcDbPlaceHolder
  3
ObjectDBX Classes
 90
        0
280
     0
281
     0
  0
CLASS
  1
LAYOUT
  2
AcDbLayout
  3
ObjectDBX Classes
 90
        0
280
     0
281
     0
  0
CLASS
  1
MATERIAL
  2
AcDbMaterial
  3
ObjectDBX Classes
 90
        0
280
     0
281
     0
  0
CLASS
  1
VISUALSTYLE
  2
AcDbVisualStyle
  3
ObjectDBX Classes
 90
     4095
280
     0
281
     0
  0
ENDSEC
  0
SECTION
  2
TABLES
  0
TABLE
  2
VPORT
  5
96
330
0
100
AcDbSymbolTable
 70
     6
  0
VPORT
  5
292B
330
96
100
AcDbSymbolTableRecord
100
AcDbViewportTableRecord
  2
*Active
 70
     0
 10
0.0
 20
0.0
 11
1.0
 21
1.0
 12
0.2103020669872282
 22
0.1469591120972922
 13
0.0
 23
0.0
 14
10.0
 24
10.0
 15
10.0
 25
10.0
 16
0.0
 26
0.0
 36
1.0
 17
0.0
 27
0.0
 37
0.0
 40
0.2808767432364618
 41
1.546526867627784
 42
50.0
 43
0.0
 44
0.0
 50
0.0
 51
0.0
 71
     0
 72
  1000
 73
     1
 74
     3
 75
     0
 76
     0
 77
     0
 78
     0
281
     0
 65
     1
110
0.0
120
0.0
130
0.0
111
1.0
121
0.0
131
0.0
112
0.0
122
1.0
132
0.0
 79
     0
146
0.0
  0
ENDTAB
  0
TABLE
  2
LTYPE
  5
91
330
0
100
AcDbSymbolTable
 70
     5
  0
LTYPE
  5
92
330
91
100
AcDbSymbolTableRecord
100
AcDbLinetypeTableRecord
  2
ByBlock
 70
     0
  3

 72
    65
 73
     0
 40
0.0
  0
LTYPE
  5
93
330
91
100
AcDbSymbolTableRecord
100
AcDbLinetypeTableRecord
  2
ByLayer
 70
     0
  3

 72
    65
 73
     0
 40
0.0
  0
LTYPE
  5
C
330
91
100
AcDbSymbolTableRecord
100
AcDbLinetypeTableRecord
  2
Continuous
 70
     0
  3
Solid line
 72
    65
 73
     0
 40
0.0
  0
LTYPE
  5
105
330
91
100
AcDbSymbolTableRecord
100
AcDbLinetypeTableRecord
  2
ACAD_ISO10W100
 70
     0
  3
ISO dash dot __ . __ . __ . __ . __ . __ . __ .
 72
    65
 73
     4
 40
18.0
 49
12.0
 74
     0
 49
-3.0
 74
     0
 49
0.0
 74
     0
 49
-3.0
 74
     0
  0
LTYPE
  5
190
330
91
100
AcDbSymbolTableRecord
100
AcDbLinetypeTableRecord
  2
RAYITAX4
 70
     0
  3
RAYITAX4
 72
    65
 73
     2
 40
18.0
 49
12.0
 74
     0
 49
-6.0
 74
     0
  0
LTYPE
  5
73C
330
91
100
AcDbSymbolTableRecord
100
AcDbLinetypeTableRecord
  2
RAYITA
 70
     0
  3
rayita
 72
    65
 73
     2
 40
1.5
 49
1.0
 74
     0
 49
-0.5
 74
     0
  0
ENDTAB
  0
TABLE
  2
LAYER
  5
8A
102
{ACAD_XDICTIONARY
360
8B
102
}
330
0
100
AcDbSymbolTable
 70
    12
  0
LAYER
  5
6
330
8A
100
AcDbSymbolTableRecord
100
AcDbLayerTableRecord
  2
0
 70
     0
 62
     7
  6
Continuous
370
    -3
390
7
  0
LAYER
  5
3F
330
8A
100
AcDbSymbolTableRecord
100
AcDbLayerTableRecord
  2
Defpoints
 70
     0
 62
     7
  6
Continuous
290
     0
370
    -3
390
7
  0
LAYER
  5
2E
330
8A
100
AcDbSymbolTableRecord
100
AcDbLayerTableRecord
  2
Dimensione
 70
     0
 62
   150
  6
Continuous
370
    -3
390
7
1001
AcAecLayerStandard
1000

1000

  0
LAYER
  5
2A
330
8A
100
AcDbSymbolTableRecord
100
AcDbLayerTableRecord
  2
Profilo
 70
     0
 62
     1
  6
Continuous
370
    -3
390
7
1001
AcAecLayerStandard
1000

1000

  0
LAYER
  5
54
330
8A
100
AcDbSymbolTableRecord
100
AcDbLayerTableRecord
  2
Sezione
 70
     0
 62
     2
  6
Continuous
370
    -3
390
7
1001
AcAecLayerStandard
1000

1000

  0
LAYER
  5
E
330
8A
100
AcDbSymbolTableRecord
100
AcDbLayerTableRecord
  2
Table
 70
     0
 62
     3
  6
Continuous
370
    -3
390
7
1001
AcAecLayerStandard
1000

1000

  0
LAYER
  5
19
330
8A
100
AcDbSymbolTableRecord
100
AcDbLayerTableRecord
  2
Text
 70
     0
 62
     4
  6
Continuous
370
    -3
390
7
1001
AcAecLayerStandard
1000

1000

  0
LAYER
  5
5C
330
8A
100
AcDbSymbolTableRecord
100
AcDbLayerTableRecord
  2
Vista
 70
     0
 62
     2
  6
Continuous
370
    -3
390
7
1001
AcAecLayerStandard
1000

1000

  0
LAYER
  5
256
330
8A
100
AcDbSymbolTableRecord
100
AcDbLayerTableRecord
  2
CORTE
 70
     0
 62
     1
  6
Continuous
370
    -3
390
7
  0
LAYER
  5
40E
330
8A
100
AcDbSymbolTableRecord
100
AcDbLayerTableRecord
  2
COTAS
 70
     0
 62
     4
  6
Continuous
370
    -3
390
7
  0
LAYER
  5
594
330
8A
100
AcDbSymbolTableRecord
100
AcDbLayerTableRecord
  2
MARCO
 70
     0
 62
     4
  6
Continuous
370
    -3
390
7
  0
LAYER
  5
B5A
330
8A
100
AcDbSymbolTableRecord
100
AcDbLayerTableRecord
  2
TRAMA
 70
     0
 62
     4
  6
Continuous
370
    -3
390
7
  0
ENDTAB
  0
TABLE
  2
STYLE
  5
8F
330
0
100
AcDbSymbolTable
 70
     5
  0
STYLE
  5
1A
330
8F
100
AcDbSymbolTableRecord
100
AcDbTextStyleTableRecord
  2
Standard
 70
     0
 40
0.0
 41
1.0
 50
0.0
 71
     0
 42
2.5
  3
txt
  4

  0
STYLE
  5
20
330
8F
100
AcDbSymbolTableRecord
100
AcDbTextStyleTableRecord
  2
ROMANS
 70
     0
 40
0.0
 41
1.0
 50
0.0
 71
     0
 42
2.5
  3
romans
  4

  0
STYLE
  5
28
330
8F
100
AcDbSymbolTableRecord
100
AcDbTextStyleTableRecord
  2
Arial
 70
     0
 40
0.0
 41
1.0
 50
0.0
 71
     0
 42
0.25
  3
ARIAL.TTF
  4

1001
ACAD
1000
Arial
1071
       34
  0
STYLE
  5
26
330
8F
100
AcDbSymbolTableRecord
100
AcDbTextStyleTableRecord
  2
style1
 70
     0
 40
0.0
 41
1.0
 50
0.0
 71
     0
 42
0.005
  3
TIMES.TTF
  4

1001
ACAD
1000
Times New Roman
1071
       18
  0
STYLE
  5
595
330
8F
100
AcDbSymbolTableRecord
100
AcDbTextStyleTableRecord
  2
EUROROMANOBLIQUE
 70
     0
 40
0.0
 41
1.0
 50
0.0
 71
     0
 42
2.5
  3
euro____.pfb
  4

  0
ENDTAB
  0
TABLE
  2
VIEW
  5
94
330
0
100
AcDbSymbolTable
 70
     2
  0
ENDTAB
  0
TABLE
  2
UCS
  5
95
330
0
100
AcDbSymbolTable
 70
     0
  0
ENDTAB
  0
TABLE
  2
APPID
  5
98
330
0
100
AcDbSymbolTable
 70
     9
  0
APPID
  5
1B
330
98
100
AcDbSymbolTableRecord
100
AcDbRegAppTableRecord
  2
ACAD
 70
     0
  0
APPID
  5
34
330
98
100
AcDbSymbolTableRecord
100
AcDbRegAppTableRecord
  2
ACAD_DSTYLE_DIMJOGGED_JOGANGLE_SYMBOL
 70
     0
  0
APPID
  5
F
330
98
100
AcDbSymbolTableRecord
100
AcDbRegAppTableRecord
  2
AcAecLayerStandard
 70
     0
  0
APPID
  5
85
330
98
100
AcDbSymbolTableRecord
100
AcDbRegAppTableRecord
  2
ACAD_PSEXT
 70
     0
  0
APPID
  5
BA
330
98
100
AcDbSymbolTableRecord
100
AcDbRegAppTableRecord
  2
ACAD_DSTYLE_DIMEXT_LENGTH
 70
     0
  0
APPID
  5
101
330
98
100
AcDbSymbolTableRecord
100
AcDbRegAppTableRecord
  2
ACAD_EXEMPT_FROM_CAD_STANDARDS
 70
     0
  0
APPID
  5
102
330
98
100
AcDbSymbolTableRecord
100
AcDbRegAppTableRecord
  2
ACAD_DSTYLE_DIM_LINETYPE
 70
     0
  0
APPID
  5
103
330
98
100
AcDbSymbolTableRecord
100
AcDbRegAppTableRecord
  2
ACAD_DSTYLE_DIM_EXT1_LINETYPE
 70
     0
  0
APPID
  5
104
330
98
100
AcDbSymbolTableRecord
100
AcDbRegAppTableRecord
  2
ACAD_DSTYLE_DIM_EXT2_LINETYPE
 70
     0
  0
ENDTAB
  0
TABLE
  2
DIMSTYLE
  5
99
330
0
100
AcDbSymbolTable
 70
     8
100
AcDbDimStyleTable
 71
     2
340
2F
340
9A
  0
DIMSTYLE
105
9A
330
99
100
AcDbSymbolTableRecord
100
AcDbDimStyleTableRecord
  2
ISO-25
 70
     0
 41
2.5
 42
0.625
 43
3.75
 44
1.25
 73
     0
 74
     0
 77
     1
 78
     8
140
2.5
141
2.5
143
0.03937007874016
147
0.625
171
     3
172
     1
271
     2
272
     2
274
     3
278
    44
283
     0
284
     8
340
1A
  0
DIMSTYLE
105
2F
102
{ACAD_REACTORS
330
28F7
330
2912
102
}
330
99
100
AcDbSymbolTableRecord
100
AcDbDimStyleTableRecord
  2
Bovelacci
 70
     0
 40
0.001
 41
1.5
140
3.0
141
0.0
147
2.0
176
     5
177
     5
178
     4
271
     2
272
     2
279
     2
340
20
342
30
1001
ACAD_DSTYLE_DIMJOGGED_JOGANGLE_SYMBOL
1070
   384
1040
0.7853981633974483
1001
ACAD_DSTYLE_DIMEXT_LENGTH
1070
   378
1040
0.18
  0
DIMSTYLE
105
194
330
99
100
AcDbSymbolTableRecord
100
AcDbDimStyleTableRecord
  2
STANDARD
 70
     0
340
1A
  0
DIMSTYLE
105
4EB
330
99
100
AcDbSymbolTableRecord
100
AcDbDimStyleTableRecord
  2
Dim 1-100
 70
     0
 40
0.1
 41
1.5
 42
0.0
 43
5.0
 44
1.25
 45
0.005
 46
1.25
 73
     0
 74
     0
 77
     1
 78
     9
140
2.0
141
2.5
147
1.0
172
     1
174
     1
179
     2
279
     2
289
     2
340
20
342
30
  0
DIMSTYLE
105
4EC
330
99
100
AcDbSymbolTableRecord
100
AcDbDimStyleTableRecord
  2
Dim 1-50
 70
     0
 40
0.05
 41
1.5
 42
0.0
 43
5.0
 44
1.25
 45
0.005
 46
1.25
 73
     0
 74
     0
 77
     1
 78
     9
140
2.0
141
2.5
147
1.0
172
     1
174
     1
179
     2
279
     2
289
     2
340
20
342
30
  0
DIMSTYLE
105
4ED
330
99
100
AcDbSymbolTableRecord
100
AcDbDimStyleTableRecord
  2
Dim 1-200
 70
     0
 40
0.2
 41
1.5
 42
0.0
 43
5.0
 44
1.25
 45
0.005
 46
1.25
 73
     0
 74
     0
 77
     1
 78
     9
140
2.0
141
2.5
147
1.0
172
     1
174
     1
179
     2
271
     2
272
     2
279
     2
289
     2
340
20
342
30
  0
DIMSTYLE
105
4EE
330
99
100
AcDbSymbolTableRecord
100
AcDbDimStyleTableRecord
  2
AEC Scale - Italiano
 70
     0
 41
1.0
 42
10.0
 43
10.0
 44
10.0
 73
     0
 74
     0
 75
     1
 76
     1
 77
     1
140
10.0
141
1.0
147
10.0
173
     1
271
     0
272
     0
279
     2
340
1A
343
4E6
344
4E0
  0
ENDTAB
  0
TABLE
  2
BLOCK_RECORD
  5
1
330
0
100
AcDbSymbolTable
 70
    32
  0
BLOCK_RECORD
  5
2
102
{ACAD_XDICTIONARY
360
3
102
}
330
1
100
AcDbSymbolTableRecord
100
AcDbBlockTableRecord
  2
*Model_Space
340
77
  0
BLOCK_RECORD
  5
79
330
1
100
AcDbSymbolTableRecord
100
AcDbBlockTableRecord
  2
*Paper_Space
340
82
  0
BLOCK_RECORD
  5
86
330
1
100
AcDbSymbolTableRecord
100
AcDbBlockTableRecord
  2
*Paper_Space0
340
89
  0
BLOCK_RECORD
  5
30
330
1
100
AcDbSymbolTableRecord
100
AcDbBlockTableRecord
  2
_ArchTick
340
0
310
2800000020000000200000000100080000000000000400000000000000000000000000000000000000000000000080000080000000808000800000008000800080800000C0C0C000C0DCC000F0CAA6000020400000206000002080000020A0000020C0000020E00000400000004020000040400000406000004080000040A0
310
000040C0000040E00000600000006020000060400000606000006080000060A0000060C0000060E00000800000008020000080400000806000008080000080A0000080C0000080E00000A0000000A0200000A0400000A0600000A0800000A0A00000A0C00000A0E00000C0000000C0200000C0400000C0600000C0800000C0
310
A00000C0C00000C0E00000E0000000E0200000E0400000E0600000E0800000E0A00000E0C00000E0E00040000000400020004000400040006000400080004000A0004000C0004000E00040200000402020004020400040206000402080004020A0004020C0004020E000404000004040200040404000404060004040800040
310
40A0004040C0004040E00040600000406020004060400040606000406080004060A0004060C0004060E00040800000408020004080400040806000408080004080A0004080C0004080E00040A0000040A0200040A0400040A0600040A0800040A0A00040A0C00040A0E00040C0000040C0200040C0400040C0600040C08000
310
40C0A00040C0C00040C0E00040E0000040E0200040E0400040E0600040E0800040E0A00040E0C00040E0E00080000000800020008000400080006000800080008000A0008000C0008000E00080200000802020008020400080206000802080008020A0008020C0008020E00080400000804020008040400080406000804080
310
008040A0008040C0008040E00080600000806020008060400080606000806080008060A0008060C0008060E00080800000808020008080400080806000808080008080A0008080C0008080E00080A0000080A0200080A0400080A0600080A0800080A0A00080A0C00080A0E00080C0000080C0200080C0400080C0600080C0
310
800080C0A00080C0C00080C0E00080E0000080E0200080E0400080E0600080E0800080E0A00080E0C00080E0E000C0000000C0002000C0004000C0006000C0008000C000A000C000C000C000E000C0200000C0202000C0204000C0206000C0208000C020A000C020C000C020E000C0400000C0402000C0404000C0406000C0
310
408000C040A000C040C000C040E000C0600000C0602000C0604000C0606000C0608000C060A000C060C000C060E000C0800000C0802000C0804000C0806000C0808000C080A000C080C000C080E000C0A00000C0A02000C0A04000C0A06000C0A08000C0A0A000C0A0C000C0A0E000C0C00000C0C02000C0C04000C0C06000
310
C0C08000C0C0A000F0FBFF00A4A0A000808080000000FF0000FF000000FFFF00FF000000FF00FF00FFFF0000FFFFFF00000000FF000000000000000000000000000000000000000000000000000000000000FF00FF00000000000000000000000000000000000000000000000000000000FF000000FF000000000000000000
310
0000000000000000000000000000000000FF0000000000FF0000000000000000000000000000000000000000000000000000FF0000000000FF0000000000000000000000000000000000000000000000000000FF0000000000FF0000000000000000000000000000000000000000000000000000FF0000000000FF00000000
310
00000000000000000000000000000000000000000000FF0000000000FF0000000000000000000000000000000000000000000000000000FF0000000000FF0000000000000000000000000000000000000000000000000000FF0000000000FF0000000000000000000000000000000000000000000000000000FF0000000000
310
FF0000000000000000000000000000000000000000000000000000FF0000000000FF0000000000000000000000000000000000000000000000000000FF0000000000FF0000000000000000000000000000000000000000000000000000FF0000000000FF0000000000000000000000000000000000000000000000000000FF
310
0000000000FF0000000000000000000000000000000000000000000000000000FF0000000000FF0000000000000000000000000000000000000000000000000000FF0000000000FF0000000000000000000000000000000000000000000000000000FF0000000000FF00000000000000000000000000000000000000000000
310
00000000FF0000000000FF0000000000000000000000000000000000000000000000000000FF0000000000FF0000000000000000000000000000000000000000000000000000FF0000000000FF0000000000000000000000000000000000000000000000000000FF0000000000FF0000000000000000000000000000000000
310
000000000000000000FF0000000000FF0000000000000000000000000000000000000000000000000000FF0000000000FF0000000000000000000000000000000000000000000000000000FF0000000000FF0000000000000000000000000000000000000000000000000000FF0000000000FF000000000000000000000000
310
0000000000000000000000000000FF0000000000FF0000000000000000000000000000000000000000000000000000FF0000000000FF0000000000000000000000000000000000000000000000000000FF0000000000FF0000000000000000000000000000000000000000000000000000FF000000FF000000000000000000
310
00000000000000000000000000000000000000FF00FF000000000000000000000000000000000000000000000000000000000000FF000000
102
{BLKREFS
331
1F38
331
1F39
331
1F6D
331
1F6E
331
2122
331
2123
331
213C
331
213D
331
217D
331
217E
331
22B5
331
22B6
331
22C2
331
22C3
331
23F6
331
23F7
331
2410
331
2411
331
242A
331
242B
331
26C7
331
26C8
331
26E1
331
26E2
331
26FB
331
26FC
331
290A
331
290B
331
2924
331
2925
102
}
  0
BLOCK_RECORD
  5
179
330
1
100
AcDbSymbolTableRecord
100
AcDbBlockTableRecord
  2
DOT
340
0
  0
BLOCK_RECORD
  5
213
330
1
100
AcDbSymbolTableRecord
100
AcDbBlockTableRecord
  2
ELEMENT
340
0
102
{BLKREFS
331
244
102
}
  0
BLOCK_RECORD
  5
235
330
1
100
AcDbSymbolTableRecord
100
AcDbBlockTableRecord
  2
NOM-J
340
0
  0
BLOCK_RECORD
  5
3FB
330
1
100
AcDbSymbolTableRecord
100
AcDbBlockTableRecord
  2
NOM-QR
340
0
  0
BLOCK_RECORD
  5
4E0
330
1
100
AcDbSymbolTableRecord
100
AcDbBlockTableRecord
  2
_Arrivo
340
0
310
2800000020000000200000000100080000000000000400000000000000000000000000000000000000000000000080000080000000808000800000008000800080800000C0C0C000C0DCC000F0CAA6000020400000206000002080000020A0000020C0000020E00000400000004020000040400000406000004080000040A0
310
000040C0000040E00000600000006020000060400000606000006080000060A0000060C0000060E00000800000008020000080400000806000008080000080A0000080C0000080E00000A0000000A0200000A0400000A0600000A0800000A0A00000A0C00000A0E00000C0000000C0200000C0400000C0600000C0800000C0
310
A00000C0C00000C0E00000E0000000E0200000E0400000E0600000E0800000E0A00000E0C00000E0E00040000000400020004000400040006000400080004000A0004000C0004000E00040200000402020004020400040206000402080004020A0004020C0004020E000404000004040200040404000404060004040800040
310
40A0004040C0004040E00040600000406020004060400040606000406080004060A0004060C0004060E00040800000408020004080400040806000408080004080A0004080C0004080E00040A0000040A0200040A0400040A0600040A0800040A0A00040A0C00040A0E00040C0000040C0200040C0400040C0600040C08000
310
40C0A00040C0C00040C0E00040E0000040E0200040E0400040E0600040E0800040E0A00040E0C00040E0E00080000000800020008000400080006000800080008000A0008000C0008000E00080200000802020008020400080206000802080008020A0008020C0008020E00080400000804020008040400080406000804080
310
008040A0008040C0008040E00080600000806020008060400080606000806080008060A0008060C0008060E00080800000808020008080400080806000808080008080A0008080C0008080E00080A0000080A0200080A0400080A0600080A0800080A0A00080A0C00080A0E00080C0000080C0200080C0400080C0600080C0
310
800080C0A00080C0C00080C0E00080E0000080E0200080E0400080E0600080E0800080E0A00080E0C00080E0E000C0000000C0002000C0004000C0006000C0008000C000A000C000C000C000E000C0200000C0202000C0204000C0206000C0208000C020A000C020C000C020E000C0400000C0402000C0404000C0406000C0
310
408000C040A000C040C000C040E000C0600000C0602000C0604000C0606000C0608000C060A000C060C000C060E000C0800000C0802000C0804000C0806000C0808000C080A000C080C000C080E000C0A00000C0A02000C0A04000C0A06000C0A08000C0A0A000C0A0C000C0A0E000C0C00000C0C02000C0C04000C0C06000
310
C0C08000C0C0A000F0FBFF00A4A0A000808080000000FF0000FF000000FFFF00FF000000FF00FF00FFFF0000FFFFFF00000000000000000000000000000000000000000000000000000000000000000000000000000000000000FF0000000000000000000000000000000000000000000000000000000000000000FF000000
310
00000000000000000000000000000000000000000000000000000000FF0000000000000000000000000000000000000000000000000000000000000000FF00000000000000000000000000000000000000000000000000000000000000FF0000000000000000000000000000000000000000000000000000000000000000FF
310
0000000000000000000000000000000000000000000000000000000000000000FF00000000000000000000000000000000000000000000000000000000000000FF0000000000000000000000000000000000000000000000000000000000000000FF0000000000000000000000000000000000000000000000000000000000
310
0000FF0000000000000000000000000000000000000000000000000000000000000000FF00000000000000000000000000000000000000000000000000000000000000FF0000000000000000000000000000000000000000000000000000000000000000FF0000FF0000000000000000000000000000000000000000000000
310
000000000000FFFF000000000000000000000000000000000000000000000000000000000000FFFF00000000000000000000000000000000000000000000000000000000FFFFFFFFFFFF00000000000000000000000000000000000000000000000000000000FFFF0000000000000000000000000000000000000000000000
310
000000000000FF0000FF000000000000000000000000000000000000000000000000000000FF00000000000000000000000000000000000000000000000000000000000000FF000000000000000000000000000000000000000000000000000000000000FF0000000000000000000000000000000000000000000000000000
310
0000000000FF000000000000000000000000000000000000000000000000000000000000FF00000000000000000000000000000000000000000000000000000000000000FF000000000000000000000000000000000000000000000000000000000000FF000000000000000000000000000000000000000000000000000000
310
000000FF00000000000000000000000000000000000000000000000000000000000000FF000000000000000000000000000000000000000000000000000000000000FF00000000000000000000000000000000000000000000000000000000000000FF00000000000000000000000000000000000000000000000000000000
310
0000FF0000000000000000000000000000000000000000000000000000000000000000000000000000000000000000000000000000000000
  0
BLOCK_RECORD
  5
4E6
330
1
100
AcDbSymbolTableRecord
100
AcDbBlockTableRecord
  2
_Partenza
340
0
310
2800000020000000200000000100080000000000000400000000000000000000000000000000000000000000000080000080000000808000800000008000800080800000C0C0C000C0DCC000F0CAA6000020400000206000002080000020A0000020C0000020E00000400000004020000040400000406000004080000040A0
310
000040C0000040E00000600000006020000060400000606000006080000060A0000060C0000060E00000800000008020000080400000806000008080000080A0000080C0000080E00000A0000000A0200000A0400000A0600000A0800000A0A00000A0C00000A0E00000C0000000C0200000C0400000C0600000C0800000C0
310
A00000C0C00000C0E00000E0000000E0200000E0400000E0600000E0800000E0A00000E0C00000E0E00040000000400020004000400040006000400080004000A0004000C0004000E00040200000402020004020400040206000402080004020A0004020C0004020E000404000004040200040404000404060004040800040
310
40A0004040C0004040E00040600000406020004060400040606000406080004060A0004060C0004060E00040800000408020004080400040806000408080004080A0004080C0004080E00040A0000040A0200040A0400040A0600040A0800040A0A00040A0C00040A0E00040C0000040C0200040C0400040C0600040C08000
310
40C0A00040C0C00040C0E00040E0000040E0200040E0400040E0600040E0800040E0A00040E0C00040E0E00080000000800020008000400080006000800080008000A0008000C0008000E00080200000802020008020400080206000802080008020A0008020C0008020E00080400000804020008040400080406000804080
310
008040A0008040C0008040E00080600000806020008060400080606000806080008060A0008060C0008060E00080800000808020008080400080806000808080008080A0008080C0008080E00080A0000080A0200080A0400080A0600080A0800080A0A00080A0C00080A0E00080C0000080C0200080C0400080C0600080C0
310
800080C0A00080C0C00080C0E00080E0000080E0200080E0400080E0600080E0800080E0A00080E0C00080E0E000C0000000C0002000C0004000C0006000C0008000C000A000C000C000C000E000C0200000C0202000C0204000C0206000C0208000C020A000C020C000C020E000C0400000C0402000C0404000C0406000C0
310
408000C040A000C040C000C040E000C0600000C0602000C0604000C0606000C0608000C060A000C060C000C060E000C0800000C0802000C0804000C0806000C0808000C080A000C080C000C080E000C0A00000C0A02000C0A04000C0A06000C0A08000C0A0A000C0A0C000C0A0E000C0C00000C0C02000C0C04000C0C06000
310
C0C08000C0C0A000F0FBFF00A4A0A000808080000000FF0000FF000000FFFF00FF000000FF00FF00FFFF0000FFFFFF0000000000000000000000000000000000000000000000000000000000000000000000000000000000000000000000000000000000000000000000000000000000000000000000000000000000000000
310
000000000000000000000000000000000000000000000000000000000000000000000000000000000000000000000000000000000000000000000000000000000000000000000000000000000000000000000000000000000000000000000000000000000000000000000000000000000000FFFFFFFFFFFFFFFFFFFFFFFFFF
310
FFFFFFFFFFFFFFFFFFFFFFFFFFFFFFFFFF0000000000000000000000000000000000000000000000000000000000000000000000000000000000000000000000000000000000000000000000000000000000000000000000000000000000000000000000000000000000000000000000000000000000000000000000000000
310
00000000000000000000000000000000000000000000000000000000000000000000000000000000000000000000000000000000000000000000000000000000000000000000000000000000000000000000000000000000000000000000000000000000000000000000000000000000000000000000000000000000000000
310
00000000000000000000000000000000000000000000000000000000000000000000000000000000000000000000000000000000000000000000000000000000000000000000000000000000000000000000000000000000000000000000000000000000000000000000000000000000000000000000000000000000000000
310
00000000000000000000000000000000000000000000000000000000000000000000000000000000000000000000000000000000000000000000000000000000000000000000000000000000000000000000000000000000000000000000000000000000000000000000000000000000000000000000000000000000000000
310
000000000000000000000000000000000000000000000000000000000000000000000000000000000000000000000000000000000000000000000000000000000000000000000000000000000000000000000000000000FFFFFFFFFFFFFFFFFFFFFFFFFFFFFFFFFFFFFFFFFFFFFFFFFFFFFFFFFFFF00000000000000000000
310
00000000000000000000000000000000000000000000000000000000000000000000000000000000000000000000000000000000000000000000000000000000000000000000000000000000000000000000000000000000000000000000000000000000000000000000000000000000000000000000000000000000000000
310
0000000000000000000000000000000000000000000000000000000000000000000000000000000000000000000000000000000000000000
  0
BLOCK_RECORD
  5
73D
330
1
100
AcDbSymbolTableRecord
100
AcDbBlockTableRecord
  2
A$C6CE44357
340
0
1001
ACAD
1000
DesignCenter Data
1002
{
1070
     1
1070
     0
1002
}
  0
BLOCK_RECORD
  5
B69
102
{ACAD_XDICTIONARY
360
B6D
102
}
330
1
100
AcDbSymbolTableRecord
100
AcDbBlockTableRecord
  2
A$C263D6B6A
340
0
1001
ACAD
1000
DesignCenter Data
1002
{
1070
     1
1070
     4
1002
}
  0
BLOCK_RECORD
  5
BFB
330
1
100
AcDbSymbolTableRecord
100
AcDbBlockTableRecord
  2
*X10
340
0
102
{BLKREFS
331
C22
102
}
  0
BLOCK_RECORD
  5
C1F
330
1
100
AcDbSymbolTableRecord
100
AcDbBlockTableRecord
  2
A$C6C65579B
340
0
1001
ACAD
1000
DesignCenter Data
1002
{
1070
     1
1070
     0
1002
}
  0
BLOCK_RECORD
  5
23E4
330
1
100
AcDbSymbolTableRecord
100
AcDbBlockTableRecord
  2
*D19
340
0
  0
BLOCK_RECORD
  5
2418
330
1
100
AcDbSymbolTableRecord
100
AcDbBlockTableRecord
  2
*D21
340
0
  0
BLOCK_RECORD
  5
26B5
330
1
100
AcDbSymbolTableRecord
100
AcDbBlockTableRecord
  2
*D24
340
0
  0
BLOCK_RECORD
  5
26CF
330
1
100
AcDbSymbolTableRecord
100
AcDbBlockTableRecord
  2
*D25
340
0
  0
BLOCK_RECORD
  5
26E9
330
1
100
AcDbSymbolTableRecord
100
AcDbBlockTableRecord
  2
*D26
340
0
  0
BLOCK_RECORD
  5
28F8
330
1
100
AcDbSymbolTableRecord
100
AcDbBlockTableRecord
  2
*D30
340
0
  0
BLOCK_RECORD
  5
2913
330
1
100
AcDbSymbolTableRecord
100
AcDbBlockTableRecord
  2
*D31
340
0
  0
ENDTAB
  0
ENDSEC
  0
SECTION
  2
BLOCKS
  0
BLOCK
  5
5
330
2
100
AcDbEntity
  8
0
100
AcDbBlockBegin
  2
*Model_Space
 70
     0
 10
0.0
 20
0.0
 30
0.0
  3
*Model_Space
  1

  0
ENDBLK
  5
76
330
2
100
AcDbEntity
  8
0
100
AcDbBlockEnd
  0
BLOCK
  5
7A
330
79
100
AcDbEntity
 67
     1
  8
0
100
AcDbBlockBegin
  2
*Paper_Space
 70
     0
 10
0.0
 20
0.0
 30
0.0
  3
*Paper_Space
  1

  0
ENDBLK
  5
81
330
79
100
AcDbEntity
 67
     1
  8
0
100
AcDbBlockEnd
  0
BLOCK
  5
87
330
86
100
AcDbEntity
 67
     1
  8
0
100
AcDbBlockBegin
  2
*Paper_Space0
 70
     0
 10
0.0
 20
0.0
 30
0.0
  3
*Paper_Space0
  1

  0
ENDBLK
  5
88
330
86
100
AcDbEntity
 67
     1
  8
0
100
AcDbBlockEnd
  0
BLOCK
  5
31
330
30
100
AcDbEntity
  8
0
 62
     1
100
AcDbBlockBegin
  2
_ArchTick
 70
     0
 10
0.0
 20
0.0
 30
0.0
  3
_ArchTick
  1

  0
LWPOLYLINE
  5
32
330
30
100
AcDbEntity
  8
0
  6
ByBlock
 62
     0
100
AcDbPolyline
 90
        2
 70
     0
 43
0.15
 10
-0.5
 20
-0.5
 10
0.5
 20
0.5
  0
ENDBLK
  5
33
330
30
100
AcDbEntity
  8
0
 62
     1
100
AcDbBlockEnd
  0
BLOCK
  5
17A
330
179
100
AcDbEntity
  8
0
100
AcDbBlockBegin
  2
DOT
 70
     0
 10
0.0
 20
0.0
 30
0.0
  3
DOT
  1

  0
LWPOLYLINE
  5
17B
330
179
100
AcDbEntity
  8
0
  6
ByBlock
 62
     0
100
AcDbPolyline
 90
        2
 70
     1
 43
0.5
 10
-0.25
 20
0.0
 42
1.0
 10
0.25
 20
0.0
 42
1.0
  0
LINE
  5
17C
330
179
100
AcDbEntity
  8
0
  6
ByBlock
 62
     0
100
AcDbLine
 10
-0.5
 20
0.0
 30
0.0
 11
-1.0
 21
0.0
 31
0.0
  0
ENDBLK
  5
17D
330
179
100
AcDbEntity
  8
0
100
AcDbBlockEnd
  0
BLOCK
  5
214
330
213
100
AcDbEntity
  8
0
100
AcDbBlockBegin
  2
ELEMENT
 70
     0
 10
0.0
 20
0.0
 30
0.0
  3
ELEMENT
  1

  0
LINE
  5
215
330
213
100
AcDbEntity
  8
CORTE
 62
     1
100
AcDbLine
 10
0.0287752548522349
 20
0.037775254852221
 30
0.0
 11
0.0062928932188697
 21
0.015292893218799
 31
0.0
  0
ARC
  5
216
330
213
100
AcDbEntity
  8
CORTE
 62
     1
100
AcDbCircle
 10
0.0148333333333994
 20
0.0291666666666402
 30
0.0
 40
0.0191847740553366
100
AcDbArc
 50
270.4730994291238
 51
359.5269005707907
  0
LINE
  5
217
330
213
100
AcDbEntity
  8
CORTE
100
AcDbLine
 10
0.0130000000000337
 20
-0.0000000000000568
 30
0.0
 11
0.0099999999999909
 21
0.0000000000000284
 31
0.0
  0
LINE
  5
218
330
213
100
AcDbEntity
  8
CORTE
100
AcDbLine
 10
-0.0009999999999764
 20
0.0010000000000048
 30
0.0
 11
-0.0009999999999764
 21
0.0140000000000384
 31
0.0
  0
ARC
  5
219
330
213
100
AcDbEntity
  8
CORTE
100
AcDbCircle
 10
0.0
 20
0.0010000000000048
 30
0.0
 40
0.001
100
AcDbArc
 50
180.0
 51
269.9999999991858
  0
LINE
  5
21A
330
213
100
AcDbEntity
  8
CORTE
100
AcDbLine
 10
0.0040000000000191
 20
-0.0039999999999623
 30
0.0
 11
0.0040000000000191
 21
-0.0010000000000332
 31
0.0
  0
LINE
  5
21B
330
213
100
AcDbEntity
  8
CORTE
100
AcDbLine
 10
0.0090000000000146
 20
-0.0039999999999907
 30
0.0
 11
0.0090000000000146
 21
-0.0009999999999764
 31
0.0
  0
ARC
  5
21C
330
213
100
AcDbEntity
  8
CORTE
100
AcDbCircle
 10
0.0049999999999955
 20
-0.0039999999999623
 30
0.0
 40
0.001
100
AcDbArc
 50
180.0
 51
269.9999999996743
  0
LINE
  5
21D
330
213
100
AcDbEntity
  8
CORTE
100
AcDbLine
 10
0.0080000000000382
 20
-0.0049999999999955
 30
0.0
 11
0.0049999999999955
 21
-0.004999999999967
 31
0.0
  0
ARC
  5
21E
330
213
100
AcDbEntity
  8
CORTE
100
AcDbCircle
 10
0.0080000000000382
 20
-0.0039999999999907
 30
0.0
 40
0.001
100
AcDbArc
 50
269.9999999995929
 51
0.000000000000007
  0
LINE
  5
21F
330
213
100
AcDbEntity
  8
CORTE
100
AcDbLine
 10
0.0030000000000427
 20
-0.0000000000000284
 30
0.0
 11
0.0
 21
0.0
 31
0.0
  0
ARC
  5
220
330
213
100
AcDbEntity
  8
CORTE
100
AcDbCircle
 10
0.0030000000000427
 20
-0.0010000000000332
 30
0.0
 40
0.001
100
AcDbArc
 50
0.000000000000007
 51
89.99999999967434
  0
ARC
  5
221
330
213
100
AcDbEntity
  8
CORTE
100
AcDbCircle
 10
0.0099999999999909
 20
-0.0009999999999764
 30
0.0
 40
0.001
100
AcDbArc
 50
89.99999999967434
 51
180.0
  0
ARC
  5
222
330
213
100
AcDbEntity
  8
CORTE
100
AcDbCircle
 10
0.0
 20
0.0140000000000384
 30
0.0
 40
0.001
100
AcDbArc
 50
89.99999999975274
 51
180.0
  0
LINE
  5
223
330
213
100
AcDbEntity
  8
CORTE
100
AcDbLine
 10
0.0055857864376776
 20
0.0149999999999864
 30
0.0
 11
0.0
 21
0.0150000000000432
 31
0.0
  0
ARC
  5
224
330
213
100
AcDbEntity
  8
CORTE
 62
     1
100
AcDbCircle
 10
0.0055857864376776
 20
0.0159999999999911
 30
0.0
 40
0.001
100
AcDbArc
 50
269.9999999997674
 51
315.0000000000357
  0
LINE
  5
225
330
213
100
AcDbEntity
  8
CORTE
100
AcDbLine
 10
0.01400000000001
 20
0.0009999999999479
 30
0.0
 11
0.01400000000001
 21
0.0089825806863075
 31
0.0
  0
ARC
  5
226
330
213
100
AcDbEntity
  8
CORTE
100
AcDbCircle
 10
0.0130000000000337
 20
0.0009999999999479
 30
0.0
 40
0.001
100
AcDbArc
 50
269.9999999991858
 51
0.000000000000007
  0
ARC
  5
227
330
213
100
AcDbEntity
  8
CORTE
 62
     1
100
AcDbCircle
 10
0.0149999999999864
 20
0.0089825806862791
 30
0.0
 40
0.001
100
AcDbArc
 50
90.47309942941524
 51
179.9999999983715
  0
LINE
  5
228
330
213
100
AcDbEntity
  8
CORTE
100
AcDbLine
 10
0.0440000000000964
 20
0.0339999999999918
 30
0.0
 11
0.0440000000000396
 21
0.0310000000000059
 31
0.0
  0
ARC
  5
229
330
213
100
AcDbEntity
  8
CORTE
100
AcDbCircle
 10
0.0430000000000632
 20
0.0310000000000059
 30
0.0
 40
0.001
100
AcDbArc
 50
270.0
 51
0.000000000000007
  0
ARC
  5
22A
330
213
100
AcDbEntity
  8
CORTE
 62
     1
100
AcDbCircle
 10
0.0350174193137605
 20
0.0290000000000248
 30
0.0
 40
0.001
100
AcDbArc
 50
90.00000000325689
 51
179.5269005705982
  0
LINE
  5
22B
330
213
100
AcDbEntity
  8
CORTE
100
AcDbLine
 10
0.0430000000000632
 20
0.0300000000000011
 30
0.0
 11
0.0350174193137036
 21
0.0300000000000296
 31
0.0
  0
LINE
  5
22C
330
213
100
AcDbEntity
  8
CORTE
100
AcDbLine
 10
0.047999999999945
 20
0.0400000000000205
 30
0.0
 11
0.0300000000000296
 21
0.0400000000000205
 31
0.0
  0
ARC
  5
22D
330
213
100
AcDbEntity
  8
CORTE
 62
     1
100
AcDbCircle
 10
0.0300000000000296
 20
0.0390000000000157
 30
0.0
 40
0.001
100
AcDbArc
 50
90.0
 51
195.0000055997392
  0
ARC
  5
22E
330
213
100
AcDbEntity
  8
CORTE
 62
     1
100
AcDbCircle
 10
0.0280681480710428
 20
0.0384823616334131
 30
0.0
 40
0.001
100
AcDbArc
 50
315.0
 51
15.00000559812761
  0
LINE
  5
22F
330
213
100
AcDbEntity
  8
CORTE
100
AcDbLine
 10
0.0489999999998645
 20
0.0360000000000582
 30
0.0
 11
0.0489999999999213
 21
0.0389999999999873
 31
0.0
  0
LINE
  5
230
330
213
100
AcDbEntity
  8
CORTE
100
AcDbLine
 10
0.0480000000000018
 20
0.0350000000000534
 30
0.0
 11
0.0450000000000728
 21
0.0349999999999966
 31
0.0
  0
ARC
  5
231
330
213
100
AcDbEntity
  8
CORTE
100
AcDbCircle
 10
0.0480000000000018
 20
0.0360000000000582
 30
0.0
 40
0.001
100
AcDbArc
 50
270.0000000004071
 51
0.000000000000007
  0
ARC
  5
232
330
213
100
AcDbEntity
  8
CORTE
100
AcDbCircle
 10
0.0450000000000728
 20
0.0339999999999918
 30
0.0
 40
0.001
100
AcDbArc
 50
90.0
 51
180.0
  0
ARC
  5
233
330
213
100
AcDbEntity
  8
CORTE
100
AcDbCircle
 10
0.047999999999945
 20
0.0390000000000157
 30
0.0
 40
0.001
100
AcDbArc
 50
359.9999999991858
 51
90.0
  0
ENDBLK
  5
234
330
213
100
AcDbEntity
  8
0
100
AcDbBlockEnd
  0
BLOCK
  5
236
330
235
100
AcDbEntity
  8
0
 62
     4
100
AcDbBlockBegin
  2
NOM-J
 70
     0
 10
0.0
 20
0.0
 30
0.0
  3
NOM-J
  1

  0
LINE
  5
237
330
235
100
AcDbEntity
  8
Vista
 62
     4
100
AcDbLine
 10
0.0211489998446837
 20
0.0224999999999795
 30
0.0
 11
0.093805067538824
 21
0.0379594292031982
 31
0.0
  0
LINE
  5
238
330
235
100
AcDbEntity
  8
Vista
 62
     4
100
AcDbLine
 10
0.0197074998707194
 20
0.0224999999999795
 30
0.0
 11
0.0923635675646324
 21
0.0379594292032266
 31
0.0
  0
LINE
  5
239
330
235
100
AcDbEntity
  8
Vista
 62
     4
100
AcDbLine
 10
0.0182659998964141
 20
0.0224999999999795
 30
0.0
 11
0.0909220675904408
 21
0.0379594292031982
 31
0.0
  0
LINE
  5
23A
330
235
100
AcDbEntity
  8
Vista
 62
     4
100
AcDbLine
 10
0.0168244999223362
 20
0.0224999999999795
 30
0.0
 11
0.0894805676163628
 21
0.0379594292032266
 31
0.0
  0
LINE
  5
23B
330
235
100
AcDbEntity
  8
Vista
 62
     4
100
AcDbLine
 10
0.0153829999481445
 20
0.0224999999999795
 30
0.0
 11
0.0880390676422849
 21
0.0379594292032266
 31
0.0
  0
LINE
  5
23C
330
235
100
AcDbEntity
  8
Vista
 62
     4
100
AcDbLine
 10
0.0139414999740666
 20
0.0224999999999795
 30
0.0
 11
0.0865975676682069
 21
0.0379594292032266
 31
0.0
  0
LINE
  5
23D
330
235
100
AcDbEntity
  8
Vista
 62
     2
100
AcDbLine
 10
0.0125000000000455
 20
0.022500000000008
 30
0.0
 11
0.0851560676940153
 21
0.0379594292032266
 31
0.0
  0
LINE
  5
23E
330
235
100
AcDbEntity
  8
Vista
 62
     2
100
AcDbLine
 10
0.0218535533905424
 20
0.0223535533905874
 30
0.0
 11
0.0945096210847396
 21
0.0378129825938061
 31
0.0
  0
LINE
  5
23F
330
235
100
AcDbEntity
  8
Vista
 62
     2
100
AcDbLine
 10
0.02150000000006
 20
0.0200000000000387
 30
0.0
 11
0.094359627334427
 21
0.0355027417029987
 31
0.0
  0
LINE
  5
240
330
235
100
AcDbEntity
  8
Vista
 62
     2
100
AcDbLine
 10
0.0190000000000055
 20
0.0175000000000125
 30
0.0
 11
0.0918596273343724
 21
0.0330027417029726
 31
0.0
  0
LINE
  5
241
330
235
100
AcDbEntity
  8
Vista
 62
     2
100
AcDbLine
 10
0.0075428343679391
 20
0.0078574386832884
 30
0.0
 11
0.0801989020703786
 21
0.0233168678888376
 31
0.0
  0
LINE
  5
242
330
235
100
AcDbEntity
  8
Vista
 62
     2
100
AcDbLine
 10
0.0040000000000191
 20
0.0024999999999693
 30
0.0
 11
0.0746560676942068
 21
0.0175338782567849
 31
0.0
  0
LINE
  5
243
330
235
100
AcDbEntity
  8
Vista
 62
     3
100
AcDbLine
 10
0.0018535533906174
 20
0.0001464466094205
 30
0.0
 11
0.074509621085781
 21
0.0156058758136055
 31
0.0
  0
INSERT
  5
244
330
235
100
AcDbEntity
  8
CORTE
 62
     4
100
AcDbBlockReference
  2
ELEMENT
 10
-0.0024999999999977
 20
0.0024999999999977
 30
0.0
 41
0.5
 42
0.5
 43
0.5
  0
LINE
  5
245
330
235
100
AcDbEntity
  8
Vista
 62
     2
100
AcDbLine
 10
-0.0024999999999977
 20
0.0100000000000193
 30
0.0
 11
0.0013108568762163
 21
0.0108108568761622
 31
0.0
  0
ARC
  5
246
330
235
100
AcDbEntity
  8
CORTE
 62
     3
100
AcDbCircle
 10
0.0775727343608992
 20
0.0325427625365364
 30
0.0
 40
0.0095923870276683
100
AcDbArc
 50
278.1349003175446
 51
356.7599311023579
  0
LINE
  5
247
330
235
100
AcDbEntity
  8
CORTE
 62
     3
100
AcDbLine
 10
0.0771560676942045
 20
0.0184594292032045
 30
0.0
 11
0.0771560676942045
 21
0.0224507195463559
 31
0.0
  0
ARC
  5
248
330
235
100
AcDbEntity
  8
CORTE
 62
     3
100
AcDbCircle
 10
0.0751560676941949
 20
0.0174594292032282
 30
0.0
 40
0.0005
100
AcDbArc
 50
89.99999999967434
 51
180.0
  0
LINE
  5
249
330
235
100
AcDbEntity
  8
Vista
 62
     3
100
AcDbLine
 10
0.074509621085781
 20
0.0156058758135771
 30
0.0
 11
0.0746560676941499
 21
0.0156370360599851
 31
0.0
  0
ARC
  5
24A
330
235
100
AcDbEntity
  8
CORTE
100
AcDbCircle
 10
0.0741560676942186
 20
0.0159594292032068
 30
0.0
 40
0.0005
100
AcDbArc
 50
315.0000001496929
 51
0.000000000000007
  0
LINE
  5
24B
330
235
100
AcDbEntity
  8
CORTE
 62
     3
100
AcDbLine
 10
0.0746560676942068
 20
0.0159594292032068
 30
0.0
 11
0.0746560676942068
 21
0.0174594292032282
 31
0.0
  0
ARC
  5
24C
330
235
100
AcDbEntity
  8
CORTE
 62
     3
100
AcDbCircle
 10
0.0766560676942163
 20
0.0184594292032045
 30
0.0
 40
0.0005
100
AcDbArc
 50
269.9999999991858
 51
0.000000000000007
  0
LINE
  5
24D
330
235
100
AcDbEntity
  8
CORTE
 62
     3
100
AcDbLine
 10
0.0766560676942163
 20
0.017959429203188
 30
0.0
 11
0.0751560676941949
 21
0.0179594292032164
 31
0.0
  0
ARC
  5
24E
330
235
100
AcDbEntity
  8
CORTE
 62
     3
100
AcDbCircle
 10
0.0776560676941927
 20
0.0224507195463559
 30
0.0
 40
0.0005
100
AcDbArc
 50
152.521182623883
 51
179.9999999983715
  0
LINE
  5
24F
330
235
100
AcDbEntity
  8
CORTE
 62
     3
100
AcDbLine
 10
0.0946560676941317
 20
0.0359594292032455
 30
0.0
 11
0.0946560676941317
 21
0.03745942920321
 31
0.0
  0
ARC
  5
250
330
235
100
AcDbEntity
  8
CORTE
 62
     3
100
AcDbCircle
 10
0.0916560676942027
 20
0.0334594292032193
 30
0.0
 40
0.0005
100
AcDbArc
 50
270.0
 51
0.000000000000007
  0
ARC
  5
251
330
235
100
AcDbEntity
  8
CORTE
 62
     3
100
AcDbCircle
 10
0.0941560676942004
 20
0.0359594292032455
 30
0.0
 40
0.0005
100
AcDbArc
 50
294.0240004981589
 51
0.000000000000007
  0
LINE
  5
252
330
235
100
AcDbEntity
  8
CORTE
 62
     3
100
AcDbLine
 10
0.0921560676942477
 20
0.0349594292032123
 30
0.0
 11
0.0921560676941908
 21
0.0334594292032193
 31
0.0
  0
LINE
  5
253
330
235
100
AcDbEntity
  8
CORTE
 62
     3
100
AcDbLine
 10
0.0941560676941436
 20
0.0379594292032266
 30
0.0
 11
0.0851560676942427
 21
0.0379594292032266
 31
0.0
  0
ARC
  5
254
330
235
100
AcDbEntity
  8
CORTE
 62
     3
100
AcDbCircle
 10
0.0941560676941436
 20
0.03745942920321
 30
0.0
 40
0.0005
100
AcDbArc
 50
359.9999999991858
 51
90.0
  0
ENDBLK
  5
255
330
235
100
AcDbEntity
  8
0
 62
     4
100
AcDbBlockEnd
  0
BLOCK
  5
3FC
330
3FB
100
AcDbEntity
  8
0
 62
     1
100
AcDbBlockBegin
  2
NOM-QR
 70
     0
 10
0.0
 20
0.0
 30
0.0
  3
NOM-QR
  1

  0
LINE
  5
3FD
330
3FB
100
AcDbEntity
  8
CORTE
 62
     4
100
AcDbLine
 10
0.0184292030348843
 20
0.0200000000000102
 30
0.0
 11
0.0860297709413658
 21
0.0343689442811126
 31
0.0
  0
LINE
  5
3FE
330
3FB
100
AcDbEntity
  8
CORTE
 62
     4
100
AcDbLine
 10
0.0155433624279908
 20
0.0200000000000102
 30
0.0
 11
0.0831439303344155
 21
0.0343689442811126
 31
0.0
  0
LINE
  5
3FF
330
3FB
100
AcDbEntity
  8
CORTE
 62
     4
100
AcDbLine
 10
0.0126575218209837
 20
0.0200000000000102
 30
0.0
 11
0.0802580897274084
 21
0.034368944281141
 31
0.0
  0
LINE
  5
400
330
3FB
100
AcDbEntity
  8
CORTE
 62
     4
100
AcDbLine
 10
0.0097716812139765
 20
0.0200000000000102
 30
0.0
 11
0.077372249120458
 21
0.0343689442811126
 31
0.0
  0
LINE
  5
401
330
3FB
100
AcDbEntity
  8
CORTE
 62
     4
100
AcDbLine
 10
0.0068858406069694
 20
0.0200000000000102
 30
0.0
 11
0.0744864085134509
 21
0.0343689442811126
 31
0.0
  0
LINE
  5
402
330
3FB
100
AcDbEntity
  8
CORTE
 62
     3
100
AcDbLine
 10
0.0081347328614925
 20
0.0017290908471352
 30
0.0
 11
0.0757353007679171
 21
0.0160980351282376
 31
0.0
  0
LINE
  5
403
330
3FB
100
AcDbEntity
  8
CORTE
 62
     3
100
AcDbLine
 10
0.0040000000000191
 20
0.0200000000000102
 30
0.0
 11
0.0716005679065006
 21
0.034368944281141
 31
0.0
  0
LINE
  5
404
330
3FB
100
AcDbEntity
  8
CORTE
 62
     3
100
AcDbLine
 10
0.0200000000000387
 20
0.0200000000000102
 30
0.0
 11
0.0876005679064633
 21
0.0343689442811126
 31
0.0
  0
ARC
  5
405
330
3FB
100
AcDbEntity
  8
CORTE
 62
     1
100
AcDbCircle
 10
0.0
 20
0.0200000000000102
 30
0.0
 40
0.0200000000000102
100
AcDbArc
 50
270.0
 51
0.0
  0
LINE
  5
406
330
3FB
100
AcDbEntity
  8
CORTE
 62
     1
100
AcDbLine
 10
0.0
 20
0.0160000000000196
 30
0.0
 11
0.0
 21
0.0
 31
0.0
  0
LINE
  5
407
330
3FB
100
AcDbEntity
  8
COTAS
 62
     1
100
AcDbLine
 10
0.0200000000000387
 20
0.0200000000000102
 30
0.0
 11
0.0040000000000191
 21
0.0200000000000102
 31
0.0
  0
ARC
  5
408
330
3FB
100
AcDbEntity
  8
CORTE
 62
     1
100
AcDbCircle
 10
0.0
 20
0.0200000000000102
 30
0.0
 40
0.004
100
AcDbArc
 50
270.0
 51
0.0
  0
ARC
  5
409
330
3FB
100
AcDbEntity
  8
CORTE
 62
     1
100
AcDbCircle
 10
0.0676005679064247
 20
0.0343689442811126
 30
0.0
 40
0.0200000000000102
100
AcDbArc
 50
270.0
 51
0.0
  0
LINE
  5
40A
330
3FB
100
AcDbEntity
  8
COTAS
 62
     1
100
AcDbLine
 10
0.0876005679064633
 20
0.0343689442811126
 30
0.0
 11
0.0716005679064438
 21
0.0343689442811126
 31
0.0
  0
ENDBLK
  5
40B
330
3FB
100
AcDbEntity
  8
0
 62
     1
100
AcDbBlockEnd
  0
BLOCK
  5
4E1
330
4E0
100
AcDbEntity
  8
0
100
AcDbBlockBegin
  2
_Arrivo
 70
     0
 10
0.0
 20
0.0
 30
0.0
  3
_Arrivo
  1

  0
LINE
  5
4E2
330
4E0
100
AcDbEntity
  8
0
  6
ByBlock
 62
     0
370
    -2
100
AcDbLine
 10
0.025
 20
-0.0433012701891858
 30
0.0
 11
-0.15
 21
0.2598076211353328
 31
0.0
  0
LINE
  5
4E3
330
4E0
100
AcDbEntity
  8
0
  6
ByBlock
 62
     0
370
    -2
100
AcDbLine
 10
0.025
 20
0.0433012701892585
 30
0.0
 11
-0.15
 21
-0.2598076211353328
 31
0.0
  0
LINE
  5
4E4
330
4E0
100
AcDbEntity
  8
0
  6
ByBlock
 62
     0
370
    -2
100
AcDbLine
 10
-0.05
 20
0.0
 30
0.0
 11
0.05
 21
0.0
 31
0.0
  0
ENDBLK
  5
4E5
330
4E0
100
AcDbEntity
  8
0
100
AcDbBlockEnd
  0
BLOCK
  5
4E7
330
4E6
100
AcDbEntity
  8
0
100
AcDbBlockBegin
  2
_Partenza
 70
     0
 10
0.0
 20
0.0
 30
0.0
  3
_Partenza
  1

  0
LINE
  5
4E8
330
4E6
100
AcDbEntity
  8
0
  6
ByBlock
 62
     0
370
    -2
100
AcDbLine
 10
-0.05
 20
0.05
 30
0.0
 11
0.1
 21
0.05
 31
0.0
  0
LINE
  5
4E9
330
4E6
100
AcDbEntity
  8
0
  6
ByBlock
 62
     0
370
    -2
100
AcDbLine
 10
-0.05
 20
-0.05
 30
0.0
 11
0.1
 21
-0.05
 31
0.0
  0
ENDBLK
  5
4EA
330
4E6
100
AcDbEntity
  8
0
100
AcDbBlockEnd
  0
BLOCK
  5
807
330
73D
100
AcDbEntity
  8
0
 62
     3
100
AcDbBlockBegin
  2
A$C6CE44357
 70
     0
 10
0.0
 20
0.0
 30
0.0
  3
A$C6CE44357
  1

  0
LINE
  5
73E
330
73D
100
AcDbEntity
  8
Vista
 62
     3
100
AcDbLine
 10
-265.2371225605411
 20
-42.42864078547465
 30
0.0
 11
-265.1113419531143
 21
-42.4023863117474
 31
0.0
  0
LINE
  5
73F
330
73D
100
AcDbEntity
  8
Vista
 62
     4
100
AcDbLine
 10
-265.2590480951634
 20
-42.54823976658282
 30
0.0
 11
-265.2510480951634
 21
-42.54823976658282
 31
0.0
  0
LINE
  5
740
330
73D
100
AcDbEntity
  8
Vista
 62
     3
100
AcDbLine
 10
-265.2678775571128
 20
-42.55723976658283
 30
0.0
 11
-265.2164242716711
 21
-42.55723976658283
 31
0.0
  0
LINE
  5
741
330
73D
100
AcDbEntity
  8
Vista
 62
     2
100
AcDbLine
 10
-265.240902830533
 20
-42.52873976658283
 30
0.0
 11
-265.2164242716711
 21
-42.52873976658283
 31
0.0
  0
LINE
  5
742
330
73D
100
AcDbEntity
  8
Vista
 62
     2
100
AcDbLine
 10
-265.245902830533
 20
-42.53973976658282
 30
0.0
 11
-265.2164242716711
 21
-42.53973976658282
 31
0.0
  0
LINE
  5
743
330
73D
100
AcDbEntity
  8
Vista
 62
     2
100
AcDbLine
 10
-265.2411287103258
 20
-42.53147306509318
 30
0.0
 11
-265.2164242716712
 21
-42.53147306509318
 31
0.0
  0
LINE
  5
744
330
73D
100
AcDbEntity
  8
Vista
 62
     2
100
AcDbLine
 10
-265.2649809809004
 20
-42.55319036467706
 30
0.0
 11
-265.2164242716712
 21
-42.55319036467706
 31
0.0
  0
LWPOLYLINE
  5
745
330
73D
100
AcDbEntity
  8
CORTE
  6
Continuous
 62
     1
100
AcDbPolyline
 90
       30
 70
     1
 43
0.0
 10
-265.2651647001392
 20
-42.55337345319399
 42
0.2685636005234304
 10
-265.2649137067366
 20
-42.55293986846818
 10
-265.2649137067366
 20
-42.54823976658282
 10
-265.2624028305331
 20
-42.54823976658282
 42
0.4142135623730693
 10
-265.261402830533
 20
-42.54723976658282
 10
-265.261402830533
 20
-42.53973976658282
 10
-265.258902830533
 20
-42.53973976658282
 42
-0.2526773759784102
 10
-265.2565834054943
 20
-42.53823976658283
 10
-265.2512222555718
 20
-42.53823976658283
 42
-0.2526773759784102
 10
-265.2489028305331
 20
-42.53973976658282
 10
-265.245902830533
 20
-42.53973976658282
 42
0.414213562373069
 10
-265.244902830533
 20
-42.53873976658282
 10
-265.244902830533
 20
-42.53523036708408
 42
-0.3189892314182299
 10
-265.2417043063426
 20
-42.53182012245305
 42
0.356818340496206
 10
-265.240902830533
 20
-42.53084002646501
 10
-265.240902830533
 20
-42.52873976658283
 42
0.364269306410865
 10
-265.234652830533
 20
-42.52348976658284
 42
-0.3260576707120786
 10
-265.2292666879074
 20
-42.51829884552306
 42
0.3747567555282292
 10
-265.228402830533
 20
-42.51730815627538
 10
-265.228402830533
 20
-42.51473976658282
 10
-265.240902830533
 20
-42.51473976658282
 10
-265.240902830533
 20
-42.52073976658282
 10
-265.254402830533
 20
-42.53323976658283
 10
-265.264402830533
 20
-42.53323976658283
 42
0.4142135623730704
 10
-265.269402830533
 20
-42.53823976658283
 10
-265.269402830533
 20
-42.54351258119139
 10
-265.270902830533
 20
-42.54473976658282
 10
-265.270902830533
 20
-42.55723976658283
 10
-265.2678775571128
 20
-42.55723976658283
 42
0.3849291685644514
 10
-265.2673801055846
 20
-42.55679018460604
 42
-0.2416670294637286
  0
LINE
  5
746
330
73D
100
AcDbEntity
  8
CORTE
  6
RAYITA
 62
     4
100
AcDbLine
 10
-265.2649137067366
 20
-42.54823976658282
 30
0.0
 11
-265.2649137067366
 21
-42.53973976658282
 31
0.0
  0
LINE
  5
747
330
73D
100
AcDbEntity
  8
CORTE
  6
RAYITA
 62
     4
100
AcDbLine
 10
-265.2631769303866
 20
-42.5441333561959
 30
0.0
 11
-265.2631769303866
 21
-42.53973976658282
 31
0.0
  0
LINE
  5
748
330
73D
100
AcDbEntity
  8
CORTE
  6
RAYITA
 62
     4
100
AcDbLine
 10
-265.2631769303866
 20
-42.5441333561959
 30
0.0
 11
-265.2649137067366
 21
-42.5441333561959
 31
0.0
  0
LINE
  5
749
330
73D
100
AcDbEntity
  8
CORTE
  6
RAYITA
 62
     4
100
AcDbLine
 10
-265.261402830533
 20
-42.53973976658282
 30
0.0
 11
-265.2649137067366
 21
-42.53973976658282
 31
0.0
  0
LINE
  5
74A
330
73D
100
AcDbEntity
  8
Vista
 62
     3
100
AcDbLine
 10
-265.228402830533
 20
-42.51473976658282
 30
0.0
 11
-265.2164242716711
 21
-42.51473976658279
 31
0.0
  0
LINE
  5
74B
330
73D
100
AcDbEntity
  8
Vista
 62
     2
100
AcDbLine
 10
-265.2286491254761
 20
-42.51796536909266
 30
0.0
 11
-265.2164242716712
 21
-42.51796536909266
 31
0.0
  0
LINE
  5
74C
330
73D
100
AcDbEntity
  8
Vista
 62
     4
100
AcDbLine
 10
-265.2590480951634
 20
-42.53973976658282
 30
0.0
 11
-265.2590480951634
 21
-42.54823976658282
 31
0.0
  0
LINE
  5
74D
330
73D
100
AcDbEntity
  8
Vista
 62
     4
100
AcDbLine
 10
-265.2510480951634
 20
-42.53973976658282
 30
0.0
 11
-265.2510480951634
 21
-42.54823976658282
 31
0.0
  0
LINE
  5
74E
330
73D
100
AcDbEntity
  8
Vista
 62
     4
100
AcDbLine
 10
-265.2470480951634
 20
-42.53973976658282
 30
0.0
 11
-265.2470480951635
 21
-42.54823976658282
 31
0.0
  0
LINE
  5
74F
330
73D
100
AcDbEntity
  8
Vista
 62
     4
100
AcDbLine
 10
-265.2390480951634
 20
-42.53973976658282
 30
0.0
 11
-265.2390480951634
 21
-42.54823976658282
 31
0.0
  0
LINE
  5
750
330
73D
100
AcDbEntity
  8
Vista
 62
     4
100
AcDbLine
 10
-265.2350480951635
 20
-42.53973976658282
 30
0.0
 11
-265.2350480951635
 21
-42.54823976658282
 31
0.0
  0
LINE
  5
751
330
73D
100
AcDbEntity
  8
Vista
 62
     4
100
AcDbLine
 10
-265.2510480951634
 20
-42.5441333561959
 30
0.0
 11
-265.2470480951635
 21
-42.5441333561959
 31
0.0
  0
LINE
  5
752
330
73D
100
AcDbEntity
  8
Vista
 62
     4
100
AcDbLine
 10
-265.2390480951634
 20
-42.5441333561959
 30
0.0
 11
-265.2350480951635
 21
-42.5441333561959
 31
0.0
  0
LINE
  5
753
330
73D
100
AcDbEntity
  8
Vista
 62
     4
100
AcDbLine
 10
-265.2470480951635
 20
-42.54823976658282
 30
0.0
 11
-265.2390480951634
 21
-42.54823976658282
 31
0.0
  0
LINE
  5
754
330
73D
100
AcDbEntity
  8
Vista
 62
     4
100
AcDbLine
 10
-265.2350480951635
 20
-42.54823976658282
 30
0.0
 11
-265.2270480951634
 21
-42.54823976658282
 31
0.0
  0
LINE
  5
755
330
73D
100
AcDbEntity
  8
Vista
 62
     4
100
AcDbLine
 10
-265.2230480951634
 20
-42.53973976658282
 30
0.0
 11
-265.2230480951634
 21
-42.54823976658282
 31
0.0
  0
LINE
  5
756
330
73D
100
AcDbEntity
  8
Vista
 62
     4
100
AcDbLine
 10
-265.2270480951634
 20
-42.53973976658282
 30
0.0
 11
-265.2270480951634
 21
-42.54823976658282
 31
0.0
  0
LINE
  5
757
330
73D
100
AcDbEntity
  8
Vista
 62
     4
100
AcDbLine
 10
-265.2230480951634
 20
-42.54823976658282
 30
0.0
 11
-265.2164242716711
 21
-42.54823976658282
 31
0.0
  0
LINE
  5
758
330
73D
100
AcDbEntity
  8
Vista
 62
     4
100
AcDbLine
 10
-265.2270480951634
 20
-42.5441333561959
 30
0.0
 11
-265.2230480951634
 21
-42.5441333561959
 31
0.0
  0
LINE
  5
759
330
73D
100
AcDbEntity
  8
Vista
 62
     4
100
AcDbLine
 10
-265.2079942150913
 20
-42.54823976658282
 30
0.0
 11
-265.2030480951634
 21
-42.54823976658282
 31
0.0
  0
LINE
  5
75A
330
73D
100
AcDbEntity
  8
Vista
 62
     4
100
AcDbLine
 10
-265.1870480951635
 20
-42.53973976658282
 30
0.0
 11
-265.1870480951635
 21
-42.54823976658282
 31
0.0
  0
LINE
  5
75B
330
73D
100
AcDbEntity
  8
Vista
 62
     4
100
AcDbLine
 10
-265.1910480951634
 20
-42.53973976658282
 30
0.0
 11
-265.1910480951634
 21
-42.54823976658282
 31
0.0
  0
LINE
  5
75C
330
73D
100
AcDbEntity
  8
Vista
 62
     4
100
AcDbLine
 10
-265.1990480951635
 20
-42.53973976658282
 30
0.0
 11
-265.1990480951635
 21
-42.54823976658282
 31
0.0
  0
LINE
  5
75D
330
73D
100
AcDbEntity
  8
Vista
 62
     4
100
AcDbLine
 10
-265.2030480951634
 20
-42.53973976658282
 30
0.0
 11
-265.2030480951634
 21
-42.54823976658282
 31
0.0
  0
LINE
  5
75E
330
73D
100
AcDbEntity
  8
Vista
 62
     4
100
AcDbLine
 10
-265.1990480951635
 20
-42.54823976658282
 30
0.0
 11
-265.1910480951634
 21
-42.54823976658282
 31
0.0
  0
LINE
  5
75F
330
73D
100
AcDbEntity
  8
Vista
 62
     4
100
AcDbLine
 10
-265.2030480951634
 20
-42.5441333561959
 30
0.0
 11
-265.1990480951635
 21
-42.5441333561959
 31
0.0
  0
LINE
  5
760
330
73D
100
AcDbEntity
  8
Vista
 62
     4
100
AcDbLine
 10
-265.1910480951634
 20
-42.5441333561959
 30
0.0
 11
-265.1870480951635
 21
-42.5441333561959
 31
0.0
  0
LINE
  5
761
330
73D
100
AcDbEntity
  8
Vista
 62
     4
100
AcDbLine
 10
-265.1870480951635
 20
-42.54823976658282
 30
0.0
 11
-265.1790480951634
 21
-42.54823976658282
 31
0.0
  0
LINE
  5
762
330
73D
100
AcDbEntity
  8
Vista
 62
     4
100
AcDbLine
 10
-265.1630480951634
 20
-42.53973976658282
 30
0.0
 11
-265.1630480951634
 21
-42.54823976658282
 31
0.0
  0
LINE
  5
763
330
73D
100
AcDbEntity
  8
Vista
 62
     4
100
AcDbLine
 10
-265.1670480951634
 20
-42.53973976658282
 30
0.0
 11
-265.1670480951634
 21
-42.54823976658282
 31
0.0
  0
LINE
  5
764
330
73D
100
AcDbEntity
  8
Vista
 62
     4
100
AcDbLine
 10
-265.1750480951634
 20
-42.53973976658282
 30
0.0
 11
-265.1750480951634
 21
-42.54823976658282
 31
0.0
  0
LINE
  5
765
330
73D
100
AcDbEntity
  8
Vista
 62
     4
100
AcDbLine
 10
-265.1790480951634
 20
-42.53973976658282
 30
0.0
 11
-265.1790480951634
 21
-42.54823976658282
 31
0.0
  0
LINE
  5
766
330
73D
100
AcDbEntity
  8
Vista
 62
     4
100
AcDbLine
 10
-265.1750480951634
 20
-42.54823976658282
 30
0.0
 11
-265.1670480951634
 21
-42.54823976658282
 31
0.0
  0
LINE
  5
767
330
73D
100
AcDbEntity
  8
Vista
 62
     4
100
AcDbLine
 10
-265.1790480951634
 20
-42.5441333561959
 30
0.0
 11
-265.1750480951634
 21
-42.5441333561959
 31
0.0
  0
LINE
  5
768
330
73D
100
AcDbEntity
  8
Vista
 62
     4
100
AcDbLine
 10
-265.1670480951634
 20
-42.5441333561959
 30
0.0
 11
-265.1630480951634
 21
-42.5441333561959
 31
0.0
  0
LINE
  5
769
330
73D
100
AcDbEntity
  8
Vista
 62
     4
100
AcDbLine
 10
-265.1630480951634
 20
-42.54823976658282
 30
0.0
 11
-265.1550480951634
 21
-42.54823976658282
 31
0.0
  0
LINE
  5
76A
330
73D
100
AcDbEntity
  8
Vista
 62
     4
100
AcDbLine
 10
-265.1390480951635
 20
-42.53973976658282
 30
0.0
 11
-265.1390480951635
 21
-42.54823976658282
 31
0.0
  0
LINE
  5
76B
330
73D
100
AcDbEntity
  8
Vista
 62
     4
100
AcDbLine
 10
-265.1430480951634
 20
-42.53973976658282
 30
0.0
 11
-265.1430480951634
 21
-42.54823976658282
 31
0.0
  0
LINE
  5
76C
330
73D
100
AcDbEntity
  8
Vista
 62
     4
100
AcDbLine
 10
-265.1510480951634
 20
-42.53973976658282
 30
0.0
 11
-265.1510480951634
 21
-42.54823976658282
 31
0.0
  0
LINE
  5
76D
330
73D
100
AcDbEntity
  8
Vista
 62
     4
100
AcDbLine
 10
-265.1550480951634
 20
-42.53973976658282
 30
0.0
 11
-265.1550480951634
 21
-42.54823976658282
 31
0.0
  0
LINE
  5
76E
330
73D
100
AcDbEntity
  8
Vista
 62
     4
100
AcDbLine
 10
-265.1510480951634
 20
-42.54823976658282
 30
0.0
 11
-265.1430480951634
 21
-42.54823976658282
 31
0.0
  0
LINE
  5
76F
330
73D
100
AcDbEntity
  8
Vista
 62
     4
100
AcDbLine
 10
-265.1550480951634
 20
-42.5441333561959
 30
0.0
 11
-265.1510480951634
 21
-42.5441333561959
 31
0.0
  0
LINE
  5
770
330
73D
100
AcDbEntity
  8
Vista
 62
     4
100
AcDbLine
 10
-265.1430480951634
 20
-42.5441333561959
 30
0.0
 11
-265.1390480951635
 21
-42.5441333561959
 31
0.0
  0
LINE
  5
771
330
73D
100
AcDbEntity
  8
Vista
 62
     4
100
AcDbLine
 10
-265.1390480951635
 20
-42.54823976658282
 30
0.0
 11
-265.1310480951634
 21
-42.54823976658282
 31
0.0
  0
LINE
  5
772
330
73D
100
AcDbEntity
  8
Vista
 62
     4
100
AcDbLine
 10
-265.1150480951634
 20
-42.53973976658282
 30
0.0
 11
-265.1150480951634
 21
-42.54823976658282
 31
0.0
  0
LINE
  5
773
330
73D
100
AcDbEntity
  8
Vista
 62
     4
100
AcDbLine
 10
-265.1190480951634
 20
-42.53973976658282
 30
0.0
 11
-265.1190480951634
 21
-42.54823976658282
 31
0.0
  0
LINE
  5
774
330
73D
100
AcDbEntity
  8
Vista
 62
     4
100
AcDbLine
 10
-265.1270480951634
 20
-42.53973976658282
 30
0.0
 11
-265.1270480951634
 21
-42.54823976658282
 31
0.0
  0
LINE
  5
775
330
73D
100
AcDbEntity
  8
Vista
 62
     4
100
AcDbLine
 10
-265.1310480951634
 20
-42.53973976658282
 30
0.0
 11
-265.1310480951634
 21
-42.54823976658282
 31
0.0
  0
LINE
  5
776
330
73D
100
AcDbEntity
  8
Vista
 62
     4
100
AcDbLine
 10
-265.1270480951634
 20
-42.54823976658282
 30
0.0
 11
-265.1190480951634
 21
-42.54823976658282
 31
0.0
  0
LINE
  5
777
330
73D
100
AcDbEntity
  8
Vista
 62
     4
100
AcDbLine
 10
-265.1310480951634
 20
-42.5441333561959
 30
0.0
 11
-265.1270480951634
 21
-42.5441333561959
 31
0.0
  0
LINE
  5
778
330
73D
100
AcDbEntity
  8
Vista
 62
     4
100
AcDbLine
 10
-265.1190480951634
 20
-42.5441333561959
 30
0.0
 11
-265.1150480951634
 21
-42.5441333561959
 31
0.0
  0
LINE
  5
779
330
73D
100
AcDbEntity
  8
Vista
 62
     4
100
AcDbLine
 10
-265.1150480951634
 20
-42.54823976658282
 30
0.0
 11
-265.1070480951634
 21
-42.54823976658282
 31
0.0
  0
LINE
  5
77A
330
73D
100
AcDbEntity
  8
Vista
 62
     4
100
AcDbLine
 10
-265.1030480951634
 20
-42.53973976658282
 30
0.0
 11
-265.1030480951634
 21
-42.54823976658282
 31
0.0
  0
LINE
  5
77B
330
73D
100
AcDbEntity
  8
Vista
 62
     4
100
AcDbLine
 10
-265.1070480951634
 20
-42.53973976658282
 30
0.0
 11
-265.1070480951634
 21
-42.54823976658282
 31
0.0
  0
LINE
  5
77C
330
73D
100
AcDbEntity
  8
Vista
 62
     4
100
AcDbLine
 10
-265.1030480951634
 20
-42.54823976658282
 30
0.0
 11
-265.0999942150913
 21
-42.54823976658285
 31
0.0
  0
LINE
  5
77D
330
73D
100
AcDbEntity
  8
Vista
 62
     4
100
AcDbLine
 10
-265.1070480951634
 20
-42.5441333561959
 30
0.0
 11
-265.1030480951634
 21
-42.5441333561959
 31
0.0
  0
LINE
  5
77E
330
73D
100
AcDbEntity
  8
CORTE
  6
RAYITA
 62
     4
100
AcDbLine
 10
-265.2611334367446
 20
-42.46214078547466
 30
0.0
 11
-265.2611334367446
 21
-42.45803437508773
 31
0.0
  0
LINE
  5
77F
330
73D
100
AcDbEntity
  8
CORTE
  6
RAYITA
 62
     4
100
AcDbLine
 10
-265.2576225605411
 20
-42.45364078547466
 30
0.0
 11
-265.2593966603947
 21
-42.45364078547466
 31
0.0
  0
LINE
  5
780
330
73D
100
AcDbEntity
  8
CORTE
  6
RAYITA
 62
     4
100
AcDbLine
 10
-265.2593966603947
 20
-42.45803437508773
 30
0.0
 11
-265.2611334367446
 21
-42.45803437508773
 31
0.0
  0
LINE
  5
781
330
73D
100
AcDbEntity
  8
CORTE
  6
RAYITA
 62
     4
100
AcDbLine
 10
-265.2593966603947
 20
-42.45803437508773
 30
0.0
 11
-265.2593966603947
 21
-42.45364078547466
 31
0.0
  0
LINE
  5
782
330
73D
100
AcDbEntity
  8
Vista
 62
     2
100
AcDbLine
 10
-265.2246225605411
 20
-42.42864078547465
 30
0.0
 11
-265.0988419531143
 21
-42.4023863117474
 31
0.0
  0
LINE
  5
783
330
73D
100
AcDbEntity
  8
Vista
 62
     2
100
AcDbLine
 10
-265.2253196169622
 20
-42.43216218366036
 30
0.0
 11
-265.1005238724924
 21
-42.40611328262953
 31
0.0
  0
LINE
  5
784
330
73D
100
AcDbEntity
  8
Vista
 62
     2
100
AcDbLine
 10
-265.2357843481861
 20
-42.4424980657533
 30
0.0
 11
-265.1113419531143
 21
-42.41652292015008
 31
0.0
  0
LINE
  5
785
330
73D
100
AcDbEntity
  8
Vista
 62
     2
100
AcDbLine
 10
-265.2377407371607
 20
-42.44566528066572
 30
0.0
 11
-265.1119601297339
 21
-42.41941080693844
 31
0.0
  0
LINE
  5
786
330
73D
100
AcDbEntity
  8
Vista
 62
     2
100
AcDbLine
 10
-265.2616957494533
 20
-42.44725731687553
 30
0.0
 11
-265.2475622982738
 21
-42.44430720930124
 31
0.0
  0
LINE
  5
787
330
73D
100
AcDbEntity
  8
Vista
 62
     2
100
AcDbLine
 10
-265.2419054000998
 20
-42.45361692139899
 30
0.0
 11
-265.1318419531143
 21
-42.43064312650061
 31
0.0
  0
LINE
  5
788
330
73D
100
AcDbEntity
  8
Vista
 62
     4
100
AcDbLine
 10
-265.2551225605411
 20
-42.45364078547466
 30
0.0
 11
-265.2479363219937
 21
-42.45214078547464
 31
0.0
  0
LINE
  5
789
330
73D
100
AcDbEntity
  8
Vista
 62
     4
100
AcDbLine
 10
-265.2543974497464
 20
-42.4613609643679
 30
0.0
 11
-265.2463974497463
 21
-42.4596911060796
 31
0.0
  0
LINE
  5
78A
330
73D
100
AcDbEntity
  8
Vista
 62
     4
100
AcDbLine
 10
-265.2593966603947
 20
-42.45803437508773
 30
0.0
 11
-265.2558974497463
 21
-42.45730397684979
 31
0.0
  0
LINE
  5
78B
330
73D
100
AcDbEntity
  8
Vista
 62
     2
100
AcDbLine
 10
-265.2611968867646
 20
-42.46708465797961
 30
0.0
 11
-265.1354162793379
 21
-42.44083018425236
 31
0.0
  0
LINE
  5
78C
330
73D
100
AcDbEntity
  8
Vista
 62
     3
100
AcDbLine
 10
-265.264002248065
 20
-42.47113166995989
 30
0.0
 11
-265.1382216406382
 21
-42.44487719623264
 31
0.0
  0
ARC
  5
78D
330
73D
100
AcDbEntity
  8
CORTE
  6
Continuous
 62
     1
100
AcDbCircle
 10
-265.2616334367446
 20
-42.46684088735999
 30
0.0
 40
0.0004999999999999
100
AcDbArc
 50
299.8686408419573
 51
359.9999999999935
  0
LINE
  5
78E
330
73D
100
AcDbEntity
  8
CORTE
  6
Continuous
 62
     1
100
AcDbLine
 10
-265.2611334367446
 20
-42.46684088735999
 30
0.0
 11
-265.2611334367446
 21
-42.46214078547466
 31
0.0
  0
LINE
  5
78F
330
73D
100
AcDbEntity
  8
CORTE
  6
Continuous
 62
     1
100
AcDbLine
 10
-265.2576225605411
 20
-42.45364078547466
 30
0.0
 11
-265.2551225605411
 21
-42.45364078547466
 31
0.0
  0
ARC
  5
790
330
73D
100
AcDbEntity
  8
CORTE
  6
Continuous
 62
     1
100
AcDbCircle
 10
-265.2525734960763
 20
-42.45503911726784
 30
0.0
 40
0.0029074149083751
100
AcDbArc
 50
94.53017172282182
 51
151.2522954919238
  0
LINE
  5
791
330
73D
100
AcDbEntity
  8
CORTE
  6
Continuous
 62
     1
100
AcDbLine
 10
-265.2528031355024
 20
-42.45214078547464
 30
0.0
 11
-265.2474419855798
 21
-42.45214078547464
 31
0.0
  0
ARC
  5
792
330
73D
100
AcDbEntity
  8
CORTE
  6
Continuous
 62
     1
100
AcDbCircle
 10
-265.2476716250059
 20
-42.45503911726784
 30
0.0
 40
0.0029074149083745
100
AcDbArc
 50
28.74770450807759
 51
85.46982827718144
  0
LINE
  5
793
330
73D
100
AcDbEntity
  8
CORTE
  6
Continuous
 62
     1
100
AcDbLine
 10
-265.245122560541
 20
-42.45364078547466
 30
0.0
 11
-265.2421225605411
 21
-42.45364078547466
 31
0.0
  0
ARC
  5
794
330
73D
100
AcDbEntity
  8
CORTE
  6
Continuous
 62
     1
100
AcDbCircle
 10
-265.2421225605411
 20
-42.45264078547466
 30
0.0
 40
0.001
100
AcDbArc
 50
270.0
 51
359.9999999999951
  0
LINE
  5
795
330
73D
100
AcDbEntity
  8
CORTE
  6
Continuous
 62
     1
100
AcDbLine
 10
-265.2411225605411
 20
-42.45264078547466
 30
0.0
 11
-265.2411225605411
 21
-42.44913138597588
 31
0.0
  0
ARC
  5
796
330
73D
100
AcDbEntity
  8
CORTE
  6
Continuous
 62
     1
100
AcDbCircle
 10
-265.2371225605411
 20
-42.44967795498879
 30
0.0
 40
0.0040371695141331
100
AcDbArc
 50
101.4506709648844
 51
172.21916242068
  0
ARC
  5
797
330
73D
100
AcDbEntity
  8
CORTE
  6
Continuous
 62
     1
100
AcDbCircle
 10
-265.238122560541
 20
-42.44474104535682
 30
0.0
 40
0.0010000000000001
100
AcDbArc
 50
281.4506709648813
 51
359.9999999999935
  0
LINE
  5
798
330
73D
100
AcDbEntity
  8
CORTE
  6
Continuous
 62
     1
100
AcDbLine
 10
-265.2371225605411
 20
-42.44474104535682
 30
0.0
 11
-265.2371225605411
 21
-42.44264078547463
 31
0.0
  0
ARC
  5
799
330
73D
100
AcDbEntity
  8
CORTE
  6
Continuous
 62
     1
100
AcDbCircle
 10
-265.2371225605411
 20
-42.4362955473794
 30
0.0
 40
0.0063452380952395
100
AcDbArc
 50
270.0
 51
350.0605185437708
  0
ARC
  5
79A
330
73D
100
AcDbEntity
  8
CORTE
  6
Continuous
 62
     1
100
AcDbCircle
 10
-265.224622560541
 20
-42.43848602356989
 30
0.0
 40
0.0063452380952396
100
AcDbArc
 50
97.82469757354439
 51
170.060518543773
  0
ARC
  5
79B
330
73D
100
AcDbEntity
  8
CORTE
  6
Continuous
 62
     1
100
AcDbCircle
 10
-265.2256225605411
 20
-42.43120917516718
 30
0.0
 40
0.001
100
AcDbArc
 50
277.8246975735409
 51
359.9999999999984
  0
LINE
  5
79C
330
73D
100
AcDbEntity
  8
CORTE
  6
Continuous
 62
     1
100
AcDbLine
 10
-265.2246225605411
 20
-42.43120917516718
 30
0.0
 11
-265.2246225605411
 21
-42.42864078547465
 31
0.0
  0
LINE
  5
79D
330
73D
100
AcDbEntity
  8
CORTE
  6
Continuous
 62
     1
100
AcDbLine
 10
-265.2246225605411
 20
-42.42864078547465
 30
0.0
 11
-265.2371225605411
 21
-42.42864078547465
 31
0.0
  0
LINE
  5
79E
330
73D
100
AcDbEntity
  8
CORTE
  6
Continuous
 62
     1
100
AcDbLine
 10
-265.2371225605411
 20
-42.42864078547465
 30
0.0
 11
-265.2371225605411
 21
-42.43464078547465
 31
0.0
  0
LINE
  5
79F
330
73D
100
AcDbEntity
  8
CORTE
  6
Continuous
 62
     1
100
AcDbLine
 10
-265.2371225605411
 20
-42.43464078547465
 30
0.0
 11
-265.2506225605411
 21
-42.44714078547464
 31
0.0
  0
LINE
  5
7A0
330
73D
100
AcDbEntity
  8
CORTE
  6
Continuous
 62
     1
100
AcDbLine
 10
-265.2506225605411
 20
-42.44714078547464
 30
0.0
 11
-265.2606225605411
 21
-42.44714078547464
 31
0.0
  0
ARC
  5
7A1
330
73D
100
AcDbEntity
  8
CORTE
  6
Continuous
 62
     1
100
AcDbCircle
 10
-265.2606225605411
 20
-42.45214078547464
 30
0.0
 40
0.005
100
AcDbArc
 50
90.00000000000325
 51
179.9999999999967
  0
LINE
  5
7A2
330
73D
100
AcDbEntity
  8
CORTE
  6
Continuous
 62
     1
100
AcDbLine
 10
-265.2656225605411
 20
-42.45214078547464
 30
0.0
 11
-265.2656225605411
 21
-42.45741360008323
 31
0.0
  0
LINE
  5
7A3
330
73D
100
AcDbEntity
  8
CORTE
  6
Continuous
 62
     1
100
AcDbLine
 10
-265.2656225605411
 20
-42.45741360008323
 30
0.0
 11
-265.2671225605411
 21
-42.45864078547465
 31
0.0
  0
LINE
  5
7A4
330
73D
100
AcDbEntity
  8
CORTE
  6
Continuous
 62
     1
100
AcDbLine
 10
-265.2671225605411
 20
-42.45864078547465
 30
0.0
 11
-265.2671225605411
 21
-42.47114078547464
 31
0.0
  0
LINE
  5
7A5
330
73D
100
AcDbEntity
  8
CORTE
  6
Continuous
 62
     1
100
AcDbLine
 10
-265.2671225605411
 20
-42.47114078547464
 30
0.0
 11
-265.2640972871209
 21
-42.47114078547464
 31
0.0
  0
ARC
  5
7A6
330
73D
100
AcDbEntity
  8
CORTE
  6
Continuous
 62
     1
100
AcDbCircle
 10
-265.2640972871209
 20
-42.47064078547466
 30
0.0
 40
0.0005
100
AcDbArc
 50
270.0
 51
354.2126842324164
  0
ARC
  5
7A7
330
73D
100
AcDbEntity
  8
CORTE
  6
Continuous
 62
     1
100
AcDbCircle
 10
-265.2591640162722
 20
-42.47114078547464
 30
0.0
 40
0.004458544268822
100
AcDbArc
 50
119.8686408419609
 51
174.2126842324128
  0
LINE
  5
7A8
330
73D
100
AcDbEntity
  8
CORTE
  6
Continuous
 62
     4
100
AcDbLine
 10
-265.2573974497463
 20
-42.4613609643679
 30
0.0
 11
-265.2573974497463
 21
-42.45761707527883
 31
0.0
  0
LINE
  5
7A9
330
73D
100
AcDbEntity
  8
Vista
 62
     4
100
AcDbLine
 10
-265.2611334367446
 20
-42.46214078547466
 30
0.0
 11
-265.2573974497463
 21
-42.4613609643679
 31
0.0
  0
LINE
  5
7AA
330
73D
100
AcDbEntity
  8
CORTE
  6
Continuous
 62
     1
100
AcDbLine
 10
-265.2593974497464
 20
-42.45803437508773
 30
0.0
 11
-265.2593974497464
 21
-42.45359456852866
 31
0.0
  0
LINE
  5
7AB
330
73D
100
AcDbEntity
  8
Vista
 62
     4
100
AcDbLine
 10
-265.2573974497463
 20
-42.4613609643679
 30
0.0
 11
-265.2543974497464
 21
-42.4613609643679
 31
0.0
  0
LINE
  5
7AC
330
73D
100
AcDbEntity
  8
Vista
 62
     4
100
AcDbLine
 10
-265.2463974497463
 20
-42.45532102013244
 30
0.0
 11
-265.2438974497463
 21
-42.45479918941735
 31
0.0
  0
LINE
  5
7AD
330
73D
100
AcDbEntity
  8
CORTE
  6
Continuous
 62
     4
100
AcDbLine
 10
-265.2543974497464
 20
-42.4613609643679
 30
0.0
 11
-265.2543974497464
 21
-42.45348943144084
 31
0.0
  0
LINE
  5
7AE
330
73D
100
AcDbEntity
  8
CORTE
  6
Continuous
 62
     4
100
AcDbLine
 10
-265.2558974497463
 20
-42.45730397684979
 30
0.0
 11
-265.2558974497463
 21
-42.45364078547466
 31
0.0
  0
LINE
  5
7AF
330
73D
100
AcDbEntity
  8
CORTE
  6
Continuous
 62
     4
100
AcDbLine
 10
-265.2463974497463
 20
-42.4596911060796
 30
0.0
 11
-265.2463974497463
 21
-42.45242577862588
 31
0.0
  0
LINE
  5
7B0
330
73D
100
AcDbEntity
  8
Vista
 62
     4
100
AcDbLine
 10
-265.2463974497463
 20
-42.45906490922148
 30
0.0
 11
-265.2453974497464
 21
-42.45885617693547
 31
0.0
  0
LINE
  5
7B1
330
73D
100
AcDbEntity
  8
CORTE
  6
Continuous
 62
     4
100
AcDbLine
 10
-265.2423974497464
 20
-42.45885617693547
 30
0.0
 11
-265.2423974497464
 21
-42.45364078547466
 31
0.0
  0
LINE
  5
7B2
330
73D
100
AcDbEntity
  8
CORTE
  6
Continuous
 62
     4
100
AcDbLine
 10
-265.2453974497464
 20
-42.45885617693547
 30
0.0
 11
-265.2453974497464
 21
-42.4551122878464
 31
0.0
  0
LINE
  5
7B3
330
73D
100
AcDbEntity
  8
CORTE
  6
Continuous
 62
     4
100
AcDbLine
 10
-265.2343974497463
 20
-42.45718631864717
 30
0.0
 11
-265.2343974497463
 21
-42.45204976975823
 31
0.0
  0
LINE
  5
7B4
330
73D
100
AcDbEntity
  8
Vista
 62
     4
100
AcDbLine
 10
-265.2423974497464
 20
-42.45885617693547
 30
0.0
 11
-265.2453974497464
 21
-42.45885617693547
 31
0.0
  0
LINE
  5
7B5
330
73D
100
AcDbEntity
  8
CORTE
  6
Continuous
 62
     4
100
AcDbLine
 10
-265.2438974497463
 20
-42.45479918941735
 30
0.0
 11
-265.2438974497463
 21
-42.45364078547466
 31
0.0
  0
LINE
  5
7B6
330
73D
100
AcDbEntity
  8
Vista
 62
     4
100
AcDbLine
 10
-265.2423974497464
 20
-42.45885617693547
 30
0.0
 11
-265.2343974497463
 21
-42.45718631864717
 31
0.0
  0
LINE
  5
7B7
330
73D
100
AcDbEntity
  8
CORTE
  6
Continuous
 62
     4
100
AcDbLine
 10
-265.2333974497464
 20
-42.45635698981327
 30
0.0
 11
-265.2333974497464
 21
-42.45261310072421
 31
0.0
  0
LINE
  5
7B8
330
73D
100
AcDbEntity
  8
CORTE
  6
Continuous
 62
     4
100
AcDbLine
 10
-265.2303974497463
 20
-42.45635698981327
 30
0.0
 11
-265.2303974497463
 21
-42.45121484061409
 31
0.0
  0
LINE
  5
7B9
330
73D
100
AcDbEntity
  8
Vista
 62
     4
100
AcDbLine
 10
-265.2303974497463
 20
-42.45635698981327
 30
0.0
 11
-265.2223974497463
 21
-42.45468713152497
 31
0.0
  0
LINE
  5
7BA
330
73D
100
AcDbEntity
  8
Vista
 62
     4
100
AcDbLine
 10
-265.2303974497463
 20
-42.45635698981327
 30
0.0
 11
-265.2333974497464
 21
-42.45635698981327
 31
0.0
  0
LINE
  5
7BB
330
73D
100
AcDbEntity
  8
Vista
 62
     4
100
AcDbLine
 10
-265.2343974497463
 20
-42.45656572209931
 30
0.0
 11
-265.2333974497464
 21
-42.45635698981327
 31
0.0
  0
LINE
  5
7BC
330
73D
100
AcDbEntity
  8
Vista
 62
     4
100
AcDbLine
 10
-265.2343974497463
 20
-42.45282183301024
 30
0.0
 11
-265.2318974497463
 21
-42.45230000229516
 31
0.0
  0
LINE
  5
7BD
330
73D
100
AcDbEntity
  8
CORTE
  6
Continuous
 62
     4
100
AcDbLine
 10
-265.2318974497463
 20
-42.45230000229516
 30
0.0
 11
-265.2318974497463
 21
-42.45152793904314
 31
0.0
  0
LINE
  5
7BE
330
73D
100
AcDbEntity
  8
CORTE
  6
Continuous
 62
     4
100
AcDbLine
 10
-265.2223974497463
 20
-42.45468713152497
 30
0.0
 11
-265.2223974497463
 21
-42.44955058263606
 31
0.0
  0
LINE
  5
7BF
330
73D
100
AcDbEntity
  8
Vista
 62
     4
100
AcDbLine
 10
-265.2183974497464
 20
-42.45381967473214
 30
0.0
 11
-265.2103974497463
 21
-42.45214981644385
 31
0.0
  0
LINE
  5
7C0
330
73D
100
AcDbEntity
  8
Vista
 62
     4
100
AcDbLine
 10
-265.2183974497464
 20
-42.45381967473214
 30
0.0
 11
-265.2213974497463
 21
-42.45381967473214
 31
0.0
  0
LINE
  5
7C1
330
73D
100
AcDbEntity
  8
CORTE
  6
Continuous
 62
     4
100
AcDbLine
 10
-265.2198974497463
 20
-42.44976268721403
 30
0.0
 11
-265.2198974497463
 21
-42.44902315161072
 31
0.0
  0
LINE
  5
7C2
330
73D
100
AcDbEntity
  8
Vista
 62
     4
100
AcDbLine
 10
-265.2223974497463
 20
-42.45028451792911
 30
0.0
 11
-265.2198974497463
 21
-42.44976268721403
 31
0.0
  0
LINE
  5
7C3
330
73D
100
AcDbEntity
  8
Vista
 62
     4
100
AcDbLine
 10
-265.2223974497463
 20
-42.45402840701818
 30
0.0
 11
-265.2213974497463
 21
-42.45381967473214
 31
0.0
  0
LINE
  5
7C4
330
73D
100
AcDbEntity
  8
CORTE
  6
Continuous
 62
     4
100
AcDbLine
 10
-265.2213974497463
 20
-42.45381967473214
 30
0.0
 11
-265.2213974497463
 21
-42.45007578564307
 31
0.0
  0
LINE
  5
7C5
330
73D
100
AcDbEntity
  8
CORTE
  6
Continuous
 62
     4
100
AcDbLine
 10
-265.2183974497464
 20
-42.45381967473214
 30
0.0
 11
-265.2183974497464
 21
-42.44867752553297
 31
0.0
  0
LINE
  5
7C6
330
73D
100
AcDbEntity
  8
CORTE
  6
Continuous
 62
     4
100
AcDbLine
 10
-265.2103974497463
 20
-42.45214981644385
 30
0.0
 11
-265.2103974497463
 21
-42.44704019489337
 31
0.0
  0
LINE
  5
7C7
330
73D
100
AcDbEntity
  8
Vista
 62
     4
100
AcDbLine
 10
-265.2063974497464
 20
-42.45136478851414
 30
0.0
 11
-265.1983974497463
 21
-42.44969493022584
 31
0.0
  0
LINE
  5
7C8
330
73D
100
AcDbEntity
  8
Vista
 62
     4
100
AcDbLine
 10
-265.2063974497464
 20
-42.45136478851414
 30
0.0
 11
-265.2093974497463
 21
-42.45136478851414
 31
0.0
  0
LINE
  5
7C9
330
73D
100
AcDbEntity
  8
CORTE
  6
Continuous
 62
     4
100
AcDbLine
 10
-265.2078974497463
 20
-42.44730780099603
 30
0.0
 11
-265.2078974497463
 21
-42.44653573774401
 31
0.0
  0
LINE
  5
7CA
330
73D
100
AcDbEntity
  8
Vista
 62
     4
100
AcDbLine
 10
-265.2103974497463
 20
-42.44782963171111
 30
0.0
 11
-265.2078974497463
 21
-42.44730780099603
 31
0.0
  0
LINE
  5
7CB
330
73D
100
AcDbEntity
  8
Vista
 62
     4
100
AcDbLine
 10
-265.2103974497463
 20
-42.45157352080018
 30
0.0
 11
-265.2093974497463
 21
-42.45136478851414
 31
0.0
  0
LINE
  5
7CC
330
73D
100
AcDbEntity
  8
CORTE
  6
Continuous
 62
     4
100
AcDbLine
 10
-265.2093974497463
 20
-42.45136478851414
 30
0.0
 11
-265.2093974497463
 21
-42.44762089942507
 31
0.0
  0
LINE
  5
7CD
330
73D
100
AcDbEntity
  8
CORTE
  6
Continuous
 62
     4
100
AcDbLine
 10
-265.2063974497464
 20
-42.45136478851414
 30
0.0
 11
-265.2063974497464
 21
-42.44622263931496
 31
0.0
  0
LINE
  5
7CE
330
73D
100
AcDbEntity
  8
CORTE
  6
Continuous
 62
     4
100
AcDbLine
 10
-265.1983974497463
 20
-42.44969493022584
 30
0.0
 11
-265.1983974497463
 21
-42.44455838133693
 31
0.0
  0
LINE
  5
7CF
330
73D
100
AcDbEntity
  8
Vista
 62
     4
100
AcDbLine
 10
-265.1943974497464
 20
-42.44883783223379
 30
0.0
 11
-265.1863974497463
 21
-42.44716797394549
 31
0.0
  0
LINE
  5
7D0
330
73D
100
AcDbEntity
  8
Vista
 62
     4
100
AcDbLine
 10
-265.1943974497464
 20
-42.44883783223379
 30
0.0
 11
-265.1973974497463
 21
-42.44883783223379
 31
0.0
  0
LINE
  5
7D1
330
73D
100
AcDbEntity
  8
CORTE
  6
Continuous
 62
     4
100
AcDbLine
 10
-265.1958974497463
 20
-42.44478084471568
 30
0.0
 11
-265.1958974497463
 21
-42.44400878146369
 31
0.0
  0
LINE
  5
7D2
330
73D
100
AcDbEntity
  8
Vista
 62
     4
100
AcDbLine
 10
-265.1983974497463
 20
-42.44530267543076
 30
0.0
 11
-265.1958974497463
 21
-42.44478084471568
 31
0.0
  0
LINE
  5
7D3
330
73D
100
AcDbEntity
  8
Vista
 62
     4
100
AcDbLine
 10
-265.1983974497463
 20
-42.44904656451983
 30
0.0
 11
-265.1973974497463
 21
-42.44883783223379
 31
0.0
  0
LINE
  5
7D4
330
73D
100
AcDbEntity
  8
CORTE
  6
Continuous
 62
     4
100
AcDbLine
 10
-265.1973974497463
 20
-42.44883783223379
 30
0.0
 11
-265.1973974497463
 21
-42.44509394314476
 31
0.0
  0
LINE
  5
7D5
330
73D
100
AcDbEntity
  8
CORTE
  6
Continuous
 62
     4
100
AcDbLine
 10
-265.1943974497464
 20
-42.44883783223379
 30
0.0
 11
-265.1943974497464
 21
-42.44369568303464
 31
0.0
  0
LINE
  5
7D6
330
73D
100
AcDbEntity
  8
CORTE
  6
Continuous
 62
     4
100
AcDbLine
 10
-265.1838974497463
 20
-42.44224352963455
 30
0.0
 11
-265.1838974497463
 21
-42.44150399403126
 31
0.0
  0
LINE
  5
7D7
330
73D
100
AcDbEntity
  8
CORTE
  6
Continuous
 62
     4
100
AcDbLine
 10
-265.1823974497464
 20
-42.44630051715266
 30
0.0
 11
-265.1823974497464
 21
-42.44115836795351
 31
0.0
  0
LINE
  5
7D8
330
73D
100
AcDbEntity
  8
Vista
 62
     4
100
AcDbLine
 10
-265.1823974497464
 20
-42.44630051715266
 30
0.0
 11
-265.1853974497464
 21
-42.44630051715266
 31
0.0
  0
LINE
  5
7D9
330
73D
100
AcDbEntity
  8
CORTE
  6
Continuous
 62
     4
100
AcDbLine
 10
-265.1853974497464
 20
-42.44630051715266
 30
0.0
 11
-265.1853974497464
 21
-42.44255662806362
 31
0.0
  0
LINE
  5
7DA
330
73D
100
AcDbEntity
  8
Vista
 62
     4
100
AcDbLine
 10
-265.1863974497463
 20
-42.4465092494387
 30
0.0
 11
-265.1853974497464
 21
-42.44630051715266
 31
0.0
  0
LINE
  5
7DB
330
73D
100
AcDbEntity
  8
Vista
 62
     4
100
AcDbLine
 10
-265.1863974497463
 20
-42.44276536034966
 30
0.0
 11
-265.1838974497463
 21
-42.44224352963455
 31
0.0
  0
LINE
  5
7DC
330
73D
100
AcDbEntity
  8
CORTE
  6
Continuous
 62
     4
100
AcDbLine
 10
-265.1863974497463
 20
-42.44716797394549
 30
0.0
 11
-265.1863974497463
 21
-42.44203142505658
 31
0.0
  0
LINE
  5
7DD
330
73D
100
AcDbEntity
  8
Vista
 62
     4
100
AcDbLine
 10
-265.1703974497463
 20
-42.44384563093466
 30
0.0
 11
-265.1623974497463
 21
-42.44217577264636
 31
0.0
  0
LINE
  5
7DE
330
73D
100
AcDbEntity
  8
Vista
 62
     4
100
AcDbLine
 10
-265.1823974497464
 20
-42.44630051715266
 30
0.0
 11
-265.1743974497463
 21
-42.44463065886439
 31
0.0
  0
LINE
  5
7DF
330
73D
100
AcDbEntity
  8
CORTE
  6
Continuous
 62
     4
100
AcDbLine
 10
-265.1743974497463
 20
-42.44463065886439
 30
0.0
 11
-265.1743974497463
 21
-42.43952103731389
 31
0.0
  0
LINE
  5
7E0
330
73D
100
AcDbEntity
  8
CORTE
  6
Continuous
 62
     4
100
AcDbLine
 10
-265.1733974497464
 20
-42.44384563093466
 30
0.0
 11
-265.1733974497464
 21
-42.44010174184562
 31
0.0
  0
LINE
  5
7E1
330
73D
100
AcDbEntity
  8
CORTE
  6
Continuous
 62
     4
100
AcDbLine
 10
-265.1703974497463
 20
-42.44384563093466
 30
0.0
 11
-265.1703974497463
 21
-42.43870348173551
 31
0.0
  0
LINE
  5
7E2
330
73D
100
AcDbEntity
  8
Vista
 62
     4
100
AcDbLine
 10
-265.1703974497463
 20
-42.44384563093466
 30
0.0
 11
-265.1733974497464
 21
-42.44384563093466
 31
0.0
  0
LINE
  5
7E3
330
73D
100
AcDbEntity
  8
Vista
 62
     4
100
AcDbLine
 10
-265.1743974497463
 20
-42.4440543632207
 30
0.0
 11
-265.1733974497464
 21
-42.44384563093466
 31
0.0
  0
LINE
  5
7E4
330
73D
100
AcDbEntity
  8
CORTE
  6
Continuous
 62
     4
100
AcDbLine
 10
-265.1718974497463
 20
-42.43978864341655
 30
0.0
 11
-265.1718974497463
 21
-42.43901658016456
 31
0.0
  0
LINE
  5
7E5
330
73D
100
AcDbEntity
  8
Vista
 62
     4
100
AcDbLine
 10
-265.1743974497463
 20
-42.44031047413163
 30
0.0
 11
-265.1718974497463
 21
-42.43978864341655
 31
0.0
  0
LINE
  5
7E6
330
73D
100
AcDbEntity
  8
CORTE
  6
Continuous
 62
     4
100
AcDbLine
 10
-265.1623974497463
 20
-42.44217577264636
 30
0.0
 11
-265.1623974497463
 21
-42.43703922375745
 31
0.0
  0
LINE
  5
7E7
330
73D
100
AcDbEntity
  8
Vista
 62
     4
100
AcDbLine
 10
-265.1583974497464
 20
-42.44133239831891
 30
0.0
 11
-265.1503974497463
 21
-42.43966254003062
 31
0.0
  0
LINE
  5
7E8
330
73D
100
AcDbEntity
  8
Vista
 62
     4
100
AcDbLine
 10
-265.1583974497464
 20
-42.44133239831891
 30
0.0
 11
-265.1613974497463
 21
-42.44133239831891
 31
0.0
  0
LINE
  5
7E9
330
73D
100
AcDbEntity
  8
CORTE
  6
Continuous
 62
     4
100
AcDbLine
 10
-265.1598974497463
 20
-42.4372754108008
 30
0.0
 11
-265.1598974497463
 21
-42.43650334754879
 31
0.0
  0
LINE
  5
7EA
330
73D
100
AcDbEntity
  8
Vista
 62
     4
100
AcDbLine
 10
-265.1623974497463
 20
-42.43779724151589
 30
0.0
 11
-265.1598974497463
 21
-42.4372754108008
 31
0.0
  0
LINE
  5
7EB
330
73D
100
AcDbEntity
  8
Vista
 62
     4
100
AcDbLine
 10
-265.1623974497463
 20
-42.44154113060496
 30
0.0
 11
-265.1613974497463
 21
-42.44133239831891
 31
0.0
  0
LINE
  5
7EC
330
73D
100
AcDbEntity
  8
CORTE
  6
Continuous
 62
     4
100
AcDbLine
 10
-265.1613974497463
 20
-42.44133239831891
 30
0.0
 11
-265.1613974497463
 21
-42.43758850922985
 31
0.0
  0
LINE
  5
7ED
330
73D
100
AcDbEntity
  8
CORTE
  6
Continuous
 62
     4
100
AcDbLine
 10
-265.1583974497464
 20
-42.44133239831891
 30
0.0
 11
-265.1583974497464
 21
-42.43619024911974
 31
0.0
  0
LINE
  5
7EE
330
73D
100
AcDbEntity
  8
CORTE
  6
Continuous
 62
     4
100
AcDbLine
 10
-265.1478974497463
 20
-42.43473809571968
 30
0.0
 11
-265.1478974497463
 21
-42.43399856011636
 31
0.0
  0
LINE
  5
7EF
330
73D
100
AcDbEntity
  8
CORTE
  6
Continuous
 62
     4
100
AcDbLine
 10
-265.1463974497464
 20
-42.43879508323779
 30
0.0
 11
-265.1463974497464
 21
-42.43365293403861
 31
0.0
  0
LINE
  5
7F0
330
73D
100
AcDbEntity
  8
Vista
 62
     4
100
AcDbLine
 10
-265.1463974497464
 20
-42.43879508323779
 30
0.0
 11
-265.1493974497463
 21
-42.43879508323779
 31
0.0
  0
LINE
  5
7F1
330
73D
100
AcDbEntity
  8
CORTE
  6
Continuous
 62
     4
100
AcDbLine
 10
-265.1493974497463
 20
-42.43879508323779
 30
0.0
 11
-265.1493974497463
 21
-42.43505119414872
 31
0.0
  0
LINE
  5
7F2
330
73D
100
AcDbEntity
  8
Vista
 62
     4
100
AcDbLine
 10
-265.1503974497463
 20
-42.43900381552383
 30
0.0
 11
-265.1493974497463
 21
-42.43879508323779
 31
0.0
  0
LINE
  5
7F3
330
73D
100
AcDbEntity
  8
Vista
 62
     4
100
AcDbLine
 10
-265.1503974497463
 20
-42.43525992643476
 30
0.0
 11
-265.1478974497463
 21
-42.43473809571968
 31
0.0
  0
LINE
  5
7F4
330
73D
100
AcDbEntity
  8
CORTE
  6
Continuous
 62
     4
100
AcDbLine
 10
-265.1503974497463
 20
-42.43966254003062
 30
0.0
 11
-265.1503974497463
 21
-42.43452599114171
 31
0.0
  0
LINE
  5
7F5
330
73D
100
AcDbEntity
  8
Vista
 62
     4
100
AcDbLine
 10
-265.1463974497464
 20
-42.43879508323779
 30
0.0
 11
-265.1383974497463
 21
-42.43712522494949
 31
0.0
  0
LINE
  5
7F6
330
73D
100
AcDbEntity
  8
CORTE
  6
Continuous
 62
     4
100
AcDbLine
 10
-265.1383974497463
 20
-42.43712522494949
 30
0.0
 11
-265.1383974497463
 21
-42.43201560339902
 31
0.0
  0
LINE
  5
7F7
330
73D
100
AcDbEntity
  8
CORTE
  6
Continuous
 62
     4
100
AcDbLine
 10
-265.1373974497464
 20
-42.43634019701978
 30
0.0
 11
-265.1373974497464
 21
-42.43259630793072
 31
0.0
  0
LINE
  5
7F8
330
73D
100
AcDbEntity
  8
CORTE
  6
Continuous
 62
     4
100
AcDbLine
 10
-265.1343974497464
 20
-42.43634019701978
 30
0.0
 11
-265.1343974497464
 21
-42.43119804782061
 31
0.0
  0
LINE
  5
7F9
330
73D
100
AcDbEntity
  8
Vista
 62
     4
100
AcDbLine
 10
-265.1383974497463
 20
-42.43654892930583
 30
0.0
 11
-265.1373974497464
 21
-42.43634019701978
 31
0.0
  0
LINE
  5
7FA
330
73D
100
AcDbEntity
  8
CORTE
  6
Continuous
 62
     4
100
AcDbLine
 10
-265.1358974497463
 20
-42.43228320950167
 30
0.0
 11
-265.1358974497463
 21
-42.43151114624966
 31
0.0
  0
LINE
  5
7FB
330
73D
100
AcDbEntity
  8
Vista
 62
     4
100
AcDbLine
 10
-265.1383974497463
 20
-42.43280504021676
 30
0.0
 11
-265.1358974497463
 21
-42.43228320950167
 31
0.0
  0
LINE
  5
7FC
330
73D
100
AcDbEntity
  8
Vista
 62
     4
100
AcDbLine
 10
-265.1353528293179
 20
-42.43634019701978
 30
0.0
 11
-265.1373974497464
 21
-42.43634019701978
 31
0.0
  0
LWPOLYLINE
  5
7FD
330
73D
100
AcDbEntity
  8
Vista
  6
Continuous
 62
     3
100
AcDbPolyline
 90
       21
 70
     0
 43
0.0
 10
-265.1383166796941
 20
-42.44488631174739
 42
0.384929168564455
 10
-265.1378192281659
 20
-42.4444367297706
 42
-0.2416670294637282
 10
-265.1356038227205
 20
-42.44101999835858
 42
0.2685636005234456
 10
-265.1353528293179
 20
-42.44058641363274
 10
-265.1353528293179
 20
-42.43634019701978
 10
-265.1343974497464
 20
-42.43634019701978
 10
-265.1318419531143
 20
-42.43580678236582
 10
-265.1318419531143
 20
-42.43064312650061
 10
-265.1161247926731
 20
-42.42736244767171
 42
0.3514578094911731
 10
-265.1153419531143
 20
-42.42638631174741
 10
-265.1153419531143
 20
-42.42287691224864
 42
-0.3189892314182308
 10
-265.1121434289239
 20
-42.41946666761764
 42
0.3568183404962087
 10
-265.1113419531143
 20
-42.41848657162957
 10
-265.1113419531143
 20
-42.41652292015008
 10
-265.1100037407593
 20
-42.41624359202602
 42
0.3051840064494136
 10
-265.1050919531143
 20
-42.4111363117474
 42
-0.2900042141350497
 10
-265.1005238724924
 20
-42.40611328262953
 10
-265.0995390095354
 20
-42.40590770993311
 42
0.3266838343405565
 10
-265.0988419531143
 20
-42.40495470143993
 10
-265.0988419531143
 20
-42.4023863117474
 10
-265.1113419531143
 20
-42.4023863117474
  0
LINE
  5
7FE
330
73D
100
AcDbEntity
  8
Vista
 62
     6
100
AcDbLine
 10
-265.0999942150913
 20
-42.55723976658283
 30
0.0
 11
-265.0999942150913
 21
-42.51473976658282
 31
0.0
  0
LINE
  5
7FF
330
73D
100
AcDbEntity
  8
Vista
 62
     6
100
AcDbLine
 10
-265.2079942150913
 20
-42.55723976658283
 30
0.0
 11
-265.2079942150913
 21
-42.51473976658282
 31
0.0
  0
LINE
  5
800
330
73D
100
AcDbEntity
  8
Vista
 62
     2
100
AcDbLine
 10
-265.2079942150914
 20
-42.51796536909266
 30
0.0
 11
-265.0999942150913
 21
-42.51796536909266
 31
0.0
  0
LINE
  5
801
330
73D
100
AcDbEntity
  8
Vista
 62
     3
100
AcDbLine
 10
-265.2079942150913
 20
-42.51473976658279
 30
0.0
 11
-265.0999942150913
 21
-42.51473976658284
 31
0.0
  0
LINE
  5
802
330
73D
100
AcDbEntity
  8
Vista
 62
     2
100
AcDbLine
 10
-265.2079942150913
 20
-42.52873976658283
 30
0.0
 11
-265.0999942150913
 21
-42.52873976658283
 31
0.0
  0
LINE
  5
803
330
73D
100
AcDbEntity
  8
Vista
 62
     2
100
AcDbLine
 10
-265.2079942150914
 20
-42.53147306509318
 30
0.0
 11
-265.0999942150913
 21
-42.53147306509318
 31
0.0
  0
LINE
  5
804
330
73D
100
AcDbEntity
  8
Vista
 62
     2
100
AcDbLine
 10
-265.2079942150913
 20
-42.53973976658282
 30
0.0
 11
-265.0999942150913
 21
-42.53973976658282
 31
0.0
  0
LINE
  5
805
330
73D
100
AcDbEntity
  8
Vista
 62
     2
100
AcDbLine
 10
-265.2079942150913
 20
-42.55319036467706
 30
0.0
 11
-265.0999942150913
 21
-42.55319036467709
 31
0.0
  0
LINE
  5
806
330
73D
100
AcDbEntity
  8
Vista
 62
     3
100
AcDbLine
 10
-265.2079942150913
 20
-42.55723976658283
 30
0.0
 11
-265.0999942150913
 21
-42.55723976658283
 31
0.0
  0
ENDBLK
  5
808
330
73D
100
AcDbEntity
  8
0
 62
     3
100
AcDbBlockEnd
  0
BLOCK
  5
B6F
330
B69
100
AcDbEntity
  8
0
 62
     3
100
AcDbBlockBegin
  2
A$C263D6B6A
 70
     0
 10
0.0
 20
0.0
 30
0.0
  3
A$C263D6B6A
  1

  0
HATCH
  5
B6A
330
B69
100
AcDbEntity
  8
Sezione
100
AcDbHatch
 10
0.0
 20
0.0
 30
0.0
210
0.0
220
0.0
230
1.0
  2
ANSI31
 70
     0
 71
     0
 91
        1
 92
        7
 72
     0
 73
     1
 93
        6
 10
0.0922667539244952
 20
0.0862807646728965
 10
-0.0000000665657739
 20
0.0862807646728965
 10
-0.0000000665657739
 20
0.0003091066906239
 10
0.0191316019951639
 20
0.0003091066906239
 10
0.0191316019951639
 20
0.0668219886661159
 10
0.0922667539244952
 20
0.0668219886661158
 97
        0
 75
     0
 76
     1
 52
0.0
 41
0.002
 77
     0
 78
     1
 53
45.0
 43
-0.0858288002254417
 44
-0.1359207187670848
 45
-0.0044901280605346
 46
0.0044901280605346
 79
     0
 47
0.0003507291251325
 98
        1
 10
0.0287510465309501
 20
0.0740124973428604
1001
ACAD
1010
0.0
1020
0.0
1030
0.0
  0
LINE
  5
B6B
330
B69
100
AcDbEntity
  8
Sezione
100
AcDbLine
 10
0.0191316019951639
 20
0.0000000122728271
 30
0.0
 11
0.0191316019951639
 21
0.0668219886661159
 31
0.0
  0
LINE
  5
B6C
330
B69
100
AcDbEntity
  8
Sezione
100
AcDbLine
 10
0.0191316019951639
 20
0.0668219886661159
 30
0.0
 11
0.0923266054750259
 21
0.0668219886661159
 31
0.0
  0
ENDBLK
  5
B70
330
B69
100
AcDbEntity
  8
0
 62
     3
100
AcDbBlockEnd
  0
BLOCK
  5
BFC
330
BFB
100
AcDbEntity
  8
0
100
AcDbBlockBegin
  2
*X10
 70
     1
 10
0.0
 20
0.0
 30
0.0
  3
*X10
  1

  0
LINE
  5
BFD
330
BFB
100
AcDbEntity
  8
0
 62
     0
100
AcDbLine
 10
486.460053877036
 20
124.0678285189305
 30
0.0
 11
503.5693156116774
 21
141.1770902535719
 31
0.0
  0
LINE
  5
BFE
330
BFB
100
AcDbEntity
  8
0
 62
     0
100
AcDbLine
 10
615.6341149734076
 20
253.2418896153022
 30
0.0
 11
629.3545087289434
 21
266.9622833708378
 31
0.0
  0
LINE
  5
BFF
330
BFB
100
AcDbEntity
  8
0
 62
     0
100
AcDbLine
 10
486.460053877036
 20
132.9066632837623
 30
0.0
 11
503.5693156116774
 21
150.0159250184037
 31
0.0
  0
LINE
  5
C00
330
BFB
100
AcDbEntity
  8
0
 62
     0
100
AcDbLine
 10
606.7952802085758
 20
253.2418896153022
 30
0.0
 11
620.5156739641116
 21
266.9622833708378
 31
0.0
  0
LINE
  5
C01
330
BFB
100
AcDbEntity
  8
0
 62
     0
100
AcDbLine
 10
486.460053877036
 20
141.7454980485942
 30
0.0
 11
503.5693156116774
 21
158.8547597832356
 31
0.0
  0
LINE
  5
C02
330
BFB
100
AcDbEntity
  8
0
 62
     0
100
AcDbLine
 10
597.9564454437441
 20
253.2418896153022
 30
0.0
 11
611.6768391992796
 21
266.9622833708378
 31
0.0
  0
LINE
  5
C03
330
BFB
100
AcDbEntity
  8
0
 62
     0
100
AcDbLine
 10
486.460053877036
 20
150.584332813426
 30
0.0
 11
503.5693156116774
 21
167.6935945480674
 31
0.0
  0
LINE
  5
C04
330
BFB
100
AcDbEntity
  8
0
 62
     0
100
AcDbLine
 10
589.1176106789122
 20
253.2418896153022
 30
0.0
 11
602.8380044344478
 21
266.9622833708378
 31
0.0
  0
LINE
  5
C05
330
BFB
100
AcDbEntity
  8
0
 62
     0
100
AcDbLine
 10
486.460053877036
 20
159.4231675782578
 30
0.0
 11
503.5693156116774
 21
176.5324293128992
 31
0.0
  0
LINE
  5
C06
330
BFB
100
AcDbEntity
  8
0
 62
     0
100
AcDbLine
 10
580.2787759140803
 20
253.2418896153022
 30
0.0
 11
593.999169669616
 21
266.9622833708378
 31
0.0
  0
LINE
  5
C07
330
BFB
100
AcDbEntity
  8
0
 62
     0
100
AcDbLine
 10
486.460053877036
 20
168.2620023430897
 30
0.0
 11
503.5693156116774
 21
185.3712640777311
 31
0.0
  0
LINE
  5
C08
330
BFB
100
AcDbEntity
  8
0
 62
     0
100
AcDbLine
 10
571.4399411492485
 20
253.2418896153022
 30
0.0
 11
585.1603349047841
 21
266.9622833708378
 31
0.0
  0
LINE
  5
C09
330
BFB
100
AcDbEntity
  8
0
 62
     0
100
AcDbLine
 10
486.460053877036
 20
177.1008371079215
 30
0.0
 11
503.5693156116773
 21
194.2100988425629
 31
0.0
  0
LINE
  5
C0A
330
BFB
100
AcDbEntity
  8
0
 62
     0
100
AcDbLine
 10
562.6011063844166
 20
253.2418896153022
 30
0.0
 11
576.3215001399522
 21
266.9622833708378
 31
0.0
  0
LINE
  5
C0B
330
BFB
100
AcDbEntity
  8
0
 62
     0
100
AcDbLine
 10
486.460053877036
 20
185.9396718727533
 30
0.0
 11
503.5693156116773
 21
203.0489336073947
 31
0.0
  0
LINE
  5
C0C
330
BFB
100
AcDbEntity
  8
0
 62
     0
100
AcDbLine
 10
553.7622716195848
 20
253.2418896153022
 30
0.0
 11
567.4826653751203
 21
266.9622833708378
 31
0.0
  0
LINE
  5
C0D
330
BFB
100
AcDbEntity
  8
0
 62
     0
100
AcDbLine
 10
486.4600538770359
 20
194.7785066375852
 30
0.0
 11
503.5693156116773
 21
211.8877683722266
 31
0.0
  0
LINE
  5
C0E
330
BFB
100
AcDbEntity
  8
0
 62
     0
100
AcDbLine
 10
544.9234368547529
 20
253.2418896153022
 30
0.0
 11
558.6438306102885
 21
266.9622833708378
 31
0.0
  0
LINE
  5
C0F
330
BFB
100
AcDbEntity
  8
0
 62
     0
100
AcDbLine
 10
486.4600538770359
 20
203.617341402417
 30
0.0
 11
503.5693156116773
 21
220.7266031370584
 31
0.0
  0
LINE
  5
C10
330
BFB
100
AcDbEntity
  8
0
 62
     0
100
AcDbLine
 10
536.084602089921
 20
253.2418896153022
 30
0.0
 11
549.8049958454567
 21
266.9622833708378
 31
0.0
  0
LINE
  5
C11
330
BFB
100
AcDbEntity
  8
0
 62
     0
100
AcDbLine
 10
486.4600538770359
 20
212.4561761672488
 30
0.0
 11
503.5693156116773
 21
229.5654379018902
 31
0.0
  0
LINE
  5
C12
330
BFB
100
AcDbEntity
  8
0
 62
     0
100
AcDbLine
 10
527.2457673250892
 20
253.2418896153022
 30
0.0
 11
540.9661610806248
 21
266.9622833708378
 31
0.0
  0
LINE
  5
C13
330
BFB
100
AcDbEntity
  8
0
 62
     0
100
AcDbLine
 10
486.4600538770359
 20
221.2950109320807
 30
0.0
 11
503.5693156116773
 21
238.4042726667221
 31
0.0
  0
LINE
  5
C14
330
BFB
100
AcDbEntity
  8
0
 62
     0
100
AcDbLine
 10
518.4069325602573
 20
253.2418896153022
 30
0.0
 11
532.1273263157929
 21
266.9622833708378
 31
0.0
  0
LINE
  5
C15
330
BFB
100
AcDbEntity
  8
0
 62
     0
100
AcDbLine
 10
486.4600538770359
 20
230.1338456969125
 30
0.0
 11
503.5693156116773
 21
247.2431074315539
 31
0.0
  0
LINE
  5
C16
330
BFB
100
AcDbEntity
  8
0
 62
     0
100
AcDbLine
 10
509.5680977954256
 20
253.2418896153021
 30
0.0
 11
523.2884915509611
 21
266.9622833708377
 31
0.0
  0
LINE
  5
C17
330
BFB
100
AcDbEntity
  8
0
 62
     0
100
AcDbLine
 10
486.4600538770359
 20
238.9726804617443
 30
0.0
 11
514.4496567861292
 21
266.9622833708377
 31
0.0
  0
LINE
  5
C18
330
BFB
100
AcDbEntity
  8
0
 62
     0
100
AcDbLine
 10
486.4600538770359
 20
247.8115152265762
 30
0.0
 11
505.6108220212975
 21
266.9622833708377
 31
0.0
  0
LINE
  5
C19
330
BFB
100
AcDbEntity
  8
0
 62
     0
100
AcDbLine
 10
486.4600538770359
 20
256.6503499914079
 30
0.0
 11
496.7719872564656
 21
266.9622833708377
 31
0.0
  0
LINE
  5
C1A
330
BFB
100
AcDbEntity
  8
0
 62
     0
100
AcDbLine
 10
486.4600538770358
 20
265.4891847562398
 30
0.0
 11
487.9331524916337
 21
266.9622833708377
 31
0.0
  0
LINE
  5
C1B
330
BFB
100
AcDbEntity
  8
0
 62
     0
100
AcDbLine
 10
494.0552738068973
 20
122.8242136839599
 30
0.0
 11
503.5693156116774
 21
132.3382554887401
 31
0.0
  0
LINE
  5
C1C
330
BFB
100
AcDbEntity
  8
0
 62
     0
100
AcDbLine
 10
624.4729497382395
 20
253.2418896153022
 30
0.0
 11
629.496054025455
 21
258.2649939025177
 31
0.0
  0
LINE
  5
C1D
330
BFB
100
AcDbEntity
  8
0
 62
     0
100
AcDbLine
 10
502.8941085717291
 20
122.8242136839599
 30
0.0
 11
503.5693156116775
 21
123.4994207239083
 31
0.0
  0
ENDBLK
  5
C1E
330
BFB
100
AcDbEntity
  8
0
100
AcDbBlockEnd
  0
BLOCK
  5
C24
330
C1F
100
AcDbEntity
  8
0
100
AcDbBlockBegin
  2
A$C6C65579B
 70
     0
 10
0.0
 20
0.0
 30
0.0
  3
A$C6C65579B
  1

  0
LINE
  5
C20
330
C1F
100
AcDbEntity
  8
CORTE
  6
RAYITAX4
 62
     4
100
AcDbLine
 10
-265.2537935691752
 20
-42.42682209115611
 30
0.0
 11
-265.2537935691752
 21
-42.55723976708748
 31
0.0
  0
LINE
  5
C21
330
C1F
100
AcDbEntity
  8
CORTE
  6
RAYITAX4
 62
     4
100
AcDbLine
 10
-265.2537935691752
 20
-42.42682209115611
 30
0.0
 11
-265.1278668307615
 21
-42.42682209115611
 31
0.0
  0
INSERT
  5
C22
330
C1F
100
AcDbEntity
  8
TRAMA
100
AcDbBlockReference
  2
*X10
 10
-265.7573628847869
 20
-42.68006398077142
 30
0.0
 41
0.0009999999999764
 42
0.0010000000000048
 43
0.001
1001
ACAD
1000
HATCH
1002
{
1070
    16
1000
ANSI31
1040
50.0
1040
0.0
1002
}
  0
LWPOLYLINE
  5
C23
330
C1F
100
AcDbEntity
  8
CORTE
  6
Continuous
 62
     1
100
AcDbPolyline
 90
       27
 70
     0
 43
0.0
 10
-265.2434935691752
 20
-42.52048009449487
 42
-0.1309515943895288
 10
-265.2396188804983
 20
-42.50227169263183
 42
-0.0391865213385924
 10
-265.2318861974755
 20
-42.48961463308666
 42
0.148047983309989
 10
-265.2273603786659
 20
-42.46536751056521
 42
-0.477131438324366
 10
-265.226266012113
 20
-42.46426334617865
 42
0.3174254686240992
 10
-265.2222487718652
 20
-42.46199398787246
 10
-265.2204935691752
 20
-42.45828353660647
 42
0.3390955557305459
 10
-265.2133594019252
 20
-42.45748275993213
 42
0.1067380655143518
 10
-265.2064935691752
 20
-42.44728353660645
 10
-265.2014935691752
 20
-42.44428353660646
 42
0.6316956553984646
 10
-265.1944935691752
 20
-42.44228353660645
 42
-0.4142135623730849
 10
-265.1884935691752
 20
-42.43628353660648
 10
-265.1804935691752
 20
-42.43628353660648
 42
0.4142135623730847
 10
-265.1784935691752
 20
-42.43428353660647
 10
-265.1784935691752
 20
-42.42728353660647
 10
-265.1984935691753
 20
-42.42728353660647
 10
-265.2184935691752
 20
-42.43928353660646
 10
-265.2222940706685
 20
-42.43961583728498
 42
0.2192482621402799
 10
-265.2266538493824
 20
-42.4421056036295
 10
-265.2379730166141
 20
-42.45795243775387
 42
0.1840335527349514
 10
-265.239055826335
 20
-42.46208505147598
 10
-265.2384935691752
 20
-42.46728353660649
 10
-265.2534935691752
 20
-42.5122835366065
 10
-265.2534935691752
 20
-42.53228353660648
 10
-265.2454935691752
 20
-42.53228353660648
 42
0.4142135623730847
 10
-265.2434935691752
 20
-42.53028353660647
 10
-265.2434935691752
 20
-42.51681234902133
  0
ENDBLK
  5
C25
330
C1F
100
AcDbEntity
  8
0
100
AcDbBlockEnd
  0
BLOCK
  5
23EF
330
23E4
100
AcDbEntity
  8
0
100
AcDbBlockBegin
  2
*D19
 70
     1
 10
0.0
 20
0.0
 30
0.0
  3
*D19
  1

  0
LINE
  5
23F2
330
23E4
100
AcDbEntity
  8
Dimensione
 62
     5
370
    -2
100
AcDbLine
 10
0.0899400776841043
 20
0.2158910961350955
 30
0.0
 11
0.1162964186981224
 21
0.2158910961350955
 31
0.0
  0
LINE
  5
23F3
330
23E4
100
AcDbEntity
  8
Dimensione
 62
     5
370
    -2
100
AcDbLine
 10
0.0698582281554696
 20
0.1257515496499479
 30
0.0
 11
0.1162964186981224
 21
0.1257515496499479
 31
0.0
  0
LINE
  5
23F4
330
23E4
100
AcDbEntity
  8
Dimensione
 62
     5
370
    -2
100
AcDbLine
 10
0.1161164186981224
 20
0.2158910961350955
 30
0.0
 11
0.1161164186981224
 21
0.1743213228925217
 31
0.0
  0
LINE
  5
23F5
330
23E4
100
AcDbEntity
  8
Dimensione
 62
     5
370
    -2
100
AcDbLine
 10
0.1161164186981224
 20
0.1257515496499479
 30
0.0
 11
0.1161164186981224
 21
0.1673213228925217
 31
0.0
  0
INSERT
  5
23F6
330
23E4
100
AcDbEntity
  8
Dimensione
 62
     5
370
    -2
100
AcDbBlockReference
  2
_ArchTick
 10
0.1161164186981224
 20
0.2158910961350955
 30
0.0
 41
0.0015
 42
0.0015
 43
0.0015
 50
90.0
  0
INSERT
  5
23F7
330
23E4
100
AcDbEntity
  8
Dimensione
 62
     5
370
    -2
100
AcDbBlockReference
  2
_ArchTick
 10
0.1161164186981224
 20
0.1257515496499479
 30
0.0
 41
0.0015
 42
0.0015
 43
0.0015
 50
270.0
  0
MTEXT
  5
23F8
330
23E4
100
AcDbEntity
  8
Dimensione
 62
     4
100
AcDbMText
 10
0.1161164186981224
 20
0.1708213228925217
 30
0.0
 40
0.003
 41
0.0
 71
     5
 72
     1
  1
\A1;90 mm
  7
ROMANS
 73
     1
 44
1.0
1001
ACAD
1000
MTEXTBEGIN
1070
    73
1070
     1
1070
    44
1040
1.0
1070
    74
1070
     0
1000
MTEXTEND
  0
POINT
  5
23F9
330
23E4
100
AcDbEntity
  8
Defpoints
 62
     0
100
AcDbPoint
 10
0.0898775776841043
 20
0.2158910961350955
 30
0.0
  0
POINT
  5
23FA
330
23E4
100
AcDbEntity
  8
Defpoints
 62
     0
100
AcDbPoint
 10
0.0697957281554696
 20
0.1257515496499479
 30
0.0
  0
POINT
  5
23FB
330
23E4
100
AcDbEntity
  8
Defpoints
 62
     0
100
AcDbPoint
 10
0.1161164186981224
 20
0.1257515496499479
 30
0.0
  0
ENDBLK
  5
23F0
330
23E4
100
AcDbEntity
  8
0
100
AcDbBlockEnd
  0
BLOCK
  5
2423
330
2418
100
AcDbEntity
  8
0
100
AcDbBlockBegin
  2
*D21
 70
     1
 10
0.0
 20
0.0
 30
0.0
  3
*D21
  1

  0
LINE
  5
2426
330
2418
100
AcDbEntity
  8
Dimensione
 62
     5
370
    -2
100
AcDbLine
 10
0.0667550213154422
 20
0.125689049649948
 30
0.0
 11
0.0667550213154422
 21
0.099693047605998
 31
0.0
  0
LINE
  5
2427
330
2418
100
AcDbEntity
  8
Dimensione
 62
     5
370
    -2
100
AcDbLine
 10
0.0962186600829745
 20
0.2048229952450777
 30
0.0
 11
0.0962186600829745
 21
0.099693047605998
 31
0.0
  0
LINE
  5
2428
330
2418
100
AcDbEntity
  8
Dimensione
 62
     5
370
    -2
100
AcDbLine
 10
0.0667550213154422
 20
0.099873047605998
 30
0.0
 11
0.0713439835563512
 21
0.099873047605998
 31
0.0
  0
LINE
  5
2429
330
2418
100
AcDbEntity
  8
Dimensione
 62
     5
370
    -2
100
AcDbLine
 10
0.0962186600829745
 20
0.099873047605998
 30
0.0
 11
0.0916296978420655
 21
0.099873047605998
 31
0.0
  0
INSERT
  5
242A
330
2418
100
AcDbEntity
  8
Dimensione
 62
     5
370
    -2
100
AcDbBlockReference
  2
_ArchTick
 10
0.0667550213154422
 20
0.099873047605998
 30
0.0
 41
0.0015
 42
0.0015
 43
0.0015
 50
180.0
  0
INSERT
  5
242B
330
2418
100
AcDbEntity
  8
Dimensione
 62
     5
370
    -2
100
AcDbBlockReference
  2
_ArchTick
 10
0.0962186600829745
 20
0.099873047605998
 30
0.0
 41
0.0015
 42
0.0015
 43
0.0015
  0
MTEXT
  5
242C
330
2418
100
AcDbEntity
  8
Dimensione
 62
     4
100
AcDbMText
 10
0.0814868406992084
 20
0.099873047605998
 30
0.0
 40
0.003
 41
0.0
 71
     5
 72
     1
  1
\A1;26 mm
  7
ROMANS
 73
     1
 44
1.0
1001
ACAD
1000
MTEXTBEGIN
1070
    73
1070
     1
1070
    44
1040
1.0
1070
    74
1070
     0
1000
MTEXTEND
  0
POINT
  5
242D
330
2418
100
AcDbEntity
  8
Defpoints
 62
     0
100
AcDbPoint
 10
0.0667550213154422
 20
0.1257515496499479
 30
0.0
  0
POINT
  5
242E
330
2418
100
AcDbEntity
  8
Defpoints
 62
     0
100
AcDbPoint
 10
0.0962186600829745
 20
0.2048854952450777
 30
0.0
  0
POINT
  5
242F
330
2418
100
AcDbEntity
  8
Defpoints
 62
     0
100
AcDbPoint
 10
0.0962186600829745
 20
0.099873047605998
 30
0.0
  0
ENDBLK
  5
2424
330
2418
100
AcDbEntity
  8
0
100
AcDbBlockEnd
  0
BLOCK
  5
26C0
330
26B5
100
AcDbEntity
  8
0
100
AcDbBlockBegin
  2
*D24
 70
     1
 10
0.0
 20
0.0
 30
0.0
  3
*D24
  1

  0
LINE
  5
26C3
330
26B5
100
AcDbEntity
  8
Dimensione
 62
     5
370
    -2
100
AcDbLine
 10
0.0852233760622264
 20
0.2115096489505959
 30
0.0
 11
0.1067737548929981
 21
0.2115096489505959
 31
0.0
  0
LINE
  5
26C4
330
26B5
100
AcDbEntity
  8
Dimensione
 62
     5
370
    -2
100
AcDbLine
 10
0.0719844814972485
 20
0.1465313075630945
 30
0.0
 11
0.106773754892998
 21
0.1465313075630945
 31
0.0
  0
LINE
  5
26C5
330
26B5
100
AcDbEntity
  8
Dimensione
 62
     5
370
    -2
100
AcDbLine
 10
0.1065937548929981
 20
0.2115096489505959
 30
0.0
 11
0.1065937548929981
 21
0.1825204782568452
 31
0.0
  0
LINE
  5
26C6
330
26B5
100
AcDbEntity
  8
Dimensione
 62
     5
370
    -2
100
AcDbLine
 10
0.106593754892998
 20
0.1465313075630945
 30
0.0
 11
0.1065937548929981
 21
0.1755204782568452
 31
0.0
  0
INSERT
  5
26C7
330
26B5
100
AcDbEntity
  8
Dimensione
 62
     5
370
    -2
100
AcDbBlockReference
  2
_ArchTick
 10
0.1065937548929981
 20
0.2115096489505959
 30
0.0
 41
0.0015
 42
0.0015
 43
0.0015
 50
90.0
  0
INSERT
  5
26C8
330
26B5
100
AcDbEntity
  8
Dimensione
 62
     5
370
    -2
100
AcDbBlockReference
  2
_ArchTick
 10
0.106593754892998
 20
0.1465313075630945
 30
0.0
 41
0.0015
 42
0.0015
 43
0.0015
 50
270.0
  0
MTEXT
  5
26C9
330
26B5
100
AcDbEntity
  8
Dimensione
 62
     4
100
AcDbMText
 10
0.106593754892998
 20
0.1790204782568452
 30
0.0
 40
0.003
 41
0.0
 71
     5
 72
     1
  1
\A1;65 mm
  7
ROMANS
 73
     1
 44
1.0
1001
ACAD
1000
MTEXTBEGIN
1070
    73
1070
     1
1070
    44
1040
1.0
1070
    74
1070
     0
1000
MTEXTEND
  0
POINT
  5
26CA
330
26B5
100
AcDbEntity
  8
Defpoints
 62
     0
100
AcDbPoint
 10
0.0851608760622264
 20
0.2115096489505959
 30
0.0
  0
POINT
  5
26CB
330
26B5
100
AcDbEntity
  8
Defpoints
 62
     0
100
AcDbPoint
 10
0.0719219814972485
 20
0.1465313075630945
 30
0.0
  0
POINT
  5
26CC
330
26B5
100
AcDbEntity
  8
Defpoints
 62
     0
100
AcDbPoint
 10
0.106593754892998
 20
0.1465313075630945
 30
0.0
  0
ENDBLK
  5
26C1
330
26B5
100
AcDbEntity
  8
0
100
AcDbBlockEnd
  0
BLOCK
  5
26DA
330
26CF
100
AcDbEntity
  8
0
100
AcDbBlockBegin
  2
*D25
 70
     1
 10
0.0
 20
0.0
 30
0.0
  3
*D25
  1

  0
LINE
  5
26DD
330
26CF
100
AcDbEntity
  8
Dimensione
 62
     5
370
    -2
100
AcDbLine
 10
0.0664782846779213
 20
0.1464688075630945
 30
0.0
 11
0.0664782846779199
 21
-22.73652467780024
 31
0.0
  0
LINE
  5
26DE
330
26CF
100
AcDbEntity
  8
Dimensione
 62
     5
370
    -2
100
AcDbLine
 10
0.0893594242914256
 20
0.1988432782609262
 30
0.0
 11
0.0893594242914242
 21
-22.73652467780024
 31
0.0
  0
LINE
  5
26DF
330
26CF
100
AcDbEntity
  8
Dimensione
 62
     5
370
    -2
100
AcDbLine
 10
0.0664782846779199
 20
-22.73634467780024
 30
0.0
 11
0.0713474259132434
 21
-22.73634467780024
 31
0.0
  0
LINE
  5
26E0
330
26CF
100
AcDbEntity
  8
Dimensione
 62
     5
370
    -2
100
AcDbLine
 10
0.0893594242914242
 20
-22.73634467780024
 30
0.0
 11
0.0844902830561006
 21
-22.73634467780024
 31
0.0
  0
INSERT
  5
26E1
330
26CF
100
AcDbEntity
  8
Dimensione
 62
     5
370
    -2
100
AcDbBlockReference
  2
_ArchTick
 10
0.0664782846779199
 20
-22.73634467780024
 30
0.0
 41
0.0015
 42
0.0015
 43
0.0015
 50
180.0
  0
INSERT
  5
26E2
330
26CF
100
AcDbEntity
  8
Dimensione
 62
     5
370
    -2
100
AcDbBlockReference
  2
_ArchTick
 10
0.0893594242914242
 20
-22.73634467780024
 30
0.0
 41
0.0015
 42
0.0015
 43
0.0015
  0
MTEXT
  5
26E3
330
26CF
100
AcDbEntity
  8
Dimensione
 62
     4
100
AcDbMText
 10
0.077918854484672
 20
-22.73634467780024
 30
0.0
 40
0.003
 41
0.0
 71
     5
 72
     1
  1
\A1;0.02
  7
ROMANS
 73
     1
 44
1.0
1001
ACAD
1000
MTEXTBEGIN
1070
    73
1070
     1
1070
    44
1040
1.0
1070
    74
1070
     0
1000
MTEXTEND
  0
POINT
  5
26E4
330
26CF
100
AcDbEntity
  8
Defpoints
 62
     0
100
AcDbPoint
 10
0.0664782846779213
 20
0.1465313075630945
 30
0.0
  0
POINT
  5
26E5
330
26CF
100
AcDbEntity
  8
Defpoints
 62
     0
100
AcDbPoint
 10
0.0893594242914256
 20
0.1989057782609262
 30
0.0
  0
POINT
  5
26E6
330
26CF
100
AcDbEntity
  8
Defpoints
 62
     0
100
AcDbPoint
 10
0.0893594242914242
 20
-22.73634467780024
 30
0.0
  0
ENDBLK
  5
26DB
330
26CF
100
AcDbEntity
  8
0
100
AcDbBlockEnd
  0
BLOCK
  5
26F4
330
26E9
100
AcDbEntity
  8
0
100
AcDbBlockBegin
  2
*D26
 70
     1
 10
0.0
 20
0.0
 30
0.0
  3
*D26
  1

  0
LINE
  5
26F7
330
26E9
100
AcDbEntity
  8
Dimensione
 62
     5
370
    -2
100
AcDbLine
 10
0.089361970279813
 20
0.1990453010317948
 30
0.0
 11
0.089361970279813
 21
0.1124607602440622
 31
0.0
  0
LINE
  5
26F8
330
26E9
100
AcDbEntity
  8
Dimensione
 62
     5
370
    -2
100
AcDbLine
 10
0.0664782846779213
 20
0.1464688075630945
 30
0.0
 11
0.0664782846779213
 21
0.1124607602440622
 31
0.0
  0
LINE
  5
26F9
330
26E9
100
AcDbEntity
  8
Dimensione
 62
     5
370
    -2
100
AcDbLine
 10
0.089361970279813
 20
0.1126407602440622
 30
0.0
 11
0.0908619702798131
 21
0.1126407602440622
 31
0.0
  0
LINE
  5
26FA
330
26E9
100
AcDbEntity
  8
Dimensione
 62
     5
370
    -2
100
AcDbLine
 10
0.0664782846779213
 20
0.1126407602440622
 30
0.0
 11
0.0649782846779212
 21
0.1126407602440622
 31
0.0
  0
INSERT
  5
26FB
330
26E9
100
AcDbEntity
  8
Dimensione
 62
     5
370
    -2
100
AcDbBlockReference
  2
_ArchTick
 10
0.089361970279813
 20
0.1126407602440622
 30
0.0
 41
0.0015
 42
0.0015
 43
0.0015
 50
180.0
  0
INSERT
  5
26FC
330
26E9
100
AcDbEntity
  8
Dimensione
 62
     5
370
    -2
100
AcDbBlockReference
  2
_ArchTick
 10
0.0664782846779213
 20
0.1126407602440622
 30
0.0
 41
0.0015
 42
0.0015
 43
0.0015
  0
MTEXT
  5
26FD
330
26E9
100
AcDbEntity
  8
Dimensione
 62
     4
100
AcDbMText
 10
0.0779201274788672
 20
0.1126407602440622
 30
0.0
 40
0.003
 41
0.0
 71
     5
 72
     1
  1
\A1;23 mm
  7
ROMANS
 73
     1
 44
1.0
1001
ACAD
1000
MTEXTBEGIN
1070
    73
1070
     1
1070
    44
1040
1.0
1070
    74
1070
     0
1000
MTEXTEND
  0
POINT
  5
26FE
330
26E9
100
AcDbEntity
  8
Defpoints
 62
     0
100
AcDbPoint
 10
0.089361970279813
 20
0.1991078010317948
 30
0.0
  0
POINT
  5
26FF
330
26E9
100
AcDbEntity
  8
Defpoints
 62
     0
100
AcDbPoint
 10
0.0664782846779213
 20
0.1465313075630945
 30
0.0
  0
POINT
  5
2700
330
26E9
100
AcDbEntity
  8
Defpoints
 62
     0
100
AcDbPoint
 10
0.0664782846779213
 20
0.1126407602440622
 30
0.0
  0
ENDBLK
  5
26F5
330
26E9
100
AcDbEntity
  8
0
100
AcDbBlockEnd
  0
BLOCK
  5
2903
330
28F8
100
AcDbEntity
  8
0
100
AcDbBlockBegin
  2
*D30
 70
     1
 10
0.0
 20
0.0
 30
0.0
  3
*D30
  1

  0
LINE
  5
2906
330
28F8
100
AcDbEntity
  8
Dimensione
 62
     5
370
    -2
100
AcDbLine
 10
0.066119954883528
 20
0.2060260950591726
 30
0.0
 11
0.1074077049798345
 21
0.2060260950591726
 31
0.0
  0
LINE
  5
2907
330
28F8
100
AcDbEntity
  8
Dimensione
 62
     5
370
    -2
100
AcDbLine
 10
0.0704161207574666
 20
0.1490260950591846
 30
0.0
 11
0.1074077049798344
 21
0.1490260950591846
 31
0.0
  0
LINE
  5
2908
330
28F8
100
AcDbEntity
  8
Dimensione
 62
     5
370
    -2
100
AcDbLine
 10
0.1072277049798345
 20
0.2060260950591726
 30
0.0
 11
0.1072277049798345
 21
0.1810260950591786
 31
0.0
  0
LINE
  5
2909
330
28F8
100
AcDbEntity
  8
Dimensione
 62
     5
370
    -2
100
AcDbLine
 10
0.1072277049798344
 20
0.1490260950591846
 30
0.0
 11
0.1072277049798345
 21
0.1740260950591786
 31
0.0
  0
INSERT
  5
290A
330
28F8
100
AcDbEntity
  8
Dimensione
 62
     5
370
    -2
100
AcDbBlockReference
  2
_ArchTick
 10
0.1072277049798345
 20
0.2060260950591726
 30
0.0
 41
0.0015
 42
0.0015
 43
0.0015
 50
90.0
  0
INSERT
  5
290B
330
28F8
100
AcDbEntity
  8
Dimensione
 62
     5
370
    -2
100
AcDbBlockReference
  2
_ArchTick
 10
0.1072277049798344
 20
0.1490260950591846
 30
0.0
 41
0.0015
 42
0.0015
 43
0.0015
 50
270.0
  0
MTEXT
  5
290C
330
28F8
100
AcDbEntity
  8
Dimensione
 62
     4
100
AcDbMText
 10
0.1072277049798344
 20
0.1775260950591786
 30
0.0
 40
0.003
 41
0.0
 71
     5
 72
     1
  1
\A1;57 mm
  7
ROMANS
 73
     1
 44
1.0
1001
ACAD
1000
MTEXTBEGIN
1070
    73
1070
     1
1070
    44
1040
1.0
1070
    74
1070
     0
1000
MTEXTEND
  0
POINT
  5
290D
330
28F8
100
AcDbEntity
  8
Defpoints
 62
     0
100
AcDbPoint
 10
0.066057454883528
 20
0.2060260950591726
 30
0.0
  0
POINT
  5
290E
330
28F8
100
AcDbEntity
  8
Defpoints
 62
     0
100
AcDbPoint
 10
0.0703536207574666
 20
0.1490260950591846
 30
0.0
  0
POINT
  5
290F
330
28F8
100
AcDbEntity
  8
Defpoints
 62
     0
100
AcDbPoint
 10
0.1072277049798344
 20
0.1490260950591846
 30
0.0
  0
ENDBLK
  5
2904
330
28F8
100
AcDbEntity
  8
0
100
AcDbBlockEnd
  0
BLOCK
  5
291D
330
2913
100
AcDbEntity
  8
0
100
AcDbBlockBegin
  2
*D31
 70
     1
 10
0.0
 20
0.0
 30
0.0
  3
*D31
  1

  0
LINE
  5
2920
330
2913
100
AcDbEntity
  8
Dimensione
 62
     5
370
    -2
100
AcDbLine
 10
0.066057454883528
 20
0.1489635950591846
 30
0.0
 11
0.066057454883528
 21
0.1231839249028897
 31
0.0
  0
LINE
  5
2921
330
2913
100
AcDbEntity
  8
Dimensione
 62
     5
370
    -2
100
AcDbLine
 10
0.083483600804187
 20
0.1976115764577572
 30
0.0
 11
0.083483600804187
 21
0.1231839249028897
 31
0.0
  0
LINE
  5
2922
330
2913
100
AcDbEntity
  8
Dimensione
 62
     5
370
    -2
100
AcDbLine
 10
0.066057454883528
 20
0.1233639249028897
 30
0.0
 11
0.083483600804187
 21
0.1233639249028897
 31
0.0
  0
MTEXT
  5
2923
330
2913
100
AcDbEntity
  8
Dimensione
 62
     4
100
AcDbMText
 10
0.0747705278438575
 20
0.1161839249028897
 30
0.0
 40
0.003
 41
0.0
 71
     5
 72
     1
  1
\A1;19 mm
  7
ROMANS
 73
     1
 44
1.0
1001
ACAD
1000
MTEXTBEGIN
1070
    73
1070
     1
1070
    44
1040
1.0
1070
    74
1070
     0
1000
MTEXTEND
  0
INSERT
  5
2924
330
2913
100
AcDbEntity
  8
Dimensione
 62
     5
370
    -2
100
AcDbBlockReference
  2
_ArchTick
 10
0.066057454883528
 20
0.1233639249028897
 30
0.0
 41
0.0015
 42
0.0015
 43
0.0015
 50
180.0
  0
INSERT
  5
2925
330
2913
100
AcDbEntity
  8
Dimensione
 62
     5
370
    -2
100
AcDbBlockReference
  2
_ArchTick
 10
0.083483600804187
 20
0.1233639249028897
 30
0.0
 41
0.0015
 42
0.0015
 43
0.0015
  0
POINT
  5
2926
330
2913
100
AcDbEntity
  8
Defpoints
 62
     0
100
AcDbPoint
 10
0.066057454883528
 20
0.1490260950591846
 30
0.0
  0
POINT
  5
2927
330
2913
100
AcDbEntity
  8
Defpoints
 62
     0
100
AcDbPoint
 10
0.083483600804187
 20
0.1976740764577572
 30
0.0
  0
POINT
  5
2928
330
2913
100
AcDbEntity
  8
Defpoints
 62
     0
100
AcDbPoint
 10
0.083483600804187
 20
0.1233639249028897
 30
0.0
  0
ENDBLK
  5
291E
330
2913
100
AcDbEntity
  8
0
100
AcDbBlockEnd
  0
ENDSEC
  0
SECTION
  2
ENTITIES
  0
LINE
  5
D
330
2
100
AcDbEntity
  8
Table
100
AcDbLine
 10
0.02
 20
0.02
 30
0.0
 11
0.4
 21
0.02
 31
0.0
  0
LINE
  5
10
330
2
100
AcDbEntity
  8
Table
100
AcDbLine
 10
0.4
 20
0.02
 30
0.0
 11
0.4
 21
0.2769999999999999
 31
0.0
  0
LINE
  5
11
330
2
100
AcDbEntity
  8
Table
100
AcDbLine
 10
0.4
 20
0.2769999999999999
 30
0.0
 11
0.02
 21
0.277
 31
0.0
  0
LINE
  5
12
330
2
100
AcDbEntity
  8
Table
100
AcDbLine
 10
0.02
 20
0.277
 30
0.0
 11
0.02
 21
0.02
 31
0.0
  0
LINE
  5
13
330
2
100
AcDbEntity
  8
Table
 62
     2
100
AcDbLine
 10
0.015
 20
0.015
 30
0.0
 11
0.4050000000000001
 21
0.015
 31
0.0
  0
LINE
  5
14
330
2
100
AcDbEntity
  8
Table
 62
     2
100
AcDbLine
 10
0.4050000000000001
 20
0.015
 30
0.0
 11
0.4050000000000001
 21
0.2819999999999998
 31
0.0
  0
LINE
  5
15
330
2
100
AcDbEntity
  8
Table
 62
     2
100
AcDbLine
 10
0.4050000000000001
 20
0.2819999999999998
 30
0.0
 11
0.0149999999999999
 21
0.282
 31
0.0
  0
LINE
  5
16
330
2
100
AcDbEntity
  8
Table
 62
     2
100
AcDbLine
 10
0.0149999999999999
 20
0.282
 30
0.0
 11
0.015
 21
0.015
 31
0.0
  0
LINE
  5
17
330
2
100
AcDbEntity
  8
Table
100
AcDbLine
 10
0.21
 20
0.2769999999999999
 30
0.0
 11
0.21
 21
0.2532994226089223
 31
0.0
  0
LINE
  5
1D
330
2
100
AcDbEntity
  8
Table
100
AcDbLine
 10
0.02
 20
0.0528099428524846
 30
0.0
 11
0.4
 21
0.0528099428524846
 31
0.0
  0
MTEXT
  5
1E
330
2
100
AcDbEntity
  8
Text
100
AcDbMText
 10
0.1133313047219695
 20
0.2610796890771976
 30
0.0
 40
0.003
 41
0.1685521855507659
 71
     2
 72
     5
  1
{\fTimes New Roman|b0|i0|c0|p18;Le cornici e gli angoli per pareti e soffitti \fTimes New Roman|b0|i1|c0|p18;      Panel mouldings and corners}
 73
     1
 44
1.0
1001
ACAD
1000
ACAD_MTEXT_DEFINED_HEIGHT_BEGIN
1070
    46
1040
0.0141952763113409
1000
ACAD_MTEXT_DEFINED_HEIGHT_END
1000
MTEXTBEGIN
1070
    73
1070
     1
1070
    44
1040
1.0
1070
    74
1070
     0
1000
MTEXTEND
  0
TEXT
  5
1F
330
2
100
AcDbEntity
  8
Text
100
AcDbText
 10
0.2180556919891047
 20
0.269976982173197
 30
0.0
 40
0.003
  1
Cornice - Moulding : H 57 x 19 mm
  7
ROMANS
100
AcDbText
  0
TEXT
  5
21
330
2
100
AcDbEntity
  8
Text
100
AcDbText
 10
0.2184542410678115
 20
0.2576348370183962
 30
0.0
 40
0.003
  1
File : E - W6L
  7
ROMANS
100
AcDbText
  0
LINE
  5
22
330
2
100
AcDbEntity
  8
Table
100
AcDbLine
 10
0.4
 20
0.2654452889427402
 30
0.0
 11
0.02
 21
0.2654452889427403
 31
0.0
  0
LINE
  5
23
330
2
100
AcDbEntity
  8
Table
100
AcDbLine
 10
0.4
 20
0.2532994226089223
 30
0.0
 11
0.02
 21
0.2532994226089225
 31
0.0
  0
LINE
  5
24
330
2
100
AcDbEntity
  8
Table
100
AcDbLine
 10
0.21
 20
0.0528099428524846
 30
0.0
 11
0.21
 21
0.02
 31
0.0
  0
TEXT
  5
25
330
2
100
AcDbEntity
  8
Text
100
AcDbText
 10
0.0947789320547719
 20
0.2687784133392506
 30
0.0
 40
0.005
  1
EUROSTYL
  7
style1
 72
     1
 11
0.1140561490699125
 21
0.2687784133392506
 31
0.0
100
AcDbText
  0
TEXT
  5
27
330
2
100
AcDbEntity
  8
Text
100
AcDbText
 10
0.348876191563227
 20
0.1483258282008927
 30
0.0
 40
0.005
  1
scala 1:1
  7
Arial
100
AcDbText
  0
MTEXT
  5
10F
102
{ACAD_XDICTIONARY
360
2937
102
}
330
2
100
AcDbEntity
  8
Text
100
AcDbMText
 10
0.305
 20
0.0471738284815141
 30
0.0
 40
0.005
 41
0.1900000000000001
 71
     2
 72
     5
  3
{\fTimes New Roman|b0|i0|c238|p18;\H1.6x;\C4;Bovelacci\P\H0.4375x;\T0.95;via del Commercio, 5  47100 Forli - Italy  \fTimes New Roman|b0|i0|c0|p18;\P\fTimes New Roman|b0|i0|c238|p18;tel.+39-0543721386  fax +39-0543721127\fTimes New Roman|b0|i0|c0|p18
  1
; \fTimes New Roman|b0|i0|c238|p18;www.bovelacci.it\fTimes New Roman|b0|i0|c0|p18; \fTimes New Roman|b0|i0|c238|p18;e-mail: bovelacci@bovelacci\fTimes New Roman|b0|i0|c0|p18;.it}
 73
     1
 44
1.0
1001
ACAD
1000
ACAD_MTEXT_DEFINED_HEIGHT_BEGIN
1070
    46
1040
0.0271738284815141
1000
ACAD_MTEXT_DEFINED_HEIGHT_END
1000
MTEXTBEGIN
1070
    73
1070
     1
1070
    44
1040
1.0
1070
    74
1070
     0
1000
MTEXTEND
  0
MTEXT
  5
110
330
2
100
AcDbEntity
  8
Text
100
AcDbMText
 10
0.0219676065851835
 20
0.0500313976452307
 30
0.0
 40
0.002
 41
0.1863544980601608
 71
     1
 72
     5
  3
{\fArial|b0|i0|c0|p34;\H1.25x;Le caratteristiche tecniche indicate vengono fornite a titolo indicativo e potranno essere modificate senza preavviso. Non devono quindi essere considerate a scopo di specifica.\P\fArial|b0|i1|c0|p34;The given values are
  3
 indicative and can be changed without notice. They cannot be considered like a state.\PThis lealfet and designs embodied within are protected by copyright law and international treaties. Unauthorized repro- duction of the leaflet or any portion of i
  1
t or reproduction of any of the designs embodied therein may result in severe civil penalties and will be prosecuted to the maximum.\PAll right reserved, Bovelacci Forlì Italy.}
 73
     1
 44
1.0
1001
ACAD
1000
MTEXTBEGIN
1070
    73
1070
     1
1070
    44
1040
1.0
1070
    74
1070
     0
1000
MTEXTEND
  0
TEXT
  5
1CA
330
2
100
AcDbEntity
  8
Text
100
AcDbText
 10
0.0596358020417845
 20
0.0835904056631259
 30
0.0
 40
0.005
  1
scala 1:1
  7
Arial
100
AcDbText
  0
LINE
  5
161A
330
2
100
AcDbEntity
  8
Sezione
100
AcDbLine
 10
0.0652460605984773
 20
0.1271943532653665
 30
0.0
 11
0.0652460605984773
 21
0.2242930630908498
 31
0.0
  0
HATCH
  5
1E63
330
2
100
AcDbEntity
  8
Sezione
100
AcDbHatch
 10
0.0
 20
0.0
 30
0.0
210
0.0
220
0.0
230
1.0
  2
ANSI31
 70
     0
 71
     0
 91
        1
 92
        1
 93
        4
 72
     1
 10
0.0412715272457102
 20
0.1271943532653665
 11
0.0652460605984772
 21
0.1271943532653666
 72
     1
 10
0.0652460605984772
 20
0.1271943532653666
 11
0.0652460605984773
 21
0.2228212131049739
 72
     1
 10
0.0652460605984773
 20
0.2228212131049739
 11
0.0412715272457102
 21
0.2228212131049739
 72
     1
 10
0.0412715272457102
 20
0.2228212131049739
 11
0.0412715272457102
 21
0.1271943532653665
 97
        0
 75
     0
 76
     1
 52
0.0
 41
0.003
 77
     0
 78
     1
 53
45.0
 43
-0.025042582059845
 44
-0.00679486282714
 45
-0.0067351920908019
 46
0.0067351920908019
 79
     0
 98
        1
 10
0.0476715480690844
 20
0.1298991453882176
1001
ACAD
1010
0.0
1020
0.0
1030
0.0
  0
LWPOLYLINE
  5
2718
102
{ACAD_REACTORS
330
2910
330
2929
102
}
330
2
100
AcDbEntity
  8
Profilo
370
     0
100
AcDbPolyline
 90
       19
 70
   129
 43
0.0
 10
0.066057454883528
 20
0.1490260950591846
 10
0.0703536207574666
 20
0.1490260950591846
 10
0.0703536207574666
 20
0.1512274584414683
 10
0.0705077699312619
 20
0.1519147816999009
 10
0.0725438834587999
 20
0.1525999127922262
 10
0.0722782683579135
 20
0.1545934628516079
 10
0.0732871224761107
 20
0.1552237055743149
 10
0.0730349089465472
 20
0.1586810393443727
 10
0.0720981150036914
 20
0.1595813860911335
 42
0.6764891063421326
 10
0.0732260086669294
 20
0.1763995008084294
 10
0.0732260086669294
 20
0.1771877240418007
 10
0.074294417548665
 20
0.1779505211652861
 10
0.0744216100079393
 20
0.1785353317486056
 42
0.5326195085948259
 10
0.0760500506118342
 20
0.18525747330753
 10
0.0761003463553402
 20
0.1861818597196532
 10
0.079992410336481
 20
0.1882414110731929
 10
0.0801450393435994
 20
0.1906569342500575
 42
0.6410380255203819
 10
0.0769663261929532
 20
0.2054744510437558
 10
0.066057454883528
 20
0.2060260950591726
  0
ARC
  5
27FE
330
2
100
AcDbEntity
  8
Vista
370
     0
100
AcDbCircle
 10
0.1651260783963053
 20
0.0897594638261126
 30
0.0
 40
0.0076685664551769
100
AcDbArc
 50
221.2857449632597
 51
136.739649410446
  0
ARC
  5
27FF
330
2
100
AcDbEntity
  8
Vista
370
     0
100
AcDbCircle
 10
0.1537790885284047
 20
0.0899550109340339
 30
0.0
 40
0.0076685664551769
100
AcDbArc
 50
316.7396494104513
 51
41.28574496324088
  0
ARC
  5
2800
330
2
100
AcDbEntity
  8
Vista
370
     0
100
AcDbCircle
 10
0.1494750574356201
 20
0.0899550109340339
 30
0.0
 40
0.0076685664551769
100
AcDbArc
 50
315.7025189810249
 51
42.54898224757083
  0
ARC
  5
2801
330
2
100
AcDbEntity
  8
Vista
370
     0
100
AcDbCircle
 10
0.1537790885284047
 20
0.0899550109340339
 30
0.0
 40
0.0076685664551769
100
AcDbArc
 50
316.7396494104513
 51
41.28574496324088
  0
ARC
  5
2802
330
2
100
AcDbEntity
  8
Vista
370
     0
100
AcDbCircle
 10
0.1454644837251897
 20
0.0897594621263238
 30
0.0
 40
0.0076685664551769
100
AcDbArc
 50
319.8911319623962
 51
45.43537332221354
  0
LWPOLYLINE
  5
2803
330
2
100
AcDbEntity
  8
Vista
370
     0
100
AcDbPolyline
 90
        4
 70
   128
 43
0.0
 10
0.1595414665128527
 20
0.0950148440776957
 42
0.2563692139758837
 10
0.1551044587108592
 20
0.0951303903157168
 42
0.2595302501733083
 10
0.1508601322221614
 20
0.0952152369755197
 42
0.2541038405551579
 10
0.1474683314499132
 20
0.0952018417841857
 42
3.310913041458885
  0
LWPOLYLINE
  5
2804
330
2
100
AcDbEntity
  8
Vista
370
     0
100
AcDbPolyline
 90
        4
 70
   128
 43
0.0
 10
0.1593637004118578
 20
0.0846996306824508
 42
-0.3659941948483245
 10
0.1552317884003695
 20
0.0848214463578359
 42
-0.3951113602149865
 10
0.151327006874109
 20
0.0848214463578359
 42
-0.4292603725985006
 10
0.1480588764241686
 20
0.0848638696877515
 42
-2.288497405636276
  0
ARC
  5
2805
330
2
100
AcDbEntity
  8
Vista
370
     0
100
AcDbCircle
 10
0.1887853579228924
 20
0.0897594638261126
 30
0.0
 40
0.0076685664551769
100
AcDbArc
 50
221.2857449632597
 51
136.739649410446
  0
ARC
  5
2806
330
2
100
AcDbEntity
  8
Vista
370
     0
100
AcDbCircle
 10
0.1774383680549918
 20
0.0899550109340339
 30
0.0
 40
0.0076685664551769
100
AcDbArc
 50
316.7396494104513
 51
41.28574496324088
  0
ARC
  5
2807
330
2
100
AcDbEntity
  8
Vista
370
     0
100
AcDbCircle
 10
0.1731343369622071
 20
0.0899550109340339
 30
0.0
 40
0.0076685664551769
100
AcDbArc
 50
315.7025189810249
 51
42.54898224757083
  0
ARC
  5
2808
330
2
100
AcDbEntity
  8
Vista
370
     0
100
AcDbCircle
 10
0.1774383680549918
 20
0.0899550109340339
 30
0.0
 40
0.0076685664551769
100
AcDbArc
 50
316.7396494104513
 51
41.28574496324088
  0
ARC
  5
2809
330
2
100
AcDbEntity
  8
Vista
370
     0
100
AcDbCircle
 10
0.1691237632517768
 20
0.0897594621263238
 30
0.0
 40
0.0076685664551769
100
AcDbArc
 50
319.8911319623962
 51
45.43537332221354
  0
LWPOLYLINE
  5
280A
330
2
100
AcDbEntity
  8
Vista
370
     0
100
AcDbPolyline
 90
        4
 70
   128
 43
0.0
 10
0.1832007460394398
 20
0.0950148440776957
 42
0.2563692139758837
 10
0.1787637382374463
 20
0.0951303903157168
 42
0.2595302501733083
 10
0.1745194117487485
 20
0.0952152369755197
 42
0.276856230561759
 10
0.1708692896015083
 20
0.0950455419560967
 42
3.310913041458885
  0
LWPOLYLINE
  5
280B
330
2
100
AcDbEntity
  8
Vista
370
     0
100
AcDbPolyline
 90
        4
 70
   128
 43
0.0
 10
0.1830229799384449
 20
0.0846996306824508
 42
-0.3659941948483245
 10
0.1788910679269566
 20
0.0848214463578359
 42
-0.3951113602149865
 10
0.1749862864006961
 20
0.0848214463578359
 42
-0.4292603725985006
 10
0.1717181559507557
 20
0.0848638696877515
 42
-2.288497405636276
  0
LWPOLYLINE
  5
2811
330
2
100
AcDbEntity
  8
Vista
370
     0
100
AcDbPolyline
 90
        2
 70
   128
 43
0.0
 10
0.1969649678059966
 20
0.0956082941551885
 42
0.1817850460680995
 10
0.1945285691280954
 20
0.0950455419560967
  0
LWPOLYLINE
  5
2812
330
2
100
AcDbEntity
  8
Vista
370
     0
100
AcDbPolyline
 90
        2
 70
   128
 43
0.0
 10
0.1969649678059966
 20
0.084142015292422
 42
-0.2012374071147651
 10
0.1953774354773428
 20
0.0848638696877515
  0
ARC
  5
2813
330
2
100
AcDbEntity
  8
Vista
370
     0
100
AcDbCircle
 10
0.236103916976067
 20
0.0897594638261126
 30
0.0
 40
0.0076685664551769
100
AcDbArc
 50
221.2857449632597
 51
136.739649410446
  0
ARC
  5
2814
330
2
100
AcDbEntity
  8
Vista
370
     0
100
AcDbCircle
 10
0.2247569271081664
 20
0.0899550109340339
 30
0.0
 40
0.0076685664551769
100
AcDbArc
 50
316.7396494104513
 51
41.28574496324088
  0
ARC
  5
2815
330
2
100
AcDbEntity
  8
Vista
370
     0
100
AcDbCircle
 10
0.2204528960153818
 20
0.0899550109340339
 30
0.0
 40
0.0076685664551769
100
AcDbArc
 50
315.7025189810249
 51
42.54898224757083
  0
ARC
  5
2816
330
2
100
AcDbEntity
  8
Vista
370
     0
100
AcDbCircle
 10
0.2247569271081664
 20
0.0899550109340339
 30
0.0
 40
0.0076685664551769
100
AcDbArc
 50
316.7396494104513
 51
41.28574496324088
  0
ARC
  5
2817
330
2
100
AcDbEntity
  8
Vista
370
     0
100
AcDbCircle
 10
0.2164423223049514
 20
0.0897594621263238
 30
0.0
 40
0.0076685664551769
100
AcDbArc
 50
319.8911319623962
 51
45.43537332221354
  0
LWPOLYLINE
  5
2818
330
2
100
AcDbEntity
  8
Vista
370
     0
100
AcDbPolyline
 90
        4
 70
   128
 43
0.0
 10
0.230519305092614
 20
0.0950148440776957
 42
0.2563692139758837
 10
0.2260822972906205
 20
0.0951303903157168
 42
0.2595302501733083
 10
0.2218379708019227
 20
0.0952152369755197
 42
0.0665122308482803
 10
0.2209576075626103
 20
0.0955475097070196
 42
0.0665122308482803
  0
LWPOLYLINE
  5
2819
330
2
100
AcDbEntity
  8
Vista
370
     0
100
AcDbPolyline
 90
        4
 70
   128
 43
0.0
 10
0.230341538991619
 20
0.0846996306824508
 42
-0.3659941948483232
 10
0.2262096269801308
 20
0.0848214463578359
 42
-0.3951113602149865
 10
0.2223048454538703
 20
0.0848214463578359
 42
-0.1715004030338626
 10
0.2209576075626103
 20
0.0841568575800903
 42
-0.1715004030338626
  0
ARC
  5
281A
330
2
100
AcDbEntity
  8
Vista
370
     0
100
AcDbCircle
 10
0.2597631965026541
 20
0.0897594638261126
 30
0.0
 40
0.0076685664551769
100
AcDbArc
 50
221.2857449632597
 51
136.739649410446
  0
ARC
  5
281B
330
2
100
AcDbEntity
  8
Vista
370
     0
100
AcDbCircle
 10
0.2484162066347535
 20
0.0899550109340339
 30
0.0
 40
0.0076685664551769
100
AcDbArc
 50
316.7396494104513
 51
41.28574496324088
  0
ARC
  5
281C
330
2
100
AcDbEntity
  8
Vista
370
     0
100
AcDbCircle
 10
0.2441121755419688
 20
0.0899550109340339
 30
0.0
 40
0.0076685664551769
100
AcDbArc
 50
315.7025189810249
 51
42.54898224757083
  0
ARC
  5
281D
330
2
100
AcDbEntity
  8
Vista
370
     0
100
AcDbCircle
 10
0.2484162066347535
 20
0.0899550109340339
 30
0.0
 40
0.0076685664551769
100
AcDbArc
 50
316.7396494104513
 51
41.28574496324088
  0
ARC
  5
281E
330
2
100
AcDbEntity
  8
Vista
370
     0
100
AcDbCircle
 10
0.2401016018315385
 20
0.0897594621263238
 30
0.0
 40
0.0076685664551769
100
AcDbArc
 50
319.8911319623962
 51
45.43537332221354
  0
LWPOLYLINE
  5
281F
330
2
100
AcDbEntity
  8
Vista
370
     0
100
AcDbPolyline
 90
        4
 70
   128
 43
0.0
 10
0.2541785846192011
 20
0.0950148440776957
 42
0.2563692139758837
 10
0.249741576817208
 20
0.0951303903157168
 42
0.2595302501733083
 10
0.2454972503285098
 20
0.0952152369755197
 42
0.276856230561759
 10
0.24184712818127
 20
0.0950455419560967
 42
3.310913041458885
  0
LWPOLYLINE
  5
2820
330
2
100
AcDbEntity
  8
Vista
370
     0
100
AcDbPolyline
 90
        4
 70
   128
 43
0.0
 10
0.2540008185182061
 20
0.0846996306824508
 42
-0.3659941948483245
 10
0.2498689065067179
 20
0.0848214463578359
 42
-0.3951113602149865
 10
0.2459641249804574
 20
0.0848214463578359
 42
-0.4292603725985006
 10
0.2426959945305174
 20
0.0848638696877515
 42
-2.288497405636276
  0
ARC
  5
2821
330
2
100
AcDbEntity
  8
Vista
370
     0
100
AcDbCircle
 10
0.2834224760292412
 20
0.0897594638261126
 30
0.0
 40
0.0076685664551769
100
AcDbArc
 50
221.2857449632597
 51
136.739649410446
  0
ARC
  5
2822
330
2
100
AcDbEntity
  8
Vista
370
     0
100
AcDbCircle
 10
0.2720754861613406
 20
0.0899550109340339
 30
0.0
 40
0.0076685664551769
100
AcDbArc
 50
316.7396494104513
 51
41.28574496324088
  0
ARC
  5
2823
330
2
100
AcDbEntity
  8
Vista
370
     0
100
AcDbCircle
 10
0.2677714550685559
 20
0.0899550109340339
 30
0.0
 40
0.0076685664551769
100
AcDbArc
 50
315.7025189810249
 51
42.54898224757083
  0
ARC
  5
2824
330
2
100
AcDbEntity
  8
Vista
370
     0
100
AcDbCircle
 10
0.2720754861613406
 20
0.0899550109340339
 30
0.0
 40
0.0076685664551769
100
AcDbArc
 50
316.7396494104513
 51
41.28574496324088
  0
ARC
  5
2825
330
2
100
AcDbEntity
  8
Vista
370
     0
100
AcDbCircle
 10
0.2637608813581256
 20
0.0897594621263238
 30
0.0
 40
0.0076685664551769
100
AcDbArc
 50
319.8911319623962
 51
45.43537332221354
  0
LWPOLYLINE
  5
2826
330
2
100
AcDbEntity
  8
Vista
370
     0
100
AcDbPolyline
 90
        4
 70
   128
 43
0.0
 10
0.2778378641457881
 20
0.0950148440776957
 42
0.2563692139758837
 10
0.2734008563437951
 20
0.0951303903157168
 42
0.2595302501733083
 10
0.2691565298550973
 20
0.0952152369755197
 42
0.276856230561759
 10
0.265506407707857
 20
0.0950455419560967
 42
3.310913041458885
  0
LWPOLYLINE
  5
2827
330
2
100
AcDbEntity
  8
Vista
370
     0
100
AcDbPolyline
 90
        4
 70
   128
 43
0.0
 10
0.2776600980447936
 20
0.0846996306824508
 42
-0.3659941948483245
 10
0.2735281860333054
 20
0.0848214463578359
 42
-0.3951113602149865
 10
0.2696234045070449
 20
0.0848214463578359
 42
-0.4292603725985006
 10
0.2663552740571045
 20
0.0848638696877515
 42
-2.288497405636276
  0
ARC
  5
2828
330
2
100
AcDbEntity
  8
Vista
370
     0
100
AcDbCircle
 10
0.3070817555558283
 20
0.0897594638261126
 30
0.0
 40
0.0076685664551769
100
AcDbArc
 50
221.2857449632597
 51
136.739649410446
  0
ARC
  5
2829
330
2
100
AcDbEntity
  8
Vista
370
     0
100
AcDbCircle
 10
0.2957347656879277
 20
0.0899550109340339
 30
0.0
 40
0.0076685664551769
100
AcDbArc
 50
316.7396494104513
 51
41.28574496324088
  0
ARC
  5
282A
330
2
100
AcDbEntity
  8
Vista
370
     0
100
AcDbCircle
 10
0.291430734595143
 20
0.0899550109340339
 30
0.0
 40
0.0076685664551769
100
AcDbArc
 50
315.7025189810249
 51
42.54898224757083
  0
ARC
  5
282B
330
2
100
AcDbEntity
  8
Vista
370
     0
100
AcDbCircle
 10
0.2957347656879277
 20
0.0899550109340339
 30
0.0
 40
0.0076685664551769
100
AcDbArc
 50
316.7396494104513
 51
41.28574496324088
  0
ARC
  5
282C
330
2
100
AcDbEntity
  8
Vista
370
     0
100
AcDbCircle
 10
0.2874201608847127
 20
0.0897594621263238
 30
0.0
 40
0.0076685664551769
100
AcDbArc
 50
319.8911319623962
 51
45.43537332221354
  0
LWPOLYLINE
  5
282D
330
2
100
AcDbEntity
  8
Vista
370
     0
100
AcDbPolyline
 90
        4
 70
   128
 43
0.0
 10
0.3014971436723757
 20
0.0950148440776957
 42
0.2563692139758837
 10
0.2970601358703822
 20
0.0951303903157168
 42
0.2595302501733083
 10
0.2928158093816844
 20
0.0952152369755197
 42
0.276856230561759
 10
0.2891656872344441
 20
0.0950455419560967
 42
3.310913041458885
  0
LWPOLYLINE
  5
282E
330
2
100
AcDbEntity
  8
Vista
370
     0
100
AcDbPolyline
 90
        4
 70
   128
 43
0.0
 10
0.3013193775713807
 20
0.0846996306824508
 42
-0.3659941948483245
 10
0.2971874655598925
 20
0.0848214463578359
 42
-0.3951113602149865
 10
0.293282684033632
 20
0.0848214463578359
 42
-0.4292603725985006
 10
0.2900145535836916
 20
0.0848638696877515
 42
-2.288497405636276
  0
ARC
  5
282F
330
2
100
AcDbEntity
  8
Vista
370
     0
100
AcDbCircle
 10
0.3307410350824154
 20
0.0897594638261126
 30
0.0
 40
0.0076685664551769
100
AcDbArc
 50
221.2857449632597
 51
136.739649410446
  0
ARC
  5
2830
330
2
100
AcDbEntity
  8
Vista
370
     0
100
AcDbCircle
 10
0.3193940452145147
 20
0.0899550109340339
 30
0.0
 40
0.0076685664551769
100
AcDbArc
 50
316.7396494104513
 51
41.28574496324088
  0
ARC
  5
2831
330
2
100
AcDbEntity
  8
Vista
370
     0
100
AcDbCircle
 10
0.3150900141217301
 20
0.0899550109340339
 30
0.0
 40
0.0076685664551769
100
AcDbArc
 50
315.7025189810249
 51
42.54898224757083
  0
ARC
  5
2832
330
2
100
AcDbEntity
  8
Vista
370
     0
100
AcDbCircle
 10
0.3193940452145147
 20
0.0899550109340339
 30
0.0
 40
0.0076685664551769
100
AcDbArc
 50
316.7396494104513
 51
41.28574496324088
  0
ARC
  5
2833
330
2
100
AcDbEntity
  8
Vista
370
     0
100
AcDbCircle
 10
0.3110794404112998
 20
0.0897594621263238
 30
0.0
 40
0.0076685664551769
100
AcDbArc
 50
319.8911319623962
 51
45.43537332221354
  0
LWPOLYLINE
  5
2834
330
2
100
AcDbEntity
  8
Vista
370
     0
100
AcDbPolyline
 90
        4
 70
   128
 43
0.0
 10
0.3251564231989628
 20
0.0950148440776957
 42
0.2563692139758837
 10
0.3207194153969692
 20
0.0951303903157168
 42
0.2595302501733083
 10
0.3164750889082715
 20
0.0952152369755197
 42
0.276856230561759
 10
0.3128249667610312
 20
0.0950455419560967
 42
3.310913041458885
  0
LWPOLYLINE
  5
2835
330
2
100
AcDbEntity
  8
Vista
370
     0
100
AcDbPolyline
 90
        4
 70
   128
 43
0.0
 10
0.3249786570979678
 20
0.0846996306824508
 42
-0.3659941948483245
 10
0.3208467450864796
 20
0.0848214463578359
 42
-0.3951113602149865
 10
0.3169419635602191
 20
0.0848214463578359
 42
-0.4292603725985006
 10
0.3136738331102786
 20
0.0848638696877515
 42
-2.288497405636276
  0
ARC
  5
2836
330
2
100
AcDbEntity
  8
Vista
370
     0
100
AcDbCircle
 10
0.3544003146090029
 20
0.0897594638261126
 30
0.0
 40
0.0076685664551769
100
AcDbArc
 50
221.2857449632597
 51
136.739649410446
  0
ARC
  5
2837
330
2
100
AcDbEntity
  8
Vista
370
     0
100
AcDbCircle
 10
0.3430533247411018
 20
0.0899550109340339
 30
0.0
 40
0.0076685664551769
100
AcDbArc
 50
316.7396494104513
 51
41.28574496324088
  0
ARC
  5
2838
330
2
100
AcDbEntity
  8
Vista
370
     0
100
AcDbCircle
 10
0.3387492936483172
 20
0.0899550109340339
 30
0.0
 40
0.0076685664551769
100
AcDbArc
 50
315.7025189810249
 51
42.54898224757083
  0
ARC
  5
2839
330
2
100
AcDbEntity
  8
Vista
370
     0
100
AcDbCircle
 10
0.3430533247411018
 20
0.0899550109340339
 30
0.0
 40
0.0076685664551769
100
AcDbArc
 50
316.7396494104513
 51
41.28574496324088
  0
ARC
  5
283A
330
2
100
AcDbEntity
  8
Vista
370
     0
100
AcDbCircle
 10
0.3347387199378868
 20
0.0897594621263238
 30
0.0
 40
0.0076685664551769
100
AcDbArc
 50
319.8911319623962
 51
45.43537332221354
  0
LWPOLYLINE
  5
283B
330
2
100
AcDbEntity
  8
Vista
370
     0
100
AcDbPolyline
 90
        4
 70
   128
 43
0.0
 10
0.3488157027255498
 20
0.0950148440776957
 42
0.2563692139758837
 10
0.3443786949235563
 20
0.0951303903157168
 42
0.2595302501733083
 10
0.3401343684348586
 20
0.0952152369755197
 42
0.276856230561759
 10
0.3364842462876183
 20
0.0950455419560967
 42
3.310913041458885
  0
LWPOLYLINE
  5
283C
330
2
100
AcDbEntity
  8
Vista
370
     0
100
AcDbPolyline
 90
        4
 70
   128
 43
0.0
 10
0.3486379366245549
 20
0.0846996306824508
 42
-0.3659941948483245
 10
0.3445060246130667
 20
0.0848214463578359
 42
-0.3951113602149865
 10
0.3406012430868062
 20
0.0848214463578359
 42
-0.4292603725985006
 10
0.3373331126368657
 20
0.0848638696877515
 42
-2.288497405636276
  0
ARC
  5
283D
330
2
100
AcDbEntity
  8
Vista
370
     0
100
AcDbCircle
 10
0.37805959413559
 20
0.0897594638261126
 30
0.0
 40
0.0076685664551769
100
AcDbArc
 50
221.2857449632597
 51
310.4054650029766
  0
ARC
  5
283E
330
2
100
AcDbEntity
  8
Vista
370
     0
100
AcDbCircle
 10
0.3667126042676894
 20
0.0899550109340339
 30
0.0
 40
0.0076685664551769
100
AcDbArc
 50
316.7396494104513
 51
41.28574496324088
  0
ARC
  5
283F
330
2
100
AcDbEntity
  8
Vista
370
     0
100
AcDbCircle
 10
0.3624085731749047
 20
0.0899550109340339
 30
0.0
 40
0.0076685664551769
100
AcDbArc
 50
315.7025189810249
 51
42.54898224757083
  0
ARC
  5
2840
330
2
100
AcDbEntity
  8
Vista
370
     0
100
AcDbCircle
 10
0.3667126042676894
 20
0.0899550109340339
 30
0.0
 40
0.0076685664551769
100
AcDbArc
 50
316.7396494104513
 51
41.28574496324088
  0
ARC
  5
2841
330
2
100
AcDbEntity
  8
Vista
370
     0
100
AcDbCircle
 10
0.3583979994644744
 20
0.0897594621263238
 30
0.0
 40
0.0076685664551769
100
AcDbArc
 50
319.8911319623962
 51
45.43537332221354
  0
LWPOLYLINE
  5
2842
330
2
100
AcDbEntity
  8
Vista
370
     0
100
AcDbPolyline
 90
        4
 70
   128
 43
0.0
 10
0.3724749822521369
 20
0.0950148440776957
 42
0.2563692139758837
 10
0.3680379744501439
 20
0.0951303903157168
 42
0.2595302501733083
 10
0.3637936479614456
 20
0.0952152369755197
 42
0.276856230561759
 10
0.3601435258142058
 20
0.0950455419560967
 42
3.310913041458885
  0
LWPOLYLINE
  5
2843
330
2
100
AcDbEntity
  8
Vista
370
     0
100
AcDbPolyline
 90
        4
 70
   128
 43
0.0
 10
0.372297216151142
 20
0.0846996306824508
 42
-0.3659941948483245
 10
0.3681653041396538
 20
0.0848214463578359
 42
-0.3951113602149865
 10
0.3642605226133933
 20
0.0848214463578359
 42
-0.4292603725985006
 10
0.3609923921634532
 20
0.0848638696877515
 42
-2.288497405636276
  0
LWPOLYLINE
  5
28D2
330
2
100
AcDbEntity
  8
Profilo
370
     0
100
AcDbPolyline
 90
       19
 70
   129
 43
0.0
 10
0.1369215249554827
 20
0.0706297062897647
 10
0.1412176908294214
 20
0.0706297062897647
 10
0.1412176908294214
 20
0.0728310696720485
 10
0.1413718400032167
 20
0.073518392930481
 10
0.1434079535307546
 20
0.0742035240228063
 10
0.1431423384298682
 20
0.076197074082188
 10
0.1441511925480654
 20
0.076827316804895
 10
0.1438989790185019
 20
0.0802846505749528
 10
0.1429621850756462
 20
0.0811849973217136
 42
0.6764891063421326
 10
0.1440900787388841
 20
0.0980031120390095
 10
0.1440900787388841
 20
0.0987913352723808
 10
0.1451584876206198
 20
0.0995541323958662
 10
0.1452856800798941
 20
0.1001389429791857
 42
0.5326195085948259
 10
0.1469141206837889
 20
0.1068610845381102
 10
0.146964416427295
 20
0.1077854709502333
 10
0.1508564804084358
 20
0.109845022303773
 10
0.1510091094155541
 20
0.1122605454806376
 42
0.6410380255203819
 10
0.1478303962649079
 20
0.1270780622743359
 10
0.1369215249554827
 20
0.1276297062897527
  0
LINE
  5
28D3
330
2
100
AcDbEntity
  8
Vista
100
AcDbLine
 10
0.1510091094155541
 20
0.1122605454806376
 30
0.0
 11
0.1969649678059966
 21
0.1122605454806376
 31
0.0
  0
LINE
  5
28D4
330
2
100
AcDbEntity
  8
Vista
100
AcDbLine
 10
0.1469141206837889
 20
0.1068610845381102
 30
0.0
 11
0.1969649678059966
 21
0.1068610845381101
 31
0.0
  0
LINE
  5
28D5
330
2
100
AcDbEntity
  8
Vista
100
AcDbLine
 10
0.1440900787388841
 20
0.0987913352723808
 30
0.0
 11
0.1969649678059966
 21
0.0987913352723808
 31
0.0
  0
LINE
  5
28D6
330
2
100
AcDbEntity
  8
Vista
100
AcDbLine
 10
0.1429621850756462
 20
0.0811849973217136
 30
0.0
 11
0.1969649678059966
 21
0.0811849973217136
 31
0.0
  0
LINE
  5
28D7
330
2
100
AcDbEntity
  8
Vista
100
AcDbLine
 10
0.1434079535307546
 20
0.0742035240228063
 30
0.0
 11
0.1969649678059966
 21
0.0742035240228063
 31
0.0
  0
LINE
  5
28D8
330
2
100
AcDbEntity
  8
Vista
 62
     3
100
AcDbLine
 10
0.1412176908294214
 20
0.0706297062897647
 30
0.0
 11
0.1969649678059966
 21
0.0706297062897647
 31
0.0
  0
LINE
  5
28D9
330
2
100
AcDbEntity
  8
Vista
 62
     3
100
AcDbLine
 10
0.1369215249554827
 20
0.1276297062897527
 30
0.0
 11
0.1969649678059966
 21
0.1276297062897527
 31
0.0
  0
ARC
  5
28E4
330
2
100
AcDbEntity
  8
Vista
370
     0
100
AcDbCircle
 10
0.37805959413559
 20
0.0897594638261126
 30
0.0
 40
0.0076685664551769
100
AcDbArc
 50
49.59453499702347
 51
136.739649410446
  0
LINE
  5
28E5
330
2
100
AcDbEntity
  8
Vista
 62
     3
100
AcDbLine
 10
0.2209576075626103
 20
0.1276297062897527
 30
0.0
 11
0.3830303016689527
 21
0.1276297062897526
 31
0.0
  0
LINE
  5
28E6
330
2
100
AcDbEntity
  8
Vista
 62
     3
100
AcDbLine
 10
0.2209576075626103
 20
0.0706297062897647
 30
0.0
 11
0.3830303016689527
 21
0.0706297062897647
 31
0.0
  0
LINE
  5
28E7
330
2
100
AcDbEntity
  8
Vista
100
AcDbLine
 10
0.2209576075626103
 20
0.0742035240228063
 30
0.0
 11
0.3830303016689527
 21
0.0742035240228063
 31
0.0
  0
LINE
  5
28E8
330
2
100
AcDbEntity
  8
Vista
100
AcDbLine
 10
0.2209576075626103
 20
0.0811849973217136
 30
0.0
 11
0.3830303016689527
 21
0.0811849973217136
 31
0.0
  0
LINE
  5
28E9
330
2
100
AcDbEntity
  8
Vista
100
AcDbLine
 10
0.2209576075626103
 20
0.0987913352723808
 30
0.0
 11
0.3830303016689527
 21
0.0987913352723809
 31
0.0
  0
LINE
  5
28EA
330
2
100
AcDbEntity
  8
Vista
100
AcDbLine
 10
0.2209576075626103
 20
0.1068610845381102
 30
0.0
 11
0.3830303016689527
 21
0.1068610845381101
 31
0.0
  0
LINE
  5
28EB
330
2
100
AcDbEntity
  8
Vista
100
AcDbLine
 10
0.2209576075626103
 20
0.1122605454806376
 30
0.0
 11
0.3830303016689527
 21
0.1122605454806375
 31
0.0
  0
LINE
  5
28EC
330
2
100
AcDbEntity
  8
Vista
 62
     6
100
AcDbLine
 10
0.2209576075626103
 20
0.0706297062897647
 30
0.0
 11
0.2209576075626103
 21
0.1276297062897527
 31
0.0
  0
LINE
  5
28ED
330
2
100
AcDbEntity
  8
Vista
 62
     6
100
AcDbLine
 10
0.3830303016689527
 20
0.0706297062897647
 30
0.0
 11
0.3830303016689527
 21
0.1276297062897526
 31
0.0
  0
LWPOLYLINE
  5
28EE
330
2
100
AcDbEntity
  8
Profilo
370
     0
100
AcDbPolyline
 90
       19
 70
   129
 43
0.0
 10
0.1913529470614037
 20
0.1525381066731484
 10
0.1956491129353424
 20
0.1525381066731484
 10
0.1956491129353424
 20
0.1547394700554321
 10
0.1958032621091377
 20
0.1554267933138647
 10
0.1978393756366756
 20
0.1561119244061899
 10
0.1975737605357892
 20
0.1581054744655717
 10
0.1985826146539864
 20
0.1587357171882786
 10
0.1983304011244229
 20
0.1621930509583365
 10
0.1973936071815672
 20
0.1630933977050972
 42
0.6764891063421326
 10
0.1985215008448051
 20
0.1799115124223931
 10
0.1985215008448051
 20
0.1806997356557645
 10
0.1995899097265408
 20
0.1814625327792498
 10
0.1997171021858151
 20
0.1820473433625693
 42
0.5326195085948259
 10
0.2013455427897099
 20
0.1887694849214938
 10
0.201395838533216
 20
0.1896938713336169
 10
0.2052879025143568
 20
0.1917534226871567
 10
0.2054405315214751
 20
0.1941689458640212
 42
0.6410380255203819
 10
0.2022618183708289
 20
0.2089864626577196
 10
0.1913529470614037
 20
0.2095381066731363
  0
LINE
  5
28EF
330
2
100
AcDbEntity
  8
Vista
 62
     3
100
AcDbLine
 10
0.1913529470614037
 20
0.2095381066731363
 30
0.0
 11
0.3203857312837957
 21
0.2369648716301579
 31
0.0
  0
LWPOLYLINE
  5
28F0
330
2
100
AcDbEntity
  8
Profilo
370
     0
100
AcDbPolyline
 90
       18
 70
   128
 43
0.0
 10
0.3246818971577344
 20
0.1799648716301699
 10
0.3246818971577344
 20
0.1821662350124536
 10
0.3248360463315297
 20
0.1828535582708862
 10
0.3268721598590677
 20
0.1835386893632115
 10
0.3266065447581813
 20
0.1855322394225932
 10
0.3276153988763784
 20
0.1861624821453002
 10
0.3273631853468149
 20
0.189619815915358
 10
0.3264263914039592
 20
0.1905201626621188
 42
0.6764891063421326
 10
0.3275542850671972
 20
0.2073382773794147
 10
0.3275542850671972
 20
0.208126500612786
 10
0.3286226939489328
 20
0.2088892977362714
 10
0.3287498864082071
 20
0.2094741083195909
 42
0.5326195085948259
 10
0.330378327012102
 20
0.2161962498785154
 10
0.330428622755608
 20
0.2171206362906385
 10
0.3343206867367488
 20
0.2191801876441782
 10
0.3344733157438672
 20
0.2215957108210428
 42
0.6410380255203819
 10
0.3312946025932209
 20
0.2364132276147411
 10
0.3203857312837957
 20
0.2369648716301579
  0
LINE
  5
28F1
330
2
100
AcDbEntity
  8
Vista
 62
     3
100
AcDbLine
 10
0.1956491129353424
 20
0.1525381066731484
 30
0.0
 11
0.3246818971577344
 21
0.1799648716301699
 31
0.0
  0
LINE
  5
28F2
330
2
100
AcDbEntity
  8
Vista
100
AcDbLine
 10
0.2054405315214752
 20
0.1941689458640212
 30
0.0
 11
0.3344733157438672
 21
0.2215957108210428
 31
0.0
  0
LINE
  5
28F3
330
2
100
AcDbEntity
  8
Vista
100
AcDbLine
 10
0.20134554278971
 20
0.1887694849214938
 30
0.0
 11
0.330378327012102
 21
0.2161962498785154
 31
0.0
  0
LINE
  5
28F4
330
2
100
AcDbEntity
  8
Vista
100
AcDbLine
 10
0.1985215008448051
 20
0.1799115124223931
 30
0.0
 11
0.3275542850671972
 21
0.2073382773794146
 31
0.0
  0
LINE
  5
28F5
330
2
100
AcDbEntity
  8
Vista
100
AcDbLine
 10
0.1973936071815672
 20
0.1630933977050972
 30
0.0
 11
0.3264263914039592
 21
0.1905201626621188
 31
0.0
  0
LINE
  5
28F6
330
2
100
AcDbEntity
  8
Vista
100
AcDbLine
 10
0.1978393756366756
 20
0.1561119244061899
 30
0.0
 11
0.3246818971577344
 21
0.1821662350124536
 31
0.0
  0
DIMENSION
  5
28F7
102
{ACAD_XDICTIONARY
360
2905
102
}
102
{ACAD_REACTORS
330
2910
102
}
330
2
100
AcDbEntity
  8
Dimensione
100
AcDbDimension
  2
*D30
 10
0.1072277049798344
 20
0.1490260950591846
 30
0.0
 11
0.1072277049798344
 21
0.1775260950591786
 31
0.0
 70
    32
  1
57 mm
 71
     5
 42
0.056999999999988
  3
Bovelacci
100
AcDbAlignedDimension
 13
0.066057454883528
 23
0.2060260950591726
 33
0.0
 14
0.0703536207574666
 24
0.1490260950591846
 34
0.0
 50
90.0
100
AcDbRotatedDimension
  0
DIMENSION
  5
2912
102
{ACAD_XDICTIONARY
360
291F
102
}
102
{ACAD_REACTORS
330
2929
102
}
330
2
100
AcDbEntity
  8
Dimensione
100
AcDbDimension
  2
*D31
 10
0.083483600804187
 20
0.1233639249028897
 30
0.0
 11
0.0747705278438575
 21
0.1161839249028897
 31
0.0
 70
    32
  1
19 mm
 71
     5
 42
0.0174261459206591
  3
Bovelacci
100
AcDbAlignedDimension
 13
0.066057454883528
 23
0.1490260950591846
 33
0.0
 14
0.083483600804187
 24
0.1976740764577572
 34
0.0
100
AcDbRotatedDimension
  0
VIEWPORT
  5
7B
102
{ACAD_XDICTIONARY
360
2930
102
}
330
79
100
AcDbEntity
 67
     1
  8
0
100
AcDbViewport
 10
145.330337524414
 20
101.8116638660431
 30
0.0
 40
351.1337450215151
 41
222.1517806396485
 68
     1
 69
     1
 12
145.330337524414
 22
101.8116638660431
 13
0.0
 23
0.0
 14
10.0
 24
10.0
 15
10.0
 25
10.0
 16
0.0
 26
0.0
 36
1.0
 17
0.0
 27
0.0
 37
0.0
 42
50.0
 43
0.0
 44
0.0
 45
222.1517806396485
 50
0.0
 51
0.0
 72
  1000
 90
    32800
  1

281
     0
 71
     1
 74
     0
110
0.0
120
0.0
130
0.0
111
1.0
121
0.0
131
0.0
112
0.0
122
1.0
132
0.0
 79
     0
146
0.0
  0
VIEWPORT
  5
80
102
{ACAD_XDICTIONARY
360
2932
102
}
330
79
100
AcDbEntity
 67
     1
  8
Sezione
100
AcDbViewport
 10
145.3303314447403
 20
101.8116623163223
 30
0.0
 40
232.5285303115845
 41
162.8986597061157
 68
     2
 69
     2
 12
0.2100067158578973
 22
0.1484909068076998
 13
0.0
 23
0.0
 14
10.0
 24
10.0
 15
10.0
 25
10.0
 16
0.0
 26
0.0
 36
1.0
 17
0.0
 27
0.0
 37
0.0
 42
50.0
 43
0.0
 44
0.0
 45
0.2752830087467564
 50
0.0
 51
0.0
 72
  1000
 90
    32864
  1

281
     0
 71
     1
 74
     0
110
0.0
120
0.0
130
0.0
111
1.0
121
0.0
131
0.0
112
0.0
122
1.0
132
0.0
 79
     0
146
0.0
  0
ENDSEC
  0
SECTION
  2
OBJECTS
  0
DICTIONARY
  5
9
330
0
100
AcDbDictionary
281
     1
  3
ACAD_2007HEADERVARS_RT
350
14A
  3
ACAD_COLOR
350
A1
  3
ACAD_GROUP
350
9C
  3
ACAD_LAYOUT
350
78
  3
ACAD_MATERIAL
350
B
  3
ACAD_MLINESTYLE
350
9D
  3
ACAD_PLOTSETTINGS
350
9E
  3
ACAD_PLOTSTYLENAME
350
8
  3
ACAD_TABLESTYLE
350
A2
  3
ACAD_VISUALSTYLE
350
7F
  3
ACDBHEADERROUNDTRIPXREC
350
292D
  3
AcDbVariableDictionary
350
A9
  3
AEC_PROPERTY_SET_DEFS
350
10D
  3
DWGPROPS
350
292C
  0
DICTIONARY
  5
8B
330
8A
100
AcDbDictionary
280
     1
281
     1
  3
ACAD_LAYERFILTERS
360
48D
  3
ACAD_LAYERSTATES
360
8D
  3
ACLYDICTIONARY
360
48C
  0
DICTIONARY
  5
3
330
2
100
AcDbDictionary
280
     1
281
     1
  3
ACAD_SORTENTS
360
A8
  0
DICTIONARY
  5
B6D
330
B69
100
AcDbDictionary
280
     1
281
     1
  3
ACAD_SORTENTS
360
B6E
  0
DICTIONARY
  5
2937
330
10F
100
AcDbDictionary
280
     1
281
     1
  3
ACAD_MTEXT_RT
360
2938
  0
DICTIONARY
  5
2905
330
28F7
100
AcDbDictionary
280
     1
281
     1
  3
ACAD_DIMASSOC
360
2910
  0
DICTIONARY
  5
291F
330
2912
100
AcDbDictionary
280
     1
281
     1
  3
ACAD_DIMASSOC
360
2929
  0
DICTIONARY
  5
2930
330
7B
100
AcDbDictionary
280
     1
281
     1
  3
ACAD_XREC_ROUNDTRIP
360
2931
  0
DICTIONARY
  5
2932
330
80
100
AcDbDictionary
280
     1
281
     1
  3
ACAD_XREC_ROUNDTRIP
360
2933
  0
DICTIONARY
  5
14A
102
{ACAD_REACTORS
330
9
102
}
330
9
100
AcDbDictionary
281
     1
  3
DIMFXL
350
14B
  0
DICTIONARY
  5
A1
102
{ACAD_REACTORS
330
9
102
}
330
9
100
AcDbDictionary
281
     1
  0
DICTIONARY
  5
9C
102
{ACAD_REACTORS
330
9
102
}
330
9
100
AcDbDictionary
281
     1
  0
DICTIONARY
  5
78
102
{ACAD_REACTORS
330
9
102
}
330
9
100
AcDbDictionary
281
     1
  3
Layout1
350
82
  3
Layout2
350
89
  3
Model
350
77
  0
DICTIONARY
  5
B
102
{ACAD_REACTORS
330
9
102
}
330
9
100
AcDbDictionary
281
     1
  3
ByBlock
350
A0
  3
ByLayer
350
9F
  3
Global
350
A
  0
DICTIONARY
  5
9D
102
{ACAD_REACTORS
330
9
102
}
330
9
100
AcDbDictionary
281
     1
  3
Standard
350
A3
  0
DICTIONARY
  5
9E
102
{ACAD_REACTORS
330
9
102
}
330
9
100
AcDbDictionary
281
     1
  0
ACDBDICTIONARYWDFLT
  5
8
102
{ACAD_REACTORS
330
9
102
}
330
9
100
AcDbDictionary
281
     1
  3
Normal
350
7
100
AcDbDictionaryWithDefault
340
7
  0
DICTIONARY
  5
A2
102
{ACAD_REACTORS
330
9
102
}
330
9
100
AcDbDictionary
281
     1
  3
Standard
350
A4
  0
DICTIONARY
  5
7F
102
{ACAD_REACTORS
330
9
102
}
330
9
100
AcDbDictionary
281
     1
  3
2dWireframe
350
7E
  3
3D Hidden
350
D8
  3
3dWireframe
350
A6
  3
Basic
350
D7
  3
Brighten
350
DB
  3
ColorChange
350
DF
  3
Conceptual
350
D9
  3
Dim
350
DA
  3
Facepattern
350
DE
  3
Flat
350
D3
  3
FlatWithEdges
350
D4
  3
Gouraud
350
D5
  3
GouraudWithEdges
350
D6
  3
Linepattern
350
DD
  3
Realistic
350
A5
  3
Thicken
350
DC
  0
DICTIONARY
  5
292D
102
{ACAD_REACTORS
330
9
102
}
330
9
100
AcDbDictionary
281
     1
  0
DICTIONARY
  5
A9
102
{ACAD_REACTORS
330
9
102
}
330
9
100
AcDbDictionary
281
     1
  3
CTABLESTYLE
350
AA
  3
DIMASSOC
350
AE
  3
HIDETEXT
350
AD
  3
INDEXCTL
350
AC
  3
PROJECTNAME
350
16A
  3
SORTENTS
350
AB
  0
DICTIONARY
  5
10D
102
{ACAD_REACTORS
330
9
102
}
330
9
100
AcDbDictionary
281
     1
  0
XRECORD
  5
292C
102
{ACAD_REACTORS
330
9
102
}
330
9
100
AcDbXrecord
280
     1
  1
DWGPROPS COOKIE
  2

  3

  4

  6

  7

  8
Mario
  9

300
=
301
=
302
=
303
=
304
=
305
=
306
=
307
=
308
=
309
=
 40
0.3331246643518519
 41
2454297.625402373
 42
2454337.467212813
  1

 90
        0
  0
DICTIONARY
  5
48D
102
{ACAD_REACTORS
330
8B
102
}
330
8B
100
AcDbDictionary
281
     1
  0
DICTIONARY
  5
8D
102
{ACAD_REACTORS
330
8B
102
}
330
8B
100
AcDbDictionary
281
     1
  0
DICTIONARY
  5
48C
102
{ACAD_REACTORS
330
8B
102
}
330
8B
100
AcDbDictionary
281
     1
1001
ACAD
1000
<All
  0
SORTENTSTABLE
  5
A8
102
{ACAD_REACTORS
330
3
102
}
330
3
100
AcDbSortentsTable
330
2
331
22
  5
23
331
2820
  5
2820
331
28D5
  5
28D8
331
2828
  5
2828
331
2830
  5
2830
331
28E5
  5
28E8
331
2838
  5
2838
331
13
  5
D
331
110
  5
110
331
2840
  5
2841
331
2801
  5
2801
331
2809
  5
2809
331
2811
  5
2811
331
2819
  5
2819
331
23
  5
24
331
2821
  5
2821
331
28D6
  5
28E1
331
2829
  5
2829
331
2831
  5
2831
331
2839
  5
2839
331
14
  5
10
331
2841
  5
2842
331
2802
  5
2802
331
280A
  5
280A
331
2812
  5
2812
331
281A
  5
281A
331
2718
  5
2718
331
24
  5
18
331
2822
  5
2822
331
28D7
  5
28E3
331
282A
  5
282A
331
2832
  5
2832
331
28E7
  5
28E4
331
283A
  5
283A
331
D
  5
13
331
15
  5
11
331
1D
  5
1E
331
161A
  5
1CEA
331
2842
  5
2843
331
2803
  5
2803
331
280B
  5
280B
331
2813
  5
2813
331
281B
  5
281B
331
25
  5
25
331
2823
  5
2823
331
28D8
  5
28E5
331
282B
  5
282B
331
2833
  5
2833
331
28E8
  5
28E2
331
283B
  5
283B
331
16
  5
12
331
1E
  5
1F
331
1CA
  5
1CA
331
1E63
  5
1CE9
331
2843
  5
2844
331
2804
  5
2804
331
2814
  5
2814
331
281C
  5
281C
331
2824
  5
2824
331
28D9
  5
28E7
331
282C
  5
282C
331
2834
  5
2834
331
28E9
  5
28D9
331
283C
  5
283C
331
17
  5
17
331
1F
  5
21
331
2805
  5
2805
331
2815
  5
2815
331
281D
  5
281D
331
27
  5
27
331
28D2
  5
28D3
331
2825
  5
2825
331
282D
  5
282D
331
2835
  5
2835
331
28EA
  5
28D7
331
283D
  5
283D
331
27FE
  5
27FE
331
10
  5
14
331
2806
  5
2806
331
2816
  5
2816
331
281E
  5
281E
331
28D3
  5
28D4
331
2826
  5
2826
331
282E
  5
282E
331
2836
  5
2836
331
28EB
  5
28D5
331
283E
  5
283F
331
27FF
  5
27FF
331
11
  5
15
331
2807
  5
2807
331
2817
  5
2817
331
281F
  5
281F
331
21
  5
22
331
28D4
  5
28D6
331
2827
  5
2827
331
282F
  5
282F
331
28E4
  5
283E
331
2837
  5
2837
331
283F
  5
2840
331
12
  5
16
331
10F
  5
10F
331
2800
  5
2800
331
2808
  5
2808
331
2818
  5
2818
  0
SORTENTSTABLE
  5
B6E
102
{ACAD_REACTORS
330
B6D
102
}
330
B6D
100
AcDbSortentsTable
330
B69
  0
XRECORD
  5
2938
102
{ACAD_REACTORS
330
2937
102
}
330
2937
100
AcDbXrecord
280
     1
 40
7955300.0
  1
\pt0.09;{\fTimes New Roman|b0|i0|c238|p18;\H1.6x;\C4;Bovelacci\P\H0.4375x;\T0.95;via del Commercio, 5  47100 Forli - Italy  \fTimes New Roman|b0|i0|c0|p18;\P\fTimes New Roman|b0|i0|c238|p18;tel.+39-0543721386  fax +39-0543721127\fTimes New Roman|b0|i
  1
0|c0|p18; \fTimes New Roman|b0|i0|c238|p18;www.bovelacci.it\fTimes New Roman|b0|i0|c0|p18; \fTimes New Roman|b0|i0|c238|p18;e-mail: bovelacci@bovelacci\fTimes New Roman|b0|i0|c0|p18;.it}
  0
DIMASSOC
  5
2910
102
{ACAD_REACTORS
330
2905
102
}
330
2905
100
AcDbDimAssoc
330
28F7
 90
        3
 70
     0
 71
     0
  1
AcDbOsnapPointRef
 72
     1
331
2718
 73
     2
 91
       18
 40
1.0
 10
0.0
 20
0.0
 30
2.000000000000000E+50
 75
     0
  1
AcDbOsnapPointRef
 72
    13
331
2718
 73
     2
 91
        2
 40
0.0
 10
0.0
 20
0.0
 30
2.000000000000000E+50
 75
     0
  0
DIMASSOC
  5
2929
102
{ACAD_REACTORS
330
291F
102
}
330
291F
100
AcDbDimAssoc
330
2912
 90
        3
 70
     0
 71
     0
  1
AcDbOsnapPointRef
 72
     1
331
2718
 73
     2
 91
       19
 40
1.0
 10
0.0
 20
0.0
 30
2.000000000000000E+50
 75
     0
  1
AcDbOsnapPointRef
 72
    13
331
2718
 73
     2
 91
       17
 40
6.323806180477567
 10
0.0
 20
0.0
 30
2.000000000000000E+50
 75
     0
  0
XRECORD
  5
2931
102
{ACAD_REACTORS
330
2930
102
}
330
2930
100
AcDbXrecord
280
     1
102
SHADEPLOT
 70
     0
  0
XRECORD
  5
2933
102
{ACAD_REACTORS
330
2932
102
}
330
2932
100
AcDbXrecord
280
     1
102
SHADEPLOT
 70
     0
  0
XRECORD
  5
14B
102
{ACAD_REACTORS
330
14A
102
}
330
14A
100
AcDbXrecord
280
     1
 40
0.18
  0
LAYOUT
  5
82
102
{ACAD_XDICTIONARY
360
83
102
}
102
{ACAD_REACTORS
330
78
102
}
330
78
100
AcDbPlotSettings
  1

  2
C:\Documents and Settings\All Users\Dati applicazioni\Autodesk\ADT 2006\enu\Plotters\Default Windows System Printer.pc3
  4
A4
  6

 40
3.174999952316281
 41
3.174999952316281
 42
3.175003051757812
 43
3.17498779296875
 44
209.9733276367186
 45
297.0106506347656
 46
0.0
 47
0.0
 48
0.0
 49
0.0
140
0.0
141
0.0
142
1.0
143
1.0
 70
   688
 72
     1
 73
     1
 74
     5
  7

 75
    16
147
1.0
148
0.0
149
0.0
100
AcDbLayout
  1
Layout1
 70
     1
 71
     1
 10
-3.17498779296875
 20
-3.174999952316281
 11
293.8356628417969
 21
206.7983276844024
 12
0.0
 22
0.0
 32
0.0
 14
29.06606628894805
 24
20.36233246326446
 34
0.0
 15
261.5945966005325
 25
183.2609921693802
 35
0.0
146
0.0
 13
0.0
 23
0.0
 33
0.0
 16
1.0
 26
0.0
 36
0.0
 17
0.0
 27
1.0
 37
0.0
 76
     0
330
79
331
7B
1001
ACAD_PSEXT
1000
C:\Documents and Settings\All Users\Dati applicazioni\Autodesk\ADT 2006\enu\Plotters\Default Windows System Printer.pc3
1000
Microsoft Office Document Image Writer Driver
1000
Microsoft Document Imaging Writer Port:
1000

1070
     0
  0
LAYOUT
  5
89
102
{ACAD_XDICTIONARY
360
2935
102
}
102
{ACAD_REACTORS
330
78
102
}
330
78
100
AcDbPlotSettings
  1

  2
C:\Documents and Settings\All Users\Dati applicazioni\Autodesk\ADT 2006\enu\Plotters\Default Windows System Printer.pc3
  4

  6

 40
0.0
 41
0.0
 42
0.0
 43
0.0
 44
0.0
 45
0.0
 46
0.0
 47
0.0
 48
0.0
 49
0.0
140
0.0
141
0.0
142
1.0
143
1.0
 70
   688
 72
     0
 73
     0
 74
     5
  7

 75
    16
147
1.0
148
0.0
149
0.0
100
AcDbLayout
  1
Layout2
 70
     1
 71
     2
 10
0.0
 20
0.0
 11
12.0
 21
9.0
 12
0.0
 22
0.0
 32
0.0
 14
0.0
 24
0.0
 34
0.0
 15
0.0
 25
0.0
 35
0.0
146
0.0
 13
0.0
 23
0.0
 33
0.0
 16
1.0
 26
0.0
 36
0.0
 17
0.0
 27
1.0
 37
0.0
 76
     0
330
86
  0
LAYOUT
  5
77
102
{ACAD_XDICTIONARY
360
292E
102
}
102
{ACAD_REACTORS
330
78
102
}
330
78
100
AcDbPlotSettings
  1

  2
C:\Documents and Settings\All Users\Dati applicazioni\Autodesk\ADT 2006\enu\Plotters\Default Windows System Printer.pc3
  4

  6

 40
0.0
 41
0.0
 42
0.0
 43
0.0
 44
0.0
 45
0.0
 46
0.0
 47
0.0
 48
0.0
 49
0.0
140
0.0
141
0.0
142
1.0
143
1.0
 70
  1712
 72
     0
 73
     0
 74
     0
  7

 75
     0
147
1.0
148
0.0
149
0.0
100
AcDbLayout
  1
Model
 70
     1
 71
     0
 10
0.0
 20
0.0
 11
12.0
 21
9.0
 12
0.0
 22
0.0
 32
0.0
 14
0.0
 24
0.0
 34
0.0
 15
0.0
 25
0.0
 35
0.0
146
0.0
 13
0.0
 23
0.0
 33
0.0
 16
1.0
 26
0.0
 36
0.0
 17
0.0
 27
1.0
 37
0.0
 76
     0
330
2
  0
MATERIAL
  5
A0
102
{ACAD_XDICTIONARY
360
C7
102
}
102
{ACAD_REACTORS
330
B
102
}
330
B
100
AcDbMaterial
  1
ByBlock
  0
MATERIAL
  5
9F
102
{ACAD_XDICTIONARY
360
C5
102
}
102
{ACAD_REACTORS
330
B
102
}
330
B
100
AcDbMaterial
  1
ByLayer
  0
MATERIAL
  5
A
102
{ACAD_XDICTIONARY
360
B1
102
}
102
{ACAD_REACTORS
330
B
102
}
330
B
100
AcDbMaterial
  1
Global
  0
MLINESTYLE
  5
A3
102
{ACAD_REACTORS
330
9D
102
}
330
9D
100
AcDbMlineStyle
  2
STANDARD
 70
     0
  3

 62
   256
 51
90.0
 52
90.0
 71
     2
 49
0.5
 62
   256
  6
BYLAYER
 49
-0.5
 62
   256
  6
BYLAYER
  0
ACDBPLACEHOLDER
  5
7
102
{ACAD_REACTORS
330
8
102
}
330
8
  0
TABLESTYLE
  5
A4
102
{ACAD_XDICTIONARY
360
155
102
}
102
{ACAD_REACTORS
330
A2
102
}
330
A2
100
AcDbTableStyle
  3
Standard
 70
     0
 71
     0
 40
1.5
 41
1.5
280
     0
281
     0
  7
Standard
140
4.5
170
     2
 62
     0
 63
     7
283
     0
274
    -2
284
     1
 64
     0
275
    -2
285
     1
 65
     0
276
    -2
286
     1
 66
     0
277
    -2
287
     1
 67
     0
278
    -2
288
     1
 68
     0
279
    -2
289
     1
 69
     0
  7
Standard
140
6.0
170
     5
 62
     0
 63
     7
283
     0
274
    -2
284
     1
 64
     0
275
    -2
285
     1
 65
     0
276
    -2
286
     1
 66
     0
277
    -2
287
     1
 67
     0
278
    -2
288
     1
 68
     0
279
    -2
289
     1
 69
     0
  7
Standard
140
4.5
170
     5
 62
     0
 63
     7
283
     0
274
    -2
284
     1
 64
     0
275
    -2
285
     1
 65
     0
276
    -2
286
     1
 66
     0
277
    -2
287
     1
 67
     0
278
    -2
288
     1
 68
     0
279
    -2
289
     1
 69
     0
  0
VISUALSTYLE
  5
7E
102
{ACAD_REACTORS
330
7F
102
}
330
7F
100
AcDbVisualStyle
  2
2dWireframe
 70
     4
 71
     0
 72
     2
 73
     0
 90
        0
 40
-0.6
 41
-30.0
 62
     5
 63
     7
 74
     1
 91
        4
 64
     7
 65
   257
 75
     1
175
     1
 42
1.0
 92
        0
 66
   257
 43
1.0
 76
     1
 77
     6
 78
     2
 67
     7
 79
     5
170
     0
171
     0
290
     0
174
     0
 93
        1
 44
0.0
173
     0
291
     0
 45
0.0
1001
ACAD
1000
AcDbSavedByObjectVersion
1070
     0
1000
AcDbSavedByObjectVersion
1070
     0
1000
AcDbSavedByObjectVersion
1070
     0
1001
ACAD
1000
AcRTDxfName
1000
VISUALSTYLE
  0
VISUALSTYLE
  5
D8
102
{ACAD_REACTORS
330
7F
102
}
330
7F
100
AcDbVisualStyle
  2
3D Hidden
 70
     6
 71
     1
 72
     2
 73
     2
 90
        0
 40
-0.6
 41
-30.0
 62
     5
 63
     7
 74
     2
 91
        2
 64
     7
 65
   257
 75
     2
175
     1
 42
40.0
 92
        0
 66
   257
 43
1.0
 76
     1
 77
     6
 78
     2
 67
     7
 79
     3
170
     0
171
     0
290
     0
174
     0
 93
        1
 44
0.0
173
     0
291
     0
 45
0.0
1001
ACAD
1000
AcDbSavedByObjectVersion
1070
     0
1000
AcDbSavedByObjectVersion
1070
     0
1001
ACAD
1000
AcRTDxfName
1000
VISUALSTYLE
  0
VISUALSTYLE
  5
A6
102
{ACAD_REACTORS
330
7F
102
}
330
7F
100
AcDbVisualStyle
  2
3dWireframe
 70
     5
 71
     0
 72
     2
 73
     0
 90
        0
 40
-0.6
 41
-30.0
 62
     5
 63
     7
 74
     1
 91
        4
 64
     7
 65
   257
 75
     1
175
     1
 42
1.0
 92
        0
 66
   257
 43
1.0
 76
     1
 77
     6
 78
     2
 67
     7
 79
     5
170
     0
171
     0
290
     0
174
     0
 93
        1
 44
0.0
173
     0
291
     0
 45
0.0
1001
ACAD
1000
AcDbSavedByObjectVersion
1070
     0
1000
AcDbSavedByObjectVersion
1070
     0
1000
AcDbSavedByObjectVersion
1070
     0
1001
ACAD
1000
AcRTDxfName
1000
VISUALSTYLE
  0
VISUALSTYLE
  5
D7
102
{ACAD_REACTORS
330
7F
102
}
330
7F
100
AcDbVisualStyle
  2
Basic
 70
     7
 71
     1
 72
     0
 73
     1
 90
        0
 40
-0.6
 41
-30.0
 62
     5
 63
     7
 74
     0
 91
        4
 64
     7
 65
   257
 75
     1
175
     1
 42
1.0
 92
        8
 66
     7
 43
1.0
 76
     1
 77
     6
 78
     2
 67
     7
 79
     5
170
     0
171
     0
290
     0
174
     0
 93
        1
 44
0.0
173
     0
291
     1
 45
0.0
1001
ACAD
1000
AcDbSavedByObjectVersion
1070
     0
1000
AcDbSavedByObjectVersion
1070
     0
1001
ACAD
1000
AcRTDxfName
1000
VISUALSTYLE
  0
VISUALSTYLE
  5
DB
102
{ACAD_REACTORS
330
7F
102
}
330
7F
100
AcDbVisualStyle
  2
Brighten
 70
    12
 71
     2
 72
     2
 73
     0
 90
        0
 40
-0.6
 41
-30.0
 62
     5
 63
     7
 74
     1
 91
        4
 64
     7
 65
   257
 75
     1
175
     1
 42
1.0
 92
        8
 66
     7
 43
1.0
 76
     1
 77
     6
 78
     2
 67
     7
 79
     5
170
     0
171
     0
290
     0
174
     0
 93
        1
 44
50.0
173
     0
291
     1
 45
0.0
1001
ACAD
1000
AcDbSavedByObjectVersion
1070
     0
1000
AcDbSavedByObjectVersion
1070
     0
1001
ACAD
1000
AcRTDxfName
1000
VISUALSTYLE
  0
VISUALSTYLE
  5
DF
102
{ACAD_REACTORS
330
7F
102
}
330
7F
100
AcDbVisualStyle
  2
ColorChange
 70
    16
 71
     2
 72
     2
 73
     3
 90
        0
 40
-0.6
 41
-30.0
 62
     5
 63
     8
 74
     1
 91
        4
 64
     7
 65
   257
 75
     1
175
     1
 42
1.0
 92
        8
 66
     8
 43
1.0
 76
     1
 77
     6
 78
     2
 67
     7
 79
     5
170
     0
171
     0
290
     0
174
     0
 93
        1
 44
0.0
173
     0
291
     1
 45
0.0
1001
ACAD
1000
AcDbSavedByObjectVersion
1070
     0
1000
AcDbSavedByObjectVersion
1070
     0
1001
ACAD
1000
AcRTDxfName
1000
VISUALSTYLE
  0
VISUALSTYLE
  5
D9
102
{ACAD_REACTORS
330
7F
102
}
330
7F
100
AcDbVisualStyle
  2
Conceptual
 70
     9
 71
     3
 72
     2
 73
     0
 90
        0
 40
-0.6
 41
-30.0
 62
     5
 63
     7
 74
     2
 91
        2
 64
     7
 65
   257
 75
     1
175
     1
 42
40.0
 92
        8
 66
     7
 43
1.0
 76
     1
 77
     6
 78
     2
 67
     7
 79
     3
170
     0
171
     0
290
     0
174
     0
 93
        1
 44
0.0
173
     0
291
     0
 45
0.0
1001
ACAD
1000
AcDbSavedByObjectVersion
1070
     0
1000
AcDbSavedByObjectVersion
1070
     0
1001
ACAD
1000
AcRTDxfName
1000
VISUALSTYLE
  0
VISUALSTYLE
  5
DA
102
{ACAD_REACTORS
330
7F
102
}
330
7F
100
AcDbVisualStyle
  2
Dim
 70
    11
 71
     2
 72
     2
 73
     0
 90
        0
 40
-0.6
 41
-30.0
 62
     5
 63
     7
 74
     1
 91
        4
 64
     7
 65
   257
 75
     1
175
     1
 42
1.0
 92
        8
 66
     7
 43
1.0
 76
     1
 77
     6
 78
     2
 67
     7
 79
     5
170
     0
171
     0
290
     0
174
     0
 93
        1
 44
-50.0
173
     0
291
     1
 45
0.0
1001
ACAD
1000
AcDbSavedByObjectVersion
1070
     0
1000
AcDbSavedByObjectVersion
1070
     0
1001
ACAD
1000
AcRTDxfName
1000
VISUALSTYLE
  0
VISUALSTYLE
  5
DE
102
{ACAD_REACTORS
330
7F
102
}
330
7F
100
AcDbVisualStyle
  2
Facepattern
 70
    15
 71
     2
 72
     2
 73
     0
 90
        0
 40
-0.6
 41
-30.0
 62
     5
 63
     7
 74
     1
 91
        4
 64
     7
 65
   257
 75
     1
175
     1
 42
1.0
 92
        8
 66
     7
 43
1.0
 76
     1
 77
     6
 78
     2
 67
     7
 79
     5
170
     0
171
     0
290
     0
174
     0
 93
        1
 44
0.0
173
     0
291
     1
 45
0.0
1001
ACAD
1000
AcDbSavedByObjectVersion
1070
     0
1000
AcDbSavedByObjectVersion
1070
     0
1001
ACAD
1000
AcRTDxfName
1000
VISUALSTYLE
  0
VISUALSTYLE
  5
D3
102
{ACAD_REACTORS
330
7F
102
}
330
7F
100
AcDbVisualStyle
  2
Flat
 70
     0
 71
     2
 72
     1
 73
     1
 90
        2
 40
-0.6
 41
30.0
 62
     5
 63
     7
 74
     0
 91
        4
 64
     7
 65
   257
 75
     1
175
     1
 42
1.0
 92
        8
 66
     7
 43
1.0
 76
     1
 77
     6
 78
     2
 67
     7
 79
     5
170
     0
171
     0
290
     0
174
     0
 93
       13
 44
0.0
173
     0
291
     1
 45
0.0
1001
ACAD
1000
AcDbSavedByObjectVersion
1070
     0
1000
AcDbSavedByObjectVersion
1070
     0
1001
ACAD
1000
AcRTDxfName
1000
VISUALSTYLE
  0
VISUALSTYLE
  5
D4
102
{ACAD_REACTORS
330
7F
102
}
330
7F
100
AcDbVisualStyle
  2
FlatWithEdges
 70
     1
 71
     2
 72
     1
 73
     1
 90
        2
 40
-0.6
 41
30.0
 62
     5
 63
     7
 74
     1
 91
        4
 64
     7
 65
   257
 75
     1
175
     1
 42
1.0
 92
        0
 66
   257
 43
1.0
 76
     1
 77
     6
 78
     2
 67
     7
 79
     5
170
     0
171
     0
290
     0
174
     0
 93
       13
 44
0.0
173
     0
291
     1
 45
0.0
1001
ACAD
1000
AcDbSavedByObjectVersion
1070
     0
1000
AcDbSavedByObjectVersion
1070
     0
1001
ACAD
1000
AcRTDxfName
1000
VISUALSTYLE
  0
VISUALSTYLE
  5
D5
102
{ACAD_REACTORS
330
7F
102
}
330
7F
100
AcDbVisualStyle
  2
Gouraud
 70
     2
 71
     2
 72
     2
 73
     1
 90
        2
 40
-0.6
 41
30.0
 62
     5
 63
     7
 74
     0
 91
        4
 64
     7
 65
   257
 75
     1
175
     1
 42
1.0
 92
        0
 66
     7
 43
1.0
 76
     1
 77
     6
 78
     2
 67
     7
 79
     5
170
     0
171
     0
290
     0
174
     0
 93
       13
 44
0.0
173
     0
291
     1
 45
0.0
1001
ACAD
1000
AcDbSavedByObjectVersion
1070
     0
1000
AcDbSavedByObjectVersion
1070
     0
1001
ACAD
1000
AcRTDxfName
1000
VISUALSTYLE
  0
VISUALSTYLE
  5
D6
102
{ACAD_REACTORS
330
7F
102
}
330
7F
100
AcDbVisualStyle
  2
GouraudWithEdges
 70
     3
 71
     2
 72
     2
 73
     1
 90
        2
 40
-0.6
 41
30.0
 62
     5
 63
     7
 74
     1
 91
        4
 64
     7
 65
   257
 75
     1
175
     1
 42
1.0
 92
        0
 66
   257
 43
1.0
 76
     1
 77
     6
 78
     2
 67
     7
 79
     5
170
     0
171
     0
290
     0
174
     0
 93
       13
 44
0.0
173
     0
291
     1
 45
0.0
1001
ACAD
1000
AcDbSavedByObjectVersion
1070
     0
1000
AcDbSavedByObjectVersion
1070
     0
1001
ACAD
1000
AcRTDxfName
1000
VISUALSTYLE
  0
VISUALSTYLE
  5
DD
102
{ACAD_REACTORS
330
7F
102
}
330
7F
100
AcDbVisualStyle
  2
Linepattern
 70
    14
 71
     2
 72
     2
 73
     0
 90
        0
 40
-0.6
 41
-30.0
 62
     5
 63
     7
 74
     1
 91
        4
 64
     7
 65
   257
 75
     7
175
     7
 42
1.0
 92
        8
 66
     7
 43
1.0
 76
     1
 77
     6
 78
     2
 67
     7
 79
     5
170
     0
171
     0
290
     0
174
     0
 93
        1
 44
0.0
173
     0
291
     1
 45
0.0
1001
ACAD
1000
AcDbSavedByObjectVersion
1070
     0
1000
AcDbSavedByObjectVersion
1070
     0
1001
ACAD
1000
AcRTDxfName
1000
VISUALSTYLE
  0
VISUALSTYLE
  5
A5
102
{ACAD_REACTORS
330
7F
102
}
330
7F
100
AcDbVisualStyle
  2
Realistic
 70
     8
 71
     2
 72
     2
 73
     0
 90
        0
 40
-0.6
 41
-30.0
 62
     5
 63
     7
 74
     1
 91
        0
 64
     7
 65
   257
 75
     1
175
     1
 42
1.0
 92
        8
 66
     8
 43
1.0
 76
     1
 77
     6
 78
     2
 67
     7
 79
     5
170
     0
171
     0
290
     0
174
     0
 93
       13
 44
0.0
173
     0
291
     0
 45
0.0
1001
ACAD
1000
AcDbSavedByObjectVersion
1070
     0
1000
AcDbSavedByObjectVersion
1070
     0
1000
AcDbSavedByObjectVersion
1070
     0
1001
ACAD
1000
AcRTDxfName
1000
VISUALSTYLE
  0
VISUALSTYLE
  5
DC
102
{ACAD_REACTORS
330
7F
102
}
330
7F
100
AcDbVisualStyle
  2
Thicken
 70
    13
 71
     2
 72
     2
 73
     0
 90
        0
 40
-0.6
 41
-30.0
 62
     5
 63
     7
 74
     1
 91
        4
 64
     7
 65
   257
 75
     1
175
     1
 42
1.0
 92
       12
 66
     7
 43
1.0
 76
     1
 77
     6
 78
     2
 67
     7
 79
     5
170
     0
171
     0
290
     0
174
     0
 93
        1
 44
0.0
173
     0
291
     1
 45
0.0
1001
ACAD
1000
AcDbSavedByObjectVersion
1070
     0
1000
AcDbSavedByObjectVersion
1070
     0
1001
ACAD
1000
AcRTDxfName
1000
VISUALSTYLE
  0
DICTIONARYVAR
  5
AA
102
{ACAD_REACTORS
330
A9
102
}
330
A9
100
DictionaryVariables
280
     0
  1
STANDARD
  0
DICTIONARYVAR
  5
AE
102
{ACAD_REACTORS
330
A9
102
}
330
A9
100
DictionaryVariables
280
     0
  1
2
  0
DICTIONARYVAR
  5
AD
102
{ACAD_REACTORS
330
A9
102
}
330
A9
100
DictionaryVariables
280
     0
  1
1
  0
DICTIONARYVAR
  5
AC
102
{ACAD_REACTORS
330
A9
102
}
330
A9
100
DictionaryVariables
280
     0
  1
0
  0
DICTIONARYVAR
  5
16A
102
{ACAD_REACTORS
330
A9
102
}
330
A9
100
DictionaryVariables
280
     0
  1

  0
DICTIONARYVAR
  5
AB
102
{ACAD_REACTORS
330
A9
102
}
330
A9
100
DictionaryVariables
280
     0
  1
127
  0
DICTIONARY
  5
83
330
82
100
AcDbDictionary
280
     1
281
     1
  3
ACAD_XREC_ROUNDTRIP
360
2934
  3
ADSK_XREC_LAYOUTTHUMBNAIL
360
84
  0
DICTIONARY
  5
2935
330
89
100
AcDbDictionary
280
     1
281
     1
  3
ACAD_XREC_ROUNDTRIP
360
2936
  0
DICTIONARY
  5
292E
330
77
100
AcDbDictionary
280
     1
281
     1
  3
ACAD_XREC_ROUNDTRIP
360
292F
  0
DICTIONARY
  5
C7
330
A0
100
AcDbDictionary
280
     1
281
     1
  3
ACAD_XREC_ROUNDTRIP
360
C8
  0
DICTIONARY
  5
C5
330
9F
100
AcDbDictionary
280
     1
281
     1
  3
ACAD_XREC_ROUNDTRIP
360
C6
  0
DICTIONARY
  5
B1
330
A
100
AcDbDictionary
280
     1
281
     1
  3
ACAD_XREC_ROUNDTRIP
360
B2
  0
DICTIONARY
  5
155
330
A4
100
AcDbDictionary
280
     1
281
     1
  3
ACAD_XREC_ROUNDTRIP
360
156
  0
XRECORD
  5
2934
102
{ACAD_REACTORS
330
83
102
}
330
83
100
AcDbXrecord
280
     1
102
SHADEPLOT
 70
     0
102
SHADEPLOTRESLEVEL
 70
     2
102
SHADEPLOTCUSTOMDPI
 70
   300
  0
XRECORD
  5
84
102
{ACAD_REACTORS
330
83
102
}
330
83
100
AcDbXrecord
280
     1
310
28000000B40000007F00000001000800000000004C59000000000000000000000001000000000000FFFFFF0000000000FFFFFF000000000000000000000000000000000000000000000000000000000000000000330000006600000099000000CC000000FF00000000330000333300006633000099330000CC330000FF3300
310
0000660000336600006666000099660000CC660000FF66000000990000339900006699000099990000CC990000FF99000000CC000033CC000066CC000099CC0000CCCC0000FFCC000000FF000033FF000066FF000099FF0000CCFF0000FFFF000000003300330033006600330099003300CC003300FF003300003333003333
310
33006633330099333300CC333300FF33330000663300336633006666330099663300CC663300FF66330000993300339933006699330099993300CC993300FF99330000CC330033CC330066CC330099CC3300CCCC3300FFCC330000FF330033FF330066FF330099FF3300CCFF3300FFFF330000006600330066006600660099
310
006600CC006600FF00660000336600333366006633660099336600CC336600FF33660000666600336666006666660099666600CC666600FF66660000996600339966006699660099996600CC996600FF99660000CC660033CC660066CC660099CC6600CCCC6600FFCC660000FF660033FF660066FF660099FF6600CCFF6600
310
FFFF660000009900330099006600990099009900CC009900FF00990000339900333399006633990099339900CC339900FF33990000669900336699006666990099669900CC669900FF66990000999900339999006699990099999900CC999900FF99990000CC990033CC990066CC990099CC9900CCCC9900FFCC990000FF99
310
0033FF990066FF990099FF9900CCFF9900FFFF99000000CC003300CC006600CC009900CC00CC00CC00FF00CC000033CC003333CC006633CC009933CC00CC33CC00FF33CC000066CC003366CC006666CC009966CC00CC66CC00FF66CC000099CC003399CC006699CC009999CC00CC99CC00FF99CC0000CCCC0033CCCC0066CC
310
CC0099CCCC00CCCCCC00FFCCCC0000FFCC0033FFCC0066FFCC0099FFCC00CCFFCC00FFFFCC000000FF003300FF006600FF009900FF00CC00FF00FF00FF000033FF003333FF006633FF009933FF00CC33FF00FF33FF000066FF003366FF006666FF009966FF00CC66FF00FF66FF000099FF003399FF006699FF009999FF00CC
310
99FF00FF99FF0000CCFF0033CCFF0066CCFF0099CCFF00CCCCFF00FFCCFF0000FFFF0033FFFF0066FFFF0099FFFF00CCFFFF00FFFFFF00000000000D0D0D001A1A1A00282828003535350043434300505050005D5D5D006B6B6B00787878008686860093939300A1A1A100AEAEAE00BBBBBB00C9C9C900D6D6D600E4E4E400
310
F1F1F100FFFFFF0000000000000000000000000000000000000000000000000000000000000000000000000000000000E2E2E2E2E2E2E2E2E2E2E2E2E2E2E2E2E2E2E2E2E2E2E2E2E2E2E2E2E2E2E2E2E2E2E2E2E2E2E2E2E2E2E2E2E2E2E2E2E2E2E2E2E2E2E2E2E2E2E2E2E2E2E2E2E2E2E2E2E2E2E2E2E2E2E2E2E2E2E2
310
E2E2E2E2E2E2E2E2E2E2E2E2E2E2E2E2E2E2E2E2E2E2E2E2E2E2E2E2E2E2E2E2E2E2E2E2E2E2E2E2E2E2E2E2E2E2E2E2E2E2E2E2E2E2E2E2E2E2E2E2E2E2E2E2E2E2E2E2E2E2E2E2E2E2E2E2E2E2E2E2E2E2E2E2E2E2E2E2E2E2E2E2E2E2E2E2E2E2E2E2E2E2F5F5F5F5F5F5F5F5F5F5F5F5F5F5F5F5F5F5F5F5F5F5F5F5F5
310
F5F5F5F5F5F5F5F5F5F5F5F5F5F5F5F5F5F5F5F5F5F5F5F5F5F5F5F5F5F5F5F5F5F5F5F5F5F5F5F5F5F5F5F5F5F5F5F5F5F5F5F5F5F5F5F5F5F5F5F5F5F5F5F5F5F5F5F5F5F5F5F5F5F5F5F5F5F5F5F5F5F5F5F5F5F5F5F5F5F5F5F5F5F5F5F5F5F5F5F5F5F5F5F5F5F5F5F5F5F5F5F5F5F5F5F5F5F5F5F5F5F5F5F5F5F5F5
310
F5F5F5F5F5F5F5F5F5F5F5F5F5F5F5F5F5F5F5F5F5F5F5F5F5F5E2E2F5E2E2E2E2E2E2E2E2E2F5F5F5F5F5F5F5F5F5E2E2E2E2E2E2E2E2E2E2E2E2E2E2E2E2F5F5F5F5F5F5F5F5F5E2E2E2E2E2E2E2E2E2E2E2E2E2E2E2E2F5F5F5F5F5F5F5F5F5E2E2E2E2E2E2E2E2E2E2E2E2E2E2E2E2F5F5F5F5F5F5F5F5F5E2E2E2E2E2
310
E2E2E2E2E2E2E2E2E2E2E2F5F5F5F5F5F5F5F5F5E2E2E2E2E2E2E2E2E2E2E2E2E2E2E2E2F5F5F5F5F5F5F5F5F5E2E2E2E2E2E2E2E2E2E2E2E2E2E2E2E2F5F5F5F5F5F5F5F5F5E2E2E2E2E2E2E2E2F5E2E2F5E2F5F5F5F5F5F5F5F5F5F5F5F5F5F5F5F5F5F5F5F5F5F5F5F5F5F5F5F5F5F5F5F5F5F5F5F5F5F5F5F5F5F5F5F5
310
F5F5F5F5F5F5F5F5F5F5F5F5F5F5F5F5F5F5F5F5F5F5F5F5F5F5F5F5F5F5F5F5F5F5F5F5F5F5F5F5F5F5F5F5F5F5F5F5F5F5F5F5F5F5F5F5F5F5F5F5F5F5F5F5F5F5F5F5F5F5F5F5F5F5F5F5F5F5F5F5F5F5F5F5F5F5F5F5F5F5F5F5F5F5F5F5F5F5F5F5F5F5F5F5F5F5F5F5F5F5F5F5F5F5F5F5F5F5F5F5F5F5F5F5F5F5F5
310
F5F5F5E2F5E2E2F5E2F5F5F5F5F5F5F5F5F5F5F5F5F5F5F5F5F5F5F5F5F5F5F5F5F5F5F5F5F5F5F5F5F5F5F5F5F5F5F5F5F5F5F5F5F5F5F5F5F5F5F5F5F5F5F5F5F5F5F5F5F5F5F5F5F5F5F5F5F5F5F5F5F5F5F5F5F5F5F5F5F5F5F5F5F5F5F5F5F5F5F5F5F5F5F5F5F5F5F5F5F5F5F5F5F5F5F5F5F5F5F5F5F5F5F5F5F5F5
310
F5F5F5F5F5F5F5F5F5F5F5F5F5F5F5F5F5F5F5F5F5F5F5F5F5F5F5F5F5F5F5F5F5F5F5F5F5F5F5F5F5F5F5F5F5F5F5F5F5F5F5F5F5F5F5F5E2F5E2E2F5E2F5F5F5F5F5F5F5F5F5F5F5F5F5F5F5F5F5F5F5F5F5F5F5F5F5F5F5F5F5F5F5F5F5F5F5F5F5F5F5F5F5F5F5F5F5F5F5F5F5F5F5F5F5F5F5F5F5F5F5F5F5F5F5F5F5
310
F5F5F5F5F5F5F5F5F5F5F5F5F5F5F5F5F5F5F5F5F5F5F5F5F5F5F5F5F5F5F5F5F5F5F5F5F5F5F5F5F5F5F5F5F5F5F5F5F5F5F5F5F5F5F5F5F5F5F5F5F5F5F5F5F5F5F5F5F5F5F5F5F5F5F5F5F5F5F5F5F5F5F5F5F5F5F5F5F5F5F5F5F5F5F5F5F5F5F5F5F5F5F5F5F5F5F5F5F5E2F5E2E2F5E2F5F5F5F5F5F5F5F5F5F5F5F5
310
F5F5F5F5F5F5F5F5F5F5F5F5F5F5F5F5F5F5F5F5F5F5F5F5F5F5F5F5F5F5F5F5F5F5F5F5F5F5F5F5F5F5F5F5F5F5F5F5F5F5F5F5F5F5F5F5F5F5F5F5F5F5F5F5F5F5F5F5F5F5F5F5F5F5F5F5F5F5F5F5F5F5F5F5F5F5F5F5F5F5F5F5F5F5F5F5F5F5F5F5F5F5F5F5F5F5F5F5F5F5F5F5F5F5F5F5F5F5F5F5F5F5F5F5F5F5F5
310
F5F5F5F5F5F5F5F5F5F5F5F5F5F5F5F5F5F5F5F5F5F5F5F5F5F5F5F5F5F5F5F5F5F5F5E2F5E2E2F5E2F5F5F5F5F5F5F5F5F5F5F5F5F5F5F5F5F5F5F5F5F5F5F5F5F5F5F5F5F5F5F5F5F5F5F5F5F5F5F5F5F5F5F5F5F5F5F5F5F5F5F5F5F5F5F5F5F5F5F5F5F5F5F5F5F5F5F5F5F5F5F5F5F5F5F5F5F5F5F5F5F5F5F5F5F5F5
310
F5F5F5F5F5F5F5F5F5F5F5F5F5F5F5F5F5F5F5F5F5F5F5F5F5F5F5F5F5F5F5F5F5F5F5F5F5F5F5F5F5F5F5F5F5F5F5F5F5F5F5F5F5F5F5F5F5F5F5F5F5F5F5F5F5F5F5F5F5F5F5F5F5F5F5F5F5F5F5F5F5F5F5F5F5F5F5F5E2F5E2E2F5E2F5F5F5F5F5F5F5F5F5F5F5F5F5F5F5F5F5F5F5F5F5F5F5F5F5F5F5F5F5F5F5F5F5
310
F5F5F5F5F5F5F5F5F5F5F5F5F5F5F5F5F5F5F5F5F5F5F5F5F5F5F5F5F5F5F5F5F5F5F5F5F5F5F5F5F5F5F5F5F5F5F5F5F5F5F5F5F5F5F5F5F5F5F5F5F5F5F5F5F5F5F5F5F5F5F5F5F5F5F5F5F5F5F5F5F5F5F5F5F5F5F5F5F5F5F5F5F5F5F5F5F5F5F5F5F5F5F5F5F5F5F5F5F5F5F5F5F5F5F5F5F5F5F5F5F5F5F5F5F5F5F5
310
F5F5F5F5F5F5F5F5F5F5F5F5F5F5E2F5E2E2F5E2F5F5F5F5F5F5F5F5F5F5F5F5F5F5F5F5F5F5F5F5F5F5F5F5F5F5F5F5F5F5F5F5F5F5F5F5F5F5F5F5F5F5F5F5F5F5F5F5F5F5F5F5F5F5F5F5F5F5F5F5F5F5F5F5F5F5F5F5F5F5F5F5F5F5F5F5F5F5F5F5F5F5F5F5F5F5F5F5F5F5F5F5F5F5F5F5F5F5F5F5F5F5F5F5F5F5F5
310
F5F5F5F5F5F5F5F5F5F5F5F5F5F5F5F5F5F5F5F5F5F5F5F5F5F5F5F5F5F5F5F5F5F5F5F5F5F5F5F5F5F5F5F5F5F5F5F5F5F5F5F5F5F5F5F5F5F5F5F5F5F5F5F5F5F5F5E2F5E2E2F5F5F5F5F5F5F5F5F5F5F5F5F5F5F5F5F5F5F5F5F5F5F5F5F5F5F5F5F5F5F5F5F5F5F5F5F5F5F5F5F5F5F5F5F5F5F5F5F5F5F5F5F5F5F5F5
310
F5F5F5F5F5F5F5F5F5F5F5F5F5F5F5F5F5F5F5F5F5F5F5F5F5F5F5F5F5F5F5F5F5F5F5F5F5F5F5F5F5F5F5F5F5F5F5F5F5F5F5F5F5F5F5F5F5F5F5F5F5F5F5F5F5F5F5F5F5F5F5F5F5F5F5F5F5F5F5F5F5F5F5F5F5F5F5F5F5F5F5F5F5F5F5F5F5F5F5F5F5F5F5F5F5F5F5F5F5F5F5F5F5F5F5F5F5F5F5F5F5F5E2E2F5F5F5
310
F5F5F5F5F5F5F5F5F5F5F5F5F5F5F5F5F5F5F5F5F5F5F5F5F5F5F5F5F5F5F5F5F5F5F5F5F5F5F5F5F5F5F5F5F5F5F5F5F5F5F5F5F5F5F5F5F5F5F5F5F5F5F5F5F5F5F5F5F5F5F5F5F5F5F5F5F5F5F5F5F5F5F5F5F5F5F5F5F5F5F5F5F5F5F5F5F5F5F5F5F5F5F5F5F5F5F5F5F5F5F5F5F5F5F5F5F5F5F5F5F5F5F5F5F5F5F5
310
F5F5F5F5F5F5F5F5F5F5F5F5F5F5F5F5F5F5F5F5F5F5F5F5F5F5F5F5F5F5F5F5F5F5F5F5F5F5F5F5F5F5F5F5F5F5F5F5E2E2F5F5F5F5F5F5F5F5F5F5F5F5F5F5F5F5F5F5F5F5F5F5F5F5F5F5F5F5F5F5F5F5F5F5F5F5F5F5F5F5F5F5F5F5F5F5F5F5F5F5F5F5F5F5F5F5F5F5F5F5F5F5F5F5F5F5F5F5F5F5F5F5F5F5F5F5F5
310
F5F5F5F5F5F5F5F5F5F5F5F5F5F5F5F5F5F5F5F5F5F5F5F5F5F5F5F5F5F5F5F5F5F5F5F5F5F5F5F5F5F5F5F5F5F5F5F5F5F5F5F5F5F5F5F5F5F5F5F5F5F5F5F5F5F5F5F5F5F5F5F5F5F5F5F5F5F5F5F5F5F5F5F5F5F5F5F5F5F5F5F5F5F5F5F5F5F5F5F5F5E2E2F5F5F5F5F5F5F5F5F5F5F5F5F5F5F5F5F5F5F5F5F5F5F5F5
310
F5F5F5F5F5F5F5F5F5F5F5F5F5F5F5F5F5F5F5F5F5F5F5F5F5F5F5F5F5F5F5F5F5F5F5F5F5F5F5F5F5F5F5F5F5F5F5F5F5F5F5F5F5F5F5F5F5F5F5F5F5F5F5F5F5F5F5F5F5F5F5F5F5F5F5F5F5F5F5F5F5F5F5F5F5F5F5F5F5F5F5F5F5F5F5F5F5F5F5F5F5F5F5F5F5F5F5F5F5F5F5F5F5F5F5F5F5F5F5F5F5F5F5F5F5F5F5
310
F5F5F5F5F5F5F5F5F5F5F5F5F5F5F5F5F5F5F5F5F5F5F5F5F5F5F5E2E2F5F5F5F5F5F5F5F5F5F5F5F5F5F5F5F5F5F5F5DCDCDCDCDCDCDCDCDCDCDCDCDCDCDCDCDCDCDCDCDCDCDCDCDCDCDCDCDCDCDCDCDCDCDCDCDCDCDCDCDCDCDCDCDCDCDCDCDCDCDCDCDCDCDCDCDCDCDCDCDCDCDCDCDCDCDCDCDCDCDCDCDCDCDCDCDCDCDC
310
DCDCDCDCDCDCDCDCDCDCDCDCDCDCDCDCDCDCDCDCDCDCDCDCDCDCDCDCDCDCDCDCDCDCDCDCDCDCDCDCDCDCDCDCDCDCDCDCDCDCDCDCDCDCDCDCDCDCDCDCDCF5F5F5F5F5F5F5F5F5F5F5F5F5F5F5F5F5F5F5E2E2F5F5F5F5F5F5F5F5F5F5F5F5F5F5F5F5F5F5F5DCDCDCDCDCDCDCDCDCDCDCDCDCDCDCDCDCDCDCDCDCDCDCDCDCDC
310
DCDCDCDCDCDCDCDCDCDCDCDCDCDCDCDCDCDCDCDCDCDCDCDCDCDCDCDCDCDCDCDCDCDCDCDCDCDCDCDCDCDCDCDCDCDCDCDCDCDCDCDCDCDCDCDCDCDCDCDCDCDCDCDCDCDCDCDCDCDCDCDCDCDCDCDCDCDCDCDCDCDCDCDCDCDCDCDCDCDCDCDCDCDCDCDCDCDCDCDCDCDCDCDCDCDCDCDCDCDCDCDCDCDCF5F5F5F5F5F5F5F5F5F5F5F5F5
310
F5F5F5F5F5F5E2E2F5F5F5F5F5F5F5F5F5F5F5F5F5F5F5F5F5F5F5DCF5F5F5F5F5F5F5F5F5F5F5F5F5F5F5F5F5F5F5F5F5F5F5F5F5F5F5F5F5F5F5F5F5F5F5F5F5F5F5F5F5F5F5F5F5F5F5F5F5F5F5F5F5F5F5F5F5F5F5F5F5F5F5F5F5F5F5F5F5F5F5F5F5F5F5F5F5F5F5F5F5F5F5F5F5F5F5F5F5F5F5F5F5F5F5F5F5F5F5
310
F5F5F5F5F5F5F5F5F5F5F5F5F5F5F5F5F5F5F5F5F5F5F5F5F5F5F5F5F5F5F5F5F5F5F5F5F5F5F5DCF5F5F5F5F5F5F5F5F5F5F5F5F5F5F5F5F5F5F5E2E2F5F5F5F5F5F5F5F5F5F5F5F5F5F5F5F5F5F5F5DCF5282828282828282828282828282828282828282828282828282828282828282828282828282828282828282828
310
28282828282828282828282828282828282828282828282828282828282828282828282828282828282828282828282828282828282828282828282828282828282828282828282828282828282828282828282828282828282828F5DCF5F5F5F5F5F5F5F5F5F5F5F5F5F5F5F5F5F5F5E2E2F5F5F5F5F5F5F5F5F5F5F5F5F5
310
F5F5F5F5F5F5DCF5282D2D2D2D2D2D2D2D2D2D2D2D2D2D2D2D2D2D2D2D2DF5F5F5F5F5F5F5F5F5F5F5F5F5F5F5F5F5F5F5F5F5F5F5F5F5F5F5F5F5F5F5F5F5F5F5F5F5F5F5F5F5F5F5F5F528F5F5F5F5F5F5F5F5F5F5F5F5F5F5F5F5F5F5F5F5F5F5F5F5F5F5F5F5F5F5F5F5F5F5F5F5F5F5F5F5F5F5F5F5F5F5F5F5F5F5F5
310
F5F5F5F5F5F5F5F5F5F5F5F5F5F5F5F528F5DCF5F5F5F5F5F5F5F5F5F5F5F5F5F5F5F5F5F5F5E2E2F5E2F5F5F5F5F5F5F5F5F5F5F5F5F5F5F5F5F5DCF5282D2D2D2D2D2D2D2D2D2D2D2D2D2D2D2D2D2D2D2D2D2D2D2D2D2D2D2D2DF5F5F5F5F5F5F5F5F5F5F5F5F5F5F5F5F5F5F5F5F5F5F5F5F5F5F5F5F5F5F5F5F5F5F5F5
310
F528F5F5F5F5F5F5F5F5F5F5F5F5F5F5F5F5F5F5F5F5F5F5F5F5F5F5F5F5F5F5F5F5F5F5F5F5F5F5F5F5F5F5F5F5F5F5F5F5F5F5F5F5F5F5F5F5F5F5F5F5F5F5F5F5F5F5F528F5DCF5F5F5F5F5F5F5F5F5F5F5F5F5F5F5F5F5E2F5E2E2F5E2F5F5F5F5F5F5F5F5F5F5F5F5F5F5F5F5F5DCF5282D2D2D2D2D2D2D2D2D2D2D2D
310
2D2D2D2D2D2D2D2D2D2D2D2D2D2D2D2D2DF5F5F5F5F5F5F5F5F5F5F5F5F5F5F5F5F5F5F5F5F5F5F5F5F5F5F5F5F5F5F5F5F5F5F5F5F528F5F5F5F5F5F5F5F52D2D2D2D2D2D2D2D2D2D2D2D2D2D2D2D2D2D2D2D2D2D2D2D2D2D2D2D2D2D2D2D2D2D2D2D2D2D2D2D2D2D2D2D2D2D2D2D2D2D2DF5F5F5F5F5F5F5F528F5DCF5F5
310
F5F5F5F5F5F5F5F5F5F5F5F5F5F5F5E2F5E2E2F5E2F5F5F5F5F5F5F5F5F5F5F5F5F5F5F5F5F5DCF5282D2D2D2D2D2D2D2D2D2D2D2D2D2D2D2D2D2D2D2D2D2D2D2D2D2D2D2D2D2D2D2D2D2D2D2D2D2D2D2D2D2D2D2D2D2D2D2D2D2D2D2D2D2D2D2D2D2D2D2D2D2D2D2D2D2D28F5F5F5F5F5F5F5F52D2D2D2D2D2D2D2D2D2D2D
310
2D2D2D2D2D2D2D2D2D2D2D2D2D2D2D2D2D2D2D2D2D2D2D2D2D2D2D2D2D2D2D2D2D2D2D2D2D2D2D2DF5F5F5F5F5F5F5F528F5DCF5F5F5F5F5F5F5F5F5F5F5F5F5F5F5F5F5E2F5E2E2F5E2F5F5F5F5F5F5F5F5F5F5F5F5F5F5F5F5F5DCF5282D2D2D2D2D2D2D2D2D2D2D2D2D2D2D2D2D2D2D2D2D2D2D2D2D2D2D2D2D2D2D2D2D
310
2D2D2D2D2D2D2D2D2D2D2D2D2D2D2D2D2D2D2D2D2D2D2D2D2D2D2D2D2DF5F5F5F528F5F5F5F5F5F5F5F5F5F5F5F52D2D2D2D2D2D2D2D2D2D2D2D2D2D2D2D2D2D2D2D2D2D2D2D2D2D2D2D2D2D2D2D2D2D2D2D2D2D2D2D2D2DF5F5F5F5F5F5F5F5F5F5F5F5F528F5DCF5F5F5F5F5F5F5F5F5F5F5F5F5F5F5F5F5E2F5E2E2F5E2
310
F5F5F5F5F5F5F5F5F5F5F5F5F5F5F5F5F5DCF5282D2D2D2D2D2D2D2D2D2D2D2D2D2D2D2D2D2D2D2D2D2D2D2D2D2D2D2D2D2D2D2D2D2D2D2D2D2D2D2D2D2D2D2D2D2D2D2D2D2D2D2D2D2D2D2D2D2D2D2D2D2DF5F5F5F528F5F5F5F5F5F5F5F5F5F5F5F52D2D2D2D2D2D2D2D2D2D2D2D2D2D2D2D2D2D2D2D2D2D2D2D2D2D2D2D
310
2D2D2D2D2D2D2D2D2D2D2D2D2D2DF5F5F5F5F5F5F5F5F5F5F5F5F528F5DCF5F5F5F5F5F5F5F5F5F5F5F5F5F5F5F5F5E2F5E2E2F5E2F5F5F5F5F5F5F5F5F5F5F5F5F5F5F5F5F5DCF5282D2D2D2D2D2D2D2D2D2D2D2D2D2D2D2D2D2D2D2D2D2D2D2D2D2D2D2D2D2D2D2D2D2D2D2D2D2D2D2D2D2D2D2D2D2D2D2D2D2D2D2D2D2D
310
2D2D2D2D2DF5F5F5F5F5F5F528F5F5F5F5F5F5F5F5F5F5F5F5F5F5F5F5F5F5F5F5F5F5F5F5F5F5F5F52D2D2D2D2D2D2D2D2D2DF5F5F5F5F5F5F5F5F5F5F5F5F5F5F5F5F5F5F5F5F5F5F5F5F5F5F5F5F528F5DCF5F5F5F5F5F5F5F5F5F5F5F5F5F5F5F5F5E2F5E2E2F5E2F5F5F5F5F5F5F5F5F5F5F5F5F5F5F5F5F5DCF5282D
310
2D2D2D2D2D2D2D2D2D2D2D2D2D2D2D2D2D2D2D2D2D2D2D2D2D2D2D2D2D2D2DF5F5F5F5F5F5F5F5F5F5F5F5F5F5F5F5F5F5F5F5F5F5F5F5F5F5F5F5F5F5F5F5F5F528F5F5F5F5F5F5F5F5F5F5F5F5F5F5F5F5F5F5F5F5F5F5F5F5F5F5F5F52D2D2D2D2D2D2D2D2D2DF5F5F5F5F5F5F5F5F5F5F5F5F5F5F5F5F5F5F5F5F5F5F5
310
F5F5F5F5F5F528F5DCF5F5F5F5F5F5F5F5F5F5F5F5F5F5F5F5F5E2F5E2E2F5E2F5F5F5F5F5F5F5F5F5F5F5F5F5F5F5F5F5DCF5282D2D2D2D2D2D2D2D2D2D2D2D2D2D2D2D2D2D2D2D2D2D2D2D2D2D2D2D2D2D2D2DF5F5F5F5F5F5F5F5F5F5F5F5F5F5F5F5F5F5F5F5F5F5F5F5F5F5F5F5F5F5F5F5F5F528F5F5F5F5F5F5F5F5
310
F5F5F5F5F5F5F5F5F5F5F5F5F5F5F5F5F5F5F5F52D2D2D2D2D2D2D2D2D2DF5F5F5F5F5F5F5F5F5F5F5F5F5F5F5F5F5F5F5F5F5F5F5F5F5F5F5F5F528F5DCF5F5F5F5F5F5F5F5F5F5F5F5F5F5F5F5F5E2F5E2E2F5E2F5F5F5F5F5F5F5F5F5F5F5F5F5F5F5F5F5DCF5282D2D2D2D2D2D2D2D2D2D2D2D2D2D2D2D2D2D2D2D2D2D
310
2D2D2D2D2D2D2D2D2D2D2D2D2D2D2D2D2D2D2D2D2D2D2D2D2D2D2D2D2D2D2D2D2D2D2D2D2D2D2D2D2D2DF5F528F5F5F5F5F5F5F5F5F5F5F5F5F5F5F5F5F5F5F5F5F5F5F5F5F5F5F5F5F5F5F5F5F5F5F5F5F5F5F5F5F5F5F5F5F5F5F5F5F5F5F5F5F5F5F5F5F5F5F5F5F5F5F5F5F5F5F528F5DCF5F5F5F5F5F5F5F5F5F5F5F5
310
F5F5F5F5F5E2F5E2E2F5E2F5F5F5F5F5F5F5F5F5F5F5F5F5F5F5F5F5DCF528F5F5F5F5F5F5F5F5F5F5F5F5F5F5F5F5F5F5F5F5F5F5F5F5F5F5F5F5F5F5F5F5F5F5F5F5F5F5F5F5F5F5F5F5F5F5F5F5F5F5F5F5F5F5F5F5F5F5F5F5F5F5F5F5F5F528F5F5F5F5F5F5F5F5F5F5F5F5F5F5F5F5F5F5F5F5F5F5F5F5F5F5F5F5F5
310
F5F5F5F5F5F5F5F5F5F5F5F5F5F5F5F5F5F5F5F5F5F5F5F5F5F5F5F5F5F5F5F5F5F5F5F5F5F528F5DCF5F5F5F5F5F5F5F5F5F5F5F5F5F5F5F5F5E2F5E2E2F5E2F5F5F5F5F5F5F5F5F5F5F5F5F5F5F5F5F5DCF52828282828282828282828282828282828282828282828282828282828282828282828282828282828282828
310
2828282828282828282828282828282828282828282828282828282828282828282828282828282828282828282828282828282828282828282828282828282828282828282828282828282828282828282828282828282828282828F5DCF5F5F5F5F5F5F5F5F5F5F5F5F5F5F5F5F5E2F5E2E2F5E2F5F5F5F5F5F5F5F5F5F5
310
F5F5F5F5F5F5F5DCF528F5F5F5F5F5F5F5F5F5F5F5F5F5F5F5F5F5F5F5F5F5F5F5F5F5F5F5F5F5F5F5F5F5F5F5F5F5F5F5F5F5F5F5F5F5F5F5F5F5F5F5F5F5F5F5F5F5F5F5F5F5F5F5F5F5F5F5F5F5F5F5F5F5F5F5F5F5F5F5F5F5F5F5F5F5F5F5F5F5F5F5F5F5F5F5F5F5F5F5F5F5F5F5F5F5F5F5F5F5F5F5F5F5F5F5F5F5
310
F5F5F5F5F5F5F5F5F5F5F5F5F5F5F5F5F528F5DCF5F5F5F5F5F5F5F5F5F5F5F5F5F5F5F5F5E2F5E2E2F5E2F5F5F5F5F5F5F5F5F5F5F5F5F5F5F5F5F5DCF528F5F5F5F5F5F5F5F5F5F5F5F5F5F5F5F5F5F5F5F5F5F5F5F5F5F5F5F5F5F5F5F5F5F5F5F5F5F5F5F5F5F5F5F5F5F5F5F5F5F5F5F5F5F5F5F5F5F5F5F5F5F5F5F5
310
F5F5F5F5F5F5F5F5F5F5F5F5F5F5F5F5F5F5F5F5F5F5F5F5F5F5F5F5F5F5F5F5F5F5F5F5F5F5F5F5F5F5F5F5F5F5F5F5F5F5F5F5F5F5F5F5F5F5F5F5F5F5F5F5F5F5F5F5F5F528F5DCF5F5F5F5F5F5F5F5F5F5F5F5F5F5F5F5F5E2F5E2E2F5E2F5F5F5F5F5F5F5F5F5F5F5F5F5F5F5F5F5DCF528F5F5F5F5F5F5F5F5F5F5F5
310
F5F5F5F5F5F5F5F5F5F5F5F5F5F5F5F5F5F5F5F5F5F5F5F5F5F5F5F5F5F5F5F5F5F5F5F5F5F5F5F5F5F5F5F5F5F5F5F5F5F5F5F5F5F5F5F5F5F5F5F5F5F5F5F5F5F5F5F5F5F5F5F5F5F5F5F5F5F5F5F5F5F5F5F5F5F5F5F5F5F5F5F5F5F5F5F5F5F5F5F5F5F5F5F5F5F5F5F5F5F5F5F5F5F5F5F5F5F5F5F5F5F5F528F5DCF5
310
F5F5F5F5F5F5F5F5F5F5F5F5F5F5F5F5E2F5E2E2F5E2F5F5F5F5F5F5F5F5F5F5F5F5F5F5F5F5F5DCF528F5F5F5F5F5F5F5F5F5F5F5F5F5F5F5F5F5F5F5F5F5F5F5F5F5F5F5F5F5F5F5F5F5F5F5F5F5F5F5F5F5F5F5F5F5F5F5F5F5F5F5F5F5F5F5F5F5F5F5F5F5F5F5F5F5F5F5F5F5F5F5F5F5F5F5F5F5F5F5F5F5F5F5F5F5
310
F5F5F5F5F5F5F5F5F5F5F5F5F5F5F5F5F5F5F5F5F5F5F5F5F5F5F5F5F5F5F5F5F5F5F5F5F5F5F5F5F5F5F5F5F5F5F5F5F528F5DCF5F5F5F5F5F5F5F5F5F5F5F5F5F5F5F5F5E2F5E2E2F5E2F5F5F5F5F5F5F5F5F5F5F5F5F5F5F5F5F5DCF528F5F5F5F5F5F5F5F5F5F5F5F5F5F5F5F5F5F5F5F5F5F5F5F5F5F5F5F5F5F5F5F5
310
F5F5F5F5F5F5F5F5F5F5F5F5F5F5F5F5F5F5F5F5F5F5F5F5F5F5F5F5F5F5F5F5F5F5F5F5F5F5F5F5F5F5F5F5F5F5F5F5F5F5F5F5F5F5F5F5F5F5F5F5F5F5F5F5F5F5F5F5F5F5F5F5F5F5F5F5F5F5F5F5F5F5F5F5F5F5F5F5F5F5F5F5F5F5F5F5F5F5F5F5F5F528F5DCF5F5F5F5F5F5F5F5F5F5F5F5F5F5F5F5F5E2F5E2E2F5
310
F5F5F5F5F5F5F5F5F5F5F5F5F5F5F5F5F5F5DCF528F5F5F5F5F5F5F5F5F5F5F5F5F5F5F5F5F5F5F5F5F5F5F5F5F5F5F5F5F5F5F5F5F5F5F5F5F5F5F5F5F5F5F5F5F5F5F5F5F5F5F5F5F5F5F5F5F5F5F5F5F5F5F5F5F5F5F5F5F5F5F5F5F5F5F5F5F5F5F5F5F5F5F5F5F5F5F5F5F5F5F5F5F5F5F5F5F5F5F5F5F5F5F5F5F5F5
310
F5F5F5F5F5F5F5F5F5F5F5F5F5F5F5F5F5F5F5F5F5F5F5F5F5F5F5F528F5DCF5F5F5F5F5F5F5F5F5F5F5F5F5F5F5F5F5F5F5E2E2F5F5F5F5F5F5F5F5F5F5F5F5F5F5F5F5F5F5F5DCF528F5F5F5F5F5F5F5F5F5F5F5F5F5F5F5F5F5F5F5F5F5F5F5F5F5F5F5F5F5F5F5F5F5F5F5F5F5F5F5F5F5F5F5F5F5F5F5F5F5F5F5F5F5
310
F5F5F5F5F5F5F5F5F5F5F5F5F5F5F5F5F5F5F5F5F5F5F5F5F5F5F5F5F5F5F5F5F5F5F5F5F5F5F5F5F5F5F5F5F5F5F5F5F5F5F5F5F5F5F5F5F5F5F5F5F5F5F5F5F5F5F5F5F5F5F5F5F5F5F5F5F5F5F5F5F528F5DCF5F5F5F5F5F5F5F5F5F5F5F5F5F5F5F5F5F5F5E2E2F5F5F5F5F5F5F5F5F5F5F5F5F5F5F5F5F5F5F5DCF528
310
F5F5F5F5F5F5F5F5F5F5F5F5F5F5F5F5F5F5F5F5F5F5F5F5F5F5F5F5F5F5F5F5F5F5F5F5F5F5F5F5F5F5F5F5F5F5F5F5F5F5F5F5F5F5F5F5F5F5F5F5F5F5F5F5F5F5F5F5F5F5F5F5F5F5F5F5F5F5F5F5F5F5F5F5F5F5F5F5F5F5F5F5F5F5F5F5F5F5F5F5F5F5F5F5F5F5F5F5F5F5F5F5F5F5F5F5F5F5F5F5F5F5F5F5F5F5F5
310
F5F5F5F5F5F5F528F5DCF5F5F5F5F5F5F5F5F5F5F5F5F5F5F5F5F5F5F5E2E2F5F5F5F5F5F5F5F5F5F5F5F5F5F5F5F5F5F5F5DCF528F5F5F5F5F5F5F5F5F5F5F5F5F5F5F5F5F5F5F5F5F5F5F5F5F5F5F5F5F5F5F5F5F5F5F5F5F5F5F5F5F5F5F5F5F5F5F5F5F5F5F5F5F5F5F5F5F5F5F5F5F5F5F5F5F5F5F5F5F5F5F5F5F5F5
310
F5F5F5F5F5F5F5F5F5F5F5F5F5F5F5F5F5F5F5F5F5F5F5F5F5F5F5F5F5F5F5F5F5F5F5F5F5F5F5F5F5F5F5F5F5F5F5F5F5F5F5F5F5F5F5F5F5F5F5F528F5DCF5F5F5F5F5F5F5F5F5F5F5F5F5F5F5F5F5F5F5E2E2F5F5F5F5F5F5F5F5F5F5F5F5F5F5F5F5F5F5F5DCF528F5F5F5F5F5F5F5F5F5F5F5F5F5F5F5F5F5F5F5F5F5
310
F5F5F5F5F5F5F5F5F5F5F5F5F5F5F5F5F5F5F5F5F5F5F5F5F5F5F5F5F5F5F5F5F5F5F5F5F5F5F5F5F5F5F5F5F5F5F5F5F5F5F5F5F5F5F5F5F5F5F5F5F5F5F5F5F5F5F5F5F5F5F5F5F5F5F5F5F5F5F5F5F5F5F5F5F5F5F5F5F5F5F5F5F5F5F5F5F5F5F5F5F5F5F5F5F5F5F5F5F5F5F5F5F528F5DCF5F5F5F5F5F5F5F5F5F5F5
310
F5F5F5F5F5F5F5F5E2E2F5F5F5F5F5F5F5F5F5F5F5F5F5F5F5F5F5F5F5DCF528F5F5F5F5F5F5F5F5F5F5F5F5F5F5F5F5F5F5F5F5F5F5F5F5F5F5F5F5F5F5F5F5F5F5F5F5F5F5F5F5F5F5F5F5F5F5F5F5F5F5F5F5F5F5F5F5F5F5F5F5F5F5F5F5F5F5F5F5F5F5F5F5F5F5F5F5F5F5F5F5F5F5F5F5F5F5F5F5F5F5F5F5F5F5F5
310
F5F5F5F5F5F5F5F5F5F5F5F5F5F5F5F5F5F5F5F5F5F5F5F5F5F5F5F5F5F5F5F5F5F5F5F5F5F5F528F5DCF5F5F5F5F5F5F5F5F5F5F5F5F5F5F5F5F5F5F5E2E2F5F5F5F5F5F5F5F5F5F5F5F5F5F5F5F5F5F5F5DCF528F5F5F5F5F5F5F5F5F5F5F5F5F5F5F5F5F5F5F5F5F5F5F5F5F5F5F5F5F5F5F5F5F5F5F5F5F5F5F5F5F5F5
310
F5F5F5F5F5F5F5F5F5F5F5F5F5F5F5F5F5F5F5F5F5F5F5F5F5F5F5F5F5F5F5F5F5F5F5F5F5F5F5F5F5F5F5F5F5F5F5F5F5F5F5F5F5F5F5F5F5F5F5F5F5F5F5F5F5F5F5F5F5F5F5F5F5F5F5F5F5F5F5F5F5F5F5F5F5F5F5F5F5F5F5F528F5DCF5F5F5F5F5F5F5F5F5F5F5F5F5F5F5F5F5F5F5E2E2F5F5F5F5F5F5F5F5F5F5F5
310
F5F5F5F5F5F5F5F5DCF528F5F5F5F5F5F5F5F5F5F5F5F5F5F5F52D2D2D2D2D2D2D2D2D2DF5F5F5F5F5F5F5F5F5F5F5F5F5F5F5F5F5F5F5F5F5F5F5F5F5F5F5F5F5F5F5F5F5F5F5F5F5F5F5F5F5F5F5F5F5F5F5F5F5F5F5F5F5F5F5F5F5F5F5F5F5F5F5F5F5F5F5F5F5F5F5F5F5F5F5F5F5F5F5F5F5F5F5F5F5F5F5F5F5F5F5
310
F5F5F5F5F5F5F5F5F5F5F5F5F5F5F5F5F5F528F5DCF5F5F5F5F5F5F5F5F5F5F5F5F5F5F5F5F5F5F5E2E2F5E2F5F5F5F5F5F5F5F5F5F5F5F5F5F5F5F5F5DCF528F5F5F5F5F5F5F5F5F5F5F5F5F5F5F52D2D2D2D2D2D2D2D2D2DF5F5F5F5F5F5F5F5F5F5F5F5F5F5F5F5F5F5F5F5F5F5F5F5F5F5F5F5F5F5F5F5F5F5F5F5F5F5
310
F5F5F5F5F5F5F5F5F5F5F5F5F5F5F5F5F5F5F5F5F5F5F5F5F5F5F5F5F5F5F5F5F5F5F5F5F5F5F5F5F5F5F5F5F5F5F5F5F5F5F5F5F5F5F5F5F5F5F5F5F5F5F5F5F5F5F5F5F5F5F528F5DCF5F5F5F5F5F5F5F5F5F5F5F5F5F5F5F5F5E2F5E2E2F5E2F5F5F5F5F5F5F5F5F5F5F5F5F5F5F5F5F5DCF528F5F5F5F5F5F5F5F5F5F5
310
F5F5F5F5F5F5F5F5F5F5F5F5F5F5F5F5F5F5F5F5F5F5F5F5F5F5F5F5F5F5F5F5F5F5F5F5F5F5F5F5F5F5F5F5F5F5F5F5F5F5F5F5F5F5F5F5F5F5F5F5F5F5F5F5F5F5F5F5F5F5F5F5F5F5F5F5F5F5F5F5F5F5F5F5F5F5F5F5F5F5F5F5F5F5F5F5F5F5F5F5F5F5F5F5F5F5F5F5F5F5F5F5F5F5F5F5F5F5F5F5F5F5F5F528F5DC
310
F5F5F5F5F5F5F5F5F5F5F5F5F5F5F5F5F5E2F5E2E2F5E2F5F5F5F5F5F5F5F5F5F5F5F5F5F5F5F5F5DCF528F5F5F5F5F5F5F5F5F5F5F5F5F5F5F5F5F5F5F5F5F5F5F5F5F5F5F5F5F5F5F5F5F5F5F5F5F5F5F5F5F5F5F5F5F5F5F5F5F5F5F5F5F5F5F5F5F5F5F5F5F5F5F5F5F5F5F5F5F5F5F5F5F5F5F5F5F5F5F5F5F5F5F5F5
310
F5F5F5F5F5F5F5F5F5F5F5F5F5F5F5F5F5F5F5F5F5F5F5F5F5F5F5F5F5F5F5F5F5F5F5F5F5F5F5F5F5F5F5F5F5F5F5F5F5F528F5DCF5F5F5F5F5F5F5F5F5F5F5F5F5F5F5F5F5E2F5E2E2F5E2F5F5F5F5F5F5F5F5F5F5F5F5F5F5F5F5F5DCF528F5F5F5F5F5F5F5F5F5F5F5F5F5F5F5F5F5F5F5F5F5F5F5F5F5F5F5F5F5F5F5
310
F5F5F5F5F5F5F5F5F5F5F5F5F5F5F5F5F5F5F5F5F5F5F5F5F5F5F5F5F5F5F5F5F5F5F5F5F5F5F5F5F5F5F5F5F5F5F5F5F5F5F5F5F5F5F5F5F5F5F5F5F5F5F5F5F5F5F5F5F5F5F5F5F5F5F5F5F5F5F5F5F5F5F5F5F5F5F5F5F5F5F5F5F5F5F5F5F5F5F5F5F5F5F528F5DCF5F5F5F5F5F5F5F5F5F5F5F5F5F5F5F5F5E2F5E2E2
310
F5E2F5F5F5F5F5F5F5F5F5F5F5F5F5F5F5F5F5DCF528F5F5F5F5F5F5F5F5F5F5F5F5F5F5F5F5F5F5F5F5F5F5F5F5F5F5F5F5F5F5F5F5F5F5F5F5F5F5F5F5F5F5F5F5F5F5F5F5F5F5F5F5F5F5F5F5F5F5F5F5F5F5F5F5F5F5F5F5F5F5F5F5F5F5F5F5F5F5F5F5F5F5F5F5F5F5F5F5F5F5F5F5F5F5F5F5F5F5F5F5F5F5F5F5F5
310
F5F5F5F5F5F5F5F5F5F5F5F5F5F5F5F5F5F5F5F5F5F5F5F5F5F5F5F5F528F5DCF5F5F5F5F5F5F5F5F5F5F5F5F5F5F5F5F5E2F5E2E2F5E2F5F5F5F5F5F5F5F5F5F5F5F5F5F5F5F5F5DCF528F5F5F5F5F5F5F5F5F5F5F5F5F5F5F5F5F5F5F5F5F5F5F5F5F5F5F5F5F5F5F5F5F5F5F5F5F5F5F5F5F5F5F5F5F5F5F5F5F5F5F5F5
310
F5F5F5F5F5F5F5F5F5F5F5F5F5F5F5F5F5F5F5F5F5F5F5F5F5F5F5F5F5F5F5F5F5F5F5F5F5F5F5F5F5F5F5F5F5F5F5F5F5F5F5F5F5F5F5F5F5F5F5F5F5F5F5F5F5F5F5F5F5F5F5F5F5F5F5F5F5F5F5F5F5F528F5DCF5F5F5F5F5F5F5F5F5F5F5F5F5F5F5F5F5E2F5E2E2F5E2F5F5F5F5F5F5F5F5F5F5F5F5F5F5F5F5F5DCF5
310
28F5F5F5F5F5F5F5F5F5F5F5F5F5F5F5F5F5F5F5F5F5F5F5F5F5F5F5F5F5F5F5F5F5F5F5F5F5F5F5F5F5F5F5F5F5F5F5F5F5F5F5F5F5F5F5F5F5F5F5F5F5F5F5F5F5F5F5F5F5F5F5F5F5F5F5F5F5F5F5F5F5F5F5F5F5F5F5F5F5F5F5F5F5F5F5F5F5F5F5F5F5F5F5F5F5F5F5F5F5F5F5F5F5F5F5F5F5F5F5F5F5F5F5F5F5F5
310
F5F5F5F5F5F5F5F528F5DCF5F5F5F5F5F5F5F5F5F5F5F5F5F5F5F5F5E2F5E2E2F5E2F5F5F5F5F5F5F5F5F5F5F5F5F5F5F5F5F5DCF528F5F5F5F5F5F5F5F5F5F5F5F5F5F5F5F5F5F5F5F5F5F5F5F5F5F5F5F5F5F5F5F5F5F5F5F5F5F5F5F5F5F5F5F5F5F5F5F5F5F5F5F5F5F5F5F5F5F5F5F5F5F5F5F5F5F5F5F5F5F5F5F5F5
310
F5F5F5F5F5F5F5F5F5F5F5F5F5F5F5F5F5F5F5F5F5F5F5F5F5F5F5F5F5F5F5F5F5F5F5F5F5F5F5F5F5F5F5F5F5F5F5F5F5F5F5F5F5F5F5F5F5F5F5F5F528F5DCF5F5F5F5F5F5F5F5F5F5F5F5F5F5F5F5F5E2F5E2E2F5E2F5F5F5F5F5F5F5F5F5F5F5F5F5F5F5F5F5DCF528F5F5F5F5F5F5F5F5F5F5F5F5F5F5F5F5F5F5F5F5
310
F5F5F5F5F5F5F5F5F5F5F5F5F5F5F5F5F5F5F5F5F5F5F5F5F5F5F5F5F5F5F5F5F5F5F5F5F5F5F5F5F5F5F5F5F5F5F5F5F5F5F5F5F5F5F5F5F5F5F5F5F5F5F5F5F5F5F5F5F5F5F5F5F5F5F5F5F5F5F5F5F5F5F5F5F5F5F5F5F5F5F5F5F5F5F5F5F5F5F5F5F5F5F5F5F5F5F5F5F5F5F5F5F5F528F5DCF5F5F5F5F5F5F5F5F5F5
310
F5F5F5F5F5F5F5E2F5E2E2F5E2F5F5F5F5F5F5F5F5F5F5F5F5F5F5F5F5F5DCF528F5F5F5F5F5F5F5F5F5DCF5F5F5F5F5F5F5F5F5F5F5F5F5F5F5F5F5F5F5F5F5F5F5F5F5F5F5F5F5F5F5F5F5F5F5F5F5F5F5F5F5F5F5F5F5F5F5F5F5F5F5F5F5F5F5F5F5F5F5F5F5F5F5F5F5F5F5F5F5F5F5F5F5F5F5F5F5F5F5F5F5F5F5F5
310
F5F5F5F5F5F5F5F5F5F5F5F5F5F5F5F5F5F5F5F5F5F5F5F5F5F5F5F5F5F5F5F5F5F5F5F5F5F5F5F528F5DCF5F5F5F5F5F5F5F5F5F5F5F5F5F5F5F5F5E2F5E2E2F5E2F5F5F5F5F5F5F5F5F5F5F5F5F5F5F5F5F5DCF528F5F5F5F5F5F5F5F50FDCF5F5F5F5F52D2D2D2D2D2D2D2DF5F5F5F5F50FF5F5F5F5F5F5F5F5F5F5F5F5
310
F5F5F5F5F5F5F5F5F5F5F5F5F5F5F5F5F5F5F5F5F5F5F5F5F5F5F5F5F5F5F5F5F5F5F5F5F5F5F5F5F5F5F5F5F5F5F5F5F5F5F5F5F5F5F5F5F5F5F5F5F5F5F5F5F5F5F5F5F5F5F5F5F5F5F5F5F5F5F5F5F5F5F5F5F5F5F5F5F5F5F5F5F528F5DCF5F5F5F5F5F5F5F5F5F5F5F5F5F5F5F5F5E2F5E2E2F5E2F5F5F5F5F5F5F5F5
310
F5F5F5F5F5F5F5F5F5DCF528F5F5F5F5DCF5F5DC0FDC0F0F0F0F0F2D2D2D2D2D2D2D2D0F0F0F0F0F0F0FF5F5F5F5F5F5F5F5F5F5F5F5F5F5F5F5F5F5F5F5F5F5F5F5F5F5F5F5F5F5F5F5F5F5F5F5F5F5F5F5F5F5F5F5F5F5F5F5F5F5F5F5F5F5F5F5F5F5F5F5F5F5F5F5F5F5F5F5F5F5F5F5F5F5F5F5F5F5F5F5F5F5F5F5F5
310
F5F5F5F5F5F5F5F5F5F5F5F5F5F5F5F5F5F5F528F5DCF5F5F5F5F5F5F5F5F5F5F5F5F5F5F5F5F5E2F5E2E2F5E2F5F5F5F5F5F5F5F5F5F5F5F5F5F5F5F5F5DCF528F5F5F5DCF5F5DCF5F5DCF5F5F5F5F5F5F5F5F5F5F5F5F5F5F5F5F5F50FF5F5F5F5F5F5F5F5F5F5F5F5F5F5F5F5F5F5F5F5F5F5F5F5F5F5F5F5F5F5F5F5F5
310
F5F5F5F5F5F5F5F5F5F5F5F5F5F5F5F5F5F5F5F5F5F5F5F5F5F5F5F5F5F5F5F5F5F5F5F5F5F5F5F5F5F5F5F5F5F5F5F5F5F5F5F5F5F5F5F5F5F5F5F5F5F5F5F5F5F5F5F5F5F5F5F528F5DCF5F5F5F5F5F5F5F5F5F5F5F5F5F5F5F5F5E2F5E2E2F5E2F5F5F5F5F5F5F5F5F5F5F5F5F5F5F5F5F5DCF528F5F5F5F5F5DCF5F5DC
310
DCF5F5F5F5F5F5F5F5F5F5F5F5F5F5F5F5F5F50FF5F5F5F5F5F5F5F5F5F5F5F5F5F5F5F5F5F5F5F5F5F5F5F5F5F5F5F5F5F5F5F5F5F5F5F5F5F5F5F5F5F5F5F5F5F5F5F5F5F5F5F5F5F5F5F5F5F5F5F5F5F5F5F5F5F5F5F5F5F5F5F5F5F5F5F5F5F5F5F5F5F5F5F5F5F5F5F5F5F5F5F5F5F5F5F5F5F5F5F5F5F5F5F5F528F5
310
DCF5F5F5F5F5F5F5F5F5F5F5F5F5F5F5F5F5E2F5E2E2F5E2F5F5F5F5F5F5F5F5F5F5F5F5F5F5F5F5F5DCF528F5F5F5F5DCF5F5DCF5DCF5F5F5F5F5F5F5F5F5F5F5F5F5F5F5F5F5F50FF5F5F5F5F5F5F5F5F5F5F5F5F5F5F5F5F5F5F5F5F5F5F5F5F5F5F5F5F5F5F5F5F5F5F5F5F5F5F5F5F5F5F5F5F5F5F5F5F5F5F5F5F5F5
310
F5F5F5F5F5F5F5F5F5F5F5F5F5F5F5F5F5F5F5F5F5F5F5F5F5F5F5F5F5F5F5F5F5F5F5F5F5F5F5F5F5F5F5F5F5F5F5F5F5F5F528F5DCF5F5F5F5F5F5F5F5F5F5F5F5F5F5F5F5F5E2F5E2E2F5E2F5F5F5F5F5F5F5F5F5F5F5F5F5F5F5F5F5DCF528F5F5F5DCF5F5DCF5F5DCF5F5F5F5F5F5F5F5F5F5F5F5F5F5F5F5F5F50FF5
310
F5F5F5F5F5F5F5F5F5F5F5F5F5F5F5F5F5F5F5F5F5F5F5F5F5F5F5F5F5F5F5F5F5F5F5F5F5F5F5F5F5F5F5F5F5F5F5F5F5F5F5F5F5F5F5F5F5F5F5F5F5F5F5F5F5F5F5F5F5F5F5F5F5F5F5F5F5F5F5F5F5F5F5F5F5F5F5F5F5F5F5F5F5F5F5F5F5F5F5F5F5F5F5F528F5DCF5F5F5F5F5F5F5F5F5F5F5F5F5F5F5F5F5E2F5E2
310
E2F5F5F5F5F5F5F5F5F5F5F5F5F5F5F5F5F5F5F5DCF528F5F5F5F5F5DCF5F5F5DC1B0F0F0F0F0F0F0F0F0F0F0F0F0F0F0F0F0F0F0F0F0F0F0F0F0FF5F5F5F5F5F5F5F5F5F5F5F5F5F5F5F5F5F5F5F5F5F5F5F5F5F5F5F5F5F5F5F5F5F5F5F5F5F5F5F5F5F5F5F5F5F5F5F5F5F5F5F5F5F5F5F5F5F5F5F5F5F5F5F5F5F5F5F5
310
F5F5F5F5F5F5F5F5F5F5F5F5F5F5F5F5F5F5F5F5F5F5F5F5F5F5F5F5F5F528F5DCF5F5F5F5F5F5F5F5F5F5F5F5F5F5F5F5F5F5F5E2E2F5F5F5F5F5F5F5F5F5F5F5F5F5F5F5F5F5F5F5DCF528F5F5F5F5DCF5F5F5DCDCBEF5F5F5F5F5F5F5F5F5F5F5F5F5F5F5F5F50FF5F5F5F5F50FF5F5F5F5F5F5F5F5F5F5F5F5F5F5F5F5
310
F5F5F5F5F5F5F5F5F5F5F5F5F5F5F5F5F5F5F5F5F5F5F5F5F5F5F5F5F5F5F5F5F5F5F5F5F5F5F5F5F5F5F5F5F5F5F5F5F5F5F5F5F5F5F5F5F5F5F5F5F5F5F5F5F5F5F5F5F5F5F5F5F5F5F5F5F5F5F5F5F5F5F528F5DCF5F5F5F5F5F5F5F5F5F5F5F5F5F5F5F5F5F5F5E2E2F5F5F5F5F5F5F5F5F5F5F5F5F5F5F5F5F5F5F5DC
310
F528F5F5F5DCF5F5F5DCF5DCF5BEBEF5F5F5F5F5F5F5F5F5F5F5F5F5F5F50FF5F5F5F5F50FF5F5F5F5F5F5F5F5F5F5F5F5F5F5F5F5F5F5F5F5F5F5F5F5F5F5F5F5F5F5F5F5F5F5F5F5F5F5F5F5F5F5F5F5F5F5F5F5F5F5F5F5F5F5F5F5F5F5F5F5F5F5F5F5F5F5F5F5F5F5F5F5F5F5F5F5F5F5F5F5F5F5F5F5F5F5F5F5F5F5
310
F5F5F5F5F5F5F5F5F528F5DCF5F5F5F5F5F5F5F5F5F5F5F5F5F5F5F5F5F5F5E2E2F5F5F5F5F5F5F5F5F5F5F5F5F5F5F5F5F5F5F5DCF528F5F5F5F5F5DCDCF5F5DCF5F5BEBEF5F5F5F5F5F5F5F5F5F5F5F5F5F50FF5F5F5F5F50FF5F5F5F5F5F5F5F5F5F5F5F5F5F5F5F5F5F5F5F5F5F5F5F5F5F5F5F5F5F5F5F5F5F5F5F5F5
310
F5F5F5F5F5F5F5F5F5F5F5F5F5F5F5F5F5F5F5F5F5F5F5F5F5F5F5F5F5F5F5F5F5F5F5F5F5F5F5F5F5F5F5F5F5F5F5F5F5F5F5F5F5F5F5F5F5F5F5F5F5F528F5DCF5F5F5F5F5F5F5F5F5F5F5F5F5F5F5F5F5F5F5E2E2F5F5F5F5F5F5F5F5F5F5F5F5F5F5F5F5F5F5F5DCF528F5F5F5F5DCF5F5F5DCDCF5F5F5BEF5F5F5F5F5
310
F5F5F5F5F5F5F5F5F50FF5F5F5F5F50FF5F5F5F5F5F5F5F5F5F5F5F5F5F5F5F5F5F5F5F5F5F5F5F5F5F5F5F5F5F5F5F5F5F5F5F5F5F5F5F5F5F5F5F5F5F5F5F5F5F5F5F5F5F5F5F5F5F5F5F5F5F5F5F5F5F5F5F5F5F5F5F5F5F5F5F5F5F5F5F5F5F5F5F5F5F5F5F5F5F5F5F5F5F5F5F5F5F5F528F5DCF5F5F5F5F5F5F5F5F5
310
F5F5F5F5F5F5F5F5F5F5E2E2F5F5F5F5F5F5F5F5F5F5F5F5F5F5F5F5F5F5F5DCF528F5F5F5DCF5F5F5DCF5DCF5F5F5BEBEBEF5F5F5F5F5F5F5F5F5F5F5F50FF5F5F5F5F50FF5F5F5F5F5F5F5F5F5F5F5F5F5F5F5F5F5F5F5F5F5F5F5F5F5F5F5F5F5F5F5F5F5F5F5F5F5F5F5F5F5F5F5F5F5F5F5F5F5F5F5F5F5F5F5F5F5F5
310
F5F5F5F5F5F5F5F5F5F5F5F5F5F5F5F5F5F5F5F5F5F5F5F5F5F5F5F5F5F5F5F5F5F5F5F5F5F5F5F5F528F5DCF5F5F5F5F5F5F5F5F5F5F5F5F5F5F5F5F5F5F5E2E2F5F5F5F5F5F5F5F5F5F5F5F5F5F5F5F5F5F5F5DCF528F5F5F5F5F5DCDCF5F5DCF5F5F5F5BEBEF5F5F5F5F5F5F5F5F5F5F5F50FF5F5F5F5F50FF5F5F5F5F5
310
F5F5F5F5F5F5F5F5F5F5F5F5F5F5F5F5F5F5F5F5F5F5F5F5F5F5F5F5F5F5F5F5F5F5F5F5F5F5F5F5F5F5F5F5F5F5F5F5F5F5F5F5F5F5F5F5F5F5F5F5F5F5F5F5F5F5F5F5F5F5F5F5F5F5F5F5F5F5F5F5F5F5F5F5F5F5F5F5F5F5F5F5F5F528F5DCF5F5F5F5F5F5F5F5F5F5F5F5F5F5F5F5F5F5F5E2E2F5F5F5F5F5F5F5F5F5
310
F5F5F5F5F5F5F5F5F5F5DCF528F5F5F5F5DCF5F5F5DCDCF5F5F5F5BEF5F5F5F5F5F5F5F5F5F5F5F5F50FF5F5F5F5F50FF5F5F5F5F5F5F5F5F5F5F5F5F5F5F5F5F5F5F5F5F5F5F5F5F5F5F5F5F5F5F5F5F5F5F5F5F5F5F5F5F5F5F5F5F5F5F5F5F5F5F5F5F5F5F5F5F5F5F5F5F5F5F5F5F5F5F5F5F5F5F5F5F5F5F5F5F5F5F5
310
F5F5F5F5F5F5F5F5F5F5F5F5F5F5F5F5F5F5F5F528F5DCF5F5F5F5F5F5F5F5F5F5F5F5F5F5F5F5F5F5F5E2E2F5F5F5F5F5F5F5F5F5F5F5F5F5F5F5F5F5F5F5DCF528F5F5F5DCF5F5F5DCF5DCF5F5F5F5BEF5F5F5F5F5F5F5F5F5F5F5F5F50FF5F5F5F5F50FF5F5F5F5F5F5F5F5F5F5F5F5F5F5F5F5F5F5F5F5F5F5F5F5F5F5
310
F5F5F5F5F5F5F5F5F5F5F5F5F5F5F5F5F5F5F5F5F5F5F5F5F5F5F5F5F5F5F5F5F5F5F5F5F5F5F5F5F5F5F5F5F5F5F5F5F5F5F5F5F5F5F5F5F5F5F5F5F5F5F5F5F5F5F5F5F5F5F5F5F528F5DCF5F5F5F5F5F5F5F5F5F5F5F5F5F5F5F5F5F5F5E2E2F5E2F5F5F5F5F5F5F5F5F5F5F5F5F5F5F5F5F5DCF528F5F5F5F5F5F5DCF5
310
F5DCBEBEF5F5BEF5F5F5F5F5F5F5F5F5F5F5F5F50FF5F52D2D2D2D2D2D2D2DF5F5F5F5F5F5F5F5F5F5F5F5F5F5F5F5F5F5F5F5F5F5F5F5F5F5F5F5F5F5F5F5F5F5F5F5F5F5F5F5F5F5F5F5F5F5F5F5F5F5F5F5F5F5F5F5F5F5F5F5F5F5F5F5F5F5F5F5F5F5F5F5F5F5F5F5F5F5F5F5F5F5F5F5F5F5F5F5F5F5F5F5F5F5F528
310
F5DCF5F5F5F5F5F5F5F5F5F5F5F5F5F5F5F5F5E2F5E2E2F5E2F5F5F5F5F5F5F5F5F5F5F5F5F5F5F5F5F5DCF528F5F5F5F5F5DCF5F5DCDCF5BEF5F5BEF5F5F5F5F5F5F5F5F5F5F5F5F50FF5F52D2D2D2D2D2D2D2DF5F5F5F5F5F5F5F5F5F5F5F5F5F5F5F5F5F5F5F5F5F5F5F5F5F5F5F5F5F5F5F5F5F5F5F5F5F5F5F5F5F5F5
310
F5F5F5F5F5F5F5F5F5F5F5F5F5F5F5F5F5F5F5F5F5F5F5F5F5F5F5F5F5F5F5F5F5F5F5F5F5F5F5F5F5F5F5F5F5F5F5F5F5F5F5F528F5DCF5F5F5F5F5F5F5F5F5F5F5F5F5F5F5F5F5E2F5E2E2F5E2F5F5F5F5F5F5F5F5F5F5F5F5F5F5F5F5F5DCF528F5F5F5F5DCF5F5DCF5DCF5BEF5F5BEBEF5F5F5F5F5F5F5F5F5F5F5F50F
310
F5F5F5F5F50FF5F5F5F5F5F5F5F5F5F5F5F5F5F5F5F5F5F5F5F5F5F5F5F5F5F5F5F5F5F5F5F5F5F5F5F5F5F5F5F5F5F5F5F5F5F5F5F5F5F5F5F5F5F5F5F5F5F5F5F5F5F5F5F5F5F5F5F5F5F5F5F5F5F5F5F5F5F5F5F5F5F5F5F5F5F5F5F5F5F5F5F5F5F5F5F5F5F5F528F5DCF5F5F5F5F5F5F5F5F5F5F5F5F5F5F5F5F5E2F5
310
E2E2F5E2F5F5F5F5F5F5F5F5F5F5F5F5F5F5F5F5F5DCF528F5F5F5DCF5F5DCF5F5DCF5F5BEF5F5BEF5F5F5F5F5F5F5F5F5F5F5F50FF5F5F5F5F50FF5F5F5F5F5F5F5F5F5F5F5F5F5F5F5F5F5F5F5F5F5F5F5F5F5F5F5F5F5F5F5F5F5F5F5F5F5F5F5F5F5F5F5F5F5F5F5F5F5F5F5F5F5F5F5F5F5F5F5F5F5F5F5F5F5F5F5F5
310
F5F5F5F5F5F5F5F5F5F5F5F5F5F5F5F5F5F5F5F5F5F5F5F5F5F5F5F5F5F5F528F5DCF5F5F5F5F5F5F5F5F5F5F5F5F5F5F5F5F5E2F5E2E2F5E2F5F5F5F5F5F5F5F5F5F5F5F5F5F5F5F5F5DCF528F5F5F5F5F5DCF5F5DCDCF5F5BEF5F5F5BEBEF5F5F5F5BEBEF5F5F5F50FF5F5F5F5F50FF5F5F5F5F5F5F5F5F5F5F5F5F5F5F5
310
F5F5F5F5F5F5F5F5F5F5F5F5F5F5F5F5F5F5F5F5F5F5F5F5F5F5F5F5F5F5F5F5F5F5F5F5F5F5F5F5F5F5F5F5F5F5F5F5F5F5F5F5F5F5F5F5F5F5F5F5F5F5F5F5F5F5F5F5F5F5F5F5F5F5F5F5F5F5F5F5F5F5F5F528F5DCF5F5F5F5F5F5F5F5F5F5F5F5F5F5F5F5F5E2F5E2E2F5E2F5F5F5F5F5F5F5F5F5F5F5F5F5F5F5F5F5
310
DCF528F5F5F5F5DCF5F5DCF5DCF5F5F5BEF5F5F5BEBEBEBEBEF5BEF5F5F5F50FF5F5F5F5F50FF5F5F5F5F5F5F5F5F5F5F5F5F5F5F5F5F5F5F5F5F5F5F5F5F5F5F5F5F5F5F5F5F5F5F5F5F5F5F5F5F5F5F5F5F5F5F5F5F5F5F5F5F5F5F5F5F5F5F5F5F5F5F5F5F5F5F5F5F5F5F5F5F5F5F5F5F5F5F5F5F5F5F5F5F5F5F5F5F5
310
F5F5F5F5F5F5F5F5F5F528F5DCF5F5F5F5F5F5F5F5F5F5F5F5F5F5F5F5F5E2F5E2E2F5E2F5F5F5F5F5F5F5F5F5F5F5F5F5F5F5F5F5DCF528F5F5F5DCF5F5DCF5F5DCF5F5F5F5BEF5F5F5F5F5F5F5F5BEBEF5F5F50FF5F5F5F5F50FF5F5F5F5F5F5F5F5F5F5F5F5F5F5F5F5F5F5F5F5F5F5F5F5F5F5F5F5F5F5F5F5F5F5F5F5
310
F5F5F5F5F5F5F5F5F5F5F5F5F5F5F5F5F5F5F5F5F5F5F5F5F5F5F5F5F5F5F5F5F5F5F5F5F5F5F5F5F5F5F5F5F5F5F5F5F5F5F5F5F5F5F5F5F5F5F5F5F5F5F528F5DCF5F5F5F5F5F5F5F5F5F5F5F5F5F5F5F5F5E2F5E2E2F5E2F5F5F5F5F5F5F5F5F5F5F5F5F5F5F5F5F5DCF528F5F5F5F5F5DCF5F5F5DCF5F5F5F5F5BEBEBE
310
F5F5F5F5F5F5F5BEBEF50FF5F5F5F5F50FF5F5F5F5F5F5F5F5F5F5F5F5F5F5F5F5F5F5F5F5F5F5F5F5F5F5F5F5F5F5F5F5F5F5F5F5F5F5F5F5F5F5F5F5F5F5F5F5F5F5F5F5F5F5F5F5F5F5F5F5F5F5F5F5F5F5F5F5F5F5F5F5F5F5F5F5F5F5F5F5F5F5F5F5F5F5F5F5F5F5F5F5F5F5F5F5F5F5F528F5DCF5F5F5F5F5F5F5F5
310
F5F5F5F5F5F5F5F5F5E2F5E2E2F5E2F5F5F5F5F5F5F5F5F5F5F5F5F5F5F5F5F5DCF528F5F5F5F5DCF5F5F5DCDCF5F5F5F5F5F5F5F5BEBEF5F5F5F5F5F5BEF50FF5F5F5F5F50FF5F5F5F5F5F5F5F5F5F5F5F5F5F5F5F5F5F5F5F5F5F5F5F5F5F5F5F5F5F5F5F5F5F5F5F5F5F5F5F5F5F5F5F5F5F5F5F5F5F5F5F5F5F5F5F5F5
310
F5F5F5F5F5F5F5F5F5F5F5F5F5F5F5F5F5F5F5F5F5F5F5F5F5F5F5F5F5F5F5F5F5F5F5F5F5F5F5F5F5F528F5DCF5F5F5F5F5F5F5F5F5F5F5F5F5F5F5F5F5E2F5E2E2F5E2F5F5F5F5F5F5F5F5F5F5F5F5F5F5F5F5F5DCF528F5F5F5DCF5F5F5DCF5DCF5F5F5F5F5F5F5F5F5BEBEF5F5F5F5F5F5BE1BF5F5F5F5F50FF5F5F5F5
310
F5F5F5F5F5F5F5F5F5F5F5F5F5F5F5F5F5F5F5F5F5F5F5F5F5F5F5F5F5F5F5F5F5F5F5F5F5F5F5F5F5F5F5F5F5F5F5F5F5F5F5F5F5F5F5F5F5F5F5F5F5F5F5F5F5F5F5F5F5F5F5F5F5F5F5F5F5F5F5F5F5F5F5F5F5F5F5F5F5F5F5F5F5F5F528F5DCF5F5F5F5F5F5F5F5F5F5F5F5F5F5F5F5F5E2F5E2E2F5E2F5F5F5F5F5F5
310
F5F5F5F5F5F5F5F5F5F5F5DCF528F5F5F5F5F5DCDCF5F5DCF5F5F5F5F5F5F5F5F5F5BEF5F5F5F5F5F5F5BEF5F5F5F5F50F0FF5F5F5F5F5F5F5F5F5F5F5F5F5F5F5F5F5F5F5F5F5F5F5F5F5F5F5F5F5F5F5F5F5F5F5F5F5F5F5F5F5F5F5F5F5F5F5F5F5F5F5F5F5F5F5F5F5F5F5F5F5F5F5F5F5F5F5F5F5F5F5F5F5F5F5F5F5
310
F5F5F5F5F5F5F5F5F5F5F5F5F5F5F5F5F5F5F5F5F528F5DCF5F5F5F5F5F5F5F5F5F5F5F5F5F5F5F5F5E2F5E2E2F5E2F5F5F5F5F5F5F5F5F5F5F5F5F5F5F5F5F5DCF528F5F5F5F5DCF5F5F5DCDCDCDCDCDCDCDCDCDCDCDCDCDCDCDCDCDCDCDCDCDCDCDCDCDCDCDCDCF5F5F5F5F5F5F5F5F5F5F5F5F5F5F5F5F5F5F5F5F5F5F5
310
F5F5F5F5F5F5F5F5F5F5F5F5F5F5F5F5F5F5F5F5F5F5F5F5F5F5F5F5F5F5F5F5F5F5F5F5F5F5F5F5F5F5F5F5F5F5F5F5F5F5F5F5F5F5F5F5F5F5F5F5F5F5F5F5F5F5F5F5F5F5F5F5F5F528F5DCF5F5F5F5F5F5F5F5F5F5F5F5F5F5F5F5F5E2F5E2E2F5E2F5F5F5F5F5F5F5F5F5F5F5F5F5F5F5F5F5DCF528F5F5F5DCF5F5F5
310
DCF5F5DCF5F5DCF5F5F5DCF5F5DCF5F5DCF5F5DCF5F5DCF5F5DCF5F5F5F5F5F5F5F5F5F5F5F5F5F5F5F5F5F5F5F5F5F5F5F5F5F5F5F5F5F5F5F5F5F5F5F5F5F5F5F5F5F5F5F5F5F5F5F5F5F5F5F5F5F5F5F5F5F5F5F5F5F5F5F5F5F5F5F5F5F5F5F5F5F5F5F5F5F5F5F5F5F5F5F5F5F5F5F5F5F5F5F5F5F5F5F5F5F5F5F5F5
310
28F5DCF5F5F5F5F5F5F5F5F5F5F5F5F5F5F5F5F5E2F5E2E2F5E2F5F5F5F5F5F5F5F5F5F5F5F5F5F5F5F5F5DCF528F5F5F5F5F5DCDCF5F5DCF5F5DCF5F5F5DCF5F5DCF5F5DCF5F5DCF5F5DCF5F5DCF5F5F5F5F5F5F5F5F5F5F5F5F5F5F5F5F5F5F5F5F5F5F5F5F5F5F5F5F5F5F5F5F5F5F5F5F5F5F5F5F5F5F5F5F5F5F5F5F5
310
F5F5F5F5F5F5F5F5F5F5F5F5F5F5F5F5F5F5F5F5F5F5F5F5F5F5F5F5F5F5F5F5F5F5F5F5F5F5F5F5F5F5F5F5F5F5F5F5F5F5F5F5F528F5DCF5F5F5F5F5F5F5F5F5F5F5F5F5F5F5F5F5E2F5E2E2F5E2F5F5F5F5F5F5F5F5F5F5F5F5F5F5F5F5F5DCF528F5F5F5F5DCF5F5F5DCF5F5DCF5F5DCDCF5DCDCF5DCDCF5F5DCF5F5DC
310
F5F5DCF5F5F5F5F5F5F5F5F5F5F5F5F5F5F5F5F5F5F5F5F5F5F5F5F5F5F5F5F5F5F5F5F5F5F5F5F5F5F5F5F5F5F5F5F5F5F5F5F5F5F5F5F5F5F5F5F5F5F5F5F5F5F5F5F5F5F5F5F5F5F5F5F5F5F5F5F5F5F5F5F5F5F5F5F5F5F5F5F5F5F5F5F5F5F5F5F5F5F5F5F5F5F528F5DCF5F5F5F5F5F5F5F5F5F5F5F5F5F5F5F5F5E2
310
F5E2E2F5E2F5F5F5F5F5F5F5F5F5F5F5F5F5F5F5F5F5DCF528F5F5F5DCF5F5F5DCF5F5DCF5F5DCF5F5DCF5F5DCF5F5F5DCF5F5DCF5F5DCF5F5F5DCF5F5F5F5F5F5F5F5F5F5F5F5F5F5F5F5F5F5F5F5F5F5F5F5F5F5F5F5F5F5F5F5F5F5F5F5F5F5F5F5F5F5F5F5F5F5F5F5F5F5F5F5F5F5F5F5F5F5F5F5F5F5F5F5F5F5F5F5
310
F5F5F5F5F5F5F5F5F5F5F5F5F5F5F5F5F5F5F5F5F5F5F5F5F5F5F5F5F5F5F5F528F5DCF5F5F5F5F5F5F5F5F5F5F5F5F5F5F5F5F5E2F5E2E2F5F5F5F5F5F5F5F5F5F5F5F5F5F5F5F5F5F5F5DCF528F5F5F5F5F5F5DCF5F5DCF5F5DCF5F5DCF5F5DCF5F5F5DCF5F5DCF5F5DCF5F5DCDCF5F5F5F5F5F5F5F5F5F5F5F5F5F5F5F5
310
F5F5F5F5F5F5F5F5F5F5F5F5F5F5F5F5F5F5F5F5F5F5F5F5F5F5F5F5F5F5F5F5F5F5F5F5F5F5F5F5F5F5F5F5F5F5F5F5F5F5F5F5F5F5F5F5F5F5F5F5F5F5F5F5F5F5F5F5F5F5F5F5F5F5F5F5F5F5F5F5F5F5F5F5F528F5DCF5F5F5F5F5F5F5F5F5F5F5F5F5F5F5F5F5F5F5E2E2F5F5F5F5F5F5F5F5F5F5F5F5F5F5F5F5F5F5
310
F5DCF528F5F5F5F5F5F5F5F5F5F5F5F5F5F5F5F5F5F5F5F5F5F5F5F5F5F5F5F5F5F5F5F5F5F5F5F5F5F5F5F5F5F5F5F5F5F5F5F5F5F5F5F5F5F5F5F5F5F5F5F5F5F5F5F5F5F5F5F5F5F5F5F5F5F5F5F5F5F5F5F5F5F5F5F5F5F5F5F5F5F5F5F5F5F5F5F5F5F5F5F5F5F5F5F5F5F5F5F5F5F5F5F5F5F5F5F5F5F5F5F5F5F5F5
310
F5F5F5F5F5F5F5F5F5F5F528F5DCF5F5F5F5F5F5F5F5F5F5F5F5F5F5F5F5F5F5F5E2E2F5F5F5F5F5F5F5F5F5F5F5F5F5F5F5F5F5F5F5DCF528F5F5F5F5F5F5F5F5F5F5F5F5F5F5F5F5F5F5F5F5F5F5F5F5F5F5F5F5F5F5F5F5F5F5F5F5F5F5F5F5F5F5F5F5F5F5F5F5F5F5F5F5F5F5F5F5F5F5F5F5F5F5F5F5F5F5F5F5F5F5
310
F5F5F5F5F5F5F5F5F5F5F5F5F5F5F5F5F5F5F5F5F5F5F5F5F5F5F5F5F5F5F5F5F5F5F5F5F5F5F5F5F5F5F5F5F5F5F5F5F5F5F5F5F5F5F5F5F5F5F5F5F5F5F5F528F5DCF5F5F5F5F5F5F5F5F5F5F5F5F5F5F5F5F5F5F5E2E2F5F5F5F5F5F5F5F5F5F5F5F5F5F5F5F5F5F5F5DCF528F5F5F5F5F5F5F5F5F5F5F5F5F5F5F5F5F5
310
F5F5F5F5F5F5F5F5F5F5F5F5F5F5F5F5F5F5F5F5F5F5F5F5F5F5F5F5F5F5F5F5F5F5F5F5F5F5F5F5F5F5F5F5F5F5F5F5F5F5F5F5F5F5F5F5F5F5F5F5F5F5F5F5F5F5F5F5F5F5F5F5F5F5F5F5F5F5F5F5F5F5F5F5F5F5F5F5F5F5F5F5F5F5F5F5F5F5F5F5F5F5F5F5F5F5F5F5F5F5F5F5F5F5F5F5F528F5DCF5F5F5F5F5F5F5
310
F5F5F5F5F5F5F5F5F5F5F5F5E2E2F5F5F5F5F5F5F5F5F5F5F5F5F5F5F5F5F5F5F5DCF528F5F5F5F5F5F5F5F5F5F5F5F5F5F5F5F5F5F5F5F5F5F5F5F5F5F5F5F5F5F5F5F5F5F5F5F5F5F5F5F5F5F5F5F5F5F5F5F5F5F5F5F5F5F5F5F5F5F5F5F5F5F5F5F5F5F5F5F5F5F5F5F5F5F5F5F5F5F5F5F5F5F5F5F5F5F5F5F5F5F5F5
310
F5F5F5F5F5F5F5F5F5F5F5F5F5F5F5F5F5F5F5F5F5F5F5F5F5F5F5F5F5F5F5F5F5F5F5F5F5F5F5F5F5F5F528F5DCF5F5F5F5F5F5F5F5F5F5F5F5F5F5F5F5F5F5F5E2E2F5F5F5F5F5F5F5F5F5F5F5F5F5F5F5F5F5F5F5DCF528F5F5F5F5F5F5F5F5F5F5F5F5F5F5F5F5F5F5F5F5F5F5F5F5F5F5F5F5F5F5F5F5F5F5F5F5F5F5
310
F5F5F5F5F5F5F5F5F5F5F5F5F5F5F5F5F5F5F5F5F5F5F5F5F5F5F5F5F5F5F5F5F5F5F5F5F5F5F5F5F5F5F5F5F5F5F5F5F5F5F5F5F5F5F5F5F5F5F5F5F5F5F5F5F5F5F5F5F5F5F5F5F5F5F5F5F5F5F5F5F5F5F5F5F5F5F5F5F5F5F5F5F5F5F5F528F5DCF5F5F5F5F5F5F5F5F5F5F5F5F5F5F5F5F5F5F5E2E2F5F5F5F5F5F5F5
310
F5F5F5F5F5F5F5F5F5F5F5F5DCF528F5F5F5F5F5F5F5F5F5F5F5F5F5F5F5F5F5F5F5F5F5F5F5F5F5F5F5F5F5F5F5F5F5F5F5F5F5F5F5F5F5F5F5F5F5F5F5F5F5F5F5F5F5F5F5F5F5F5F5F5F5F5F5F5F5F5F5F5F5F5F5F5F5F5F5F5F5F5F5F5F5F5F5F5F5F5F5F5F5F5F5F5F5F5F5F5F5F5F5F5F5F5F5F5F5F5F5F5F5F5F5F5
310
F5F5F5F5F5F5F5F5F5F5F5F5F5F5F5F5F5F5F5F5F5F528F5DCF5F5F5F5F5F5F5F5F5F5F5F5F5F5F5F5F5F5F5E2E2F5F5F5F5F5F5F5F5F5F5F5F5F5F5F5F5F5F5F5DCF528F5F5F5F5F5F5F5F5F5F5F5F5F5F5F5F5F5F5F5F5F5F5F5F5F5F5F5F5F5F5F5F5F5F5F5F5F5F5F5F5F5F5F5F5F5F5F5F5F5F5F5F5F5F5F5F5F5F5F5
310
F5F5F5F5F5F5F5F5F5F5F5F5F5F5F5F5F5F5F5F5F5F5F5F5F5F5F5F5F5F5F5F5F5F5F5F5F5F5F5F5F5F5F5F5F5F5F5F5F5F5F5F5F5F5F5F5F5F5F5F5F5F5F5F5F5F5F5F5F5F5F5F5F5F5F528F5DCF5F5F5F5F5F5F5F5F5F5F5F5F5F5F5F5F5F5F5E2E2F5E2F5F5F5F5F5F5F5F5F5F5F5F5F5F5F5F5F5DCF528F5F5F5F5F5F5
310
F5F5F5F5F5F5F5F5F5F5F5F5F5F5F5F5F5F5F5F5F5F5F5F5F5F5F5F5F5F5F5F5F5F5F5F5F5F5F5F5F5F5F5F5F5F5F5F5F5F5F5F5F5F5F5F5F5F5F5F5F5F5F5F5F5F5F5F5F5F5F5F5F5F5F5F5F5F5F5F5F5F5F5F5F5F5F5F5F5F5F5F5F5F5F5F5F5F5F5F5F5F5F5F5F5F5F5F5F5F5F5F5F5F5F5F5F5F5F5F5F5F5F5F5F5F5F5
310
F528F5DCF5F5F5F5F5F5F5F5F5F5F5F5F5F5F5F5F5E2F5E2E2F5E2F5F5F5F5F5F5F5F5F5F5F5F5F5F5F5F5F5DCF528F5F5F5F5F5F5F5F5F5F5F5F5F5F5F5F5F5F5F5F5F5F5F5F5F5F5F5F5F5F5F5F5F5F5F5F5F5F5F5F5F5F5F5F5F5F5F5F5F5F5F5F5F5F5F5F5F5F5F5F5F5F5F5F5F5F5F5F5F5F5F5F5F5F5F5F5F5F5F5F5
310
F5F5F5F5F5F5F5F5F5F5F5F5F5F5F5F5F5F5F5F5F5F5F5F5F5F5F5F5F5F5F5F5F5F5F5F5F5F5F5F5F5F5F5F5F5F5F5F5F5F5F5F5F5F528F5DCF5F5F5F5F5F5F5F5F5F5F5F5F5F5F5F5F5E2F5E2E2F5E2F5F5F5F5F5F5F5F5F5F5F5F5F5F5F5F5F5DCF528F5F5F5F5F5F5F5F5F5F5F5F5F5F5F5F5F5F5F5F5F5F5F5F5F5F5F5
310
F5F5F5F5F5F5F5F5F5F5F5F5F5F5F5F5F5F5F5F5F5F5F5F5F5F5F5F5F5F5F5F5F5F5F5F5F5F5F5F5F5F5F5F5F5F5F5F5F5F5F5F5F5F5F5F5F5F5F5F5F5F5F5F5F5F5F5F5F5F5F5F5F5F5F5F5F5F5F5F5F5F5F5F5F5F5F5F5F5F5F5F5F5F5F5F5F5F5F5F5F5F5F5F5F5F5F528F5DCF5F5F5F5F5F5F5F5F5F5F5F5F5F5F5F5F5
310
E2F5E2E2F5E2F5F5F5F5F5F5F5F5F5F5F5F5F5F5F5F5F5DCF528F5F5F5F5F5F5F5F5F5F5F5F5F5F5F5F5F5F5F5F5F5F5F5F5F5F5F5F5F5F5F5F5F5F5F5F5F5F5F5F5F5F5F5F5F5F5F5F5F5F5F5F5F5F5F5F5F5F5F5F5F5F5F5F5F5F5F5F5F5F5F5F5F5F5F5F5F5F5F5F5F5F5F5F5F5F5F5F5F5F5F5F5F5F5F5F5F5F5F5F5F5
310
F5F5F5F5F5F5F5F5F5F5F5F5F5F5F5F5F5F5F5F5F5F5F5F5F5F5F5F5F5F5F5F5F528F5DCF5F5F5F5F5F5F5F5F5F5F5F5F5F5F5F5F5E2F5E2E2F5E2F5F5F5F5F5F5F5F5F5F5F5F5F5F5F5F5F5DCF528F5F5F5F5F5F5F5F5F5F5F5F5F5F5F5F5F5F5F5F5F5F5F5F5F5F5F5F5F5F5F5F5F5F5F5F5F5F5F5F5F5F5F5F5F5F5F5F5
310
F5F5F5F5F5F5F5F5F5F5F5F5F5F5F5F5F5F5F5F5F5F5F5F5F5F5F5F5F5F5F5F5F5F5F5F5F5F5F5F5F5F5F5F5F5F5F5F5F5F5F5F5F5F5F5F5F5F5F5F5F5F5F5F5F5F5F5F5F5F5F5F5F5F5F5F5F5F5F5F5F5F5F5F5F5F528F5DCF5F5F5F5F5F5F5F5F5F5F5F5F5F5F5F5F5E2F5E2E2F5E2F5F5F5F5F5F5F5F5F5F5F5F5F5F5F5
310
F5F5DCF528F5F5F5F5F5F5F5F5F5F5F5F5F5F5F5F5F5F5F5F5F5F5F5F5F5F5F5F5F5F5F5F5F5F5F5F5F5F5F5F5F5F5F5F5F5F5F5F5F5F5F5F5F5F5F5F5F5F5F5F5F5F5F5F5F5F5F5F5F5F5F5F5F5F5F5F5F5F5F5F5F5F5F5F5F5F5F5F5F5F5F5F5F5F5F5F5F5F5F5F5F5F5F5F5F5F5F5F5F5F5F5F5F5F5F5F5F5F5F5F5F5F5
310
F5F5F5F5F5F5F5F5F5F5F5F528F5DCF5F5F5F5F5F5F5F5F5F5F5F5F5F5F5F5F5E2F5E2E2F5E2F5F5F5F5F5F5F5F5F5F5F5F5F5F5F5F5F5DCF528F5F5F5F5F5F5F5F5F5F5F5F5F5F5F5F5F5F5F5F5F5F5F5F5F5F5F5F5F5F5F5F5F5F5F5F5F5F5F5F5F5F5F5F5F5F5F5F5F5F5F5F5F5F5F5F5F5F5F5F5F5F5F5F5F5F5F5F5F5
310
F5F5F5F5F5F5F5F5F5F5F5F5F5F5F5F5F5F5F5F5F5F5F5F5F5F5F5F5F5F5F5F5F5F5F5F5F5F5F5F5F5F5F5F5F5F5F5F5F5F5F5F5F5F5F5F5F5F5F5F5F5F5F5F5F528F5DCF5F5F5F5F5F5F5F5F5F5F5F5F5F5F5F5F5E2F5E2E2F5E2F5F5F5F5F5F5F5F5F5F5F5F5F5F5F5F5F5DCF528F5F5F5F5F5F5F5F5F5F5F5F5F5F5F5F5
310
F5F5F5F5F5F5F5F5F5F5F5F5F5F5F5F5F5F5F5F5F5F5F5F5F5F5F5F5F5F5F5F5F5F5F5F5F5F5F5F5F5F5F5F5F5F5F5F5F5F5F5F5F5F5F5F5F5F5F5F5F5F5F5F5F5F5F5F5F5F5F5F5F5F5F5F5F5F5F5F5F5F5F5F5F5F5F5F5F5F5F5F5F5F5F5F5F5F5F5F5F5F5F5F5F5F5F5F5F5F5F5F5F5F5F5F5F5F528F5DCF5F5F5F5F5F5
310
F5F5F5F5F5F5F5F5F5F5F5E2F5E2E2F5E2F5F5F5F5F5F5F5F5F5F5F5F5F5F5F5F5F5DCF528282828282828282828282828282828282828282828282828282828282828282828282828282828282828282828282828282828282828282828282828282828282828282828282828282828282828282828282828282828282828
310
282828282828282828282828282828282828282828282828282828282828282828282828282828282828282828F5DCF5F5F5F5F5F5F5F5F5F5F5F5F5F5F5F5F5E2F5E2E2F5E2F5F5F5F5F5F5F5F5F5F5F5F5F5F5F5F5F5DCF528F5F5F5F5F5F5F5F5F5F5F5F5F5F5F5F5F5F5F5F5F5F5F5F5F5F5F5F5F5F5F5F5F5F5F5F5F5
310
F5F5F5F5F5F5F5F5F5F5F5F5F5F5F5F5F5F5F5F5F5F5F5F5F5F5F5F5F528F5F5F5F5F5F5F5F5F5F5F5F5F5F5F5F5F5F5F5F5F5F5F5F5F5F5F5F5F5F5F5F5F5F5F5F5F5F5F5F5F5F5F5F5F5F5F5F5F5F5F5F5F5F5F5F5F5F5F5F5F5F5F5F5F5F5F528F5DCF5F5F5F5F5F5F5F5F5F5F5F5F5F5F5F5F5E2F5E2E2F5E2F5F5F5F5
310
F5F5F5F5F5F5F5F5F5F5F5F5F5DCF528F5F5F5F5F5F5F5F5F5F5F5F5F52D2D2D2D2D2D2D2D2D2D2D2D2D2D2D2D2D2D2D2D2D2D2D2D2D2D2D2D2D2D2D2D2D2D2D2D2D2DF5F5F5F5F5F5F5F5F5F5F5F5F5F5F528F5F5F52D2D2D2DF52D2D2D2D2D2DF5F5F5F5F5F5F5F5F5F5F5F5F5F5F5F5F5F5F5F5F5F5F5F5F5F5F5F5F5F5
310
F5F5F5F5F5F5F5F5F5F5F5F5F5F5F5F5F5F5F5F5F5F5F528F5DCF5F5F5F5F5F5F5F5F5F5F5F5F5F5F5F5F5E2F5E2E2F5E2F5F5F5F5F5F5F5F5F5F5F5F5F5F5F5F5F5DCF528F5F5F5F5F5F5F5F5F5F5F5F5F52D2D2D2D2D2D2D2D2D2D2D2D2D2D2D2D2D2D2D2D2D2D2D2D2D2D2D2D2D2D2D2D2D2D2D2D2D2DF5F5F5F5F5F5F5
310
F5F5F5F5F5F5F5F528F5F5F52D2D2D2DF52D2D2D2DF52DF5F5F5F5F5F5F5F5F5F5F5F5F5F5F5F5F5F5F5F5F5F5F5F5F5F5F5F5F5F5F5F5F5F5F5F5F5F5F5F5F5F5F5F5F5F5F5F5F5F5F5F5F528F5DCF5F5F5F5F5F5F5F5F5F5F5F5F5F5F5F5F5E2F5E2E2F5E2F5F5F5F5F5F5F5F5F5F5F5F5F5F5F5F5F5DCF528F5F5F5F5F5
310
F5F5F5F5F5F5F5F5F5F5F5F5F5F5F5F5F5F5F5F5F5F5F5F5F5F5F5F5F5F5F5F5F5F5F5F5F5F5F5F5F5F5F5F5F5F5F5F5F5F5F5F5F5F5F5F5F5F5F5F5F528F5F5F5F5F5F5F5F5F5F5F5F5F5F5F5F5F5F5F5F5F5F5F5F5F5F5F5F5F5F5F5F5F5F5F5F5F5F5F5F5F5F5F5F5F5F5F5F5F5F5F5F5F5F5F5F5F5F5F5F5F5F5F5F5F5
310
F5F528F5DCF5F5F5F5F5F5F5F5F5F5F5F5F5F5F5F5F5E2F5E2E2F5E2F5F5F5F5F5F5F5F5F5F5F5F5F5F5F5F5F5DCF52828282828282828282828282828282828282828282828282828282D2D2D2D2D2D2D2D2D2D2D2D2D28282828282828282828282828282828282828282828282828282828282828282828282828282828
310
2828282828282828282828282828282828282828282828282828282828282828282828282828282828282828282828282828282828282828F5DCF5F5F5F5F5F5F5F5F5F5F5F5F5F5F5F5F5E2F5E2E2F5E2F5F5F5F5F5F5F5F5F5F5F5F5F5F5F5F5F5DCF528F5F5F5F5F5F5F5F5F5F5F5F5F5F5F5F5F5F5F5F5F5F5F5F5F5F5
310
2D2D2D2D2D2D2D2D2D2D2D2D2DF5F5F5F5F5F5F5F5F5F5F5F5F5F5F5F5F5F5F5F5F5F5F5F5F5F5F528F5F5F52D2D2D2D2D2D2D2D2D2D2DF5F52D2D2D2D2D2D2D2D2D2DF5F5F5F5F5F5F5F5F5F5F5F5F5F5F5F5F5F5F5F5F5F5F5F5F5F5F5F5F5F5F5F5F5F5F5F5F5F5F5F5F528F5DCF5F5F5F5F5F5F5F5F5F5F5F5F5F5F5F5
310
F5E2F5E2E2F5E2F5F5F5F5F5F5F5F5F5F5F5F5F5F5F5F5F5DCF528F5F5F5F5F5F5F5F5F5F5F5F5F5F5F5F5F5F5F5F5F5F5F5F5F5F52D2D2D2D2D2D2D2D2D2D2D2D2DF5F5F5F5F5F5F5F5F5F5F5F5F5F5F5F5F5F5F5F5F5F5F5F5F5F5F528F5F5F52D2D2D2D2D2D2D2D2D2D2DF52D2D2D2D2D2D2D2D2D2D2DF5F5F5F5F5F5F5
310
F5F5F5F5F5F5F5F5F5F5F5F5F5F5F5F5F5F5F5F5F5F5F5F5F5F5F5F5F5F5F5F5F5F528F5DCF5F5F5F5F5F5F5F5F5F5F5F5F5F5F5F5F5E2F5E2E2F5F5F5F5F5F5F5F5F5F5F5F5F5F5F5F5F5F5F5DCF528F5F5F5F5F5F5F5F5F5F5F5F5F5F5F5F5F5F5F5F5F5F5F5F5F5F5F5F5F5F5F5F5F5F5F5F5F5F5F5F5F5F5F5F5F5F5F5
310
F5F5F5F5F5F5F5F5F5F5F5F5F5F5F5F5F5F5F528F5F5F5F5F5F5F5F5F5F5F5F5F5F5F5F5F5F5F5F5F5F5F5F5F5F5F5F5F5F5F5F5F5F5F5F5F5F5F5F5F5F5F5F5F5F5F5F5F5F5F5F5F5F5F5F5F5F5F5F5F5F5F5F5F5F5F528F5DCF5F5F5F5F5F5F5F5F5F5F5F5F5F5F5F5F5F5F5E2E2F5F5F5F5F5F5F5F5F5F5F5F5F5F5F5F5
310
F5F5F5DCF52828282828282828282828282828282828282828282828282828282828282828282828282828282828282828282828282828282828282828282828282828282828282828282828282828282828282828282828282828282828282828282828282828282828282828282828282828282828282828282828282828
310
2828282828282828282828282828F5DCF5F5F5F5F5F5F5F5F5F5F5F5F5F5F5F5F5F5F5E2E2F5F5F5F5F5F5F5F5F5F5F5F5F5F5F5F5F5F5F5DCF5F5F5F5F5F5F5F5F5F5F5F5F5F5F5F5F5F5F5F5F5F5F5F5F5F5F5F5F5F5F5F5F5F5F5F5F5F5F5F5F5F5F5F5F5F5F5F5F5F5F5F5F5F5F5F5F5F5F5F5F5F5F5F5F5F5F5F5F5F5
310
F5F5F5F5F5F5F5F5F5F5F5F5F5F5F5F5F5F5F5F5F5F5F5F5F5F5F5F5F5F5F5F5F5F5F5F5F5F5F5F5F5F5F5F5F5F5F5F5F5F5F5F5F5F5F5F5F5F5F5F5F5F5F5F5F5F5F5F5DCF5F5F5F5F5F5F5F5F5F5F5F5F5F5F5F5F5F5F5E2E2F5F5F5F5F5F5F5F5F5F5F5F5F5F5F5F5F5F5F5DCDCDCDCDCDCDCDCDCDCDCDCDCDCDCDCDCDC
310
DCDCDCDCDCDCDCDCDCDCDCDCDCDCDCDCDCDCDCDCDCDCDCDCDCDCDCDCDCDCDCDCDCDCDCDCDCDCDCDCDCDCDCDCDCDCDCDCDCDCDCDCDCDCDCDCDCDCDCDCDCDCDCDCDCDCDCDCDCDCDCDCDCDCDCDCDCDCDCDCDCDCDCDCDCDCDCDCDCDCDCDCDCDCDCDCDCDCDCDCDCDCDCDCDCDCDCDCDCDCDCDCDCDCDCDCDCDCDCDCDCDCF5F5F5F5F5
310
F5F5F5F5F5F5F5F5F5F5F5F5F5F5E2E2F5F5F5F5F5F5F5F5F5F5F5F5F5F5F5F5F5F5F5DCDCDCDCDCDCDCDCDCDCDCDCDCDCDCDCDCDCDCDCDCDCDCDCDCDCDCDCDCDCDCDCDCDCDCDCDCDCDCDCDCDCDCDCDCDCDCDCDCDCDCDCDCDCDCDCDCDCDCDCDCDCDCDCDCDCDCDCDCDCDCDCDCDCDCDCDCDCDCDCDCDCDCDCDCDCDCDCDCDCDCDC
310
DCDCDCDCDCDCDCDCDCDCDCDCDCDCDCDCDCDCDCDCDCDCDCDCDCDCDCDCDCDCDCDCDCDCDCDCDCDCDCDCDCDCDCDCDCDCDCDCF5F5F5F5F5F5F5F5F5F5F5F5F5F5F5F5F5F5F5E2E2F5F5F5F5F5F5F5F5F5F5F5F5F5F5F5F5F5F5F5F5F5F5F5F5F5F5F5F5F5F5F5F5F5F5F5F5F5F5F5F5F5F5F5F5F5F5F5F5F5F5F5F5F5F5F5F5F5F5
310
F5F5F5F5F5F5F5F5F5F5F5F5F5F5F5F5F5F5F5F5F5F5F5F5F5F5F5F5F5F5F5F5F5F5F5F5F5F5F5F5F5F5F5F5F5F5F5F5F5F5F5F5F5F5F5F5F5F5F5F5F5F5F5F5F5F5F5F5F5F5F5F5F5F5F5F5F5F5F5F5F5F5F5F5F5F5F5F5F5F5F5F5F5F5F5F5F5F5F5F5F5F5F5F5F5F5F5F5F5F5F5F5F5F5F5F5F5F5F5F5E2E2F5F5F5F5F5
310
F5F5F5F5F5F5F5F5F5F5F5F5F5F5F5F5F5F5F5F5F5F5F5F5F5F5F5F5F5F5F5F5F5F5F5F5F5F5F5F5F5F5F5F5F5F5F5F5F5F5F5F5F5F5F5F5F5F5F5F5F5F5F5F5F5F5F5F5F5F5F5F5F5F5F5F5F5F5F5F5F5F5F5F5F5F5F5F5F5F5F5F5F5F5F5F5F5F5F5F5F5F5F5F5F5F5F5F5F5F5F5F5F5F5F5F5F5F5F5F5F5F5F5F5F5F5F5
310
F5F5F5F5F5F5F5F5F5F5F5F5F5F5F5F5F5F5F5F5F5F5F5F5F5F5F5F5F5F5F5F5F5F5F5F5F5F5F5F5F5F5F5F5F5F5E2E2F5F5F5F5F5F5F5F5F5F5F5F5F5F5F5F5F5F5F5F5F5F5F5F5F5F5F5F5F5F5F5F5F5F5F5F5F5F5F5F5F5F5F5F5F5F5F5F5F5F5F5F5F5F5F5F5F5F5F5F5F5F5F5F5F5F5F5F5F5F5F5F5F5F5F5F5F5F5F5
310
F5F5F5F5F5F5F5F5F5F5F5F5F5F5F5F5F5F5F5F5F5F5F5F5F5F5F5F5F5F5F5F5F5F5F5F5F5F5F5F5F5F5F5F5F5F5F5F5F5F5F5F5F5F5F5F5F5F5F5F5F5F5F5F5F5F5F5F5F5F5F5F5F5F5F5F5F5F5F5F5F5F5F5F5F5F5F5F5F5F5F5F5F5F5F5F5F5F5F5E2E2F5F5F5F5F5F5F5F5F5F5F5F5F5F5F5F5F5F5F5F5F5F5F5F5F5F5
310
F5F5F5F5F5F5F5F5F5F5F5F5F5F5F5F5F5F5F5F5F5F5F5F5F5F5F5F5F5F5F5F5F5F5F5F5F5F5F5F5F5F5F5F5F5F5F5F5F5F5F5F5F5F5F5F5F5F5F5F5F5F5F5F5F5F5F5F5F5F5F5F5F5F5F5F5F5F5F5F5F5F5F5F5F5F5F5F5F5F5F5F5F5F5F5F5F5F5F5F5F5F5F5F5F5F5F5F5F5F5F5F5F5F5F5F5F5F5F5F5F5F5F5F5F5F5F5
310
F5F5F5F5F5F5F5F5F5F5F5F5F5F5F5F5F5F5F5F5F5F5F5F5F5E2E2F5E2F5F5F5F5F5F5F5F5F5F5F5F5F5F5F5F5F5F5F5F5F5F5F5F5F5F5F5F5F5F5F5F5F5F5F5F5F5F5F5F5F5F5F5F5F5F5F5F5F5F5F5F5F5F5F5F5F5F5F5F5F5F5F5F5F5F5F5F5F5F5F5F5F5F5F5F5F5F5F5F5F5F5F5F5F5F5F5F5F5F5F5F5F5F5F5F5F5F5
310
F5F5F5F5F5F5F5F5F5F5F5F5F5F5F5F5F5F5F5F5F5F5F5F5F5F5F5F5F5F5F5F5F5F5F5F5F5F5F5F5F5F5F5F5F5F5F5F5F5F5F5F5F5F5F5F5F5F5F5F5F5F5F5F5F5F5F5F5F5F5F5F5F5F5F5F5E2F5E2E2F5E2F5F5F5F5F5F5F5F5F5F5F5F5F5F5F5F5F5F5F5F5F5F5F5F5F5F5F5F5F5F5F5F5F5F5F5F5F5F5F5F5F5F5F5F5F5
310
F5F5F5F5F5F5F5F5F5F5F5F5F5F5F5F5F5F5F5F5F5F5F5F5F5F5F5F5F5F5F5F5F5F5F5F5F5F5F5F5F5F5F5F5F5F5F5F5F5F5F5F5F5F5F5F5F5F5F5F5F5F5F5F5F5F5F5F5F5F5F5F5F5F5F5F5F5F5F5F5F5F5F5F5F5F5F5F5F5F5F5F5F5F5F5F5F5F5F5F5F5F5F5F5F5F5F5F5F5F5F5F5F5F5F5F5F5F5F5F5F5F5F5F5F5F5F5
310
F5F5E2F5E2E2F5E2F5F5F5F5F5F5F5F5F5F5F5F5F5F5F5F5F5F5F5F5F5F5F5F5F5F5F5F5F5F5F5F5F5F5F5F5F5F5F5F5F5F5F5F5F5F5F5F5F5F5F5F5F5F5F5F5F5F5F5F5F5F5F5F5F5F5F5F5F5F5F5F5F5F5F5F5F5F5F5F5F5F5F5F5F5F5F5F5F5F5F5F5F5F5F5F5F5F5F5F5F5F5F5F5F5F5F5F5F5F5F5F5F5F5F5F5F5F5F5
310
F5F5F5F5F5F5F5F5F5F5F5F5F5F5F5F5F5F5F5F5F5F5F5F5F5F5F5F5F5F5F5F5F5F5F5F5F5F5F5F5F5F5F5F5F5F5F5F5F5F5F5F5F5F5F5E2F5E2E2F5E2F5F5F5F5F5F5F5F5F5F5F5F5F5F5F5F5F5F5F5F5F5F5F5F5F5F5F5F5F5F5F5F5F5F5F5F5F5F5F5F5F5F5F5F5F5F5F5F5F5F5F5F5F5F5F5F5F5F5F5F5F5F5F5F5F5F5
310
F5F5F5F5F5F5F5F5F5F5F5F5F5F5F5F5F5F5F5F5F5F5F5F5F5F5F5F5F5F5F5F5F5F5F5F5F5F5F5F5F5F5F5F5F5F5F5F5F5F5F5F5F5F5F5F5F5F5F5F5F5F5F5F5F5F5F5F5F5F5F5F5F5F5F5F5F5F5F5F5F5F5F5F5F5F5F5F5F5F5F5F5F5F5F5F5F5F5F5F5F5F5F5F5F5F5F5F5E2F5E2E2F5E2F5F5F5F5F5F5F5F5F5F5F5F5F5
310
F5F5F5F5F5F5F5F5F5F5F5F5F5F5F5F5F5F5F5F5F5F5F5F5F5F5F5F5F5F5F5F5F5F5F5F5F5F5F5F5F5F5F5F5F5F5F5F5F5F5F5F5F5F5F5F5F5F5F5F5F5F5F5F5F5F5F5F5F5F5F5F5F5F5F5F5F5F5F5F5F5F5F5F5F5F5F5F5F5F5F5F5F5F5F5F5F5F5F5F5F5F5F5F5F5F5F5F5F5F5F5F5F5F5F5F5F5F5F5F5F5F5F5F5F5F5F5
310
F5F5F5F5F5F5F5F5F5F5F5F5F5F5F5F5F5F5F5F5F5F5F5F5F5F5F5F5F5F5F5F5F5F5E2F5E2E2F5E2F5F5F5F5F5F5F5F5F5F5F5F5F5F5F5F5F5F5F5F5F5F5F5F5F5F5F5F5F5F5F5F5F5F5F5F5F5F5F5F5F5F5F5F5F5F5F5F5F5F5F5F5F5F5F5F5F5F5F5F5F5F5F5F5F5F5F5F5F5F5F5F5F5F5F5F5F5F5F5F5F5F5F5F5F5F5F5
310
F5F5F5F5F5F5F5F5F5F5F5F5F5F5F5F5F5F5F5F5F5F5F5F5F5F5F5F5F5F5F5F5F5F5F5F5F5F5F5F5F5F5F5F5F5F5F5F5F5F5F5F5F5F5F5F5F5F5F5F5F5F5F5F5F5F5F5F5F5F5F5F5F5F5F5F5F5F5F5F5F5F5F5F5F5F5F5E2F5E2E2F5E2F5F5F5F5F5F5F5F5F5F5F5F5F5F5F5F5F5F5F5F5F5F5F5F5F5F5F5F5F5F5F5F5F5F5
310
F5F5F5F5F5F5F5F5F5F5F5F5F5F5F5F5F5F5F5F5F5F5F5F5F5F5F5F5F5F5F5F5F5F5F5F5F5F5F5F5F5F5F5F5F5F5F5F5F5F5F5F5F5F5F5F5F5F5F5F5F5F5F5F5F5F5F5F5F5F5F5F5F5F5F5F5F5F5F5F5F5F5F5F5F5F5F5F5F5F5F5F5F5F5F5F5F5F5F5F5F5F5F5F5F5F5F5F5F5F5F5F5F5F5F5F5F5F5F5F5F5F5F5F5F5F5F5
310
F5F5F5F5F5F5F5F5F5F5F5F5F5E2F5E2E2F5E2E2E2E2E2E2E2E2E2F5F5F5F5F5F5F5F5F5E2E2E2E2E2E2E2E2E2E2E2E2E2E2E2E2F5F5F5F5F5F5F5F5F5E2E2E2E2E2E2E2E2E2E2E2E2E2E2E2E2F5F5F5F5F5F5F5F5F5E2E2E2E2E2E2E2E2E2E2E2E2E2E2E2E2F5F5F5F5F5F5F5F5F5E2E2E2E2E2E2E2E2E2E2E2E2E2E2E2E2
310
F5F5F5F5F5F5F5F5F5E2E2E2E2E2E2E2E2E2E2E2E2E2E2E2E2F5F5F5F5F5F5F5F5F5E2E2E2E2E2E2E2E2E2E2E2E2E2E2E2E2F5F5F5F5F5F5F5F5F5E2E2E2E2E2E2E2E2F5E2E2F5F5F5F5F5F5F5F5F5F5F5F5F5F5F5F5F5F5F5F5F5F5F5F5F5F5F5F5F5F5F5F5F5F5F5F5F5F5F5F5F5F5F5F5F5F5F5F5F5F5F5F5F5F5F5F5F5
310
F5F5F5F5F5F5F5F5F5F5F5F5F5F5F5F5F5F5F5F5F5F5F5F5F5F5F5F5F5F5F5F5F5F5F5F5F5F5F5F5F5F5F5F5F5F5F5F5F5F5F5F5F5F5F5F5F5F5F5F5F5F5F5F5F5F5F5F5F5F5F5F5F5F5F5F5F5F5F5F5F5F5F5F5F5F5F5F5F5F5F5F5F5F5F5F5F5F5F5F5F5F5F5F5F5F5F5F5F5F5F5F5F5F5F5F5F5F5F5F5F5E2E2E2E2E2E2
310
E2E2E2E2E2E2E2E2E2E2E2E2E2E2E2E2E2E2E2E2E2E2E2E2E2E2E2E2E2E2E2E2E2E2E2E2E2E2E2E2E2E2E2E2E2E2E2E2E2E2E2E2E2E2E2E2E2E2E2E2E2E2E2E2E2E2E2E2E2E2E2E2E2E2E2E2E2E2E2E2E2E2E2E2E2E2E2E2E2E2E2E2E2E2E2E2E2E2E2E2E2E2E2E2E2E2E2E2E2E2E2E2E2E2E2E2E2E2E2E2E2E2E2E2E2E2E2
310
E2E2E2E2E2E2E2E2E2E2E2E2E2E2E2E2E2E2E2E2E2E2E2E2E2E2E2E2E2E2E2E2E2E2E2E2E2E2E2E2E2E2E2E2E2E2E2E2
  0
XRECORD
  5
2936
102
{ACAD_REACTORS
330
2935
102
}
330
2935
100
AcDbXrecord
280
     1
102
SHADEPLOT
 70
     0
102
SHADEPLOTRESLEVEL
 70
     2
102
SHADEPLOTCUSTOMDPI
 70
   300
  0
XRECORD
  5
292F
102
{ACAD_REACTORS
330
292E
102
}
330
292E
100
AcDbXrecord
280
     1
102
SHADEPLOT
 70
     0
102
SHADEPLOTRESLEVEL
 70
     2
102
SHADEPLOTCUSTOMDPI
 70
   300
  0
XRECORD
  5
C8
102
{ACAD_REACTORS
330
C7
102
}
330
C7
100
AcDbXrecord
280
     1
102
MATERIAL
148
0.0
149
0.0
149
0.0
 93
        0
 94
       63
282
     0
 72
     1
 77
     1
171
     1
175
     1
179
     1
273
     0
  0
XRECORD
  5
C6
102
{ACAD_REACTORS
330
C5
102
}
330
C5
100
AcDbXrecord
280
     1
102
MATERIAL
148
0.0
149
0.0
149
0.0
 93
        0
 94
       63
282
     0
 72
     1
 77
     1
171
     1
175
     1
179
     1
273
     0
  0
XRECORD
  5
B2
102
{ACAD_REACTORS
330
B1
102
}
330
B1
100
AcDbXrecord
280
     1
102
MATERIAL
148
0.0
149
0.0
149
0.0
 93
        0
 94
       63
282
     0
 72
     1
 77
     1
171
     1
175
     1
179
     1
273
     0
  0
XRECORD
  5
156
102
{ACAD_REACTORS
330
155
102
}
330
155
100
AcDbXrecord
280
     1
102
ACAD_ROUNDTRIP_PRE2007_TABLESTYLE
 90
        4
 91
        0
  1

 92
        4
 93
        0
  2

 94
        4
 95
        0
  3

  0
ENDSEC
  0
EOF
