  0
SECTION
  2
HEADER
  9
$ACADVER
  1
AC1018
  9
$ACADMAINTVER
 70
    76
  9
$DWGCODEPAGE
  3
ANSI_1252
  9
$LASTSAVEDBY
  1
simone
  9
$INSBASE
 10
0.0
 20
0.0
 30
0.0
  9
$EXTMIN
 10
0.0149999999999999
 20
0.015
 30
0.0
  9
$EXTMAX
 10
0.9162706452905617
 20
0.5017958046665333
 30
0.0
  9
$LIMMIN
 10
0.0
 20
0.0
  9
$LIMMAX
 10
1.0
 20
0.5
  9
$ORTHOMODE
 70
     0
  9
$REGENMODE
 70
     1
  9
$FILLMODE
 70
     1
  9
$QTEXTMODE
 70
     0
  9
$MIRRTEXT
 70
     0
  9
$LTSCALE
 40
1.0
  9
$ATTMODE
 70
     1
  9
$TEXTSIZE
 40
0.005
  9
$TRACEWID
 40
1.0
  9
$TEXTSTYLE
  7
style1
  9
$CLAYER
  8
Dimensione
  9
$CELTYPE
  6
ByLayer
  9
$CECOLOR
 62
     2
  9
$CELTSCALE
 40
1.0
  9
$DISPSILH
 70
     0
  9
$DIMSCALE
 40
0.001
  9
$DIMASZ
 40
1.5
  9
$DIMEXO
 40
0.0625
  9
$DIMDLI
 40
0.38
  9
$DIMRND
 40
0.0
  9
$DIMDLE
 40
0.0
  9
$DIMEXE
 40
0.18
  9
$DIMTP
 40
0.0
  9
$DIMTM
 40
0.0
  9
$DIMTXT
 40
3.0
  9
$DIMCEN
 40
0.0
  9
$DIMTSZ
 40
0.0
  9
$DIMTOL
 70
     0
  9
$DIMLIM
 70
     0
  9
$DIMTIH
 70
     1
  9
$DIMTOH
 70
     1
  9
$DIMSE1
 70
     0
  9
$DIMSE2
 70
     0
  9
$DIMTAD
 70
     0
  9
$DIMZIN
 70
     0
  9
$DIMBLK
  1
ArchTick
  9
$DIMASO
 70
     1
  9
$DIMSHO
 70
     1
  9
$DIMPOST
  1

  9
$DIMAPOST
  1

  9
$DIMALT
 70
     0
  9
$DIMALTD
 70
     2
  9
$DIMALTF
 40
25.4
  9
$DIMLFAC
 40
1.0
  9
$DIMTOFL
 70
     0
  9
$DIMTVP
 40
0.0
  9
$DIMTIX
 70
     0
  9
$DIMSOXD
 70
     0
  9
$DIMSAH
 70
     0
  9
$DIMBLK1
  1

  9
$DIMBLK2
  1

  9
$DIMSTYLE
  2
Bovelacci
  9
$DIMCLRD
 70
     5
  9
$DIMCLRE
 70
     5
  9
$DIMCLRT
 70
     4
  9
$DIMTFAC
 40
1.0
  9
$DIMGAP
 40
2.0
  9
$DIMJUST
 70
     0
  9
$DIMSD1
 70
     0
  9
$DIMSD2
 70
     0
  9
$DIMTOLJ
 70
     1
  9
$DIMTZIN
 70
     0
  9
$DIMALTZ
 70
     0
  9
$DIMALTTZ
 70
     0
  9
$DIMUPT
 70
     0
  9
$DIMDEC
 70
     2
  9
$DIMTDEC
 70
     2
  9
$DIMALTU
 70
     2
  9
$DIMALTTD
 70
     2
  9
$DIMTXSTY
  7
ROMANS
  9
$DIMAUNIT
 70
     0
  9
$DIMADEC
 70
     0
  9
$DIMALTRND
 40
0.0
  9
$DIMAZIN
 70
     0
  9
$DIMDSEP
 70
    46
  9
$DIMATFIT
 70
     3
  9
$DIMFRAC
 70
     0
  9
$DIMLDRBLK
  1

  9
$DIMLUNIT
 70
     2
  9
$DIMLWD
 70
    -2
  9
$DIMLWE
 70
    -2
  9
$DIMTMOVE
 70
     2
  9
$LUNITS
 70
     2
  9
$LUPREC
 70
     2
  9
$SKETCHINC
 40
1.0
  9
$FILLETRAD
 40
0.0
  9
$AUNITS
 70
     0
  9
$AUPREC
 70
     0
  9
$MENU
  1
.
  9
$ELEVATION
 40
0.0
  9
$PELEVATION
 40
0.0
  9
$THICKNESS
 40
0.0
  9
$LIMCHECK
 70
     0
  9
$CHAMFERA
 40
0.0
  9
$CHAMFERB
 40
0.0
  9
$CHAMFERC
 40
0.0
  9
$CHAMFERD
 40
0.0
  9
$SKPOLY
 70
     0
  9
$TDCREATE
 40
2454297.625402373
  9
$TDUCREATE
 40
2454297.542069039
  9
$TDUPDATE
 40
2454371.516580764
  9
$TDUUPDATE
 40
2454371.433247431
  9
$TDINDWG
 40
0.1242556481
  9
$TDUSRTIMER
 40
0.1242550926
  9
$USRTIMER
 70
     1
  9
$ANGBASE
 50
0.0
  9
$ANGDIR
 70
     0
  9
$PDMODE
 70
     0
  9
$PDSIZE
 40
0.0
  9
$PLINEWID
 40
0.0
  9
$SPLFRAME
 70
     0
  9
$SPLINETYPE
 70
     6
  9
$SPLINESEGS
 70
     8
  9
$HANDSEED
  5
11BE
  9
$SURFTAB1
 70
     6
  9
$SURFTAB2
 70
     6
  9
$SURFTYPE
 70
     6
  9
$SURFU
 70
     6
  9
$SURFV
 70
     6
  9
$UCSBASE
  2

  9
$UCSNAME
  2

  9
$UCSORG
 10
0.0
 20
0.0
 30
0.0
  9
$UCSXDIR
 10
1.0
 20
0.0
 30
0.0
  9
$UCSYDIR
 10
0.0
 20
1.0
 30
0.0
  9
$UCSORTHOREF
  2

  9
$UCSORTHOVIEW
 70
     0
  9
$UCSORGTOP
 10
0.0
 20
0.0
 30
0.0
  9
$UCSORGBOTTOM
 10
0.0
 20
0.0
 30
0.0
  9
$UCSORGLEFT
 10
0.0
 20
0.0
 30
0.0
  9
$UCSORGRIGHT
 10
0.0
 20
0.0
 30
0.0
  9
$UCSORGFRONT
 10
0.0
 20
0.0
 30
0.0
  9
$UCSORGBACK
 10
0.0
 20
0.0
 30
0.0
  9
$PUCSBASE
  2

  9
$PUCSNAME
  2

  9
$PUCSORG
 10
0.0
 20
0.0
 30
0.0
  9
$PUCSXDIR
 10
1.0
 20
0.0
 30
0.0
  9
$PUCSYDIR
 10
0.0
 20
1.0
 30
0.0
  9
$PUCSORTHOREF
  2

  9
$PUCSORTHOVIEW
 70
     0
  9
$PUCSORGTOP
 10
0.0
 20
0.0
 30
0.0
  9
$PUCSORGBOTTOM
 10
0.0
 20
0.0
 30
0.0
  9
$PUCSORGLEFT
 10
0.0
 20
0.0
 30
0.0
  9
$PUCSORGRIGHT
 10
0.0
 20
0.0
 30
0.0
  9
$PUCSORGFRONT
 10
0.0
 20
0.0
 30
0.0
  9
$PUCSORGBACK
 10
0.0
 20
0.0
 30
0.0
  9
$USERI1
 70
     0
  9
$USERI2
 70
     0
  9
$USERI3
 70
     0
  9
$USERI4
 70
     0
  9
$USERI5
 70
     0
  9
$USERR1
 40
0.0
  9
$USERR2
 40
0.0
  9
$USERR3
 40
0.0
  9
$USERR4
 40
0.0
  9
$USERR5
 40
0.0
  9
$WORLDVIEW
 70
     1
  9
$SHADEDGE
 70
     3
  9
$SHADEDIF
 70
    70
  9
$TILEMODE
 70
     1
  9
$MAXACTVP
 70
    64
  9
$PINSBASE
 10
0.0
 20
0.0
 30
0.0
  9
$PLIMCHECK
 70
     0
  9
$PEXTMIN
 10
29.06606628894805
 20
20.36233246326446
 30
0.0
  9
$PEXTMAX
 10
261.5945966005325
 20
183.2609921693802
 30
0.0
  9
$PLIMMIN
 10
-3.17498779296875
 20
-3.174999952316281
  9
$PLIMMAX
 10
293.8356628417969
 20
206.7983276844024
  9
$UNITMODE
 70
     0
  9
$VISRETAIN
 70
     1
  9
$PLINEGEN
 70
     0
  9
$PSLTSCALE
 70
     1
  9
$TREEDEPTH
 70
  3020
  9
$CMLSTYLE
  2
Standard
  9
$CMLJUST
 70
     0
  9
$CMLSCALE
 40
20.0
  9
$PROXYGRAPHICS
 70
     1
  9
$MEASUREMENT
 70
     1
  9
$CELWEIGHT
370
    -1
  9
$ENDCAPS
280
     0
  9
$JOINSTYLE
280
     0
  9
$LWDISPLAY
290
     0
  9
$INSUNITS
 70
     4
  9
$HYPERLINKBASE
  1

  9
$STYLESHEET
  1

  9
$XEDIT
290
     1
  9
$CEPSNTYPE
380
     0
  9
$PSTYLEMODE
290
     1
  9
$FINGERPRINTGUID
  2
{4F38C4E7-9F37-4C76-96D9-79C94F9B03D9}
  9
$VERSIONGUID
  2
{13687085-D364-4D73-9E9D-973C50990841}
  9
$EXTNAMES
290
     1
  9
$PSVPSCALE
 40
0.0
  9
$OLESTARTUP
290
     0
  9
$SORTENTS
280
   127
  9
$INDEXCTL
280
     0
  9
$HIDETEXT
280
     1
  9
$XCLIPFRAME
290
     0
  9
$HALOGAP
280
     0
  9
$OBSCOLOR
 70
   257
  9
$OBSLTYPE
280
     0
  9
$INTERSECTIONDISPLAY
280
     0
  9
$INTERSECTIONCOLOR
 70
   257
  9
$DIMASSOC
280
     2
  9
$PROJECTNAME
  1

  0
ENDSEC
  0
SECTION
  2
CLASSES
  0
CLASS
  1
ACDBDICTIONARYWDFLT
  2
AcDbDictionaryWithDefault
  3
ObjectDBX Classes
 90
        0
 91
        1
280
     0
281
     0
  0
CLASS
  1
TABLESTYLE
  2
AcDbTableStyle
  3
ObjectDBX Classes
 90
     2047
 91
        1
280
     0
281
     0
  0
CLASS
  1
SORTENTSTABLE
  2
AcDbSortentsTable
  3
ObjectDBX Classes
 90
        0
 91
        1
280
     0
281
     0
  0
CLASS
  1
DICTIONARYVAR
  2
AcDbDictionaryVar
  3
ObjectDBX Classes
 90
        0
 91
        6
280
     0
281
     0
  0
CLASS
  1
DIMASSOC
  2
AcDbDimAssoc
  3
"AcDbDimAssoc|Product Desc:     AcDim ARX App For Dimension|Company:          Autodesk, Inc.|WEB Address:      www.autodesk.com"
 90
        0
 91
        2
280
     0
281
     0
  0
CLASS
  1
ACDBPLACEHOLDER
  2
AcDbPlaceHolder
  3
ObjectDBX Classes
 90
        0
 91
        1
280
     0
281
     0
  0
CLASS
  1
LAYOUT
  2
AcDbLayout
  3
ObjectDBX Classes
 90
        0
 91
        3
280
     0
281
     0
  0
CLASS
  1
MATERIAL
  2
AcDbMaterial
  3
ObjectDBX Classes
 90
        0
 91
        3
280
     0
281
     0
  0
CLASS
  1
VISUALSTYLE
  2
AcDbVisualStyle
  3
ObjectDBX Classes
 90
     4095
 91
       16
280
     0
281
     0
  0
ENDSEC
  0
SECTION
  2
TABLES
  0
TABLE
  2
VPORT
  5
96
330
0
100
AcDbSymbolTable
 70
     7
  0
VPORT
  5
11BD
330
96
100
AcDbSymbolTableRecord
100
AcDbViewportTableRecord
  2
*Active
 70
     0
 10
0.0
 20
0.0
 11
1.0
 21
1.0
 12
0.217677323834317
 22
0.1816787299126543
 13
0.0
 23
0.0
 14
10.0
 24
10.0
 15
10.0
 25
10.0
 16
0.0
 26
0.0
 36
1.0
 17
0.0
 27
0.0
 37
0.0
 40
0.3261407471174587
 41
1.280471821756225
 42
50.0
 43
0.0
 44
0.0
 50
0.0
 51
0.0
 71
     0
 72
  1000
 73
     1
 74
     3
 75
     0
 76
     0
 77
     0
 78
     0
281
     0
 65
     1
110
0.0
120
0.0
130
0.0
111
1.0
121
0.0
131
0.0
112
0.0
122
1.0
132
0.0
 79
     0
146
0.0
  0
ENDTAB
  0
TABLE
  2
LTYPE
  5
91
330
0
100
AcDbSymbolTable
 70
     4
  0
LTYPE
  5
92
330
91
100
AcDbSymbolTableRecord
100
AcDbLinetypeTableRecord
  2
ByBlock
 70
     0
  3

 72
    65
 73
     0
 40
0.0
  0
LTYPE
  5
93
330
91
100
AcDbSymbolTableRecord
100
AcDbLinetypeTableRecord
  2
ByLayer
 70
     0
  3

 72
    65
 73
     0
 40
0.0
  0
LTYPE
  5
C
330
91
100
AcDbSymbolTableRecord
100
AcDbLinetypeTableRecord
  2
Continuous
 70
     0
  3
Solid line
 72
    65
 73
     0
 40
0.0
  0
LTYPE
  5
105
330
91
100
AcDbSymbolTableRecord
100
AcDbLinetypeTableRecord
  2
ACAD_ISO10W100
 70
     0
  3
ISO dash dot __ . __ . __ . __ . __ . __ . __ .
 72
    65
 73
     4
 40
18.0
 49
12.0
 74
     0
 49
-3.0
 74
     0
 49
0.0
 74
     0
 49
-3.0
 74
     0
  0
LTYPE
  5
190
330
91
100
AcDbSymbolTableRecord
100
AcDbLinetypeTableRecord
  2
RAYITAX4
 70
     0
  3
RAYITAX4
 72
    65
 73
     2
 40
18.0
 49
12.0
 74
     0
 49
-6.0
 74
     0
  0
ENDTAB
  0
TABLE
  2
LAYER
  5
8A
102
{ACAD_XDICTIONARY
360
8B
102
}
330
0
100
AcDbSymbolTable
 70
    11
  0
LAYER
  5
6
330
8A
100
AcDbSymbolTableRecord
100
AcDbLayerTableRecord
  2
0
 70
     0
 62
     7
  6
Continuous
370
    -3
390
7
  0
LAYER
  5
3F
330
8A
100
AcDbSymbolTableRecord
100
AcDbLayerTableRecord
  2
Defpoints
 70
     0
 62
     7
  6
Continuous
290
     0
370
    -3
390
7
  0
LAYER
  5
2E
330
8A
100
AcDbSymbolTableRecord
100
AcDbLayerTableRecord
  2
Dimensione
 70
     0
 62
   150
  6
Continuous
370
    -3
390
7
1001
AcAecLayerStandard
1000

1000

  0
LAYER
  5
2A
330
8A
100
AcDbSymbolTableRecord
100
AcDbLayerTableRecord
  2
Profilo
 70
     0
 62
     1
  6
Continuous
370
    -3
390
7
1001
AcAecLayerStandard
1000

1000

  0
LAYER
  5
54
330
8A
100
AcDbSymbolTableRecord
100
AcDbLayerTableRecord
  2
Sezione
 70
     0
 62
     2
  6
Continuous
370
    -3
390
7
1001
AcAecLayerStandard
1000

1000

  0
LAYER
  5
E
330
8A
100
AcDbSymbolTableRecord
100
AcDbLayerTableRecord
  2
Table
 70
     0
 62
     3
  6
Continuous
370
    -3
390
7
1001
AcAecLayerStandard
1000

1000

  0
LAYER
  5
19
330
8A
100
AcDbSymbolTableRecord
100
AcDbLayerTableRecord
  2
Text
 70
     0
 62
     4
  6
Continuous
370
    -3
390
7
1001
AcAecLayerStandard
1000

1000

  0
LAYER
  5
5C
330
8A
100
AcDbSymbolTableRecord
100
AcDbLayerTableRecord
  2
Vista
 70
     0
 62
     2
  6
Continuous
370
    -3
390
7
1001
AcAecLayerStandard
1000

1000

  0
LAYER
  5
256
330
8A
100
AcDbSymbolTableRecord
100
AcDbLayerTableRecord
  2
CORTE
 70
     0
 62
     1
  6
Continuous
370
    -3
390
7
  0
LAYER
  5
40E
330
8A
100
AcDbSymbolTableRecord
100
AcDbLayerTableRecord
  2
COTAS
 70
     0
 62
     4
  6
Continuous
370
    -3
390
7
  0
LAYER
  5
49D
330
8A
100
AcDbSymbolTableRecord
100
AcDbLayerTableRecord
  2
Eurostyl
 70
     0
 62
   233
420
 14702479
  6
Continuous
370
    -3
390
7
  0
ENDTAB
  0
TABLE
  2
STYLE
  5
8F
330
0
100
AcDbSymbolTable
 70
     4
  0
STYLE
  5
1A
330
8F
100
AcDbSymbolTableRecord
100
AcDbTextStyleTableRecord
  2
Standard
 70
     0
 40
0.0
 41
1.0
 50
0.0
 71
     0
 42
2.5
  3
txt
  4

  0
STYLE
  5
20
330
8F
100
AcDbSymbolTableRecord
100
AcDbTextStyleTableRecord
  2
ROMANS
 70
     0
 40
0.0
 41
1.0
 50
0.0
 71
     0
 42
2.5
  3
romans
  4

  0
STYLE
  5
28
330
8F
100
AcDbSymbolTableRecord
100
AcDbTextStyleTableRecord
  2
Arial
 70
     0
 40
0.0
 41
1.0
 50
0.0
 71
     0
 42
0.25
  3
ARIAL.TTF
  4

1001
ACAD
1000
Arial
1071
       34
  0
STYLE
  5
26
330
8F
100
AcDbSymbolTableRecord
100
AcDbTextStyleTableRecord
  2
style1
 70
     0
 40
0.0
 41
1.0
 50
0.0
 71
     0
 42
0.005
  3
TIMES.TTF
  4

1001
ACAD
1000
Times New Roman
1071
       18
  0
ENDTAB
  0
TABLE
  2
VIEW
  5
94
330
0
100
AcDbSymbolTable
 70
     0
  0
ENDTAB
  0
TABLE
  2
UCS
  5
95
330
0
100
AcDbSymbolTable
 70
     0
  0
ENDTAB
  0
TABLE
  2
APPID
  5
98
330
0
100
AcDbSymbolTable
 70
     9
  0
APPID
  5
1B
330
98
100
AcDbSymbolTableRecord
100
AcDbRegAppTableRecord
  2
ACAD
 70
     0
  0
APPID
  5
34
330
98
100
AcDbSymbolTableRecord
100
AcDbRegAppTableRecord
  2
ACAD_DSTYLE_DIMJOGGED_JOGANGLE_SYMBOL
 70
     0
  0
APPID
  5
F
330
98
100
AcDbSymbolTableRecord
100
AcDbRegAppTableRecord
  2
AcAecLayerStandard
 70
     0
  0
APPID
  5
85
330
98
100
AcDbSymbolTableRecord
100
AcDbRegAppTableRecord
  2
ACAD_PSEXT
 70
     0
  0
APPID
  5
BA
330
98
100
AcDbSymbolTableRecord
100
AcDbRegAppTableRecord
  2
ACAD_DSTYLE_DIMEXT_LENGTH
 70
     0
  0
APPID
  5
101
330
98
100
AcDbSymbolTableRecord
100
AcDbRegAppTableRecord
  2
ACAD_EXEMPT_FROM_CAD_STANDARDS
 70
     0
  0
APPID
  5
102
330
98
100
AcDbSymbolTableRecord
100
AcDbRegAppTableRecord
  2
ACAD_DSTYLE_DIM_LINETYPE
 70
     0
  0
APPID
  5
103
330
98
100
AcDbSymbolTableRecord
100
AcDbRegAppTableRecord
  2
ACAD_DSTYLE_DIM_EXT1_LINETYPE
 70
     0
  0
APPID
  5
104
330
98
100
AcDbSymbolTableRecord
100
AcDbRegAppTableRecord
  2
ACAD_DSTYLE_DIM_EXT2_LINETYPE
 70
     0
  0
ENDTAB
  0
TABLE
  2
DIMSTYLE
  5
99
330
0
100
AcDbSymbolTable
 70
     4
100
AcDbDimStyleTable
 71
     2
340
2F
340
9A
  0
DIMSTYLE
105
9A
330
99
100
AcDbSymbolTableRecord
100
AcDbDimStyleTableRecord
  2
ISO-25
 70
     0
 41
2.5
 42
0.625
 43
3.75
 44
1.25
 73
     0
 74
     0
 77
     1
 78
     8
140
2.5
141
2.5
143
0.03937007874016
147
0.625
171
     3
172
     1
271
     2
272
     2
274
     3
278
    44
283
     0
284
     8
340
1A
  0
DIMSTYLE
105
2F
102
{ACAD_REACTORS
330
455
330
46F
102
}
330
99
100
AcDbSymbolTableRecord
100
AcDbDimStyleTableRecord
  2
Bovelacci
 70
     0
 40
0.001
 41
1.5
140
3.0
141
0.0
147
2.0
176
     5
177
     5
178
     4
271
     2
272
     2
279
     2
340
20
342
30
1001
ACAD_DSTYLE_DIMJOGGED_JOGANGLE_SYMBOL
1070
   384
1040
0.7853981633974483
1001
ACAD_DSTYLE_DIMEXT_LENGTH
1070
   378
1040
0.18
  0
DIMSTYLE
105
194
330
99
100
AcDbSymbolTableRecord
100
AcDbDimStyleTableRecord
  2
STANDARD
 70
     0
340
1A
  0
ENDTAB
  0
TABLE
  2
BLOCK_RECORD
  5
1
330
0
100
AcDbSymbolTable
 70
    24
  0
BLOCK_RECORD
  5
2
102
{ACAD_XDICTIONARY
360
3
102
}
330
1
100
AcDbSymbolTableRecord
100
AcDbBlockTableRecord
  2
*Model_Space
340
77
  0
BLOCK_RECORD
  5
79
330
1
100
AcDbSymbolTableRecord
100
AcDbBlockTableRecord
  2
*Paper_Space
340
82
  0
BLOCK_RECORD
  5
86
330
1
100
AcDbSymbolTableRecord
100
AcDbBlockTableRecord
  2
*Paper_Space0
340
89
  0
BLOCK_RECORD
  5
30
330
1
100
AcDbSymbolTableRecord
100
AcDbBlockTableRecord
  2
_ArchTick
340
0
310
2800000020000000200000000100080000000000000400000000000000000000000000000000000000000000000080000080000000808000800000008000800080800000C0C0C000C0DCC000F0CAA6000020400000206000002080000020A0000020C0000020E00000400000004020000040400000406000004080000040A0
310
000040C0000040E00000600000006020000060400000606000006080000060A0000060C0000060E00000800000008020000080400000806000008080000080A0000080C0000080E00000A0000000A0200000A0400000A0600000A0800000A0A00000A0C00000A0E00000C0000000C0200000C0400000C0600000C0800000C0
310
A00000C0C00000C0E00000E0000000E0200000E0400000E0600000E0800000E0A00000E0C00000E0E00040000000400020004000400040006000400080004000A0004000C0004000E00040200000402020004020400040206000402080004020A0004020C0004020E000404000004040200040404000404060004040800040
310
40A0004040C0004040E00040600000406020004060400040606000406080004060A0004060C0004060E00040800000408020004080400040806000408080004080A0004080C0004080E00040A0000040A0200040A0400040A0600040A0800040A0A00040A0C00040A0E00040C0000040C0200040C0400040C0600040C08000
310
40C0A00040C0C00040C0E00040E0000040E0200040E0400040E0600040E0800040E0A00040E0C00040E0E00080000000800020008000400080006000800080008000A0008000C0008000E00080200000802020008020400080206000802080008020A0008020C0008020E00080400000804020008040400080406000804080
310
008040A0008040C0008040E00080600000806020008060400080606000806080008060A0008060C0008060E00080800000808020008080400080806000808080008080A0008080C0008080E00080A0000080A0200080A0400080A0600080A0800080A0A00080A0C00080A0E00080C0000080C0200080C0400080C0600080C0
310
800080C0A00080C0C00080C0E00080E0000080E0200080E0400080E0600080E0800080E0A00080E0C00080E0E000C0000000C0002000C0004000C0006000C0008000C000A000C000C000C000E000C0200000C0202000C0204000C0206000C0208000C020A000C020C000C020E000C0400000C0402000C0404000C0406000C0
310
408000C040A000C040C000C040E000C0600000C0602000C0604000C0606000C0608000C060A000C060C000C060E000C0800000C0802000C0804000C0806000C0808000C080A000C080C000C080E000C0A00000C0A02000C0A04000C0A06000C0A08000C0A0A000C0A0C000C0A0E000C0C00000C0C02000C0C04000C0C06000
310
C0C08000C0C0A000F0FBFF00A4A0A000808080000000FF0000FF000000FFFF00FF000000FF00FF00FFFF0000FFFFFF00000000FF000000000000000000000000000000000000000000000000000000000000FF00FF00000000000000000000000000000000000000000000000000000000FF000000FF000000000000000000
310
0000000000000000000000000000000000FF0000000000FF0000000000000000000000000000000000000000000000000000FF0000000000FF0000000000000000000000000000000000000000000000000000FF0000000000FF0000000000000000000000000000000000000000000000000000FF0000000000FF00000000
310
00000000000000000000000000000000000000000000FF0000000000FF0000000000000000000000000000000000000000000000000000FF0000000000FF0000000000000000000000000000000000000000000000000000FF0000000000FF0000000000000000000000000000000000000000000000000000FF0000000000
310
FF0000000000000000000000000000000000000000000000000000FF0000000000FF0000000000000000000000000000000000000000000000000000FF0000000000FF0000000000000000000000000000000000000000000000000000FF0000000000FF0000000000000000000000000000000000000000000000000000FF
310
0000000000FF0000000000000000000000000000000000000000000000000000FF0000000000FF0000000000000000000000000000000000000000000000000000FF0000000000FF0000000000000000000000000000000000000000000000000000FF0000000000FF00000000000000000000000000000000000000000000
310
00000000FF0000000000FF0000000000000000000000000000000000000000000000000000FF0000000000FF0000000000000000000000000000000000000000000000000000FF0000000000FF0000000000000000000000000000000000000000000000000000FF0000000000FF0000000000000000000000000000000000
310
000000000000000000FF0000000000FF0000000000000000000000000000000000000000000000000000FF0000000000FF0000000000000000000000000000000000000000000000000000FF0000000000FF0000000000000000000000000000000000000000000000000000FF0000000000FF000000000000000000000000
310
0000000000000000000000000000FF0000000000FF0000000000000000000000000000000000000000000000000000FF0000000000FF0000000000000000000000000000000000000000000000000000FF0000000000FF0000000000000000000000000000000000000000000000000000FF000000FF000000000000000000
310
00000000000000000000000000000000000000FF00FF000000000000000000000000000000000000000000000000000000000000FF000000
102
{BLKREFS
331
3B
331
3C
331
4C
331
4D
331
133
331
134
331
13D
331
13E
331
1DE
331
1DF
331
1F8
331
1F9
331
2DD
331
2DE
331
2F7
331
2F8
331
3D9
331
3DA
331
3E3
331
3E4
331
CBE
331
CBF
331
CC8
331
CC9
102
}
  0
BLOCK_RECORD
  5
179
330
1
100
AcDbSymbolTableRecord
100
AcDbBlockTableRecord
  2
DOT
340
0
  0
BLOCK_RECORD
  5
213
330
1
100
AcDbSymbolTableRecord
100
AcDbBlockTableRecord
  2
ELEMENT
340
0
102
{BLKREFS
331
244
102
}
  0
BLOCK_RECORD
  5
235
330
1
100
AcDbSymbolTableRecord
100
AcDbBlockTableRecord
  2
NOM-J
340
0
  0
BLOCK_RECORD
  5
3FB
330
1
100
AcDbSymbolTableRecord
100
AcDbBlockTableRecord
  2
NOM-QR
340
0
  0
BLOCK_RECORD
  5
456
330
1
100
AcDbSymbolTableRecord
100
AcDbBlockTableRecord
  2
*D18
340
0
  0
BLOCK_RECORD
  5
470
330
1
100
AcDbSymbolTableRecord
100
AcDbBlockTableRecord
  2
*D19
340
0
  0
ENDTAB
  0
ENDSEC
  0
SECTION
  2
BLOCKS
  0
BLOCK
  5
5
330
2
100
AcDbEntity
  8
0
100
AcDbBlockBegin
  2
*Model_Space
 70
     0
 10
0.0
 20
0.0
 30
0.0
  3
*Model_Space
  1

  0
ENDBLK
  5
76
330
2
100
AcDbEntity
  8
0
100
AcDbBlockEnd
  0
BLOCK
  5
7A
330
79
100
AcDbEntity
 67
     1
  8
0
100
AcDbBlockBegin
  2
*Paper_Space
 70
     0
 10
0.0
 20
0.0
 30
0.0
  3
*Paper_Space
  1

  0
ENDBLK
  5
81
330
79
100
AcDbEntity
 67
     1
  8
0
100
AcDbBlockEnd
  0
BLOCK
  5
87
330
86
100
AcDbEntity
 67
     1
  8
0
100
AcDbBlockBegin
  2
*Paper_Space0
 70
     0
 10
0.0
 20
0.0
 30
0.0
  3
*Paper_Space0
  1

  0
ENDBLK
  5
88
330
86
100
AcDbEntity
 67
     1
  8
0
100
AcDbBlockEnd
  0
BLOCK
  5
31
330
30
100
AcDbEntity
  8
0
 62
     1
100
AcDbBlockBegin
  2
_ArchTick
 70
     0
 10
0.0
 20
0.0
 30
0.0
  3
_ArchTick
  1

  0
LWPOLYLINE
  5
32
330
30
100
AcDbEntity
  8
0
  6
ByBlock
 62
     0
100
AcDbPolyline
 90
        2
 70
     0
 43
0.15
 10
-0.5
 20
-0.5
 10
0.5
 20
0.5
  0
ENDBLK
  5
33
330
30
100
AcDbEntity
  8
0
 62
     1
100
AcDbBlockEnd
  0
BLOCK
  5
17A
330
179
100
AcDbEntity
  8
0
100
AcDbBlockBegin
  2
DOT
 70
     0
 10
0.0
 20
0.0
 30
0.0
  3
DOT
  1

  0
LWPOLYLINE
  5
17B
330
179
100
AcDbEntity
  8
0
  6
ByBlock
 62
     0
100
AcDbPolyline
 90
        2
 70
     1
 43
0.5
 10
-0.25
 20
0.0
 42
1.0
 10
0.25
 20
0.0
 42
1.0
  0
LINE
  5
17C
330
179
100
AcDbEntity
  8
0
  6
ByBlock
 62
     0
100
AcDbLine
 10
-0.5
 20
0.0
 30
0.0
 11
-1.0
 21
0.0
 31
0.0
  0
ENDBLK
  5
17D
330
179
100
AcDbEntity
  8
0
100
AcDbBlockEnd
  0
BLOCK
  5
214
330
213
100
AcDbEntity
  8
0
100
AcDbBlockBegin
  2
ELEMENT
 70
     0
 10
0.0
 20
0.0
 30
0.0
  3
ELEMENT
  1

  0
LINE
  5
215
330
213
100
AcDbEntity
  8
CORTE
 62
     1
100
AcDbLine
 10
0.0287752548522349
 20
0.037775254852221
 30
0.0
 11
0.0062928932188697
 21
0.015292893218799
 31
0.0
  0
ARC
  5
216
330
213
100
AcDbEntity
  8
CORTE
 62
     1
100
AcDbCircle
 10
0.0148333333333994
 20
0.0291666666666402
 30
0.0
 40
0.0191847740553366
100
AcDbArc
 50
270.4730994291238
 51
359.5269005707907
  0
LINE
  5
217
330
213
100
AcDbEntity
  8
CORTE
100
AcDbLine
 10
0.0130000000000337
 20
-0.0000000000000568
 30
0.0
 11
0.0099999999999909
 21
0.0000000000000284
 31
0.0
  0
LINE
  5
218
330
213
100
AcDbEntity
  8
CORTE
100
AcDbLine
 10
-0.0009999999999764
 20
0.0010000000000048
 30
0.0
 11
-0.0009999999999764
 21
0.0140000000000384
 31
0.0
  0
ARC
  5
219
330
213
100
AcDbEntity
  8
CORTE
100
AcDbCircle
 10
0.0
 20
0.0010000000000048
 30
0.0
 40
0.001
100
AcDbArc
 50
180.0
 51
269.9999999991858
  0
LINE
  5
21A
330
213
100
AcDbEntity
  8
CORTE
100
AcDbLine
 10
0.0040000000000191
 20
-0.0039999999999623
 30
0.0
 11
0.0040000000000191
 21
-0.0010000000000332
 31
0.0
  0
LINE
  5
21B
330
213
100
AcDbEntity
  8
CORTE
100
AcDbLine
 10
0.0090000000000146
 20
-0.0039999999999907
 30
0.0
 11
0.0090000000000146
 21
-0.0009999999999764
 31
0.0
  0
ARC
  5
21C
330
213
100
AcDbEntity
  8
CORTE
100
AcDbCircle
 10
0.0049999999999955
 20
-0.0039999999999623
 30
0.0
 40
0.001
100
AcDbArc
 50
180.0
 51
269.9999999996743
  0
LINE
  5
21D
330
213
100
AcDbEntity
  8
CORTE
100
AcDbLine
 10
0.0080000000000382
 20
-0.0049999999999955
 30
0.0
 11
0.0049999999999955
 21
-0.004999999999967
 31
0.0
  0
ARC
  5
21E
330
213
100
AcDbEntity
  8
CORTE
100
AcDbCircle
 10
0.0080000000000382
 20
-0.0039999999999907
 30
0.0
 40
0.001
100
AcDbArc
 50
269.9999999995929
 51
0.000000000000007
  0
LINE
  5
21F
330
213
100
AcDbEntity
  8
CORTE
100
AcDbLine
 10
0.0030000000000427
 20
-0.0000000000000284
 30
0.0
 11
0.0
 21
0.0
 31
0.0
  0
ARC
  5
220
330
213
100
AcDbEntity
  8
CORTE
100
AcDbCircle
 10
0.0030000000000427
 20
-0.0010000000000332
 30
0.0
 40
0.001
100
AcDbArc
 50
0.000000000000007
 51
89.99999999967434
  0
ARC
  5
221
330
213
100
AcDbEntity
  8
CORTE
100
AcDbCircle
 10
0.0099999999999909
 20
-0.0009999999999764
 30
0.0
 40
0.001
100
AcDbArc
 50
89.99999999967434
 51
180.0
  0
ARC
  5
222
330
213
100
AcDbEntity
  8
CORTE
100
AcDbCircle
 10
0.0
 20
0.0140000000000384
 30
0.0
 40
0.001
100
AcDbArc
 50
89.99999999975274
 51
180.0
  0
LINE
  5
223
330
213
100
AcDbEntity
  8
CORTE
100
AcDbLine
 10
0.0055857864376776
 20
0.0149999999999864
 30
0.0
 11
0.0
 21
0.0150000000000432
 31
0.0
  0
ARC
  5
224
330
213
100
AcDbEntity
  8
CORTE
 62
     1
100
AcDbCircle
 10
0.0055857864376776
 20
0.0159999999999911
 30
0.0
 40
0.001
100
AcDbArc
 50
269.9999999997674
 51
315.0000000000357
  0
LINE
  5
225
330
213
100
AcDbEntity
  8
CORTE
100
AcDbLine
 10
0.01400000000001
 20
0.0009999999999479
 30
0.0
 11
0.01400000000001
 21
0.0089825806863075
 31
0.0
  0
ARC
  5
226
330
213
100
AcDbEntity
  8
CORTE
100
AcDbCircle
 10
0.0130000000000337
 20
0.0009999999999479
 30
0.0
 40
0.001
100
AcDbArc
 50
269.9999999991858
 51
0.000000000000007
  0
ARC
  5
227
330
213
100
AcDbEntity
  8
CORTE
 62
     1
100
AcDbCircle
 10
0.0149999999999864
 20
0.0089825806862791
 30
0.0
 40
0.001
100
AcDbArc
 50
90.47309942941524
 51
179.9999999983715
  0
LINE
  5
228
330
213
100
AcDbEntity
  8
CORTE
100
AcDbLine
 10
0.0440000000000964
 20
0.0339999999999918
 30
0.0
 11
0.0440000000000396
 21
0.0310000000000059
 31
0.0
  0
ARC
  5
229
330
213
100
AcDbEntity
  8
CORTE
100
AcDbCircle
 10
0.0430000000000632
 20
0.0310000000000059
 30
0.0
 40
0.001
100
AcDbArc
 50
270.0
 51
0.000000000000007
  0
ARC
  5
22A
330
213
100
AcDbEntity
  8
CORTE
 62
     1
100
AcDbCircle
 10
0.0350174193137605
 20
0.0290000000000248
 30
0.0
 40
0.001
100
AcDbArc
 50
90.00000000325689
 51
179.5269005705982
  0
LINE
  5
22B
330
213
100
AcDbEntity
  8
CORTE
100
AcDbLine
 10
0.0430000000000632
 20
0.0300000000000011
 30
0.0
 11
0.0350174193137036
 21
0.0300000000000296
 31
0.0
  0
LINE
  5
22C
330
213
100
AcDbEntity
  8
CORTE
100
AcDbLine
 10
0.047999999999945
 20
0.0400000000000205
 30
0.0
 11
0.0300000000000296
 21
0.0400000000000205
 31
0.0
  0
ARC
  5
22D
330
213
100
AcDbEntity
  8
CORTE
 62
     1
100
AcDbCircle
 10
0.0300000000000296
 20
0.0390000000000157
 30
0.0
 40
0.001
100
AcDbArc
 50
90.0
 51
195.0000055997392
  0
ARC
  5
22E
330
213
100
AcDbEntity
  8
CORTE
 62
     1
100
AcDbCircle
 10
0.0280681480710428
 20
0.0384823616334131
 30
0.0
 40
0.001
100
AcDbArc
 50
315.0
 51
15.00000559812761
  0
LINE
  5
22F
330
213
100
AcDbEntity
  8
CORTE
100
AcDbLine
 10
0.0489999999998645
 20
0.0360000000000582
 30
0.0
 11
0.0489999999999213
 21
0.0389999999999873
 31
0.0
  0
LINE
  5
230
330
213
100
AcDbEntity
  8
CORTE
100
AcDbLine
 10
0.0480000000000018
 20
0.0350000000000534
 30
0.0
 11
0.0450000000000728
 21
0.0349999999999966
 31
0.0
  0
ARC
  5
231
330
213
100
AcDbEntity
  8
CORTE
100
AcDbCircle
 10
0.0480000000000018
 20
0.0360000000000582
 30
0.0
 40
0.001
100
AcDbArc
 50
270.0000000004071
 51
0.000000000000007
  0
ARC
  5
232
330
213
100
AcDbEntity
  8
CORTE
100
AcDbCircle
 10
0.0450000000000728
 20
0.0339999999999918
 30
0.0
 40
0.001
100
AcDbArc
 50
90.0
 51
180.0
  0
ARC
  5
233
330
213
100
AcDbEntity
  8
CORTE
100
AcDbCircle
 10
0.047999999999945
 20
0.0390000000000157
 30
0.0
 40
0.001
100
AcDbArc
 50
359.9999999991858
 51
90.0
  0
ENDBLK
  5
234
330
213
100
AcDbEntity
  8
0
100
AcDbBlockEnd
  0
BLOCK
  5
236
330
235
100
AcDbEntity
  8
0
 62
     4
100
AcDbBlockBegin
  2
NOM-J
 70
     0
 10
0.0
 20
0.0
 30
0.0
  3
NOM-J
  1

  0
LINE
  5
237
330
235
100
AcDbEntity
  8
Vista
 62
     4
100
AcDbLine
 10
0.0211489998446837
 20
0.0224999999999795
 30
0.0
 11
0.093805067538824
 21
0.0379594292031982
 31
0.0
  0
LINE
  5
238
330
235
100
AcDbEntity
  8
Vista
 62
     4
100
AcDbLine
 10
0.0197074998707194
 20
0.0224999999999795
 30
0.0
 11
0.0923635675646324
 21
0.0379594292032266
 31
0.0
  0
LINE
  5
239
330
235
100
AcDbEntity
  8
Vista
 62
     4
100
AcDbLine
 10
0.0182659998964141
 20
0.0224999999999795
 30
0.0
 11
0.0909220675904408
 21
0.0379594292031982
 31
0.0
  0
LINE
  5
23A
330
235
100
AcDbEntity
  8
Vista
 62
     4
100
AcDbLine
 10
0.0168244999223362
 20
0.0224999999999795
 30
0.0
 11
0.0894805676163628
 21
0.0379594292032266
 31
0.0
  0
LINE
  5
23B
330
235
100
AcDbEntity
  8
Vista
 62
     4
100
AcDbLine
 10
0.0153829999481445
 20
0.0224999999999795
 30
0.0
 11
0.0880390676422849
 21
0.0379594292032266
 31
0.0
  0
LINE
  5
23C
330
235
100
AcDbEntity
  8
Vista
 62
     4
100
AcDbLine
 10
0.0139414999740666
 20
0.0224999999999795
 30
0.0
 11
0.0865975676682069
 21
0.0379594292032266
 31
0.0
  0
LINE
  5
23D
330
235
100
AcDbEntity
  8
Vista
 62
     2
100
AcDbLine
 10
0.0125000000000455
 20
0.022500000000008
 30
0.0
 11
0.0851560676940153
 21
0.0379594292032266
 31
0.0
  0
LINE
  5
23E
330
235
100
AcDbEntity
  8
Vista
 62
     2
100
AcDbLine
 10
0.0218535533905424
 20
0.0223535533905874
 30
0.0
 11
0.0945096210847396
 21
0.0378129825938061
 31
0.0
  0
LINE
  5
23F
330
235
100
AcDbEntity
  8
Vista
 62
     2
100
AcDbLine
 10
0.02150000000006
 20
0.0200000000000387
 30
0.0
 11
0.094359627334427
 21
0.0355027417029987
 31
0.0
  0
LINE
  5
240
330
235
100
AcDbEntity
  8
Vista
 62
     2
100
AcDbLine
 10
0.0190000000000055
 20
0.0175000000000125
 30
0.0
 11
0.0918596273343724
 21
0.0330027417029726
 31
0.0
  0
LINE
  5
241
330
235
100
AcDbEntity
  8
Vista
 62
     2
100
AcDbLine
 10
0.0075428343679391
 20
0.0078574386832884
 30
0.0
 11
0.0801989020703786
 21
0.0233168678888376
 31
0.0
  0
LINE
  5
242
330
235
100
AcDbEntity
  8
Vista
 62
     2
100
AcDbLine
 10
0.0040000000000191
 20
0.0024999999999693
 30
0.0
 11
0.0746560676942068
 21
0.0175338782567849
 31
0.0
  0
LINE
  5
243
330
235
100
AcDbEntity
  8
Vista
 62
     3
100
AcDbLine
 10
0.0018535533906174
 20
0.0001464466094205
 30
0.0
 11
0.074509621085781
 21
0.0156058758136055
 31
0.0
  0
INSERT
  5
244
330
235
100
AcDbEntity
  8
CORTE
 62
     4
100
AcDbBlockReference
  2
ELEMENT
 10
-0.0024999999999977
 20
0.0024999999999977
 30
0.0
 41
0.5
 42
0.5
 43
0.5
  0
LINE
  5
245
330
235
100
AcDbEntity
  8
Vista
 62
     2
100
AcDbLine
 10
-0.0024999999999977
 20
0.0100000000000193
 30
0.0
 11
0.0013108568762163
 21
0.0108108568761622
 31
0.0
  0
ARC
  5
246
330
235
100
AcDbEntity
  8
CORTE
 62
     3
100
AcDbCircle
 10
0.0775727343608992
 20
0.0325427625365364
 30
0.0
 40
0.0095923870276683
100
AcDbArc
 50
278.1349003175446
 51
356.7599311023579
  0
LINE
  5
247
330
235
100
AcDbEntity
  8
CORTE
 62
     3
100
AcDbLine
 10
0.0771560676942045
 20
0.0184594292032045
 30
0.0
 11
0.0771560676942045
 21
0.0224507195463559
 31
0.0
  0
ARC
  5
248
330
235
100
AcDbEntity
  8
CORTE
 62
     3
100
AcDbCircle
 10
0.0751560676941949
 20
0.0174594292032282
 30
0.0
 40
0.0005
100
AcDbArc
 50
89.99999999967434
 51
180.0
  0
LINE
  5
249
330
235
100
AcDbEntity
  8
Vista
 62
     3
100
AcDbLine
 10
0.074509621085781
 20
0.0156058758135771
 30
0.0
 11
0.0746560676941499
 21
0.0156370360599851
 31
0.0
  0
ARC
  5
24A
330
235
100
AcDbEntity
  8
CORTE
100
AcDbCircle
 10
0.0741560676942186
 20
0.0159594292032068
 30
0.0
 40
0.0005
100
AcDbArc
 50
315.0000001496929
 51
0.000000000000007
  0
LINE
  5
24B
330
235
100
AcDbEntity
  8
CORTE
 62
     3
100
AcDbLine
 10
0.0746560676942068
 20
0.0159594292032068
 30
0.0
 11
0.0746560676942068
 21
0.0174594292032282
 31
0.0
  0
ARC
  5
24C
330
235
100
AcDbEntity
  8
CORTE
 62
     3
100
AcDbCircle
 10
0.0766560676942163
 20
0.0184594292032045
 30
0.0
 40
0.0005
100
AcDbArc
 50
269.9999999991858
 51
0.000000000000007
  0
LINE
  5
24D
330
235
100
AcDbEntity
  8
CORTE
 62
     3
100
AcDbLine
 10
0.0766560676942163
 20
0.017959429203188
 30
0.0
 11
0.0751560676941949
 21
0.0179594292032164
 31
0.0
  0
ARC
  5
24E
330
235
100
AcDbEntity
  8
CORTE
 62
     3
100
AcDbCircle
 10
0.0776560676941927
 20
0.0224507195463559
 30
0.0
 40
0.0005
100
AcDbArc
 50
152.521182623883
 51
179.9999999983715
  0
LINE
  5
24F
330
235
100
AcDbEntity
  8
CORTE
 62
     3
100
AcDbLine
 10
0.0946560676941317
 20
0.0359594292032455
 30
0.0
 11
0.0946560676941317
 21
0.03745942920321
 31
0.0
  0
ARC
  5
250
330
235
100
AcDbEntity
  8
CORTE
 62
     3
100
AcDbCircle
 10
0.0916560676942027
 20
0.0334594292032193
 30
0.0
 40
0.0005
100
AcDbArc
 50
270.0
 51
0.000000000000007
  0
ARC
  5
251
330
235
100
AcDbEntity
  8
CORTE
 62
     3
100
AcDbCircle
 10
0.0941560676942004
 20
0.0359594292032455
 30
0.0
 40
0.0005
100
AcDbArc
 50
294.0240004981589
 51
0.000000000000007
  0
LINE
  5
252
330
235
100
AcDbEntity
  8
CORTE
 62
     3
100
AcDbLine
 10
0.0921560676942477
 20
0.0349594292032123
 30
0.0
 11
0.0921560676941908
 21
0.0334594292032193
 31
0.0
  0
LINE
  5
253
330
235
100
AcDbEntity
  8
CORTE
 62
     3
100
AcDbLine
 10
0.0941560676941436
 20
0.0379594292032266
 30
0.0
 11
0.0851560676942427
 21
0.0379594292032266
 31
0.0
  0
ARC
  5
254
330
235
100
AcDbEntity
  8
CORTE
 62
     3
100
AcDbCircle
 10
0.0941560676941436
 20
0.03745942920321
 30
0.0
 40
0.0005
100
AcDbArc
 50
359.9999999991858
 51
90.0
  0
ENDBLK
  5
255
330
235
100
AcDbEntity
  8
0
 62
     4
100
AcDbBlockEnd
  0
BLOCK
  5
3FC
330
3FB
100
AcDbEntity
  8
0
 62
     1
100
AcDbBlockBegin
  2
NOM-QR
 70
     0
 10
0.0
 20
0.0
 30
0.0
  3
NOM-QR
  1

  0
LINE
  5
3FD
330
3FB
100
AcDbEntity
  8
CORTE
 62
     4
100
AcDbLine
 10
0.0184292030348843
 20
0.0200000000000102
 30
0.0
 11
0.0860297709413658
 21
0.0343689442811126
 31
0.0
  0
LINE
  5
3FE
330
3FB
100
AcDbEntity
  8
CORTE
 62
     4
100
AcDbLine
 10
0.0155433624279908
 20
0.0200000000000102
 30
0.0
 11
0.0831439303344155
 21
0.0343689442811126
 31
0.0
  0
LINE
  5
3FF
330
3FB
100
AcDbEntity
  8
CORTE
 62
     4
100
AcDbLine
 10
0.0126575218209837
 20
0.0200000000000102
 30
0.0
 11
0.0802580897274084
 21
0.034368944281141
 31
0.0
  0
LINE
  5
400
330
3FB
100
AcDbEntity
  8
CORTE
 62
     4
100
AcDbLine
 10
0.0097716812139765
 20
0.0200000000000102
 30
0.0
 11
0.077372249120458
 21
0.0343689442811126
 31
0.0
  0
LINE
  5
401
330
3FB
100
AcDbEntity
  8
CORTE
 62
     4
100
AcDbLine
 10
0.0068858406069694
 20
0.0200000000000102
 30
0.0
 11
0.0744864085134509
 21
0.0343689442811126
 31
0.0
  0
LINE
  5
402
330
3FB
100
AcDbEntity
  8
CORTE
 62
     3
100
AcDbLine
 10
0.0081347328614925
 20
0.0017290908471352
 30
0.0
 11
0.0757353007679171
 21
0.0160980351282376
 31
0.0
  0
LINE
  5
403
330
3FB
100
AcDbEntity
  8
CORTE
 62
     3
100
AcDbLine
 10
0.0040000000000191
 20
0.0200000000000102
 30
0.0
 11
0.0716005679065006
 21
0.034368944281141
 31
0.0
  0
LINE
  5
404
330
3FB
100
AcDbEntity
  8
CORTE
 62
     3
100
AcDbLine
 10
0.0200000000000387
 20
0.0200000000000102
 30
0.0
 11
0.0876005679064633
 21
0.0343689442811126
 31
0.0
  0
ARC
  5
405
330
3FB
100
AcDbEntity
  8
CORTE
 62
     1
100
AcDbCircle
 10
0.0
 20
0.0200000000000102
 30
0.0
 40
0.0200000000000102
100
AcDbArc
 50
270.0
 51
0.0
  0
LINE
  5
406
330
3FB
100
AcDbEntity
  8
CORTE
 62
     1
100
AcDbLine
 10
0.0
 20
0.0160000000000196
 30
0.0
 11
0.0
 21
0.0
 31
0.0
  0
LINE
  5
407
330
3FB
100
AcDbEntity
  8
COTAS
 62
     1
100
AcDbLine
 10
0.0200000000000387
 20
0.0200000000000102
 30
0.0
 11
0.0040000000000191
 21
0.0200000000000102
 31
0.0
  0
ARC
  5
408
330
3FB
100
AcDbEntity
  8
CORTE
 62
     1
100
AcDbCircle
 10
0.0
 20
0.0200000000000102
 30
0.0
 40
0.004
100
AcDbArc
 50
270.0
 51
0.0
  0
ARC
  5
409
330
3FB
100
AcDbEntity
  8
CORTE
 62
     1
100
AcDbCircle
 10
0.0676005679064247
 20
0.0343689442811126
 30
0.0
 40
0.0200000000000102
100
AcDbArc
 50
270.0
 51
0.0
  0
LINE
  5
40A
330
3FB
100
AcDbEntity
  8
COTAS
 62
     1
100
AcDbLine
 10
0.0876005679064633
 20
0.0343689442811126
 30
0.0
 11
0.0716005679064438
 21
0.0343689442811126
 31
0.0
  0
ENDBLK
  5
40B
330
3FB
100
AcDbEntity
  8
0
 62
     1
100
AcDbBlockEnd
  0
BLOCK
  5
461
330
456
100
AcDbEntity
  8
0
 62
     6
100
AcDbBlockBegin
  2
*D18
 70
     1
 10
0.0
 20
0.0
 30
0.0
  3
*D18
  1

  0
LINE
  5
CC4
330
456
100
AcDbEntity
  8
Dimensione
 62
     5
370
    -2
100
AcDbLine
 10
0.0885358085789869
 20
0.1345556776319763
 30
0.0
 11
0.1737633258012481
 21
0.1345556776319763
 31
0.0
  0
LINE
  5
CC5
330
456
100
AcDbEntity
  8
Dimensione
 62
     5
370
    -2
100
AcDbLine
 10
0.1450190385883369
 20
0.1948768224513628
 30
0.0
 11
0.1737633258012481
 21
0.1948768224513628
 31
0.0
  0
LINE
  5
CC6
330
456
100
AcDbEntity
  8
Dimensione
 62
     5
370
    -2
100
AcDbLine
 10
0.1735833258012481
 20
0.1345556776319763
 30
0.0
 11
0.1735833258012481
 21
0.1612162500416696
 31
0.0
  0
LINE
  5
CC7
330
456
100
AcDbEntity
  8
Dimensione
 62
     5
370
    -2
100
AcDbLine
 10
0.1735833258012481
 20
0.1948768224513628
 30
0.0
 11
0.1735833258012481
 21
0.1682162500416696
 31
0.0
  0
INSERT
  5
CC8
330
456
100
AcDbEntity
  8
Dimensione
 62
     5
370
    -2
100
AcDbBlockReference
  2
_ArchTick
 10
0.1735833258012481
 20
0.1345556776319763
 30
0.0
 41
0.0015
 42
0.0015
 43
0.0015
 50
270.0
  0
INSERT
  5
CC9
330
456
100
AcDbEntity
  8
Dimensione
 62
     5
370
    -2
100
AcDbBlockReference
  2
_ArchTick
 10
0.1735833258012481
 20
0.1948768224513628
 30
0.0
 41
0.0015
 42
0.0015
 43
0.0015
 50
90.0
  0
MTEXT
  5
CCA
330
456
100
AcDbEntity
  8
Dimensione
 62
     4
100
AcDbMText
 10
0.1735833258012481
 20
0.1647162500416696
 30
0.0
 40
0.003
 41
0.0
 71
     5
 72
     1
  1
\A1;35 mm
  7
ROMANS
 73
     1
 44
1.0
  0
POINT
  5
CCB
330
456
100
AcDbEntity
  8
Defpoints
 62
     0
100
AcDbPoint
 10
0.088473308578987
 20
0.1345556776319763
 30
0.0
  0
POINT
  5
CCC
330
456
100
AcDbEntity
  8
Defpoints
 62
     0
100
AcDbPoint
 10
0.1449565385883369
 20
0.1948768224513628
 30
0.0
  0
POINT
  5
CCD
330
456
100
AcDbEntity
  8
Defpoints
 62
     0
100
AcDbPoint
 10
0.1735833258012481
 20
0.1948768224513628
 30
0.0
  0
ENDBLK
  5
462
330
456
100
AcDbEntity
  8
0
 62
     6
100
AcDbBlockEnd
  0
BLOCK
  5
47B
330
470
100
AcDbEntity
  8
0
 62
     6
100
AcDbBlockBegin
  2
*D19
 70
     1
 10
0.0
 20
0.0
 30
0.0
  3
*D19
  1

  0
LINE
  5
CBA
330
470
100
AcDbEntity
  8
Dimensione
 62
     5
370
    -2
100
AcDbLine
 10
0.075505759999662
 20
0.1351767341888048
 30
0.0
 11
0.075505759999662
 21
0.1233228602196284
 31
0.0
  0
LINE
  5
CBB
330
470
100
AcDbEntity
  8
Dimensione
 62
     5
370
    -2
100
AcDbLine
 10
0.1447766398494757
 20
0.185099599818001
 30
0.0
 11
0.1447766398494757
 21
0.1233228602196284
 31
0.0
  0
LINE
  5
CBC
330
470
100
AcDbEntity
  8
Dimensione
 62
     5
370
    -2
100
AcDbLine
 10
0.075505759999662
 20
0.1235028602196284
 30
0.0
 11
0.0999983427817117
 21
0.1235028602196284
 31
0.0
  0
LINE
  5
CBD
330
470
100
AcDbEntity
  8
Dimensione
 62
     5
370
    -2
100
AcDbLine
 10
0.1447766398494757
 20
0.1235028602196284
 30
0.0
 11
0.120284057067426
 21
0.1235028602196284
 31
0.0
  0
INSERT
  5
CBE
330
470
100
AcDbEntity
  8
Dimensione
 62
     5
370
    -2
100
AcDbBlockReference
  2
_ArchTick
 10
0.075505759999662
 20
0.1235028602196284
 30
0.0
 41
0.0015
 42
0.0015
 43
0.0015
 50
180.0
  0
INSERT
  5
CBF
330
470
100
AcDbEntity
  8
Dimensione
 62
     5
370
    -2
100
AcDbBlockReference
  2
_ArchTick
 10
0.1447766398494757
 20
0.1235028602196284
 30
0.0
 41
0.0015
 42
0.0015
 43
0.0015
  0
MTEXT
  5
CC0
330
470
100
AcDbEntity
  8
Dimensione
 62
     4
100
AcDbMText
 10
0.1101411999245688
 20
0.1235028602196284
 30
0.0
 40
0.003
 41
0.0
 71
     5
 72
     1
  1
\A1;30 mm
  7
ROMANS
 73
     1
 44
1.0
  0
POINT
  5
CC1
330
470
100
AcDbEntity
  8
Defpoints
 62
     0
100
AcDbPoint
 10
0.075505759999662
 20
0.1352392341888048
 30
0.0
  0
POINT
  5
CC2
330
470
100
AcDbEntity
  8
Defpoints
 62
     0
100
AcDbPoint
 10
0.1447766398494757
 20
0.185162099818001
 30
0.0
  0
POINT
  5
CC3
330
470
100
AcDbEntity
  8
Defpoints
 62
     0
100
AcDbPoint
 10
0.1447766398494757
 20
0.1235028602196284
 30
0.0
  0
ENDBLK
  5
47C
330
470
100
AcDbEntity
  8
0
 62
     6
100
AcDbBlockEnd
  0
ENDSEC
  0
SECTION
  2
ENTITIES
  0
LINE
  5
D
330
2
100
AcDbEntity
  8
Table
100
AcDbLine
 10
0.02
 20
0.02
 30
0.0
 11
0.4
 21
0.02
 31
0.0
  0
LINE
  5
10
330
2
100
AcDbEntity
  8
Table
100
AcDbLine
 10
0.4
 20
0.02
 30
0.0
 11
0.4
 21
0.2769999999999999
 31
0.0
  0
LINE
  5
11
330
2
100
AcDbEntity
  8
Table
100
AcDbLine
 10
0.4
 20
0.2769999999999999
 30
0.0
 11
0.02
 21
0.277
 31
0.0
  0
LINE
  5
12
330
2
100
AcDbEntity
  8
Table
100
AcDbLine
 10
0.02
 20
0.277
 30
0.0
 11
0.02
 21
0.02
 31
0.0
  0
LINE
  5
13
330
2
100
AcDbEntity
  8
Table
 62
     2
100
AcDbLine
 10
0.015
 20
0.015
 30
0.0
 11
0.4050000000000001
 21
0.015
 31
0.0
  0
LINE
  5
14
330
2
100
AcDbEntity
  8
Table
 62
     2
100
AcDbLine
 10
0.4050000000000001
 20
0.015
 30
0.0
 11
0.4050000000000001
 21
0.2819999999999998
 31
0.0
  0
LINE
  5
15
330
2
100
AcDbEntity
  8
Table
 62
     2
100
AcDbLine
 10
0.4050000000000001
 20
0.2819999999999998
 30
0.0
 11
0.0149999999999999
 21
0.282
 31
0.0
  0
LINE
  5
16
330
2
100
AcDbEntity
  8
Table
 62
     2
100
AcDbLine
 10
0.0149999999999999
 20
0.282
 30
0.0
 11
0.015
 21
0.015
 31
0.0
  0
LINE
  5
17
330
2
100
AcDbEntity
  8
Table
100
AcDbLine
 10
0.21
 20
0.2769999999999999
 30
0.0
 11
0.21
 21
0.2532994226089223
 31
0.0
  0
LINE
  5
1D
330
2
100
AcDbEntity
  8
Table
100
AcDbLine
 10
0.02
 20
0.0528099428524846
 30
0.0
 11
0.4
 21
0.0528099428524846
 31
0.0
  0
MTEXT
  5
1E
330
2
100
AcDbEntity
  8
Text
100
AcDbMText
 10
0.1133313047219695
 20
0.2610796890771976
 30
0.0
 40
0.003
 41
0.1103605678262056
 71
     2
 72
     5
  1
{\fTimes New Roman|b0|i0|c0|p18;Le cornici estruse per soffitti \fTimes New Roman|b0|i1|c0|p18;      Extruded ceilings moulding}
 73
     1
 44
1.0
1001
ACAD
1000
ACAD_MTEXT_DEFINED_HEIGHT_BEGIN
1070
    46
1040
0.0141952763113409
1000
ACAD_MTEXT_DEFINED_HEIGHT_END
  0
TEXT
  5
1F
330
2
100
AcDbEntity
  8
Text
100
AcDbText
 10
0.2180556919891047
 20
0.269976982173197
 30
0.0
 40
0.003
  1
Cornice - Moulding : H 30 x 35 mm
  7
ROMANS
100
AcDbText
  0
TEXT
  5
21
330
2
100
AcDbEntity
  8
Text
100
AcDbText
 10
0.2184542410678115
 20
0.2576348370183962
 30
0.0
 40
0.003
  1
File : I 742
  7
ROMANS
100
AcDbText
  0
LINE
  5
22
330
2
100
AcDbEntity
  8
Table
100
AcDbLine
 10
0.4
 20
0.2654452889427402
 30
0.0
 11
0.02
 21
0.2654452889427403
 31
0.0
  0
LINE
  5
23
330
2
100
AcDbEntity
  8
Table
100
AcDbLine
 10
0.4
 20
0.2532994226089223
 30
0.0
 11
0.02
 21
0.2532994226089225
 31
0.0
  0
LINE
  5
24
330
2
100
AcDbEntity
  8
Table
100
AcDbLine
 10
0.21
 20
0.0528099428524846
 30
0.0
 11
0.21
 21
0.02
 31
0.0
  0
TEXT
  5
25
330
2
100
AcDbEntity
  8
Text
100
AcDbText
 10
0.0964227676712103
 20
0.2687784133392506
 30
0.0
 40
0.005
  1
ITALSTYL
  7
style1
 72
     1
 11
0.1140561490699125
 21
0.2687784133392506
 31
0.0
100
AcDbText
  0
TEXT
  5
27
330
2
100
AcDbEntity
  8
Text
100
AcDbText
 10
0.2749390669818674
 20
0.0773304520434606
 30
0.0
 40
0.005
  1
scala 1:1
  7
Arial
100
AcDbText
  0
MTEXT
  5
10F
330
2
100
AcDbEntity
  8
Text
100
AcDbMText
 10
0.305
 20
0.0471738284815141
 30
0.0
 40
0.005
 41
0.1900000000000001
 71
     2
 72
     5
  3
\pt0.09;{\fTimes New Roman|b0|i0|c238|p18;\H1.6x;\C4;Bovelacci\P\H0.4375x;\T0.95;via del Commercio, 5  47100 Forli - Italy  \fTimes New Roman|b0|i0|c0|p18;\P\fTimes New Roman|b0|i0|c238|p18;tel.+39-0543721386  fax +39-0543721127\fTimes New Roman|b0|i
  1
0|c0|p18; \fTimes New Roman|b0|i0|c238|p18;www.bovelacci.it\fTimes New Roman|b0|i0|c0|p18; \fTimes New Roman|b0|i0|c238|p18;e-mail: bovelacci@bovelacci\fTimes New Roman|b0|i0|c0|p18;.it}
 73
     1
 44
1.0
1001
ACAD
1000
ACAD_MTEXT_DEFINED_HEIGHT_BEGIN
1070
    46
1040
0.0271738284815141
1000
ACAD_MTEXT_DEFINED_HEIGHT_END
  0
MTEXT
  5
110
330
2
100
AcDbEntity
  8
Text
100
AcDbMText
 10
0.0219676065851835
 20
0.0500313976452307
 30
0.0
 40
0.002
 41
0.1863544980601608
 71
     1
 72
     5
  3
{\fArial|b0|i0|c0|p34;\H1.25x;Le caratteristiche tecniche indicate vengono fornite a titolo indicativo e potranno essere modificate senza preavviso. Non devono quindi essere considerate a scopo di specifica.\P\fArial|b0|i1|c0|p34;The given values are
  3
 indicative and can be changed without notice. They cannot be considered like a state.\PThis lealfet and designs embodied within are protected by copyright law and international treaties. Unauthorized repro- duction of the leaflet or any portion of i
  1
t or reproduction of any of the designs embodied therein may result in severe civil penalties and will be prosecuted to the maximum.\PAll right reserved, Bovelacci Forlì Italy.}
 73
     1
 44
1.0
  0
TEXT
  5
1CA
330
2
100
AcDbEntity
  8
Text
100
AcDbText
 10
0.1085393793425715
 20
0.0840480078468504
 30
0.0
 40
0.005
  1
scala 2:1
  7
Arial
100
AcDbText
  0
LINE
  5
426
330
2
100
AcDbEntity
  8
Sezione
  6
RAYITAX4
100
AcDbLine
 10
0.0753343795841253
 20
0.1948768224513628
 30
0.0
 11
0.075505759999662
 21
0.1292497972042166
 31
0.0
  0
LINE
  5
427
330
2
100
AcDbEntity
  8
Sezione
  6
RAYITAX4
100
AcDbLine
 10
0.0753343795841253
 20
0.1948768224513628
 30
0.0
 11
0.1498113837667141
 21
0.1948768224512896
 31
0.0
  0
HATCH
  5
429
330
2
100
AcDbEntity
  8
Sezione
100
AcDbHatch
 10
0.0
 20
0.0
 30
0.0
210
0.0
220
0.0
230
1.0
  2
ANSI31
 70
     0
 71
     0
 91
        1
 92
        7
 72
     0
 73
     1
 93
        6
 10
0.0590177458641157
 20
0.2066577914082188
 10
0.059017745864002
 20
0.1395595626406134
 10
0.0753343795841253
 20
0.1395595626406134
 10
0.0753343795840684
 20
0.1948768224513344
 10
0.1331815143064197
 20
0.194876822451306
 10
0.1331815143064197
 20
0.206657791408162
 97
        0
 75
     0
 76
     1
 52
0.0
 41
0.05
 77
     0
 78
     1
 53
45.0
 43
-349.408771903001
 44
-202.475635997156
 45
-0.0044194173824159
 46
0.0044194173824159
 79
     0
 47
0.000232700825891
 98
        1
 10
0.1089602635713951
 20
0.2016907093737927
  0
LINE
  5
449
330
2
100
AcDbEntity
  8
Vista
 62
     3
100
AcDbLine
 10
0.2512937988549884
 20
0.1443120282921344
 30
0.0
 11
0.2593062590826212
 21
0.1443120282921628
 31
0.0
  0
LINE
  5
44A
330
2
100
AcDbEntity
  8
Vista
 62
     6
100
AcDbLine
 10
0.2662150548904951
 20
0.1443120282921344
 30
0.0
 11
0.2662150548904951
 21
0.1142683562669307
 31
0.0
  0
LINE
  5
44B
330
2
100
AcDbEntity
  8
Vista
 62
     6
100
AcDbLine
 10
0.3393834944342875
 20
0.1443120282921344
 30
0.0
 11
0.3393834944342307
 21
0.1142683562669591
 31
0.0
  0
LINE
  5
44C
330
2
100
AcDbEntity
  8
Vista
 62
     3
100
AcDbLine
 10
0.2662150548904383
 20
0.1443120282921344
 30
0.0
 11
0.3393834944342875
 21
0.1443120282921344
 31
0.0
  0
LINE
  5
44D
330
2
100
AcDbEntity
  8
Vista
 62
     3
100
AcDbLine
 10
0.2662150548904952
 20
0.1142683562669307
 30
0.0
 11
0.3393834944342307
 21
0.1142683562669591
 31
0.0
  0
LINE
  5
44E
330
2
100
AcDbEntity
  8
Vista
 62
     6
100
AcDbLine
 10
0.259306259082678
 20
0.1142683562669307
 30
0.0
 11
0.259306259082678
 21
0.144312028292106
 31
0.0
  0
DIMENSION
  5
455
330
2
100
AcDbEntity
  8
Dimensione
 62
     6
100
AcDbDimension
  2
*D18
 10
0.1735833258012481
 20
0.1948768224513628
 30
0.0
 11
0.1735833258012481
 21
0.1647162500416696
 31
0.0
 70
    32
  1
35 mm
 71
     5
 42
0.0603211448193865
  3
Bovelacci
100
AcDbAlignedDimension
 13
0.088473308578987
 23
0.1345556776319763
 33
0.0
 14
0.1449565385883369
 24
0.1948768224513628
 34
0.0
 50
90.0
100
AcDbRotatedDimension
  0
DIMENSION
  5
46F
330
2
100
AcDbEntity
  8
Dimensione
 62
     6
100
AcDbDimension
  2
*D19
 10
0.1447766398494757
 20
0.1235028602196284
 30
0.0
 11
0.1101411999245688
 21
0.1235028602196284
 31
0.0
 70
    32
  1
30 mm
 71
     5
 42
0.0692708798498138
  3
Bovelacci
100
AcDbAlignedDimension
 13
0.075505759999662
 23
0.1352392341888048
 33
0.0
 14
0.1447766398494757
 24
0.185162099818001
 34
0.0
100
AcDbRotatedDimension
  0
LINE
  5
8BB
330
2
100
AcDbEntity
  8
Dimensione
 62
     2
100
AcDbLine
 10
0.2309866475702734
 20
0.2040504887907852
 30
0.0
 11
0.343439153364982
 21
0.2344334671920931
 31
0.0
  0
POLYLINE
  5
BF1
330
2
100
AcDbEntity
  8
Eurostyl
 62
     1
100
AcDb2dPolyline
 66
     1
 10
0.0
 20
0.0
 30
0.0
 70
     1
  0
VERTEX
  5
BF2
330
BF1
100
AcDbEntity
  8
Eurostyl
 62
     1
100
AcDbVertex
100
AcDb2dVertex
 10
0.1449565385883369
 20
0.1948768224513628
 30
0.0
  0
VERTEX
  5
BF3
330
BF1
100
AcDbEntity
  8
Eurostyl
 62
     1
100
AcDbVertex
100
AcDb2dVertex
 10
0.1429776166980781
 20
0.1948768224513628
 30
0.0
  0
VERTEX
  5
BF4
330
BF1
100
AcDbEntity
  8
Eurostyl
 62
     1
100
AcDbVertex
100
AcDb2dVertex
 10
0.1429059361522712
 20
0.1946751352346041
 30
0.0
  0
VERTEX
  5
BF5
330
BF1
100
AcDbEntity
  8
Eurostyl
 62
     1
100
AcDbVertex
100
AcDb2dVertex
 10
0.1428850506847419
 20
0.194625207403908
 30
0.0
  0
VERTEX
  5
BF6
330
BF1
100
AcDbEntity
  8
Eurostyl
 62
     1
100
AcDbVertex
100
AcDb2dVertex
 10
0.142862198263935
 20
0.1945756103789904
 30
0.0
  0
VERTEX
  5
BF7
330
BF1
100
AcDbEntity
  8
Eurostyl
 62
     1
100
AcDbVertex
100
AcDb2dVertex
 10
0.1428369616573371
 20
0.1945264067447283
 30
0.0
  0
VERTEX
  5
BF8
330
BF1
100
AcDbEntity
  8
Eurostyl
 62
     1
100
AcDbVertex
100
AcDb2dVertex
 10
0.1428089593952216
 20
0.194477662066231
 30
0.0
  0
VERTEX
  5
BF9
330
BF1
100
AcDbEntity
  8
Eurostyl
 62
     1
100
AcDbVertex
100
AcDb2dVertex
 10
0.142777798086933
 20
0.1944294478690722
 30
0.0
  0
VERTEX
  5
BFA
330
BF1
100
AcDbEntity
  8
Eurostyl
 62
     1
100
AcDbVertex
100
AcDb2dVertex
 10
0.1427430783813514
 20
0.1943818237578966
 30
0.0
  0
VERTEX
  5
BFB
330
BF1
100
AcDbEntity
  8
Eurostyl
 62
     1
100
AcDbVertex
100
AcDb2dVertex
 10
0.142704406887821
 20
0.1943348642385103
 30
0.0
  0
VERTEX
  5
BFC
330
BF1
100
AcDbEntity
  8
Eurostyl
 62
     1
100
AcDbVertex
100
AcDb2dVertex
 10
0.1426613902156867
 20
0.1942886259353258
 30
0.0
  0
VERTEX
  5
BFD
330
BF1
100
AcDbEntity
  8
Eurostyl
 62
     1
100
AcDbVertex
100
AcDb2dVertex
 10
0.1426136230533638
 20
0.1942431773936846
 30
0.0
  0
VERTEX
  5
BFE
330
BF1
100
AcDbEntity
  8
Eurostyl
 62
     1
100
AcDbVertex
100
AcDb2dVertex
 10
0.142560717970661
 20
0.1941985841786959
 30
0.0
  0
VERTEX
  5
BFF
330
BF1
100
AcDbEntity
  8
Eurostyl
 62
     1
100
AcDbVertex
100
AcDb2dVertex
 10
0.1425022815769233
 20
0.1941549148357012
 30
0.0
  0
VERTEX
  5
C00
330
BF1
100
AcDbEntity
  8
Eurostyl
 62
     1
100
AcDbVertex
100
AcDb2dVertex
 10
0.1424379085605658
 20
0.194112237910042
 30
0.0
  0
VERTEX
  5
C01
330
BF1
100
AcDbEntity
  8
Eurostyl
 62
     1
100
AcDbVertex
100
AcDb2dVertex
 10
0.1423672174518622
 20
0.1940706100261309
 30
0.0
  0
VERTEX
  5
C02
330
BF1
100
AcDbEntity
  8
Eurostyl
 62
     1
100
AcDbVertex
100
AcDb2dVertex
 10
0.1422898148601569
 20
0.1940301027095415
 30
0.0
  0
VERTEX
  5
C03
330
BF1
100
AcDbEntity
  8
Eurostyl
 62
     1
100
AcDbVertex
100
AcDb2dVertex
 10
0.1422052835529365
 20
0.1939907815253832
 30
0.0
  0
VERTEX
  5
C04
330
BF1
100
AcDbEntity
  8
Eurostyl
 62
     1
100
AcDbVertex
100
AcDb2dVertex
 10
0.1421132480209387
 20
0.1939527150189974
 30
0.0
  0
VERTEX
  5
C05
330
BF1
100
AcDbEntity
  8
Eurostyl
 62
     1
100
AcDbVertex
100
AcDb2dVertex
 10
0.1420133029525794
 20
0.1939159627950289
 30
0.0
  0
VERTEX
  5
C06
330
BF1
100
AcDbEntity
  8
Eurostyl
 62
     1
100
AcDbVertex
100
AcDb2dVertex
 10
0.1419050549572028
 20
0.1938805933988192
 30
0.0
  0
VERTEX
  5
C07
330
BF1
100
AcDbEntity
  8
Eurostyl
 62
     1
100
AcDbVertex
100
AcDb2dVertex
 10
0.1416620825832404
 20
0.1938142713105776
 30
0.0
  0
VERTEX
  5
C08
330
BF1
100
AcDbEntity
  8
Eurostyl
 62
     1
100
AcDbVertex
100
AcDb2dVertex
 10
0.1413811599319496
 20
0.1937542762553789
 30
0.0
  0
VERTEX
  5
C09
330
BF1
100
AcDbEntity
  8
Eurostyl
 62
     1
100
AcDbVertex
100
AcDb2dVertex
 10
0.1410591339176215
 20
0.1937011297738649
 30
0.0
  0
VERTEX
  5
C0A
330
BF1
100
AcDbEntity
  8
Eurostyl
 62
     1
100
AcDbVertex
100
AcDb2dVertex
 10
0.1402790879314459
 20
0.1936175044572451
 30
0.0
  0
VERTEX
  5
C0B
330
BF1
100
AcDbEntity
  8
Eurostyl
 62
     1
100
AcDbVertex
100
AcDb2dVertex
 10
0.1385559534137762
 20
0.193528958777199
 30
0.0
  0
VERTEX
  5
C0C
330
BF1
100
AcDbEntity
  8
Eurostyl
 62
     1
100
AcDbVertex
100
AcDb2dVertex
 10
0.1368834291999854
 20
0.1935163106715776
 30
0.0
  0
VERTEX
  5
C0D
330
BF1
100
AcDbEntity
  8
Eurostyl
 62
     1
100
AcDbVertex
100
AcDb2dVertex
 10
0.1336227034633673
 20
0.1936175044572451
 30
0.0
  0
VERTEX
  5
C0E
330
BF1
100
AcDbEntity
  8
Eurostyl
 62
     1
100
AcDbVertex
100
AcDb2dVertex
 10
0.1311448310916937
 20
0.1931958641803362
 30
0.0
  0
VERTEX
  5
C0F
330
BF1
100
AcDbEntity
  8
Eurostyl
 62
     1
100
AcDbVertex
100
AcDb2dVertex
 10
0.1299401496952094
 20
0.1929534163272478
 30
0.0
  0
VERTEX
  5
C10
330
BF1
100
AcDbEntity
  8
Eurostyl
 62
     1
100
AcDbVertex
100
AcDb2dVertex
 10
0.1287765895431555
 20
0.1926730211770632
 30
0.0
  0
VERTEX
  5
C11
330
BF1
100
AcDbEntity
  8
Eurostyl
 62
     1
100
AcDbVertex
100
AcDb2dVertex
 10
0.1276678358619727
 20
0.1923420276439287
 30
0.0
  0
VERTEX
  5
C12
330
BF1
100
AcDbEntity
  8
Eurostyl
 62
     1
100
AcDbVertex
100
AcDb2dVertex
 10
0.1271382962768591
 20
0.1921536054408648
 30
0.0
  0
VERTEX
  5
C13
330
BF1
100
AcDbEntity
  8
Eurostyl
 62
     1
100
AcDbVertex
100
AcDb2dVertex
 10
0.1266275977199591
 20
0.1919477906024554
 30
0.0
  0
VERTEX
  5
C14
330
BF1
100
AcDbEntity
  8
Eurostyl
 62
     1
100
AcDbVertex
100
AcDb2dVertex
 10
0.1261374568050422
 20
0.1917230006253817
 30
0.0
  0
VERTEX
  5
C15
330
BF1
100
AcDbEntity
  8
Eurostyl
 62
     1
100
AcDbVertex
100
AcDb2dVertex
 10
0.1256695841854133
 20
0.1914776559865572
 30
0.0
  0
VERTEX
  5
C16
330
BF1
100
AcDbEntity
  8
Eurostyl
 62
     1
100
AcDbVertex
100
AcDb2dVertex
 10
0.1252256905143775
 20
0.1912101712024309
 30
0.0
  0
VERTEX
  5
C17
330
BF1
100
AcDbEntity
  8
Eurostyl
 62
     1
100
AcDbVertex
100
AcDb2dVertex
 10
0.1248074924057044
 20
0.1909189727103808
 30
0.0
  0
VERTEX
  5
C18
330
BF1
100
AcDbEntity
  8
Eurostyl
 62
     1
100
AcDbVertex
100
AcDb2dVertex
 10
0.1243985866611518
 20
0.1905968096053698
 30
0.0
  0
VERTEX
  5
C19
330
BF1
100
AcDbEntity
  8
Eurostyl
 62
     1
100
AcDbVertex
100
AcDb2dVertex
 10
0.1239817713802375
 20
0.1902390684878923
 30
0.0
  0
VERTEX
  5
C1A
330
BF1
100
AcDbEntity
  8
Eurostyl
 62
     1
100
AcDbVertex
100
AcDb2dVertex
 10
0.1231265341346778
 20
0.189426347235451
 30
0.0
  0
VERTEX
  5
C1B
330
BF1
100
AcDbEntity
  8
Eurostyl
 62
     1
100
AcDbVertex
100
AcDb2dVertex
 10
0.1222459947174109
 20
0.1884997811114886
 30
0.0
  0
VERTEX
  5
C1C
330
BF1
100
AcDbEntity
  8
Eurostyl
 62
     1
100
AcDbVertex
100
AcDb2dVertex
 10
0.1213443731372871
 20
0.1874783422744371
 30
0.0
  0
VERTEX
  5
C1D
330
BF1
100
AcDbEntity
  8
Eurostyl
 62
     1
100
AcDbVertex
100
AcDb2dVertex
 10
0.117611405760578
 20
0.1828233715093233
 30
0.0
  0
VERTEX
  5
C1E
330
BF1
100
AcDbEntity
  8
Eurostyl
 62
     1
100
AcDbVertex
100
AcDb2dVertex
 10
0.1171999429767646
 20
0.1821487393176653
 30
0.0
  0
VERTEX
  5
C1F
330
BF1
100
AcDbEntity
  8
Eurostyl
 62
     1
100
AcDbVertex
100
AcDb2dVertex
 10
0.116748437792591
 20
0.1814741041457751
 30
0.0
  0
VERTEX
  5
C20
330
BF1
100
AcDbEntity
  8
Eurostyl
 62
     1
100
AcDbVertex
100
AcDb2dVertex
 10
0.1164951418941534
 20
0.1811367895400621
 30
0.0
  0
VERTEX
  5
C21
330
BF1
100
AcDbEntity
  8
Eurostyl
 62
     1
100
AcDbVertex
100
AcDb2dVertex
 10
0.1162168120449103
 20
0.180799471954117
 30
0.0
  0
VERTEX
  5
C22
330
BF1
100
AcDbEntity
  8
Eurostyl
 62
     1
100
AcDbVertex
100
AcDb2dVertex
 10
0.1159084414547004
 20
0.1804621543681719
 30
0.0
  0
VERTEX
  5
C23
330
BF1
100
AcDbEntity
  8
Eurostyl
 62
     1
100
AcDbVertex
100
AcDb2dVertex
 10
0.1155650233333625
 20
0.180124839762459
 30
0.0
  0
VERTEX
  5
C24
330
BF1
100
AcDbEntity
  8
Eurostyl
 62
     1
100
AcDbVertex
100
AcDb2dVertex
 10
0.1151815389698065
 20
0.1797875221765139
 30
0.0
  0
VERTEX
  5
C25
330
BF1
100
AcDbEntity
  8
Eurostyl
 62
     1
100
AcDbVertex
100
AcDb2dVertex
 10
0.1147529934948005
 20
0.1794502045905688
 30
0.0
  0
VERTEX
  5
C26
330
BF1
100
AcDbEntity
  8
Eurostyl
 62
     1
100
AcDbVertex
100
AcDb2dVertex
 10
0.114274380118183
 20
0.1791128899848559
 30
0.0
  0
VERTEX
  5
C27
330
BF1
100
AcDbEntity
  8
Eurostyl
 62
     1
100
AcDbVertex
100
AcDb2dVertex
 10
0.1137406920497931
 20
0.1787755723989107
 30
0.0
  0
VERTEX
  5
C28
330
BF1
100
AcDbEntity
  8
Eurostyl
 62
     1
100
AcDbVertex
100
AcDb2dVertex
 10
0.1131469224994697
 20
0.1784382548129656
 30
0.0
  0
VERTEX
  5
C29
330
BF1
100
AcDbEntity
  8
Eurostyl
 62
     1
100
AcDbVertex
100
AcDb2dVertex
 10
0.1124880527561225
 20
0.1781009402072527
 30
0.0
  0
VERTEX
  5
C2A
330
BF1
100
AcDbEntity
  8
Eurostyl
 62
     1
100
AcDbVertex
100
AcDb2dVertex
 10
0.1117590879505195
 20
0.1777636226213076
 30
0.0
  0
VERTEX
  5
C2B
330
BF1
100
AcDbEntity
  8
Eurostyl
 62
     1
100
AcDbVertex
100
AcDb2dVertex
 10
0.1109550212924995
 20
0.1774263050353624
 30
0.0
  0
VERTEX
  5
C2C
330
BF1
100
AcDbEntity
  8
Eurostyl
 62
     1
100
AcDbVertex
100
AcDb2dVertex
 10
0.1100739096706428
 20
0.1770502950942614
 30
0.0
  0
VERTEX
  5
C2D
330
BF1
100
AcDbEntity
  8
Eurostyl
 62
     1
100
AcDbVertex
100
AcDb2dVertex
 10
0.1091261362140693
 20
0.1766023393666842
 30
0.0
  0
VERTEX
  5
C2E
330
BF1
100
AcDbEntity
  8
Eurostyl
 62
     1
100
AcDbVertex
100
AcDb2dVertex
 10
0.1070843195026435
 20
0.1755232777392961
 30
0.0
  0
VERTEX
  5
C2F
330
BF1
100
AcDbEntity
  8
Eurostyl
 62
     1
100
AcDbVertex
100
AcDb2dVertex
 10
0.1049370860164679
 20
0.1742544736659624
 30
0.0
  0
VERTEX
  5
C30
330
BF1
100
AcDbEntity
  8
Eurostyl
 62
     1
100
AcDbVertex
100
AcDb2dVertex
 10
0.1027919625347174
 20
0.1728612866199114
 30
0.0
  0
VERTEX
  5
C31
330
BF1
100
AcDbEntity
  8
Eurostyl
 62
     1
100
AcDbVertex
100
AcDb2dVertex
 10
0.1007564639156379
 20
0.1714090671336748
 30
0.0
  0
VERTEX
  5
C32
330
BF1
100
AcDbEntity
  8
Eurostyl
 62
     1
100
AcDbVertex
100
AcDb2dVertex
 10
0.0989381169384039
 20
0.1699631731903651
 30
0.0
  0
VERTEX
  5
C33
330
BF1
100
AcDbEntity
  8
Eurostyl
 62
     1
100
AcDbVertex
100
AcDb2dVertex
 10
0.0981439684932746
 20
0.1692630227601626
 30
0.0
  0
VERTEX
  5
C34
330
BF1
100
AcDbEntity
  8
Eurostyl
 62
     1
100
AcDbVertex
100
AcDb2dVertex
 10
0.0974444364612617
 20
0.1685889597928621
 30
0.0
  0
VERTEX
  5
C35
330
BF1
100
AcDbEntity
  8
Eurostyl
 62
     1
100
AcDbVertex
100
AcDb2dVertex
 10
0.0968529438083686
 20
0.1679491560852625
 30
0.0
  0
VERTEX
  5
C36
330
BF1
100
AcDbEntity
  8
Eurostyl
 62
     1
100
AcDbVertex
100
AcDb2dVertex
 10
0.0966019128864325
 20
0.1676446538364984
 30
0.0
  0
VERTEX
  5
C37
330
BF1
100
AcDbEntity
  8
Eurostyl
 62
     1
100
AcDbVertex
100
AcDb2dVertex
 10
0.0963829373424568
 20
0.1673517804539301
 30
0.0
  0
VERTEX
  5
C38
330
BF1
100
AcDbEntity
  8
Eurostyl
 62
     1
100
AcDbVertex
100
AcDb2dVertex
 10
0.0948228572910346
 20
0.1651535998976328
 30
0.0
  0
VERTEX
  5
C39
330
BF1
100
AcDbEntity
  8
Eurostyl
 62
     1
100
AcDbVertex
100
AcDb2dVertex
 10
0.0940775965755499
 20
0.1641578134095766
 30
0.0
  0
VERTEX
  5
C3A
330
BF1
100
AcDbEntity
  8
Eurostyl
 62
     1
100
AcDbVertex
100
AcDb2dVertex
 10
0.0933470939701118
 20
0.1632590051686861
 30
0.0
  0
VERTEX
  5
C3B
330
BF1
100
AcDbEntity
  8
Eurostyl
 62
     1
100
AcDbVertex
100
AcDb2dVertex
 10
0.0929854010646857
 20
0.1628525551354982
 30
0.0
  0
VERTEX
  5
C3C
330
BF1
100
AcDbEntity
  8
Eurostyl
 62
     1
100
AcDbVertex
100
AcDb2dVertex
 10
0.0926250194614448
 20
0.1624782573378183
 30
0.0
  0
VERTEX
  5
C3D
330
BF1
100
AcDbEntity
  8
Eurostyl
 62
     1
100
AcDbVertex
100
AcDb2dVertex
 10
0.0922651743000068
 20
0.1621387448108294
 30
0.0
  0
VERTEX
  5
C3E
330
BF1
100
AcDbEntity
  8
Eurostyl
 62
     1
100
AcDbVertex
100
AcDb2dVertex
 10
0.0919050668781317
 20
0.1618366535699465
 30
0.0
  0
VERTEX
  5
C3F
330
BF1
100
AcDbEntity
  8
Eurostyl
 62
     1
100
AcDbVertex
100
AcDb2dVertex
 10
0.0917246555393256
 20
0.1617004629170992
 30
0.0
  0
VERTEX
  5
C40
330
BF1
100
AcDbEntity
  8
Eurostyl
 62
     1
100
AcDbVertex
100
AcDb2dVertex
 10
0.0915438984935798
 20
0.1615746166503527
 30
0.0
  0
VERTEX
  5
C41
330
BF1
100
AcDbEntity
  8
Eurostyl
 62
     1
100
AcDbVertex
100
AcDb2dVertex
 10
0.0913626765316047
 20
0.1614594440853693
 30
0.0
  0
VERTEX
  5
C42
330
BF1
100
AcDbEntity
  8
Eurostyl
 62
     1
100
AcDbVertex
100
AcDb2dVertex
 10
0.0911808823650398
 20
0.1613552745378115
 30
0.0
  0
VERTEX
  5
C43
330
BF1
100
AcDbEntity
  8
Eurostyl
 62
     1
100
AcDbVertex
100
AcDb2dVertex
 10
0.0909984444683112
 20
0.1612624343431093
 30
0.0
  0
VERTEX
  5
C44
330
BF1
100
AcDbEntity
  8
Eurostyl
 62
     1
100
AcDbVertex
100
AcDb2dVertex
 10
0.0908152436321296
 20
0.1611812572872736
 30
0.0
  0
VERTEX
  5
C45
330
BF1
100
AcDbEntity
  8
Eurostyl
 62
     1
100
AcDbVertex
100
AcDb2dVertex
 10
0.0906311844890632
 20
0.1611120697057345
 30
0.0
  0
VERTEX
  5
C46
330
BF1
100
AcDbEntity
  8
Eurostyl
 62
     1
100
AcDbVertex
100
AcDb2dVertex
 10
0.0904461716716804
 20
0.1610552024042704
 30
0.0
  0
VERTEX
  5
C47
330
BF1
100
AcDbEntity
  8
Eurostyl
 62
     1
100
AcDbVertex
100
AcDb2dVertex
 10
0.0900465702121772
 20
0.1609378438389399
 30
0.0
  0
VERTEX
  5
C48
330
BF1
100
AcDbEntity
  8
Eurostyl
 62
     1
100
AcDbVertex
100
AcDb2dVertex
 10
0.0895937418048896
 20
0.160782536486397
 30
0.0
  0
VERTEX
  5
C49
330
BF1
100
AcDbEntity
  8
Eurostyl
 62
     1
100
AcDbVertex
100
AcDb2dVertex
 10
0.0890934800212897
 20
0.1605808507597544
 30
0.0
  0
VERTEX
  5
C4A
330
BF1
100
AcDbEntity
  8
Eurostyl
 62
     1
100
AcDbVertex
100
AcDb2dVertex
 10
0.0885515665119209
 20
0.1603243496215441
 30
0.0
  0
VERTEX
  5
C4B
330
BF1
100
AcDbEntity
  8
Eurostyl
 62
     1
100
AcDbVertex
100
AcDb2dVertex
 10
0.0879738306110419
 20
0.1600046005046465
 30
0.0
  0
VERTEX
  5
C4C
330
BF1
100
AcDbEntity
  8
Eurostyl
 62
     1
100
AcDbVertex
100
AcDb2dVertex
 10
0.0873660420482673
 20
0.1596131753122904
 30
0.0
  0
VERTEX
  5
C4D
330
BF1
100
AcDbEntity
  8
Eurostyl
 62
     1
100
AcDbVertex
100
AcDb2dVertex
 10
0.086734018236927
 20
0.1591416325366595
 30
0.0
  0
VERTEX
  5
C4E
330
BF1
100
AcDbEntity
  8
Eurostyl
 62
     1
100
AcDbVertex
100
AcDb2dVertex
 10
0.0864107226436652
 20
0.1588731836474039
 30
0.0
  0
VERTEX
  5
C4F
330
BF1
100
AcDbEntity
  8
Eurostyl
 62
     1
100
AcDbVertex
100
AcDb2dVertex
 10
0.0860835408275641
 20
0.1585815470612147
 30
0.0
  0
VERTEX
  5
C50
330
BF1
100
AcDbEntity
  8
Eurostyl
 62
     1
100
AcDbVertex
100
AcDb2dVertex
 10
0.08575319996529
 20
0.1582656633055308
 30
0.0
  0
VERTEX
  5
C51
330
BF1
100
AcDbEntity
  8
Eurostyl
 62
     1
100
AcDbVertex
100
AcDb2dVertex
 10
0.0854204153125801
 20
0.1579244818484881
 30
0.0
  0
VERTEX
  5
C52
330
BF1
100
AcDbEntity
  8
Eurostyl
 62
     1
100
AcDbVertex
100
AcDb2dVertex
 10
0.0847504352634467
 20
0.1571620058214762
 30
0.0
  0
VERTEX
  5
C53
330
BF1
100
AcDbEntity
  8
Eurostyl
 62
     1
100
AcDbVertex
100
AcDb2dVertex
 10
0.0840794061725654
 20
0.1562856849229433
 30
0.0
  0
VERTEX
  5
C54
330
BF1
100
AcDbEntity
  8
Eurostyl
 62
     1
100
AcDbVertex
100
AcDb2dVertex
 10
0.0834131216114082
 20
0.1552870865857699
 30
0.0
  0
VERTEX
  5
C55
330
BF1
100
AcDbEntity
  8
Eurostyl
 62
     1
100
AcDbVertex
100
AcDb2dVertex
 10
0.0827573751514472
 20
0.1541577782428362
 30
0.0
  0
VERTEX
  5
C56
330
BF1
100
AcDbEntity
  8
Eurostyl
 62
     1
100
AcDbVertex
100
AcDb2dVertex
 10
0.0821179603641548
 20
0.1528893273270228
 30
0.0
  0
VERTEX
  5
C57
330
BF1
100
AcDbEntity
  8
Eurostyl
 62
     1
100
AcDbVertex
100
AcDb2dVertex
 10
0.0815006946628608
 20
0.1514733012712099
 30
0.0
  0
VERTEX
  5
C58
330
BF1
100
AcDbEntity
  8
Eurostyl
 62
     1
100
AcDbVertex
100
AcDb2dVertex
 10
0.0809113477771796
 20
0.1499012645280459
 30
0.0
  0
VERTEX
  5
C59
330
BF1
100
AcDbEntity
  8
Eurostyl
 62
     1
100
AcDbVertex
100
AcDb2dVertex
 10
0.0753343795841254
 20
0.1347894784009554
 30
0.0
  0
VERTEX
  5
C5A
330
BF1
100
AcDbEntity
  8
Eurostyl
 62
     1
100
AcDbVertex
100
AcDb2dVertex
 10
0.0890069459980049
 20
0.1347894784009554
 30
0.0
  0
VERTEX
  5
C5B
330
BF1
100
AcDbEntity
  8
Eurostyl
 62
     1
100
AcDbVertex
100
AcDb2dVertex
 10
0.0914806102817573
 20
0.1422104444301226
 30
0.0
  0
VERTEX
  5
C5C
330
BF1
100
AcDbEntity
  8
Eurostyl
 62
     1
100
AcDbVertex
100
AcDb2dVertex
 10
0.0928017591541327
 20
0.1456679400003054
 30
0.0
  0
VERTEX
  5
C5D
330
BF1
100
AcDbEntity
  8
Eurostyl
 62
     1
100
AcDbVertex
100
AcDb2dVertex
 10
0.0934981798236884
 20
0.1472891684568025
 30
0.0
  0
VERTEX
  5
C5E
330
BF1
100
AcDbEntity
  8
Eurostyl
 62
     1
100
AcDbVertex
100
AcDb2dVertex
 10
0.0942241167133369
 20
0.1488218512332537
 30
0.0
  0
VERTEX
  5
C5F
330
BF1
100
AcDbEntity
  8
Eurostyl
 62
     1
100
AcDbVertex
100
AcDb2dVertex
 10
0.0949981903141059
 20
0.1503011267578699
 30
0.0
  0
VERTEX
  5
C60
330
BF1
100
AcDbEntity
  8
Eurostyl
 62
     1
100
AcDbVertex
100
AcDb2dVertex
 10
0.0958291744297065
 20
0.1517508860623934
 30
0.0
  0
VERTEX
  5
C61
330
BF1
100
AcDbEntity
  8
Eurostyl
 62
     1
100
AcDbVertex
100
AcDb2dVertex
 10
0.0967065548008003
 20
0.1531416144168474
 30
0.0
  0
VERTEX
  5
C62
330
BF1
100
AcDbEntity
  8
Eurostyl
 62
     1
100
AcDbVertex
100
AcDb2dVertex
 10
0.097619769484333
 20
0.1544437956011393
 30
0.0
  0
VERTEX
  5
C63
330
BF1
100
AcDbEntity
  8
Eurostyl
 62
     1
100
AcDbVertex
100
AcDb2dVertex
 10
0.0985582803791083
 20
0.1556279193556406
 30
0.0
  0
VERTEX
  5
C64
330
BF1
100
AcDbEntity
  8
Eurostyl
 62
     1
100
AcDbVertex
100
AcDb2dVertex
 10
0.0990337347095527
 20
0.1561664845740893
 30
0.0
  0
VERTEX
  5
C65
330
BF1
100
AcDbEntity
  8
Eurostyl
 62
     1
100
AcDbVertex
100
AcDb2dVertex
 10
0.0995115493839302
 20
0.1566644649899103
 30
0.0
  0
VERTEX
  5
C66
330
BF1
100
AcDbEntity
  8
Eurostyl
 62
     1
100
AcDbVertex
100
AcDb2dVertex
 10
0.0999904250209846
 20
0.1571181740558245
 30
0.0
  0
VERTEX
  5
C67
330
BF1
100
AcDbEntity
  8
Eurostyl
 62
     1
100
AcDbVertex
100
AcDb2dVertex
 10
0.100469038397602
 20
0.1575239192640879
 30
0.0
  0
VERTEX
  5
C68
330
BF1
100
AcDbEntity
  8
Eurostyl
 62
     1
100
AcDbVertex
100
AcDb2dVertex
 10
0.10070783844643
 20
0.1577076535618403
 30
0.0
  0
VERTEX
  5
C69
330
BF1
100
AcDbEntity
  8
Eurostyl
 62
     1
100
AcDbVertex
100
AcDb2dVertex
 10
0.1009460662906684
 20
0.1578780140674212
 30
0.0
  0
VERTEX
  5
C6A
330
BF1
100
AcDbEntity
  8
Eurostyl
 62
     1
100
AcDbVertex
100
AcDb2dVertex
 10
0.1011835788791694
 20
0.1580345388448336
 30
0.0
  0
VERTEX
  5
C6B
330
BF1
100
AcDbEntity
  8
Eurostyl
 62
     1
100
AcDbVertex
100
AcDb2dVertex
 10
0.1014202093189277
 20
0.1581767674481966
 30
0.0
  0
VERTEX
  5
C6C
330
BF1
100
AcDbEntity
  8
Eurostyl
 62
     1
100
AcDbVertex
100
AcDb2dVertex
 10
0.1019630765026129
 20
0.1584688883221247
 30
0.0
  0
VERTEX
  5
C6D
330
BF1
100
AcDbEntity
  8
Eurostyl
 62
     1
100
AcDbVertex
100
AcDb2dVertex
 10
0.1026345466678656
 20
0.1588018577492334
 30
0.0
  0
VERTEX
  5
C6E
330
BF1
100
AcDbEntity
  8
Eurostyl
 62
     1
100
AcDbVertex
100
AcDb2dVertex
 10
0.1042873953884161
 20
0.1595681976473429
 30
0.0
  0
VERTEX
  5
C6F
330
BF1
100
AcDbEntity
  8
Eurostyl
 62
     1
100
AcDbVertex
100
AcDb2dVertex
 10
0.1083014582698859
 20
0.1613475438153841
 30
0.0
  0
VERTEX
  5
C70
330
BF1
100
AcDbEntity
  8
Eurostyl
 62
     1
100
AcDbVertex
100
AcDb2dVertex
 10
0.1122480725353278
 20
0.1631606217420199
 30
0.0
  0
VERTEX
  5
C71
330
BF1
100
AcDbEntity
  8
Eurostyl
 62
     1
100
AcDbVertex
100
AcDb2dVertex
 10
0.1138165926044501
 20
0.1639691259658434
 30
0.0
  0
VERTEX
  5
C72
330
BF1
100
AcDbEntity
  8
Eurostyl
 62
     1
100
AcDbVertex
100
AcDb2dVertex
 10
0.1144332503383674
 20
0.1643295016086199
 30
0.0
  0
VERTEX
  5
C73
330
BF1
100
AcDbEntity
  8
Eurostyl
 62
     1
100
AcDbVertex
100
AcDb2dVertex
 10
0.1146913742130317
 20
0.1644962992465593
 30
0.0
  0
VERTEX
  5
C74
330
BF1
100
AcDbEntity
  8
Eurostyl
 62
     1
100
AcDbVertex
100
AcDb2dVertex
 10
0.114912865073017
 20
0.1646532472169497
 30
0.0
  0
VERTEX
  5
C75
330
BF1
100
AcDbEntity
  8
Eurostyl
 62
     1
100
AcDbVertex
100
AcDb2dVertex
 10
0.1192979907100714
 20
0.1679589506185152
 30
0.0
  0
VERTEX
  5
C76
330
BF1
100
AcDbEntity
  8
Eurostyl
 62
     1
100
AcDbVertex
100
AcDb2dVertex
 10
0.1205681954925574
 20
0.1690330933725932
 30
0.0
  0
VERTEX
  5
C77
330
BF1
100
AcDbEntity
  8
Eurostyl
 62
     1
100
AcDbVertex
100
AcDb2dVertex
 10
0.1218194281166114
 20
0.1701936732924082
 30
0.0
  0
VERTEX
  5
C78
330
BF1
100
AcDbEntity
  8
Eurostyl
 62
     1
100
AcDbVertex
100
AcDb2dVertex
 10
0.1230074142520942
 20
0.1714343663251497
 30
0.0
  0
VERTEX
  5
C79
330
BF1
100
AcDbEntity
  8
Eurostyl
 62
     1
100
AcDbVertex
100
AcDb2dVertex
 10
0.1235638593738593
 20
0.172082778433571
 30
0.0
  0
VERTEX
  5
C7A
330
BF1
100
AcDbEntity
  8
Eurostyl
 62
     1
100
AcDbVertex
100
AcDb2dVertex
 10
0.1240878855293311
 20
0.1727488484180071
 30
0.0
  0
VERTEX
  5
C7B
330
BF1
100
AcDbEntity
  8
Eurostyl
 62
     1
100
AcDbVertex
100
AcDb2dVertex
 10
0.1298447584217108
 20
0.181204250077019
 30
0.0
  0
VERTEX
  5
C7C
330
BF1
100
AcDbEntity
  8
Eurostyl
 62
     1
100
AcDbVertex
100
AcDb2dVertex
 10
0.1309101139610328
 20
0.1827334221398928
 30
0.0
  0
VERTEX
  5
C7D
330
BF1
100
AcDbEntity
  8
Eurostyl
 62
     1
100
AcDbVertex
100
AcDb2dVertex
 10
0.1313911413257636
 20
0.1834052409923174
 30
0.0
  0
VERTEX
  5
C7E
330
BF1
100
AcDbEntity
  8
Eurostyl
 62
     1
100
AcDbVertex
100
AcDb2dVertex
 10
0.1316362654274024
 20
0.1837105836665728
 30
0.0
  0
VERTEX
  5
C7F
330
BF1
100
AcDbEntity
  8
Eurostyl
 62
     1
100
AcDbVertex
100
AcDb2dVertex
 10
0.1318911408489264
 20
0.1839927341735461
 30
0.0
  0
VERTEX
  5
C80
330
BF1
100
AcDbEntity
  8
Eurostyl
 62
     1
100
AcDbVertex
100
AcDb2dVertex
 10
0.132023802906803
 20
0.1841244544780352
 30
0.0
  0
VERTEX
  5
C81
330
BF1
100
AcDbEntity
  8
Eurostyl
 62
     1
100
AcDbVertex
100
AcDb2dVertex
 10
0.1321607803409613
 20
0.1842495884692766
 30
0.0
  0
VERTEX
  5
C82
330
BF1
100
AcDbEntity
  8
Eurostyl
 62
     1
100
AcDbVertex
100
AcDb2dVertex
 10
0.1323026930397071
 20
0.1843678679263689
 30
0.0
  0
VERTEX
  5
C83
330
BF1
100
AcDbEntity
  8
Eurostyl
 62
     1
100
AcDbVertex
100
AcDb2dVertex
 10
0.1324501728122748
 20
0.1844790335691073
 30
0.0
  0
VERTEX
  5
C84
330
BF1
100
AcDbEntity
  8
Eurostyl
 62
     1
100
AcDbVertex
100
AcDb2dVertex
 10
0.1326038514678992
 20
0.1845828201568224
 30
0.0
  0
VERTEX
  5
C85
330
BF1
100
AcDbEntity
  8
Eurostyl
 62
     1
100
AcDbVertex
100
AcDb2dVertex
 10
0.1327643429344214
 20
0.1846789624488451
 30
0.0
  0
VERTEX
  5
C86
330
BF1
100
AcDbEntity
  8
Eurostyl
 62
     1
100
AcDbVertex
100
AcDb2dVertex
 10
0.1329322849815405
 20
0.1847672011649706
 30
0.0
  0
VERTEX
  5
C87
330
BF1
100
AcDbEntity
  8
Eurostyl
 62
     1
100
AcDbVertex
100
AcDb2dVertex
 10
0.1331082915370978
 20
0.1848472710645296
 30
0.0
  0
VERTEX
  5
C88
330
BF1
100
AcDbEntity
  8
Eurostyl
 62
     1
100
AcDbVertex
100
AcDb2dVertex
 10
0.1332930003707923
 20
0.1849189069068529
 30
0.0
  0
VERTEX
  5
C89
330
BF1
100
AcDbEntity
  8
Eurostyl
 62
     1
100
AcDbVertex
100
AcDb2dVertex
 10
0.1334870313709296
 20
0.1849818464315035
 30
0.0
  0
VERTEX
  5
C8A
330
BF1
100
AcDbEntity
  8
Eurostyl
 62
     1
100
AcDbVertex
100
AcDb2dVertex
 10
0.1336910044258155
 20
0.1850358243978121
 30
0.0
  0
VERTEX
  5
C8B
330
BF1
100
AcDbEntity
  8
Eurostyl
 62
     1
100
AcDbVertex
100
AcDb2dVertex
 10
0.1339055513446845
 20
0.1850805815255739
 30
0.0
  0
VERTEX
  5
C8C
330
BF1
100
AcDbEntity
  8
Eurostyl
 62
     1
100
AcDbVertex
100
AcDb2dVertex
 10
0.1341313098972358
 20
0.1851158525741198
 30
0.0
  0
VERTEX
  5
C8D
330
BF1
100
AcDbEntity
  8
Eurostyl
 62
     1
100
AcDbVertex
100
AcDb2dVertex
 10
0.1343688820903816
 20
0.1851413693225481
 30
0.0
  0
VERTEX
  5
C8E
330
BF1
100
AcDbEntity
  8
Eurostyl
 62
     1
100
AcDbVertex
100
AcDb2dVertex
 10
0.1346189116542853
 20
0.1851568724906542
 30
0.0
  0
VERTEX
  5
C8F
330
BF1
100
AcDbEntity
  8
Eurostyl
 62
     1
100
AcDbVertex
100
AcDb2dVertex
 10
0.1348820184772529
 20
0.185162099818001
 30
0.0
  0
VERTEX
  5
C90
330
BF1
100
AcDbEntity
  8
Eurostyl
 62
     1
100
AcDbVertex
100
AcDb2dVertex
 10
0.1447766398494757
 20
0.185162099818001
 30
0.0
  0
SEQEND
  5
C91
330
BF1
100
AcDbEntity
  8
Eurostyl
 62
     1
  0
POLYLINE
  5
CDF
330
2
100
AcDbEntity
  8
Eurostyl
 62
     1
100
AcDb2dPolyline
 66
     1
 10
0.0
 20
0.0
 30
0.0
 70
     1
  0
VERTEX
  5
CE0
330
CDF
100
AcDbEntity
  8
Eurostyl
 62
     1
100
AcDbVertex
100
AcDb2dVertex
 10
0.2319761085154028
 20
0.2040504887907852
 30
0.0
  0
VERTEX
  5
CE1
330
CDF
100
AcDbEntity
  8
Eurostyl
 62
     1
100
AcDbVertex
100
AcDb2dVertex
 10
0.2309866475702734
 20
0.2040504887907852
 30
0.0
  0
VERTEX
  5
CE2
330
CDF
100
AcDbEntity
  8
Eurostyl
 62
     1
100
AcDbVertex
100
AcDb2dVertex
 10
0.23095080729737
 20
0.2039496451824058
 30
0.0
  0
VERTEX
  5
CE3
330
CDF
100
AcDbEntity
  8
Eurostyl
 62
     1
100
AcDbVertex
100
AcDb2dVertex
 10
0.2309403645636054
 20
0.2039246812670577
 30
0.0
  0
VERTEX
  5
CE4
330
CDF
100
AcDbEntity
  8
Eurostyl
 62
     1
100
AcDbVertex
100
AcDb2dVertex
 10
0.2309289383532019
 20
0.203899882754599
 30
0.0
  0
VERTEX
  5
CE5
330
CDF
100
AcDbEntity
  8
Eurostyl
 62
     1
100
AcDbVertex
100
AcDb2dVertex
 10
0.2309163200499029
 20
0.2038752809374679
 30
0.0
  0
VERTEX
  5
CE6
330
CDF
100
AcDbEntity
  8
Eurostyl
 62
     1
100
AcDbVertex
100
AcDb2dVertex
 10
0.2309023189188452
 20
0.2038509085982193
 30
0.0
  0
VERTEX
  5
CE7
330
CDF
100
AcDbEntity
  8
Eurostyl
 62
     1
100
AcDbVertex
100
AcDb2dVertex
 10
0.2308867382647009
 20
0.2038268014996399
 30
0.0
  0
VERTEX
  5
CE8
330
CDF
100
AcDbEntity
  8
Eurostyl
 62
     1
100
AcDbVertex
100
AcDb2dVertex
 10
0.2308693784119101
 20
0.2038029894440521
 30
0.0
  0
VERTEX
  5
CE9
330
CDF
100
AcDbEntity
  8
Eurostyl
 62
     1
100
AcDbVertex
100
AcDb2dVertex
 10
0.2308500426651449
 20
0.203779509684359
 30
0.0
  0
VERTEX
  5
CEA
330
CDF
100
AcDbEntity
  8
Eurostyl
 62
     1
100
AcDbVertex
100
AcDb2dVertex
 10
0.2308285343290777
 20
0.2037563905327667
 30
0.0
  0
VERTEX
  5
CEB
330
CDF
100
AcDbEntity
  8
Eurostyl
 62
     1
100
AcDbVertex
100
AcDb2dVertex
 10
0.2308046507479163
 20
0.2037336662619461
 30
0.0
  0
VERTEX
  5
CEC
330
CDF
100
AcDbEntity
  8
Eurostyl
 62
     1
100
AcDbVertex
100
AcDb2dVertex
 10
0.2307781982065649
 20
0.2037113696544517
 30
0.0
  0
VERTEX
  5
CED
330
CDF
100
AcDbEntity
  8
Eurostyl
 62
     1
100
AcDbVertex
100
AcDb2dVertex
 10
0.2307489800096961
 20
0.2036895349829543
 30
0.0
  0
VERTEX
  5
CEE
330
CDF
100
AcDbEntity
  8
Eurostyl
 62
     1
100
AcDbVertex
100
AcDb2dVertex
 10
0.2307167935015173
 20
0.2036681965201248
 30
0.0
  0
VERTEX
  5
CEF
330
CDF
100
AcDbEntity
  8
Eurostyl
 62
     1
100
AcDbVertex
100
AcDb2dVertex
 10
0.2306814479471655
 20
0.2036473825781692
 30
0.0
  0
VERTEX
  5
CF0
330
CDF
100
AcDbEntity
  8
Eurostyl
 62
     1
100
AcDbVertex
100
AcDb2dVertex
 10
0.2306427466513128
 20
0.2036271289198745
 30
0.0
  0
VERTEX
  5
CF1
330
CDF
100
AcDbEntity
  8
Eurostyl
 62
     1
100
AcDbVertex
100
AcDb2dVertex
 10
0.2306004809977026
 20
0.2036074683277954
 30
0.0
  0
VERTEX
  5
CF2
330
CDF
100
AcDbEntity
  8
Eurostyl
 62
     1
100
AcDbVertex
100
AcDb2dVertex
 10
0.2305544632317038
 20
0.2035884350746025
 30
0.0
  0
VERTEX
  5
CF3
330
CDF
100
AcDbEntity
  8
Eurostyl
 62
     1
100
AcDbVertex
100
AcDb2dVertex
 10
0.2305044906975241
 20
0.2035700589626182
 30
0.0
  0
VERTEX
  5
CF4
330
CDF
100
AcDbEntity
  8
Eurostyl
 62
     1
100
AcDbVertex
100
AcDb2dVertex
 10
0.2304503666998358
 20
0.2035523742645134
 30
0.0
  0
VERTEX
  5
CF5
330
CDF
100
AcDbEntity
  8
Eurostyl
 62
     1
100
AcDbVertex
100
AcDb2dVertex
 10
0.2303288805128546
 20
0.2035192132203925
 30
0.0
  0
VERTEX
  5
CF6
330
CDF
100
AcDbEntity
  8
Eurostyl
 62
     1
100
AcDbVertex
100
AcDb2dVertex
 10
0.2301884191872092
 20
0.2034892156927933
 30
0.0
  0
VERTEX
  5
CF7
330
CDF
100
AcDbEntity
  8
Eurostyl
 62
     1
100
AcDbVertex
100
AcDb2dVertex
 10
0.2300274061800451
 20
0.2034626424520362
 30
0.0
  0
VERTEX
  5
CF8
330
CDF
100
AcDbEntity
  8
Eurostyl
 62
     1
100
AcDbVertex
100
AcDb2dVertex
 10
0.2296373831869574
 20
0.2034208297937263
 30
0.0
  0
VERTEX
  5
CF9
330
CDF
100
AcDbEntity
  8
Eurostyl
 62
     1
100
AcDbVertex
100
AcDb2dVertex
 10
0.2287758159281225
 20
0.2033765569537032
 30
0.0
  0
VERTEX
  5
CFA
330
CDF
100
AcDbEntity
  8
Eurostyl
 62
     1
100
AcDbVertex
100
AcDb2dVertex
 10
0.2279395538212271
 20
0.2033702329008926
 30
0.0
  0
VERTEX
  5
CFB
330
CDF
100
AcDbEntity
  8
Eurostyl
 62
     1
100
AcDbVertex
100
AcDb2dVertex
 10
0.2263091909529181
 20
0.2034208297937263
 30
0.0
  0
VERTEX
  5
CFC
330
CDF
100
AcDbEntity
  8
Eurostyl
 62
     1
100
AcDbVertex
100
AcDb2dVertex
 10
0.2250702547670813
 20
0.2032100096552719
 30
0.0
  0
VERTEX
  5
CFD
330
CDF
100
AcDbEntity
  8
Eurostyl
 62
     1
100
AcDbVertex
100
AcDb2dVertex
 10
0.2244679140688391
 20
0.2030887857287277
 30
0.0
  0
VERTEX
  5
CFE
330
CDF
100
AcDbEntity
  8
Eurostyl
 62
     1
100
AcDbVertex
100
AcDb2dVertex
 10
0.2238861339928122
 20
0.2029485881536353
 30
0.0
  0
VERTEX
  5
CFF
330
CDF
100
AcDbEntity
  8
Eurostyl
 62
     1
100
AcDbVertex
100
AcDb2dVertex
 10
0.2233317571522208
 20
0.2027830913870682
 30
0.0
  0
VERTEX
  5
D00
330
CDF
100
AcDbEntity
  8
Eurostyl
 62
     1
100
AcDbVertex
100
AcDb2dVertex
 10
0.223066987359664
 20
0.2026888802855362
 30
0.0
  0
VERTEX
  5
D01
330
CDF
100
AcDbEntity
  8
Eurostyl
 62
     1
100
AcDbVertex
100
AcDb2dVertex
 10
0.222811638081214
 20
0.2025859728663315
 30
0.0
  0
VERTEX
  5
D02
330
CDF
100
AcDbEntity
  8
Eurostyl
 62
     1
100
AcDbVertex
100
AcDb2dVertex
 10
0.2225665676237555
 20
0.2024735778777946
 30
0.0
  0
VERTEX
  5
D03
330
CDF
100
AcDbEntity
  8
Eurostyl
 62
     1
100
AcDbVertex
100
AcDb2dVertex
 10
0.222332631313941
 20
0.2023509055583824
 30
0.0
  0
VERTEX
  5
D04
330
CDF
100
AcDbEntity
  8
Eurostyl
 62
     1
100
AcDbVertex
100
AcDb2dVertex
 10
0.2221106844784231
 20
0.2022171631663193
 30
0.0
  0
VERTEX
  5
D05
330
CDF
100
AcDbEntity
  8
Eurostyl
 62
     1
100
AcDbVertex
100
AcDb2dVertex
 10
0.2219015854240866
 20
0.2020715639202942
 30
0.0
  0
VERTEX
  5
D06
330
CDF
100
AcDbEntity
  8
Eurostyl
 62
     1
100
AcDbVertex
100
AcDb2dVertex
 10
0.2216971325518103
 20
0.2019104823677887
 30
0.0
  0
VERTEX
  5
D07
330
CDF
100
AcDbEntity
  8
Eurostyl
 62
     1
100
AcDbVertex
100
AcDb2dVertex
 10
0.2214887249113531
 20
0.2017316118090499
 30
0.0
  0
VERTEX
  5
D08
330
CDF
100
AcDbEntity
  8
Eurostyl
 62
     1
100
AcDbVertex
100
AcDb2dVertex
 10
0.2210611062885733
 20
0.2013252511828293
 30
0.0
  0
VERTEX
  5
D09
330
CDF
100
AcDbEntity
  8
Eurostyl
 62
     1
100
AcDbVertex
100
AcDb2dVertex
 10
0.2206208365799398
 20
0.2008619681208481
 30
0.0
  0
VERTEX
  5
D0A
330
CDF
100
AcDbEntity
  8
Eurostyl
 62
     1
100
AcDbVertex
100
AcDb2dVertex
 10
0.2201700257898779
 20
0.2003512487023223
 30
0.0
  0
VERTEX
  5
D0B
330
CDF
100
AcDbEntity
  8
Eurostyl
 62
     1
100
AcDbVertex
100
AcDb2dVertex
 10
0.2183035421015234
 20
0.1980237633197654
 30
0.0
  0
VERTEX
  5
D0C
330
CDF
100
AcDbEntity
  8
Eurostyl
 62
     1
100
AcDbVertex
100
AcDb2dVertex
 10
0.2180978107096167
 20
0.1976864472239364
 30
0.0
  0
VERTEX
  5
D0D
330
CDF
100
AcDbEntity
  8
Eurostyl
 62
     1
100
AcDbVertex
100
AcDb2dVertex
 10
0.2178720581175299
 20
0.1973491296379913
 30
0.0
  0
VERTEX
  5
D0E
330
CDF
100
AcDbEntity
  8
Eurostyl
 62
     1
100
AcDbVertex
100
AcDb2dVertex
 10
0.2177454101683111
 20
0.1971804723351348
 30
0.0
  0
VERTEX
  5
D0F
330
CDF
100
AcDbEntity
  8
Eurostyl
 62
     1
100
AcDbVertex
100
AcDb2dVertex
 10
0.2176062452436895
 20
0.1970118135421623
 30
0.0
  0
VERTEX
  5
D10
330
CDF
100
AcDbEntity
  8
Eurostyl
 62
     1
100
AcDbVertex
100
AcDb2dVertex
 10
0.2174520599485846
 20
0.1968431547491897
 30
0.0
  0
VERTEX
  5
D11
330
CDF
100
AcDbEntity
  8
Eurostyl
 62
     1
100
AcDbVertex
100
AcDb2dVertex
 10
0.2172803508879157
 20
0.1966744974463333
 30
0.0
  0
VERTEX
  5
D12
330
CDF
100
AcDbEntity
  8
Eurostyl
 62
     1
100
AcDbVertex
100
AcDb2dVertex
 10
0.2170886087061377
 20
0.1965058386533607
 30
0.0
  0
VERTEX
  5
D13
330
CDF
100
AcDbEntity
  8
Eurostyl
 62
     1
100
AcDbVertex
100
AcDb2dVertex
 10
0.2168743359686347
 20
0.1963371798603881
 30
0.0
  0
VERTEX
  5
D14
330
CDF
100
AcDbEntity
  8
Eurostyl
 62
     1
100
AcDbVertex
100
AcDb2dVertex
 10
0.2166350292803259
 20
0.1961685225575317
 30
0.0
  0
VERTEX
  5
D15
330
CDF
100
AcDbEntity
  8
Eurostyl
 62
     1
100
AcDbVertex
100
AcDb2dVertex
 10
0.2163681852461309
 20
0.1959998637645591
 30
0.0
  0
VERTEX
  5
D16
330
CDF
100
AcDbEntity
  8
Eurostyl
 62
     1
100
AcDbVertex
100
AcDb2dVertex
 10
0.2160713004709692
 20
0.1958312049715866
 30
0.0
  0
VERTEX
  5
D17
330
CDF
100
AcDbEntity
  8
Eurostyl
 62
     1
100
AcDbVertex
100
AcDb2dVertex
 10
0.2157418655992957
 20
0.1956625476687301
 30
0.0
  0
VERTEX
  5
D18
330
CDF
100
AcDbEntity
  8
Eurostyl
 62
     1
100
AcDbVertex
100
AcDb2dVertex
 10
0.2153773831964941
 20
0.1954938888757576
 30
0.0
  0
VERTEX
  5
D19
330
CDF
100
AcDbEntity
  8
Eurostyl
 62
     1
100
AcDbVertex
100
AcDb2dVertex
 10
0.2149753498674841
 20
0.195325230082785
 30
0.0
  0
VERTEX
  5
D1A
330
CDF
100
AcDbEntity
  8
Eurostyl
 62
     1
100
AcDbVertex
100
AcDb2dVertex
 10
0.2145347940565558
 20
0.1951372251122345
 30
0.0
  0
VERTEX
  5
D1B
330
CDF
100
AcDbEntity
  8
Eurostyl
 62
     1
100
AcDbVertex
100
AcDb2dVertex
 10
0.2140609073282691
 20
0.1949132472484459
 30
0.0
  0
VERTEX
  5
D1C
330
CDF
100
AcDbEntity
  8
Eurostyl
 62
     1
100
AcDbVertex
100
AcDb2dVertex
 10
0.2130399989725562
 20
0.1943737164347519
 30
0.0
  0
VERTEX
  5
D1D
330
CDF
100
AcDbEntity
  8
Eurostyl
 62
     1
100
AcDbVertex
100
AcDb2dVertex
 10
0.2119663822294683
 20
0.193739314398085
 30
0.0
  0
VERTEX
  5
D1E
330
CDF
100
AcDbEntity
  8
Eurostyl
 62
     1
100
AcDbVertex
100
AcDb2dVertex
 10
0.2108938204885931
 20
0.1930427208750595
 30
0.0
  0
VERTEX
  5
D1F
330
CDF
100
AcDbEntity
  8
Eurostyl
 62
     1
100
AcDbVertex
100
AcDb2dVertex
 10
0.2098760711790533
 20
0.1923166111319412
 30
0.0
  0
VERTEX
  5
D20
330
CDF
100
AcDbEntity
  8
Eurostyl
 62
     1
100
AcDbVertex
100
AcDb2dVertex
 10
0.2089668976904364
 20
0.1915936641602863
 30
0.0
  0
VERTEX
  5
D21
330
CDF
100
AcDbEntity
  8
Eurostyl
 62
     1
100
AcDbVertex
100
AcDb2dVertex
 10
0.2085698234678717
 20
0.1912435889451851
 30
0.0
  0
VERTEX
  5
D22
330
CDF
100
AcDbEntity
  8
Eurostyl
 62
     1
100
AcDbVertex
100
AcDb2dVertex
 10
0.2082200574518652
 20
0.1909065574615348
 30
0.0
  0
VERTEX
  5
D23
330
CDF
100
AcDbEntity
  8
Eurostyl
 62
     1
100
AcDbVertex
100
AcDb2dVertex
 10
0.2079243111254187
 20
0.190586655607735
 30
0.0
  0
VERTEX
  5
D24
330
CDF
100
AcDbEntity
  8
Eurostyl
 62
     1
100
AcDbVertex
100
AcDb2dVertex
 10
0.2077987956644506
 20
0.190434404483353
 30
0.0
  0
VERTEX
  5
D25
330
CDF
100
AcDbEntity
  8
Eurostyl
 62
     1
100
AcDbVertex
100
AcDb2dVertex
 10
0.2076893078924628
 20
0.1902879677920688
 30
0.0
  0
VERTEX
  5
D26
330
CDF
100
AcDbEntity
  8
Eurostyl
 62
     1
100
AcDbVertex
100
AcDb2dVertex
 10
0.2069092678667517
 20
0.1891888775139202
 30
0.0
  0
VERTEX
  5
D27
330
CDF
100
AcDbEntity
  8
Eurostyl
 62
     1
100
AcDbVertex
100
AcDb2dVertex
 10
0.2065366375090094
 20
0.1886909842698921
 30
0.0
  0
VERTEX
  5
D28
330
CDF
100
AcDbEntity
  8
Eurostyl
 62
     1
100
AcDbVertex
100
AcDb2dVertex
 10
0.2061713862062903
 20
0.1882415801494468
 30
0.0
  0
VERTEX
  5
D29
330
CDF
100
AcDbEntity
  8
Eurostyl
 62
     1
100
AcDbVertex
100
AcDb2dVertex
 10
0.2059905397535772
 20
0.1880383551328529
 30
0.0
  0
VERTEX
  5
D2A
330
CDF
100
AcDbEntity
  8
Eurostyl
 62
     1
100
AcDbVertex
100
AcDb2dVertex
 10
0.2058103489519568
 20
0.1878512062340129
 30
0.0
  0
VERTEX
  5
D2B
330
CDF
100
AcDbEntity
  8
Eurostyl
 62
     1
100
AcDbVertex
100
AcDb2dVertex
 10
0.2056304263712378
 20
0.1876814499705185
 30
0.0
  0
VERTEX
  5
D2C
330
CDF
100
AcDbEntity
  8
Eurostyl
 62
     1
100
AcDbVertex
100
AcDb2dVertex
 10
0.2054503726603003
 20
0.187530404350077
 30
0.0
  0
VERTEX
  5
D2D
330
CDF
100
AcDbEntity
  8
Eurostyl
 62
     1
100
AcDbVertex
100
AcDb2dVertex
 10
0.2053601669908972
 20
0.1874623090236534
 30
0.0
  0
VERTEX
  5
D2E
330
CDF
100
AcDbEntity
  8
Eurostyl
 62
     1
100
AcDbVertex
100
AcDb2dVertex
 10
0.2052697884680243
 20
0.1873993858902801
 30
0.0
  0
VERTEX
  5
D2F
330
CDF
100
AcDbEntity
  8
Eurostyl
 62
     1
100
AcDbVertex
100
AcDb2dVertex
 10
0.2051791774870368
 20
0.1873417996077884
 30
0.0
  0
VERTEX
  5
D30
330
CDF
100
AcDbEntity
  8
Eurostyl
 62
     1
100
AcDbVertex
100
AcDb2dVertex
 10
0.2050882804037543
 20
0.1872897148340095
 30
0.0
  0
VERTEX
  5
D31
330
CDF
100
AcDbEntity
  8
Eurostyl
 62
     1
100
AcDbVertex
100
AcDb2dVertex
 10
0.20499706145539
 20
0.1872432947366584
 30
0.0
  0
VERTEX
  5
D32
330
CDF
100
AcDbEntity
  8
Eurostyl
 62
     1
100
AcDbVertex
100
AcDb2dVertex
 10
0.2049054610372992
 20
0.1872027062087406
 30
0.0
  0
VERTEX
  5
D33
330
CDF
100
AcDbEntity
  8
Eurostyl
 62
     1
100
AcDbVertex
100
AcDb2dVertex
 10
0.204813431465766
 20
0.187168112417971
 30
0.0
  0
VERTEX
  5
D34
330
CDF
100
AcDbEntity
  8
Eurostyl
 62
     1
100
AcDbVertex
100
AcDb2dVertex
 10
0.2047209250570745
 20
0.187139678767239
 30
0.0
  0
VERTEX
  5
D35
330
CDF
100
AcDbEntity
  8
Eurostyl
 62
     1
100
AcDbVertex
100
AcDb2dVertex
 10
0.204521124327323
 20
0.1870809994845737
 30
0.0
  0
VERTEX
  5
D36
330
CDF
100
AcDbEntity
  8
Eurostyl
 62
     1
100
AcDbVertex
100
AcDb2dVertex
 10
0.2042947101236792
 20
0.1870033458083023
 30
0.0
  0
VERTEX
  5
D37
330
CDF
100
AcDbEntity
  8
Eurostyl
 62
     1
100
AcDbVertex
100
AcDb2dVertex
 10
0.2040445792318792
 20
0.186902502944981
 30
0.0
  0
VERTEX
  5
D38
330
CDF
100
AcDbEntity
  8
Eurostyl
 62
     1
100
AcDbVertex
100
AcDb2dVertex
 10
0.2037736224771948
 20
0.1867742523758758
 30
0.0
  0
VERTEX
  5
D39
330
CDF
100
AcDbEntity
  8
Eurostyl
 62
     1
100
AcDbVertex
100
AcDb2dVertex
 10
0.2034847545267553
 20
0.186614377817427
 30
0.0
  0
VERTEX
  5
D3A
330
CDF
100
AcDbEntity
  8
Eurostyl
 62
     1
100
AcDbVertex
100
AcDb2dVertex
 10
0.203180860245368
 20
0.186418665221249
 30
0.0
  0
VERTEX
  5
D3B
330
CDF
100
AcDbEntity
  8
Eurostyl
 62
     1
100
AcDbVertex
100
AcDb2dVertex
 10
0.2028648483396979
 20
0.1861828938334335
 30
0.0
  0
VERTEX
  5
D3C
330
CDF
100
AcDbEntity
  8
Eurostyl
 62
     1
100
AcDbVertex
100
AcDb2dVertex
 10
0.202703200543067
 20
0.1860486693888057
 30
0.0
  0
VERTEX
  5
D3D
330
CDF
100
AcDbEntity
  8
Eurostyl
 62
     1
100
AcDbVertex
100
AcDb2dVertex
 10
0.2025396096350164
 20
0.1859028510957111
 30
0.0
  0
VERTEX
  5
D3E
330
CDF
100
AcDbEntity
  8
Eurostyl
 62
     1
100
AcDbVertex
100
AcDb2dVertex
 10
0.2023744392038794
 20
0.1857449092178691
 30
0.0
  0
VERTEX
  5
D3F
330
CDF
100
AcDbEntity
  8
Eurostyl
 62
     1
100
AcDbVertex
100
AcDb2dVertex
 10
0.2022080468775244
 20
0.1855743184893478
 30
0.0
  0
VERTEX
  5
D40
330
CDF
100
AcDbEntity
  8
Eurostyl
 62
     1
100
AcDbVertex
100
AcDb2dVertex
 10
0.2018730568529578
 20
0.1851930804758419
 30
0.0
  0
VERTEX
  5
D41
330
CDF
100
AcDbEntity
  8
Eurostyl
 62
     1
100
AcDbVertex
100
AcDb2dVertex
 10
0.2015375423075171
 20
0.1847549200265754
 30
0.0
  0
VERTEX
  5
D42
330
CDF
100
AcDbEntity
  8
Eurostyl
 62
     1
100
AcDbVertex
100
AcDb2dVertex
 10
0.2012044000269384
 20
0.1842556208579887
 30
0.0
  0
VERTEX
  5
D43
330
CDF
100
AcDbEntity
  8
Eurostyl
 62
     1
100
AcDbVertex
100
AcDb2dVertex
 10
0.200876526796958
 20
0.1836909666865219
 30
0.0
  0
VERTEX
  5
D44
330
CDF
100
AcDbEntity
  8
Eurostyl
 62
     1
100
AcDbVertex
100
AcDb2dVertex
 10
0.2005568194033118
 20
0.1830567412286151
 30
0.0
  0
VERTEX
  5
D45
330
CDF
100
AcDbEntity
  8
Eurostyl
 62
     1
100
AcDbVertex
100
AcDb2dVertex
 10
0.2002481865526648
 20
0.1823487282007087
 30
0.0
  0
VERTEX
  5
D46
330
CDF
100
AcDbEntity
  8
Eurostyl
 62
     1
100
AcDbVertex
100
AcDb2dVertex
 10
0.1999535131098242
 20
0.1815627098291267
 30
0.0
  0
VERTEX
  5
D47
330
CDF
100
AcDbEntity
  8
Eurostyl
 62
     1
100
AcDbVertex
100
AcDb2dVertex
 10
0.1971650290132971
 20
0.1740068167655815
 30
0.0
  0
VERTEX
  5
D48
330
CDF
100
AcDbEntity
  8
Eurostyl
 62
     1
100
AcDbVertex
100
AcDb2dVertex
 10
0.2040013122202368
 20
0.1740068167655815
 30
0.0
  0
VERTEX
  5
D49
330
CDF
100
AcDbEntity
  8
Eurostyl
 62
     1
100
AcDbVertex
100
AcDb2dVertex
 10
0.205238144362113
 20
0.1777172997801651
 30
0.0
  0
VERTEX
  5
D4A
330
CDF
100
AcDbEntity
  8
Eurostyl
 62
     1
100
AcDbVertex
100
AcDb2dVertex
 10
0.2058987187983007
 20
0.1794460475652565
 30
0.0
  0
VERTEX
  5
D4B
330
CDF
100
AcDbEntity
  8
Eurostyl
 62
     1
100
AcDbVertex
100
AcDb2dVertex
 10
0.2062469291330786
 20
0.1802566617935051
 30
0.0
  0
VERTEX
  5
D4C
330
CDF
100
AcDbEntity
  8
Eurostyl
 62
     1
100
AcDbVertex
100
AcDb2dVertex
 10
0.2066098975779028
 20
0.1810230031817306
 30
0.0
  0
VERTEX
  5
D4D
330
CDF
100
AcDbEntity
  8
Eurostyl
 62
     1
100
AcDbVertex
100
AcDb2dVertex
 10
0.2069969343782873
 20
0.1817626409440387
 30
0.0
  0
VERTEX
  5
D4E
330
CDF
100
AcDbEntity
  8
Eurostyl
 62
     1
100
AcDbVertex
100
AcDb2dVertex
 10
0.2074124264360877
 20
0.1824875205963005
 30
0.0
  0
VERTEX
  5
D4F
330
CDF
100
AcDbEntity
  8
Eurostyl
 62
     1
100
AcDbVertex
100
AcDb2dVertex
 10
0.2078511166216345
 20
0.1831828847735275
 30
0.0
  0
VERTEX
  5
D50
330
CDF
100
AcDbEntity
  8
Eurostyl
 62
     1
100
AcDbVertex
100
AcDb2dVertex
 10
0.2083077239634008
 20
0.1838339753656734
 30
0.0
  0
VERTEX
  5
D51
330
CDF
100
AcDbEntity
  8
Eurostyl
 62
     1
100
AcDbVertex
100
AcDb2dVertex
 10
0.2087769794107885
 20
0.1844260372429241
 30
0.0
  0
VERTEX
  5
D52
330
CDF
100
AcDbEntity
  8
Eurostyl
 62
     1
100
AcDbVertex
100
AcDb2dVertex
 10
0.2090147065760108
 20
0.1846953198521484
 30
0.0
  0
VERTEX
  5
D53
330
CDF
100
AcDbEntity
  8
Eurostyl
 62
     1
100
AcDbVertex
100
AcDb2dVertex
 10
0.2092536139131995
 20
0.1849443100600589
 30
0.0
  0
VERTEX
  5
D54
330
CDF
100
AcDbEntity
  8
Eurostyl
 62
     1
100
AcDbVertex
100
AcDb2dVertex
 10
0.2094930517317266
 20
0.185171164593016
 30
0.0
  0
VERTEX
  5
D55
330
CDF
100
AcDbEntity
  8
Eurostyl
 62
     1
100
AcDbVertex
100
AcDb2dVertex
 10
0.2097323584200354
 20
0.1853740371971477
 30
0.0
  0
VERTEX
  5
D56
330
CDF
100
AcDbEntity
  8
Eurostyl
 62
     1
100
AcDbVertex
100
AcDb2dVertex
 10
0.2098517584444494
 20
0.1854659043460239
 30
0.0
  0
VERTEX
  5
D57
330
CDF
100
AcDbEntity
  8
Eurostyl
 62
     1
100
AcDbVertex
100
AcDb2dVertex
 10
0.2099708723665686
 20
0.1855510845988144
 30
0.0
  0
VERTEX
  5
D58
330
CDF
100
AcDbEntity
  8
Eurostyl
 62
     1
100
AcDbVertex
100
AcDb2dVertex
 10
0.2100896286608191
 20
0.1856293469875206
 30
0.0
  0
VERTEX
  5
D59
330
CDF
100
AcDbEntity
  8
Eurostyl
 62
     1
100
AcDbVertex
100
AcDb2dVertex
 10
0.2102079438806983
 20
0.1857004612892021
 30
0.0
  0
VERTEX
  5
D5A
330
CDF
100
AcDbEntity
  8
Eurostyl
 62
     1
100
AcDbVertex
100
AcDb2dVertex
 10
0.2104793774725409
 20
0.1858465217261661
 30
0.0
  0
VERTEX
  5
D5B
330
CDF
100
AcDbEntity
  8
Eurostyl
 62
     1
100
AcDbVertex
100
AcDb2dVertex
 10
0.2108151125551672
 20
0.1860130064397205
 30
0.0
  0
VERTEX
  5
D5C
330
CDF
100
AcDbEntity
  8
Eurostyl
 62
     1
100
AcDbVertex
100
AcDb2dVertex
 10
0.2116415369154425
 20
0.1863961763887752
 30
0.0
  0
VERTEX
  5
D5D
330
CDF
100
AcDbEntity
  8
Eurostyl
 62
     1
100
AcDbVertex
100
AcDb2dVertex
 10
0.2136485683561773
 20
0.1872858494727958
 30
0.0
  0
VERTEX
  5
D5E
330
CDF
100
AcDbEntity
  8
Eurostyl
 62
     1
100
AcDbVertex
100
AcDb2dVertex
 10
0.2156218754888983
 20
0.1881923884361137
 30
0.0
  0
VERTEX
  5
D5F
330
CDF
100
AcDbEntity
  8
Eurostyl
 62
     1
100
AcDbVertex
100
AcDb2dVertex
 10
0.2164061355234594
 20
0.1885966405480255
 30
0.0
  0
VERTEX
  5
D60
330
CDF
100
AcDbEntity
  8
Eurostyl
 62
     1
100
AcDbVertex
100
AcDb2dVertex
 10
0.2167144643904181
 20
0.1887768283694137
 30
0.0
  0
VERTEX
  5
D61
330
CDF
100
AcDbEntity
  8
Eurostyl
 62
     1
100
AcDbVertex
100
AcDb2dVertex
 10
0.2168435263277502
 20
0.1888602271883834
 30
0.0
  0
VERTEX
  5
D62
330
CDF
100
AcDbEntity
  8
Eurostyl
 62
     1
100
AcDbVertex
100
AcDb2dVertex
 10
0.2169542717577429
 20
0.1889387011735786
 30
0.0
  0
VERTEX
  5
D63
330
CDF
100
AcDbEntity
  8
Eurostyl
 62
     1
100
AcDbVertex
100
AcDb2dVertex
 10
0.2191468345762701
 20
0.1905915528743614
 30
0.0
  0
VERTEX
  5
D64
330
CDF
100
AcDbEntity
  8
Eurostyl
 62
     1
100
AcDbVertex
100
AcDb2dVertex
 10
0.2197819369675131
 20
0.1911286242514003
 30
0.0
  0
VERTEX
  5
D65
330
CDF
100
AcDbEntity
  8
Eurostyl
 62
     1
100
AcDbVertex
100
AcDb2dVertex
 10
0.2204075532795401
 20
0.1917089142113079
 30
0.0
  0
VERTEX
  5
D66
330
CDF
100
AcDbEntity
  8
Eurostyl
 62
     1
100
AcDbVertex
100
AcDb2dVertex
 10
0.2210015463472815
 20
0.1923292607276786
 30
0.0
  0
VERTEX
  5
D67
330
CDF
100
AcDbEntity
  8
Eurostyl
 62
     1
100
AcDbVertex
100
AcDb2dVertex
 10
0.221279768908164
 20
0.1926534667818893
 30
0.0
  0
VERTEX
  5
D68
330
CDF
100
AcDbEntity
  8
Eurostyl
 62
     1
100
AcDbVertex
100
AcDb2dVertex
 10
0.2215417819859
 20
0.1929865017741073
 30
0.0
  0
VERTEX
  5
D69
330
CDF
100
AcDbEntity
  8
Eurostyl
 62
     1
100
AcDbVertex
100
AcDb2dVertex
 10
0.2244202184320898
 20
0.1972142026036132
 30
0.0
  0
VERTEX
  5
D6A
330
CDF
100
AcDbEntity
  8
Eurostyl
 62
     1
100
AcDbVertex
100
AcDb2dVertex
 10
0.2249528962017508
 20
0.1979787886350502
 30
0.0
  0
VERTEX
  5
D6B
330
CDF
100
AcDbEntity
  8
Eurostyl
 62
     1
100
AcDbVertex
100
AcDb2dVertex
 10
0.2251934098841162
 20
0.1983146980612625
 30
0.0
  0
VERTEX
  5
D6C
330
CDF
100
AcDbEntity
  8
Eurostyl
 62
     1
100
AcDbVertex
100
AcDb2dVertex
 10
0.2253159719349356
 20
0.1984673693983902
 30
0.0
  0
VERTEX
  5
D6D
330
CDF
100
AcDbEntity
  8
Eurostyl
 62
     1
100
AcDbVertex
100
AcDb2dVertex
 10
0.2254434096456976
 20
0.1986084446518768
 30
0.0
  0
VERTEX
  5
D6E
330
CDF
100
AcDbEntity
  8
Eurostyl
 62
     1
100
AcDbVertex
100
AcDb2dVertex
 10
0.2255097406746359
 20
0.1986743048041213
 30
0.0
  0
VERTEX
  5
D6F
330
CDF
100
AcDbEntity
  8
Eurostyl
 62
     1
100
AcDbVertex
100
AcDb2dVertex
 10
0.2255782293917151
 20
0.1987368717997421
 30
0.0
  0
VERTEX
  5
D70
330
CDF
100
AcDbEntity
  8
Eurostyl
 62
     1
100
AcDbVertex
100
AcDb2dVertex
 10
0.225649185741088
 20
0.1987960115282882
 30
0.0
  0
VERTEX
  5
D71
330
CDF
100
AcDbEntity
  8
Eurostyl
 62
     1
100
AcDbVertex
100
AcDb2dVertex
 10
0.2257229256273718
 20
0.1988515943496574
 30
0.0
  0
VERTEX
  5
D72
330
CDF
100
AcDbEntity
  8
Eurostyl
 62
     1
100
AcDbVertex
100
AcDb2dVertex
 10
0.225799764955184
 20
0.198903487643515
 30
0.0
  0
VERTEX
  5
D73
330
CDF
100
AcDbEntity
  8
Eurostyl
 62
     1
100
AcDbVertex
100
AcDb2dVertex
 10
0.2258800106884451
 20
0.1989515587895263
 30
0.0
  0
VERTEX
  5
D74
330
CDF
100
AcDbEntity
  8
Eurostyl
 62
     1
100
AcDbVertex
100
AcDb2dVertex
 10
0.2259639817120047
 20
0.1989956781475891
 30
0.0
  0
VERTEX
  5
D75
330
CDF
100
AcDbEntity
  8
Eurostyl
 62
     1
100
AcDbVertex
100
AcDb2dVertex
 10
0.2260519849897833
 20
0.1990357130973686
 30
0.0
  0
VERTEX
  5
D76
330
CDF
100
AcDbEntity
  8
Eurostyl
 62
     1
100
AcDbVertex
100
AcDb2dVertex
 10
0.2261443394066305
 20
0.1990715310185302
 30
0.0
  0
VERTEX
  5
D77
330
CDF
100
AcDbEntity
  8
Eurostyl
 62
     1
100
AcDbVertex
100
AcDb2dVertex
 10
0.2262413549066992
 20
0.1991030007808555
 30
0.0
  0
VERTEX
  5
D78
330
CDF
100
AcDbEntity
  8
Eurostyl
 62
     1
100
AcDbVertex
100
AcDb2dVertex
 10
0.2263433414341422
 20
0.1991299897640098
 30
0.0
  0
VERTEX
  5
D79
330
CDF
100
AcDbEntity
  8
Eurostyl
 62
     1
100
AcDbVertex
100
AcDb2dVertex
 10
0.2264506148935767
 20
0.1991523683278907
 30
0.0
  0
VERTEX
  5
D7A
330
CDF
100
AcDbEntity
  8
Eurostyl
 62
     1
100
AcDbVertex
100
AcDb2dVertex
 10
0.2265634941698523
 20
0.1991700038521637
 30
0.0
  0
VERTEX
  5
D7B
330
CDF
100
AcDbEntity
  8
Eurostyl
 62
     1
100
AcDbVertex
100
AcDb2dVertex
 10
0.2266822802664252
 20
0.1991827622263778
 30
0.0
  0
VERTEX
  5
D7C
330
CDF
100
AcDbEntity
  8
Eurostyl
 62
     1
100
AcDbVertex
100
AcDb2dVertex
 10
0.226807295048377
 20
0.1991905138104309
 30
0.0
  0
VERTEX
  5
D7D
330
CDF
100
AcDbEntity
  8
Eurostyl
 62
     1
100
AcDbVertex
100
AcDb2dVertex
 10
0.2269388484598608
 20
0.1991931274741043
 30
0.0
  0
VERTEX
  5
D7E
330
CDF
100
AcDbEntity
  8
Eurostyl
 62
     1
100
AcDbVertex
100
AcDb2dVertex
 10
0.2318861591459723
 20
0.1991931274741043
 30
0.0
  0
SEQEND
  5
D7F
330
CDF
100
AcDbEntity
  8
Eurostyl
 62
     1
  0
LINE
  5
E21
330
2
100
AcDbEntity
  8
Dimensione
 62
     3
100
AcDbLine
 10
0.2228900278748483
 20
0.2028658397703518
 30
0.0
 11
0.3357842629469293
 21
0.2331660697883761
 31
0.0
  0
LINE
  5
E22
330
2
100
AcDbEntity
  8
Dimensione
 62
     2
100
AcDbLine
 10
0.2318861591459723
 20
0.1991931274741043
 30
0.0
 11
0.3443386649406808
 21
0.2295761058754122
 31
0.0
  0
LINE
  5
E23
330
2
100
AcDbEntity
  8
Dimensione
 62
     3
100
AcDbLine
 10
0.2040013122202368
 20
0.1740068167655815
 30
0.0
 11
0.3164538180149454
 21
0.2043897951668894
 31
0.0
  0
LINE
  5
E24
330
2
100
AcDbEntity
  8
Dimensione
 62
     2
100
AcDbLine
 10
0.2156218754888983
 20
0.1881923884361137
 30
0.0
 11
0.3294067775524514
 21
0.2193216795748865
 31
0.0
  0
POLYLINE
  5
EC6
330
2
100
AcDbEntity
  8
Eurostyl
 62
     1
100
AcDb2dPolyline
 66
     1
 10
0.0
 20
0.0
 30
0.0
  0
VERTEX
  5
EC7
330
EC6
100
AcDbEntity
  8
Eurostyl
 62
     1
100
AcDbVertex
100
AcDb2dVertex
 10
0.3443386649406808
 20
0.2295761058754122
 30
0.0
  0
VERTEX
  5
EC8
330
EC6
100
AcDbEntity
  8
Eurostyl
 62
     1
100
AcDbVertex
100
AcDb2dVertex
 10
0.3444286143101114
 20
0.2344334671920931
 30
0.0
  0
SEQEND
  5
EC9
330
EC6
100
AcDbEntity
  8
Eurostyl
 62
     1
  0
POLYLINE
  5
FC5
330
2
100
AcDbEntity
  8
Eurostyl
 62
     1
100
AcDb2dPolyline
 66
     1
 10
0.0
 20
0.0
 30
0.0
  0
VERTEX
  5
FC6
330
FC5
100
AcDbEntity
  8
Eurostyl
 62
     1
100
AcDbVertex
100
AcDb2dVertex
 10
0.3164538180149447
 20
0.2043897951668892
 30
0.0
  0
VERTEX
  5
FC7
330
FC5
100
AcDbEntity
  8
Eurostyl
 62
     1
100
AcDbVertex
100
AcDb2dVertex
 10
0.3176906501568216
 20
0.208100278181473
 30
0.0
  0
VERTEX
  5
FC8
330
FC5
100
AcDbEntity
  8
Eurostyl
 62
     1
100
AcDbVertex
100
AcDb2dVertex
 10
0.3183512245930093
 20
0.2098290259665644
 30
0.0
  0
VERTEX
  5
FC9
330
FC5
100
AcDbEntity
  8
Eurostyl
 62
     1
100
AcDbVertex
100
AcDb2dVertex
 10
0.3186994349277871
 20
0.210639640194813
 30
0.0
  0
VERTEX
  5
FCA
330
FC5
100
AcDbEntity
  8
Eurostyl
 62
     1
100
AcDbVertex
100
AcDb2dVertex
 10
0.3190624033726114
 20
0.2114059815830386
 30
0.0
  0
VERTEX
  5
FCB
330
FC5
100
AcDbEntity
  8
Eurostyl
 62
     1
100
AcDbVertex
100
AcDb2dVertex
 10
0.3194494401729959
 20
0.2121456193453467
 30
0.0
  0
VERTEX
  5
FCC
330
FC5
100
AcDbEntity
  8
Eurostyl
 62
     1
100
AcDbVertex
100
AcDb2dVertex
 10
0.3198649322307962
 20
0.2128704989976084
 30
0.0
  0
VERTEX
  5
FCD
330
FC5
100
AcDbEntity
  8
Eurostyl
 62
     1
100
AcDbVertex
100
AcDb2dVertex
 10
0.3203036224163431
 20
0.2135658631748354
 30
0.0
  0
VERTEX
  5
FCE
330
FC5
100
AcDbEntity
  8
Eurostyl
 62
     1
100
AcDbVertex
100
AcDb2dVertex
 10
0.3207602297581094
 20
0.2142169537669813
 30
0.0
  0
VERTEX
  5
FCF
330
FC5
100
AcDbEntity
  8
Eurostyl
 62
     1
100
AcDbVertex
100
AcDb2dVertex
 10
0.3212294852054971
 20
0.214809015644232
 30
0.0
  0
VERTEX
  5
FD0
330
FC5
100
AcDbEntity
  8
Eurostyl
 62
     1
100
AcDbVertex
100
AcDb2dVertex
 10
0.3214672123707193
 20
0.2150782982534563
 30
0.0
  0
VERTEX
  5
FD1
330
FC5
100
AcDbEntity
  8
Eurostyl
 62
     1
100
AcDbVertex
100
AcDb2dVertex
 10
0.321706119707908
 20
0.2153272884613669
 30
0.0
  0
VERTEX
  5
FD2
330
FC5
100
AcDbEntity
  8
Eurostyl
 62
     1
100
AcDbVertex
100
AcDb2dVertex
 10
0.3219455575264352
 20
0.215554142994324
 30
0.0
  0
VERTEX
  5
FD3
330
FC5
100
AcDbEntity
  8
Eurostyl
 62
     1
100
AcDbVertex
100
AcDb2dVertex
 10
0.322184864214744
 20
0.2157570155984557
 30
0.0
  0
VERTEX
  5
FD4
330
FC5
100
AcDbEntity
  8
Eurostyl
 62
     1
100
AcDbVertex
100
AcDb2dVertex
 10
0.322304264239158
 20
0.2158488827473318
 30
0.0
  0
VERTEX
  5
FD5
330
FC5
100
AcDbEntity
  8
Eurostyl
 62
     1
100
AcDbVertex
100
AcDb2dVertex
 10
0.3224233781612771
 20
0.2159340630001223
 30
0.0
  0
VERTEX
  5
FD6
330
FC5
100
AcDbEntity
  8
Eurostyl
 62
     1
100
AcDbVertex
100
AcDb2dVertex
 10
0.3225421344555277
 20
0.2160123253888285
 30
0.0
  0
VERTEX
  5
FD7
330
FC5
100
AcDbEntity
  8
Eurostyl
 62
     1
100
AcDbVertex
100
AcDb2dVertex
 10
0.3226604496754068
 20
0.21608343969051
 30
0.0
  0
VERTEX
  5
FD8
330
FC5
100
AcDbEntity
  8
Eurostyl
 62
     1
100
AcDbVertex
100
AcDb2dVertex
 10
0.3229318832672494
 20
0.2162295001274741
 30
0.0
  0
VERTEX
  5
FD9
330
FC5
100
AcDbEntity
  8
Eurostyl
 62
     1
100
AcDbVertex
100
AcDb2dVertex
 10
0.3232676183498758
 20
0.2163959848410284
 30
0.0
  0
VERTEX
  5
FDA
330
FC5
100
AcDbEntity
  8
Eurostyl
 62
     1
100
AcDbVertex
100
AcDb2dVertex
 10
0.324094042710151
 20
0.2167791547900832
 30
0.0
  0
VERTEX
  5
FDB
330
FC5
100
AcDbEntity
  8
Eurostyl
 62
     1
100
AcDbVertex
100
AcDb2dVertex
 10
0.3261010741508859
 20
0.2176688278741038
 30
0.0
  0
VERTEX
  5
FDC
330
FC5
100
AcDbEntity
  8
Eurostyl
 62
     1
100
AcDbVertex
100
AcDb2dVertex
 10
0.3280743812836068
 20
0.2185753668374216
 30
0.0
  0
VERTEX
  5
FDD
330
FC5
100
AcDbEntity
  8
Eurostyl
 62
     1
100
AcDbVertex
100
AcDb2dVertex
 10
0.328858641318168
 20
0.2189796189493334
 30
0.0
  0
VERTEX
  5
FDE
330
FC5
100
AcDbEntity
  8
Eurostyl
 62
     1
100
AcDbVertex
100
AcDb2dVertex
 10
0.3291669701851267
 20
0.2191598067707217
 30
0.0
  0
VERTEX
  5
FDF
330
FC5
100
AcDbEntity
  8
Eurostyl
 62
     1
100
AcDbVertex
100
AcDb2dVertex
 10
0.3292960321224588
 20
0.2192432055896914
 30
0.0
  0
VERTEX
  5
FE0
330
FC5
100
AcDbEntity
  8
Eurostyl
 62
     1
100
AcDbVertex
100
AcDb2dVertex
 10
0.3294067775524514
 20
0.2193216795748865
 30
0.0
  0
VERTEX
  5
FE1
330
FC5
100
AcDbEntity
  8
Eurostyl
 62
     1
100
AcDbVertex
100
AcDb2dVertex
 10
0.3315993403709787
 20
0.2209745312756693
 30
0.0
  0
VERTEX
  5
FE2
330
FC5
100
AcDbEntity
  8
Eurostyl
 62
     1
100
AcDbVertex
100
AcDb2dVertex
 10
0.3322344427622216
 20
0.2215116026527083
 30
0.0
  0
VERTEX
  5
FE3
330
FC5
100
AcDbEntity
  8
Eurostyl
 62
     1
100
AcDbVertex
100
AcDb2dVertex
 10
0.3328600590742487
 20
0.2220918926126158
 30
0.0
  0
VERTEX
  5
FE4
330
FC5
100
AcDbEntity
  8
Eurostyl
 62
     1
100
AcDbVertex
100
AcDb2dVertex
 10
0.33345405214199
 20
0.2227122391289866
 30
0.0
  0
VERTEX
  5
FE5
330
FC5
100
AcDbEntity
  8
Eurostyl
 62
     1
100
AcDbVertex
100
AcDb2dVertex
 10
0.3337322747028726
 20
0.2230364451831972
 30
0.0
  0
VERTEX
  5
FE6
330
FC5
100
AcDbEntity
  8
Eurostyl
 62
     1
100
AcDbVertex
100
AcDb2dVertex
 10
0.3339942877806085
 20
0.2233694801754153
 30
0.0
  0
VERTEX
  5
FE7
330
FC5
100
AcDbEntity
  8
Eurostyl
 62
     1
100
AcDbVertex
100
AcDb2dVertex
 10
0.3368727242267984
 20
0.2275971810049212
 30
0.0
  0
SEQEND
  5
FE8
330
FC5
100
AcDbEntity
  8
Eurostyl
 62
     1
  0
POLYLINE
  5
FE9
330
2
100
AcDbEntity
  8
Eurostyl
 62
     1
100
AcDb2dPolyline
 66
     1
 10
0.0
 20
0.0
 30
0.0
  0
VERTEX
  5
FEA
330
FE9
100
AcDbEntity
  8
Eurostyl
 62
     1
100
AcDbVertex
100
AcDb2dVertex
 10
0.3444286143101114
 20
0.2344334671920931
 30
0.0
  0
VERTEX
  5
FEB
330
FE9
100
AcDbEntity
  8
Eurostyl
 62
     1
100
AcDbVertex
100
AcDb2dVertex
 10
0.343439153364982
 20
0.2344334671920931
 30
0.0
  0
SEQEND
  5
FEC
330
FE9
100
AcDbEntity
  8
Eurostyl
 62
     1
  0
POLYLINE
  5
10C4
330
2
100
AcDbEntity
  8
Eurostyl
 62
     1
100
AcDb2dPolyline
 66
     1
 10
0.0
 20
0.0
 30
0.0
  0
VERTEX
  5
10C5
330
10C4
100
AcDbEntity
  8
Eurostyl
 62
     1
100
AcDbVertex
100
AcDb2dVertex
 10
0.3409366549042853
 20
0.2337573296872565
 30
0.0
  0
VERTEX
  5
10C6
330
10C4
100
AcDbEntity
  8
Eurostyl
 62
     1
100
AcDbVertex
100
AcDb2dVertex
 10
0.3403920596159357
 20
0.2337532113022005
 30
0.0
  0
VERTEX
  5
10C7
330
10C4
100
AcDbEntity
  8
Eurostyl
 62
     1
100
AcDbVertex
100
AcDb2dVertex
 10
0.3387616967476266
 20
0.2338038081950343
 30
0.0
  0
VERTEX
  5
10C8
330
10C4
100
AcDbEntity
  8
Eurostyl
 62
     1
100
AcDbVertex
100
AcDb2dVertex
 10
0.3375227605617898
 20
0.2335929880565798
 30
0.0
  0
VERTEX
  5
10C9
330
10C4
100
AcDbEntity
  8
Eurostyl
 62
     1
100
AcDbVertex
100
AcDb2dVertex
 10
0.3357842629469293
 20
0.2331660697883761
 30
0.0
  0
SEQEND
  5
10CA
330
10C4
100
AcDbEntity
  8
Eurostyl
 62
     1
  0
POLYLINE
  5
1117
330
2
100
AcDbEntity
  8
Eurostyl
 62
     1
100
AcDb2dPolyline
 66
     1
 10
0.0
 20
0.0
 30
0.0
 70
     1
  0
VERTEX
  5
1118
330
1117
100
AcDbEntity
  8
Eurostyl
 62
     1
100
AcDbVertex
100
AcDb2dVertex
 10
0.2512937988549884
 20
0.1443120282921344
 30
0.0
  0
VERTEX
  5
1119
330
1117
100
AcDbEntity
  8
Eurostyl
 62
     1
100
AcDbVertex
100
AcDb2dVertex
 10
0.250304337909859
 20
0.1443120282921344
 30
0.0
  0
VERTEX
  5
111A
330
1117
100
AcDbEntity
  8
Eurostyl
 62
     1
100
AcDbVertex
100
AcDb2dVertex
 10
0.2502684976369555
 20
0.144211184683755
 30
0.0
  0
VERTEX
  5
111B
330
1117
100
AcDbEntity
  8
Eurostyl
 62
     1
100
AcDbVertex
100
AcDb2dVertex
 10
0.2502580549031909
 20
0.144186220768407
 30
0.0
  0
VERTEX
  5
111C
330
1117
100
AcDbEntity
  8
Eurostyl
 62
     1
100
AcDbVertex
100
AcDb2dVertex
 10
0.2502466286927874
 20
0.1441614222559482
 30
0.0
  0
VERTEX
  5
111D
330
1117
100
AcDbEntity
  8
Eurostyl
 62
     1
100
AcDbVertex
100
AcDb2dVertex
 10
0.2502340103894884
 20
0.1441368204388171
 30
0.0
  0
VERTEX
  5
111E
330
1117
100
AcDbEntity
  8
Eurostyl
 62
     1
100
AcDbVertex
100
AcDb2dVertex
 10
0.2502200092584307
 20
0.1441124480995685
 30
0.0
  0
VERTEX
  5
111F
330
1117
100
AcDbEntity
  8
Eurostyl
 62
     1
100
AcDbVertex
100
AcDb2dVertex
 10
0.2502044286042864
 20
0.1440883410009891
 30
0.0
  0
VERTEX
  5
1120
330
1117
100
AcDbEntity
  8
Eurostyl
 62
     1
100
AcDbVertex
100
AcDb2dVertex
 10
0.2501870687514956
 20
0.1440645289454013
 30
0.0
  0
VERTEX
  5
1121
330
1117
100
AcDbEntity
  8
Eurostyl
 62
     1
100
AcDbVertex
100
AcDb2dVertex
 10
0.2501677330047304
 20
0.1440410491857082
 30
0.0
  0
VERTEX
  5
1122
330
1117
100
AcDbEntity
  8
Eurostyl
 62
     1
100
AcDbVertex
100
AcDb2dVertex
 10
0.2501462246686632
 20
0.1440179300341159
 30
0.0
  0
VERTEX
  5
1123
330
1117
100
AcDbEntity
  8
Eurostyl
 62
     1
100
AcDbVertex
100
AcDb2dVertex
 10
0.2501223410875018
 20
0.1439952057632953
 30
0.0
  0
VERTEX
  5
1124
330
1117
100
AcDbEntity
  8
Eurostyl
 62
     1
100
AcDbVertex
100
AcDb2dVertex
 10
0.2500958885461504
 20
0.1439729091558009
 30
0.0
  0
VERTEX
  5
1125
330
1117
100
AcDbEntity
  8
Eurostyl
 62
     1
100
AcDbVertex
100
AcDb2dVertex
 10
0.2500666703492816
 20
0.1439510744843036
 30
0.0
  0
VERTEX
  5
1126
330
1117
100
AcDbEntity
  8
Eurostyl
 62
     1
100
AcDbVertex
100
AcDb2dVertex
 10
0.2500344838411028
 20
0.143929736021474
 30
0.0
  0
VERTEX
  5
1127
330
1117
100
AcDbEntity
  8
Eurostyl
 62
     1
100
AcDbVertex
100
AcDb2dVertex
 10
0.249999138286751
 20
0.1439089220795184
 30
0.0
  0
VERTEX
  5
1128
330
1117
100
AcDbEntity
  8
Eurostyl
 62
     1
100
AcDbVertex
100
AcDb2dVertex
 10
0.2499604369908984
 20
0.1438886684212237
 30
0.0
  0
VERTEX
  5
1129
330
1117
100
AcDbEntity
  8
Eurostyl
 62
     1
100
AcDbVertex
100
AcDb2dVertex
 10
0.2499181713372882
 20
0.1438690078291446
 30
0.0
  0
VERTEX
  5
112A
330
1117
100
AcDbEntity
  8
Eurostyl
 62
     1
100
AcDbVertex
100
AcDb2dVertex
 10
0.2498721535712893
 20
0.1438499745759517
 30
0.0
  0
VERTEX
  5
112B
330
1117
100
AcDbEntity
  8
Eurostyl
 62
     1
100
AcDbVertex
100
AcDb2dVertex
 10
0.2498221810371096
 20
0.1438315984639674
 30
0.0
  0
VERTEX
  5
112C
330
1117
100
AcDbEntity
  8
Eurostyl
 62
     1
100
AcDbVertex
100
AcDb2dVertex
 10
0.2497680570394213
 20
0.1438139137658626
 30
0.0
  0
VERTEX
  5
112D
330
1117
100
AcDbEntity
  8
Eurostyl
 62
     1
100
AcDbVertex
100
AcDb2dVertex
 10
0.2496465708524401
 20
0.1437807527217418
 30
0.0
  0
VERTEX
  5
112E
330
1117
100
AcDbEntity
  8
Eurostyl
 62
     1
100
AcDbVertex
100
AcDb2dVertex
 10
0.2495061095267947
 20
0.1437507551941425
 30
0.0
  0
VERTEX
  5
112F
330
1117
100
AcDbEntity
  8
Eurostyl
 62
     1
100
AcDbVertex
100
AcDb2dVertex
 10
0.2493450965196307
 20
0.1437241819533855
 30
0.0
  0
VERTEX
  5
1130
330
1117
100
AcDbEntity
  8
Eurostyl
 62
     1
100
AcDbVertex
100
AcDb2dVertex
 10
0.2489550735265429
 20
0.1436823692950755
 30
0.0
  0
VERTEX
  5
1131
330
1117
100
AcDbEntity
  8
Eurostyl
 62
     1
100
AcDbVertex
100
AcDb2dVertex
 10
0.248093506267708
 20
0.1436380964550525
 30
0.0
  0
VERTEX
  5
1132
330
1117
100
AcDbEntity
  8
Eurostyl
 62
     1
100
AcDbVertex
100
AcDb2dVertex
 10
0.2472572441608126
 20
0.1436317724022418
 30
0.0
  0
VERTEX
  5
1133
330
1117
100
AcDbEntity
  8
Eurostyl
 62
     1
100
AcDbVertex
100
AcDb2dVertex
 10
0.2456268812925036
 20
0.1436823692950755
 30
0.0
  0
VERTEX
  5
1134
330
1117
100
AcDbEntity
  8
Eurostyl
 62
     1
100
AcDbVertex
100
AcDb2dVertex
 10
0.2443879451066668
 20
0.1434715491566211
 30
0.0
  0
VERTEX
  5
1135
330
1117
100
AcDbEntity
  8
Eurostyl
 62
     1
100
AcDbVertex
100
AcDb2dVertex
 10
0.2437856044084246
 20
0.1433503252300769
 30
0.0
  0
VERTEX
  5
1136
330
1117
100
AcDbEntity
  8
Eurostyl
 62
     1
100
AcDbVertex
100
AcDb2dVertex
 10
0.2432038243323977
 20
0.1432101276549846
 30
0.0
  0
VERTEX
  5
1137
330
1117
100
AcDbEntity
  8
Eurostyl
 62
     1
100
AcDbVertex
100
AcDb2dVertex
 10
0.2426494474918063
 20
0.1430446308884174
 30
0.0
  0
VERTEX
  5
1138
330
1117
100
AcDbEntity
  8
Eurostyl
 62
     1
100
AcDbVertex
100
AcDb2dVertex
 10
0.2423846776992495
 20
0.1429504197868854
 30
0.0
  0
VERTEX
  5
1139
330
1117
100
AcDbEntity
  8
Eurostyl
 62
     1
100
AcDbVertex
100
AcDb2dVertex
 10
0.2421293284207995
 20
0.1428475123676807
 30
0.0
  0
VERTEX
  5
113A
330
1117
100
AcDbEntity
  8
Eurostyl
 62
     1
100
AcDbVertex
100
AcDb2dVertex
 10
0.241884257963341
 20
0.1427351173791438
 30
0.0
  0
VERTEX
  5
113B
330
1117
100
AcDbEntity
  8
Eurostyl
 62
     1
100
AcDbVertex
100
AcDb2dVertex
 10
0.2416503216535266
 20
0.1426124450597316
 30
0.0
  0
VERTEX
  5
113C
330
1117
100
AcDbEntity
  8
Eurostyl
 62
     1
100
AcDbVertex
100
AcDb2dVertex
 10
0.2414283748180086
 20
0.1424787026676685
 30
0.0
  0
VERTEX
  5
113D
330
1117
100
AcDbEntity
  8
Eurostyl
 62
     1
100
AcDbVertex
100
AcDb2dVertex
 10
0.2412192757636721
 20
0.1423331034216434
 30
0.0
  0
VERTEX
  5
113E
330
1117
100
AcDbEntity
  8
Eurostyl
 62
     1
100
AcDbVertex
100
AcDb2dVertex
 10
0.2410148228913958
 20
0.1421720218691379
 30
0.0
  0
VERTEX
  5
113F
330
1117
100
AcDbEntity
  8
Eurostyl
 62
     1
100
AcDbVertex
100
AcDb2dVertex
 10
0.2408064152509386
 20
0.1419931513103992
 30
0.0
  0
VERTEX
  5
1140
330
1117
100
AcDbEntity
  8
Eurostyl
 62
     1
100
AcDbVertex
100
AcDb2dVertex
 10
0.2403787966281588
 20
0.1415867906841785
 30
0.0
  0
VERTEX
  5
1141
330
1117
100
AcDbEntity
  8
Eurostyl
 62
     1
100
AcDbVertex
100
AcDb2dVertex
 10
0.2399385269195254
 20
0.1411235076221973
 30
0.0
  0
VERTEX
  5
1142
330
1117
100
AcDbEntity
  8
Eurostyl
 62
     1
100
AcDbVertex
100
AcDb2dVertex
 10
0.2394877161294635
 20
0.1406127882036716
 30
0.0
  0
VERTEX
  5
1143
330
1117
100
AcDbEntity
  8
Eurostyl
 62
     1
100
AcDbVertex
100
AcDb2dVertex
 10
0.2376212324411089
 20
0.1382853028211146
 30
0.0
  0
VERTEX
  5
1144
330
1117
100
AcDbEntity
  8
Eurostyl
 62
     1
100
AcDbVertex
100
AcDb2dVertex
 10
0.2374155010492022
 20
0.1379479867252856
 30
0.0
  0
VERTEX
  5
1145
330
1117
100
AcDbEntity
  8
Eurostyl
 62
     1
100
AcDbVertex
100
AcDb2dVertex
 10
0.2371897484571154
 20
0.1376106691393405
 30
0.0
  0
VERTEX
  5
1146
330
1117
100
AcDbEntity
  8
Eurostyl
 62
     1
100
AcDbVertex
100
AcDb2dVertex
 10
0.2370631005078966
 20
0.1374420118364841
 30
0.0
  0
VERTEX
  5
1147
330
1117
100
AcDbEntity
  8
Eurostyl
 62
     1
100
AcDbVertex
100
AcDb2dVertex
 10
0.2369239355832751
 20
0.1372733530435115
 30
0.0
  0
VERTEX
  5
1148
330
1117
100
AcDbEntity
  8
Eurostyl
 62
     1
100
AcDbVertex
100
AcDb2dVertex
 10
0.2367697502881701
 20
0.1371046942505389
 30
0.0
  0
VERTEX
  5
1149
330
1117
100
AcDbEntity
  8
Eurostyl
 62
     1
100
AcDbVertex
100
AcDb2dVertex
 10
0.2365980412275012
 20
0.1369360369476825
 30
0.0
  0
VERTEX
  5
114A
330
1117
100
AcDbEntity
  8
Eurostyl
 62
     1
100
AcDbVertex
100
AcDb2dVertex
 10
0.2364062990457232
 20
0.1367673781547099
 30
0.0
  0
VERTEX
  5
114B
330
1117
100
AcDbEntity
  8
Eurostyl
 62
     1
100
AcDbVertex
100
AcDb2dVertex
 10
0.2361920263082202
 20
0.1365987193617374
 30
0.0
  0
VERTEX
  5
114C
330
1117
100
AcDbEntity
  8
Eurostyl
 62
     1
100
AcDbVertex
100
AcDb2dVertex
 10
0.2359527196199114
 20
0.1364300620588809
 30
0.0
  0
VERTEX
  5
114D
330
1117
100
AcDbEntity
  8
Eurostyl
 62
     1
100
AcDbVertex
100
AcDb2dVertex
 10
0.2356858755857165
 20
0.1362614032659084
 30
0.0
  0
VERTEX
  5
114E
330
1117
100
AcDbEntity
  8
Eurostyl
 62
     1
100
AcDbVertex
100
AcDb2dVertex
 10
0.2353889908105548
 20
0.1360927444729358
 30
0.0
  0
VERTEX
  5
114F
330
1117
100
AcDbEntity
  8
Eurostyl
 62
     1
100
AcDbVertex
100
AcDb2dVertex
 10
0.2350595559388812
 20
0.1359240871700793
 30
0.0
  0
VERTEX
  5
1150
330
1117
100
AcDbEntity
  8
Eurostyl
 62
     1
100
AcDbVertex
100
AcDb2dVertex
 10
0.2346950735360797
 20
0.1357554283771068
 30
0.0
  0
VERTEX
  5
1151
330
1117
100
AcDbEntity
  8
Eurostyl
 62
     1
100
AcDbVertex
100
AcDb2dVertex
 10
0.2342930402070697
 20
0.1355867695841342
 30
0.0
  0
VERTEX
  5
1152
330
1117
100
AcDbEntity
  8
Eurostyl
 62
     1
100
AcDbVertex
100
AcDb2dVertex
 10
0.2338524843961413
 20
0.1353987646135837
 30
0.0
  0
VERTEX
  5
1153
330
1117
100
AcDbEntity
  8
Eurostyl
 62
     1
100
AcDbVertex
100
AcDb2dVertex
 10
0.2333785976678546
 20
0.1351747867497951
 30
0.0
  0
VERTEX
  5
1154
330
1117
100
AcDbEntity
  8
Eurostyl
 62
     1
100
AcDbVertex
100
AcDb2dVertex
 10
0.2323576893121417
 20
0.1346352559361011
 30
0.0
  0
VERTEX
  5
1155
330
1117
100
AcDbEntity
  8
Eurostyl
 62
     1
100
AcDbVertex
100
AcDb2dVertex
 10
0.2312840725690539
 20
0.1340008538994342
 30
0.0
  0
VERTEX
  5
1156
330
1117
100
AcDbEntity
  8
Eurostyl
 62
     1
100
AcDbVertex
100
AcDb2dVertex
 10
0.2302115108281786
 20
0.1333042603764087
 30
0.0
  0
VERTEX
  5
1157
330
1117
100
AcDbEntity
  8
Eurostyl
 62
     1
100
AcDbVertex
100
AcDb2dVertex
 10
0.2291937615186388
 20
0.1325781506332904
 30
0.0
  0
VERTEX
  5
1158
330
1117
100
AcDbEntity
  8
Eurostyl
 62
     1
100
AcDbVertex
100
AcDb2dVertex
 10
0.2282845880300219
 20
0.1318552036616355
 30
0.0
  0
VERTEX
  5
1159
330
1117
100
AcDbEntity
  8
Eurostyl
 62
     1
100
AcDbVertex
100
AcDb2dVertex
 10
0.2278875138074572
 20
0.1315051284465343
 30
0.0
  0
VERTEX
  5
115A
330
1117
100
AcDbEntity
  8
Eurostyl
 62
     1
100
AcDbVertex
100
AcDb2dVertex
 10
0.2275377477914508
 20
0.1311680969628841
 30
0.0
  0
VERTEX
  5
115B
330
1117
100
AcDbEntity
  8
Eurostyl
 62
     1
100
AcDbVertex
100
AcDb2dVertex
 10
0.2272420014650042
 20
0.1308481951090842
 30
0.0
  0
VERTEX
  5
115C
330
1117
100
AcDbEntity
  8
Eurostyl
 62
     1
100
AcDbVertex
100
AcDb2dVertex
 10
0.2271164860040362
 20
0.1306959439847022
 30
0.0
  0
VERTEX
  5
115D
330
1117
100
AcDbEntity
  8
Eurostyl
 62
     1
100
AcDbVertex
100
AcDb2dVertex
 10
0.2270069982320483
 20
0.130549507293418
 30
0.0
  0
VERTEX
  5
115E
330
1117
100
AcDbEntity
  8
Eurostyl
 62
     1
100
AcDbVertex
100
AcDb2dVertex
 10
0.2262269582063372
 20
0.1294504170152694
 30
0.0
  0
VERTEX
  5
115F
330
1117
100
AcDbEntity
  8
Eurostyl
 62
     1
100
AcDbVertex
100
AcDb2dVertex
 10
0.2258543278485949
 20
0.1289525237712413
 30
0.0
  0
VERTEX
  5
1160
330
1117
100
AcDbEntity
  8
Eurostyl
 62
     1
100
AcDbVertex
100
AcDb2dVertex
 10
0.2254890765458758
 20
0.1285031196507961
 30
0.0
  0
VERTEX
  5
1161
330
1117
100
AcDbEntity
  8
Eurostyl
 62
     1
100
AcDbVertex
100
AcDb2dVertex
 10
0.2253082300931628
 20
0.1282998946342021
 30
0.0
  0
VERTEX
  5
1162
330
1117
100
AcDbEntity
  8
Eurostyl
 62
     1
100
AcDbVertex
100
AcDb2dVertex
 10
0.2251280392915423
 20
0.1281127457353621
 30
0.0
  0
VERTEX
  5
1163
330
1117
100
AcDbEntity
  8
Eurostyl
 62
     1
100
AcDbVertex
100
AcDb2dVertex
 10
0.2249481167108233
 20
0.1279429894718677
 30
0.0
  0
VERTEX
  5
1164
330
1117
100
AcDbEntity
  8
Eurostyl
 62
     1
100
AcDbVertex
100
AcDb2dVertex
 10
0.2247680629998858
 20
0.1277919438514262
 30
0.0
  0
VERTEX
  5
1165
330
1117
100
AcDbEntity
  8
Eurostyl
 62
     1
100
AcDbVertex
100
AcDb2dVertex
 10
0.2246778573304827
 20
0.1277238485250026
 30
0.0
  0
VERTEX
  5
1166
330
1117
100
AcDbEntity
  8
Eurostyl
 62
     1
100
AcDbVertex
100
AcDb2dVertex
 10
0.2245874788076098
 20
0.1276609253916293
 30
0.0
  0
VERTEX
  5
1167
330
1117
100
AcDbEntity
  8
Eurostyl
 62
     1
100
AcDbVertex
100
AcDb2dVertex
 10
0.2244968678266223
 20
0.1276033391091377
 30
0.0
  0
VERTEX
  5
1168
330
1117
100
AcDbEntity
  8
Eurostyl
 62
     1
100
AcDbVertex
100
AcDb2dVertex
 10
0.2244059707433398
 20
0.1275512543353587
 30
0.0
  0
VERTEX
  5
1169
330
1117
100
AcDbEntity
  8
Eurostyl
 62
     1
100
AcDbVertex
100
AcDb2dVertex
 10
0.2243147517949755
 20
0.1275048342380076
 30
0.0
  0
VERTEX
  5
116A
330
1117
100
AcDbEntity
  8
Eurostyl
 62
     1
100
AcDbVertex
100
AcDb2dVertex
 10
0.2242231513768847
 20
0.1274642457100898
 30
0.0
  0
VERTEX
  5
116B
330
1117
100
AcDbEntity
  8
Eurostyl
 62
     1
100
AcDbVertex
100
AcDb2dVertex
 10
0.2241311218053515
 20
0.1274296519193202
 30
0.0
  0
VERTEX
  5
116C
330
1117
100
AcDbEntity
  8
Eurostyl
 62
     1
100
AcDbVertex
100
AcDb2dVertex
 10
0.2240386153966601
 20
0.1274012182685882
 30
0.0
  0
VERTEX
  5
116D
330
1117
100
AcDbEntity
  8
Eurostyl
 62
     1
100
AcDbVertex
100
AcDb2dVertex
 10
0.2238388146669085
 20
0.1273425389859229
 30
0.0
  0
VERTEX
  5
116E
330
1117
100
AcDbEntity
  8
Eurostyl
 62
     1
100
AcDbVertex
100
AcDb2dVertex
 10
0.2236124004632647
 20
0.1272648853096515
 30
0.0
  0
VERTEX
  5
116F
330
1117
100
AcDbEntity
  8
Eurostyl
 62
     1
100
AcDbVertex
100
AcDb2dVertex
 10
0.2233622695714648
 20
0.1271640424463302
 30
0.0
  0
VERTEX
  5
1170
330
1117
100
AcDbEntity
  8
Eurostyl
 62
     1
100
AcDbVertex
100
AcDb2dVertex
 10
0.2230913128167804
 20
0.127035791877225
 30
0.0
  0
VERTEX
  5
1171
330
1117
100
AcDbEntity
  8
Eurostyl
 62
     1
100
AcDbVertex
100
AcDb2dVertex
 10
0.2228024448663409
 20
0.1268759173187762
 30
0.0
  0
VERTEX
  5
1172
330
1117
100
AcDbEntity
  8
Eurostyl
 62
     1
100
AcDbVertex
100
AcDb2dVertex
 10
0.2224985505849535
 20
0.1266802047225982
 30
0.0
  0
VERTEX
  5
1173
330
1117
100
AcDbEntity
  8
Eurostyl
 62
     1
100
AcDbVertex
100
AcDb2dVertex
 10
0.2221825386792834
 20
0.1264444333347827
 30
0.0
  0
VERTEX
  5
1174
330
1117
100
AcDbEntity
  8
Eurostyl
 62
     1
100
AcDbVertex
100
AcDb2dVertex
 10
0.2220208908826525
 20
0.126310208890155
 30
0.0
  0
VERTEX
  5
1175
330
1117
100
AcDbEntity
  8
Eurostyl
 62
     1
100
AcDbVertex
100
AcDb2dVertex
 10
0.221857299974602
 20
0.1261643905970603
 30
0.0
  0
VERTEX
  5
1176
330
1117
100
AcDbEntity
  8
Eurostyl
 62
     1
100
AcDbVertex
100
AcDb2dVertex
 10
0.2216921295434649
 20
0.1260064487192184
 30
0.0
  0
VERTEX
  5
1177
330
1117
100
AcDbEntity
  8
Eurostyl
 62
     1
100
AcDbVertex
100
AcDb2dVertex
 10
0.2215257372171099
 20
0.125835857990697
 30
0.0
  0
VERTEX
  5
1178
330
1117
100
AcDbEntity
  8
Eurostyl
 62
     1
100
AcDbVertex
100
AcDb2dVertex
 10
0.2211907471925433
 20
0.1254546199771911
 30
0.0
  0
VERTEX
  5
1179
330
1117
100
AcDbEntity
  8
Eurostyl
 62
     1
100
AcDbVertex
100
AcDb2dVertex
 10
0.2208552326471026
 20
0.1250164595279246
 30
0.0
  0
VERTEX
  5
117A
330
1117
100
AcDbEntity
  8
Eurostyl
 62
     1
100
AcDbVertex
100
AcDb2dVertex
 10
0.220522090366524
 20
0.1245171603593379
 30
0.0
  0
VERTEX
  5
117B
330
1117
100
AcDbEntity
  8
Eurostyl
 62
     1
100
AcDbVertex
100
AcDb2dVertex
 10
0.2201942171365435
 20
0.1239525061878711
 30
0.0
  0
VERTEX
  5
117C
330
1117
100
AcDbEntity
  8
Eurostyl
 62
     1
100
AcDbVertex
100
AcDb2dVertex
 10
0.2198745097428973
 20
0.1233182807299644
 30
0.0
  0
VERTEX
  5
117D
330
1117
100
AcDbEntity
  8
Eurostyl
 62
     1
100
AcDbVertex
100
AcDb2dVertex
 10
0.2195658768922503
 20
0.122610267702058
 30
0.0
  0
VERTEX
  5
117E
330
1117
100
AcDbEntity
  8
Eurostyl
 62
     1
100
AcDbVertex
100
AcDb2dVertex
 10
0.2192712034494097
 20
0.1218242493304759
 30
0.0
  0
VERTEX
  5
117F
330
1117
100
AcDbEntity
  8
Eurostyl
 62
     1
100
AcDbVertex
100
AcDb2dVertex
 10
0.2164827193528826
 20
0.1142683562669307
 30
0.0
  0
VERTEX
  5
1180
330
1117
100
AcDbEntity
  8
Eurostyl
 62
     1
100
AcDbVertex
100
AcDb2dVertex
 10
0.2233190025598223
 20
0.1142683562669307
 30
0.0
  0
VERTEX
  5
1181
330
1117
100
AcDbEntity
  8
Eurostyl
 62
     1
100
AcDbVertex
100
AcDb2dVertex
 10
0.2245558347016985
 20
0.1179788392815143
 30
0.0
  0
VERTEX
  5
1182
330
1117
100
AcDbEntity
  8
Eurostyl
 62
     1
100
AcDbVertex
100
AcDb2dVertex
 10
0.2252164091378863
 20
0.1197075870666057
 30
0.0
  0
VERTEX
  5
1183
330
1117
100
AcDbEntity
  8
Eurostyl
 62
     1
100
AcDbVertex
100
AcDb2dVertex
 10
0.2255646194726641
 20
0.1205182012948543
 30
0.0
  0
VERTEX
  5
1184
330
1117
100
AcDbEntity
  8
Eurostyl
 62
     1
100
AcDbVertex
100
AcDb2dVertex
 10
0.2259275879174884
 20
0.1212845426830798
 30
0.0
  0
VERTEX
  5
1185
330
1117
100
AcDbEntity
  8
Eurostyl
 62
     1
100
AcDbVertex
100
AcDb2dVertex
 10
0.2263146247178728
 20
0.122024180445388
 30
0.0
  0
VERTEX
  5
1186
330
1117
100
AcDbEntity
  8
Eurostyl
 62
     1
100
AcDbVertex
100
AcDb2dVertex
 10
0.2267301167756732
 20
0.1227490600976497
 30
0.0
  0
VERTEX
  5
1187
330
1117
100
AcDbEntity
  8
Eurostyl
 62
     1
100
AcDbVertex
100
AcDb2dVertex
 10
0.2271688069612201
 20
0.1234444242748767
 30
0.0
  0
VERTEX
  5
1188
330
1117
100
AcDbEntity
  8
Eurostyl
 62
     1
100
AcDbVertex
100
AcDb2dVertex
 10
0.2276254143029864
 20
0.1240955148670226
 30
0.0
  0
VERTEX
  5
1189
330
1117
100
AcDbEntity
  8
Eurostyl
 62
     1
100
AcDbVertex
100
AcDb2dVertex
 10
0.2280946697503741
 20
0.1246875767442733
 30
0.0
  0
VERTEX
  5
118A
330
1117
100
AcDbEntity
  8
Eurostyl
 62
     1
100
AcDbVertex
100
AcDb2dVertex
 10
0.2283323969155963
 20
0.1249568593534976
 30
0.0
  0
VERTEX
  5
118B
330
1117
100
AcDbEntity
  8
Eurostyl
 62
     1
100
AcDbVertex
100
AcDb2dVertex
 10
0.228571304252785
 20
0.1252058495614081
 30
0.0
  0
VERTEX
  5
118C
330
1117
100
AcDbEntity
  8
Eurostyl
 62
     1
100
AcDbVertex
100
AcDb2dVertex
 10
0.2288107420713122
 20
0.1254327040943652
 30
0.0
  0
VERTEX
  5
118D
330
1117
100
AcDbEntity
  8
Eurostyl
 62
     1
100
AcDbVertex
100
AcDb2dVertex
 10
0.2290500487596209
 20
0.1256355766984969
 30
0.0
  0
VERTEX
  5
118E
330
1117
100
AcDbEntity
  8
Eurostyl
 62
     1
100
AcDbVertex
100
AcDb2dVertex
 10
0.229169448784035
 20
0.1257274438473731
 30
0.0
  0
VERTEX
  5
118F
330
1117
100
AcDbEntity
  8
Eurostyl
 62
     1
100
AcDbVertex
100
AcDb2dVertex
 10
0.2292885627061541
 20
0.1258126241001636
 30
0.0
  0
VERTEX
  5
1190
330
1117
100
AcDbEntity
  8
Eurostyl
 62
     1
100
AcDbVertex
100
AcDb2dVertex
 10
0.2294073190004046
 20
0.1258908864888698
 30
0.0
  0
VERTEX
  5
1191
330
1117
100
AcDbEntity
  8
Eurostyl
 62
     1
100
AcDbVertex
100
AcDb2dVertex
 10
0.2295256342202838
 20
0.1259620007905513
 30
0.0
  0
VERTEX
  5
1192
330
1117
100
AcDbEntity
  8
Eurostyl
 62
     1
100
AcDbVertex
100
AcDb2dVertex
 10
0.2297970678121264
 20
0.1261080612275153
 30
0.0
  0
VERTEX
  5
1193
330
1117
100
AcDbEntity
  8
Eurostyl
 62
     1
100
AcDbVertex
100
AcDb2dVertex
 10
0.2301328028947527
 20
0.1262745459410697
 30
0.0
  0
VERTEX
  5
1194
330
1117
100
AcDbEntity
  8
Eurostyl
 62
     1
100
AcDbVertex
100
AcDb2dVertex
 10
0.230959227255028
 20
0.1266577158901244
 30
0.0
  0
VERTEX
  5
1195
330
1117
100
AcDbEntity
  8
Eurostyl
 62
     1
100
AcDbVertex
100
AcDb2dVertex
 10
0.2329662586957629
 20
0.1275473889741451
 30
0.0
  0
VERTEX
  5
1196
330
1117
100
AcDbEntity
  8
Eurostyl
 62
     1
100
AcDbVertex
100
AcDb2dVertex
 10
0.2349395658284838
 20
0.1284539279374629
 30
0.0
  0
VERTEX
  5
1197
330
1117
100
AcDbEntity
  8
Eurostyl
 62
     1
100
AcDbVertex
100
AcDb2dVertex
 10
0.235723825863045
 20
0.1288581800493747
 30
0.0
  0
VERTEX
  5
1198
330
1117
100
AcDbEntity
  8
Eurostyl
 62
     1
100
AcDbVertex
100
AcDb2dVertex
 10
0.2360321547300036
 20
0.1290383678707629
 30
0.0
  0
VERTEX
  5
1199
330
1117
100
AcDbEntity
  8
Eurostyl
 62
     1
100
AcDbVertex
100
AcDb2dVertex
 10
0.2361612166673357
 20
0.1291217666897326
 30
0.0
  0
VERTEX
  5
119A
330
1117
100
AcDbEntity
  8
Eurostyl
 62
     1
100
AcDbVertex
100
AcDb2dVertex
 10
0.2362719620973284
 20
0.1292002406749278
 30
0.0
  0
VERTEX
  5
119B
330
1117
100
AcDbEntity
  8
Eurostyl
 62
     1
100
AcDbVertex
100
AcDb2dVertex
 10
0.2384645249158556
 20
0.1308530923757106
 30
0.0
  0
VERTEX
  5
119C
330
1117
100
AcDbEntity
  8
Eurostyl
 62
     1
100
AcDbVertex
100
AcDb2dVertex
 10
0.2390996273070986
 20
0.1313901637527496
 30
0.0
  0
VERTEX
  5
119D
330
1117
100
AcDbEntity
  8
Eurostyl
 62
     1
100
AcDbVertex
100
AcDb2dVertex
 10
0.2397252436191256
 20
0.1319704537126571
 30
0.0
  0
VERTEX
  5
119E
330
1117
100
AcDbEntity
  8
Eurostyl
 62
     1
100
AcDbVertex
100
AcDb2dVertex
 10
0.240319236686867
 20
0.1325908002290279
 30
0.0
  0
VERTEX
  5
119F
330
1117
100
AcDbEntity
  8
Eurostyl
 62
     1
100
AcDbVertex
100
AcDb2dVertex
 10
0.2405974592477496
 20
0.1329150062832385
 30
0.0
  0
VERTEX
  5
11A0
330
1117
100
AcDbEntity
  8
Eurostyl
 62
     1
100
AcDbVertex
100
AcDb2dVertex
 10
0.2408594723254855
 20
0.1332480412754565
 30
0.0
  0
VERTEX
  5
11A1
330
1117
100
AcDbEntity
  8
Eurostyl
 62
     1
100
AcDbVertex
100
AcDb2dVertex
 10
0.2437379087716753
 20
0.1374757421049625
 30
0.0
  0
VERTEX
  5
11A2
330
1117
100
AcDbEntity
  8
Eurostyl
 62
     1
100
AcDbVertex
100
AcDb2dVertex
 10
0.2442705865413363
 20
0.1382403281363994
 30
0.0
  0
VERTEX
  5
11A3
330
1117
100
AcDbEntity
  8
Eurostyl
 62
     1
100
AcDbVertex
100
AcDb2dVertex
 10
0.2445111002237017
 20
0.1385762375626117
 30
0.0
  0
VERTEX
  5
11A4
330
1117
100
AcDbEntity
  8
Eurostyl
 62
     1
100
AcDbVertex
100
AcDb2dVertex
 10
0.2446336622745211
 20
0.1387289088997394
 30
0.0
  0
VERTEX
  5
11A5
330
1117
100
AcDbEntity
  8
Eurostyl
 62
     1
100
AcDbVertex
100
AcDb2dVertex
 10
0.2447610999852831
 20
0.138869984153226
 30
0.0
  0
VERTEX
  5
11A6
330
1117
100
AcDbEntity
  8
Eurostyl
 62
     1
100
AcDbVertex
100
AcDb2dVertex
 10
0.2448274310142215
 20
0.1389358443054706
 30
0.0
  0
VERTEX
  5
11A7
330
1117
100
AcDbEntity
  8
Eurostyl
 62
     1
100
AcDbVertex
100
AcDb2dVertex
 10
0.2448959197313006
 20
0.1389984113010913
 30
0.0
  0
VERTEX
  5
11A8
330
1117
100
AcDbEntity
  8
Eurostyl
 62
     1
100
AcDbVertex
100
AcDb2dVertex
 10
0.2449668760806735
 20
0.1390575510296374
 30
0.0
  0
VERTEX
  5
11A9
330
1117
100
AcDbEntity
  8
Eurostyl
 62
     1
100
AcDbVertex
100
AcDb2dVertex
 10
0.2450406159669573
 20
0.1391131338510066
 30
0.0
  0
VERTEX
  5
11AA
330
1117
100
AcDbEntity
  8
Eurostyl
 62
     1
100
AcDbVertex
100
AcDb2dVertex
 10
0.2451174552947695
 20
0.1391650271448642
 30
0.0
  0
VERTEX
  5
11AB
330
1117
100
AcDbEntity
  8
Eurostyl
 62
     1
100
AcDbVertex
100
AcDb2dVertex
 10
0.2451977010280306
 20
0.1392130982908756
 30
0.0
  0
VERTEX
  5
11AC
330
1117
100
AcDbEntity
  8
Eurostyl
 62
     1
100
AcDbVertex
100
AcDb2dVertex
 10
0.2452816720515902
 20
0.1392572176489383
 30
0.0
  0
VERTEX
  5
11AD
330
1117
100
AcDbEntity
  8
Eurostyl
 62
     1
100
AcDbVertex
100
AcDb2dVertex
 10
0.2453696753293688
 20
0.1392972525987178
 30
0.0
  0
VERTEX
  5
11AE
330
1117
100
AcDbEntity
  8
Eurostyl
 62
     1
100
AcDbVertex
100
AcDb2dVertex
 10
0.245462029746216
 20
0.1393330705198794
 30
0.0
  0
VERTEX
  5
11AF
330
1117
100
AcDbEntity
  8
Eurostyl
 62
     1
100
AcDbVertex
100
AcDb2dVertex
 10
0.2455590452462848
 20
0.1393645402822047
 30
0.0
  0
VERTEX
  5
11B0
330
1117
100
AcDbEntity
  8
Eurostyl
 62
     1
100
AcDbVertex
100
AcDb2dVertex
 10
0.2456610317737277
 20
0.139391529265359
 30
0.0
  0
VERTEX
  5
11B1
330
1117
100
AcDbEntity
  8
Eurostyl
 62
     1
100
AcDbVertex
100
AcDb2dVertex
 10
0.2457683052331622
 20
0.13941390782924
 30
0.0
  0
VERTEX
  5
11B2
330
1117
100
AcDbEntity
  8
Eurostyl
 62
     1
100
AcDbVertex
100
AcDb2dVertex
 10
0.2458811845094378
 20
0.1394315433535129
 30
0.0
  0
VERTEX
  5
11B3
330
1117
100
AcDbEntity
  8
Eurostyl
 62
     1
100
AcDbVertex
100
AcDb2dVertex
 10
0.2459999706060107
 20
0.139444301727727
 30
0.0
  0
VERTEX
  5
11B4
330
1117
100
AcDbEntity
  8
Eurostyl
 62
     1
100
AcDbVertex
100
AcDb2dVertex
 10
0.2461249853879626
 20
0.1394520533117801
 30
0.0
  0
VERTEX
  5
11B5
330
1117
100
AcDbEntity
  8
Eurostyl
 62
     1
100
AcDbVertex
100
AcDb2dVertex
 10
0.2462565387994464
 20
0.1394546669754535
 30
0.0
  0
VERTEX
  5
11B6
330
1117
100
AcDbEntity
  8
Eurostyl
 62
     1
100
AcDbVertex
100
AcDb2dVertex
 10
0.2512038494855578
 20
0.1394546669754535
 30
0.0
  0
SEQEND
  5
11B7
330
1117
100
AcDbEntity
  8
Eurostyl
 62
     1
  0
LINE
  5
11B8
330
2
100
AcDbEntity
  8
Dimensione
 62
     3
100
AcDbLine
 10
0.2233190025598223
 20
0.1142683562669307
 30
0.0
 11
0.259306259082678
 21
0.1142683562669307
 31
0.0
  0
LINE
  5
11B9
330
2
100
AcDbEntity
  8
Dimensione
 62
     2
100
AcDbLine
 10
0.2512038494855578
 20
0.1394546669754535
 30
0.0
 11
0.259306259082678
 21
0.1394546669754535
 31
0.0
  0
LINE
  5
11BB
330
2
100
AcDbEntity
  8
Dimensione
 62
     2
100
AcDbLine
 10
0.2662150548904951
 20
0.1394546669754535
 30
0.0
 11
0.3393834944342783
 21
0.1394546669754535
 31
0.0
  0
VIEWPORT
  5
7B
330
79
100
AcDbEntity
 67
     1
  8
0
100
AcDbViewport
 10
145.330337524414
 20
101.8116638660431
 30
0.0
 40
351.1337450215151
 41
222.1517806396485
 68
     1
 69
     1
 12
145.330337524414
 22
101.8116638660431
 13
0.0
 23
0.0
 14
10.0
 24
10.0
 15
10.0
 25
10.0
 16
0.0
 26
0.0
 36
1.0
 17
0.0
 27
0.0
 37
0.0
 42
50.0
 43
0.0
 44
0.0
 45
222.1517806396485
 50
0.0
 51
0.0
 72
  1000
 90
    32800
  1

281
     0
 71
     1
 74
     0
110
0.0
120
0.0
130
0.0
111
1.0
121
0.0
131
0.0
112
0.0
122
1.0
132
0.0
 79
     0
146
0.0
170
     0
  0
VIEWPORT
  5
80
330
79
100
AcDbEntity
 67
     1
  8
Sezione
100
AcDbViewport
 10
145.3303314447403
 20
101.8116623163223
 30
0.0
 40
232.5285303115845
 41
162.8986597061157
 68
     2
 69
     2
 12
0.2100067158578973
 22
0.1484909068076998
 13
0.0
 23
0.0
 14
10.0
 24
10.0
 15
10.0
 25
10.0
 16
0.0
 26
0.0
 36
1.0
 17
0.0
 27
0.0
 37
0.0
 42
50.0
 43
0.0
 44
0.0
 45
0.2752830087467564
 50
0.0
 51
0.0
 72
  1000
 90
    32864
  1

281
     0
 71
     1
 74
     0
110
0.0
120
0.0
130
0.0
111
1.0
121
0.0
131
0.0
112
0.0
122
1.0
132
0.0
 79
     0
146
0.0
170
     0
  0
ENDSEC
  0
SECTION
  2
OBJECTS
  0
DICTIONARY
  5
9
330
0
100
AcDbDictionary
281
     1
  3
ACAD_2007HEADERVARS_RT
350
14A
  3
ACAD_COLOR
350
A1
  3
ACAD_GROUP
350
9C
  3
ACAD_LAYOUT
350
78
  3
ACAD_MATERIAL
350
B
  3
ACAD_MLINESTYLE
350
9D
  3
ACAD_PLOTSETTINGS
350
9E
  3
ACAD_PLOTSTYLENAME
350
8
  3
ACAD_TABLESTYLE
350
A2
  3
ACAD_VISUALSTYLE
350
7F
  3
AcDbVariableDictionary
350
A9
  3
AEC_PROPERTY_SET_DEFS
350
10D
  0
DICTIONARY
  5
8B
330
8A
100
AcDbDictionary
280
     1
281
     1
  3
ACAD_LAYERFILTERS
360
48D
  3
ACAD_LAYERSTATES
360
8D
  3
ACLYDICTIONARY
360
48C
  0
DICTIONARY
  5
3
330
2
100
AcDbDictionary
280
     1
281
     1
  3
ACAD_SORTENTS
360
A8
  0
DICTIONARY
  5
14A
102
{ACAD_REACTORS
330
9
102
}
330
9
100
AcDbDictionary
281
     1
  3
DIMFXL
350
14B
  0
DICTIONARY
  5
A1
102
{ACAD_REACTORS
330
9
102
}
330
9
100
AcDbDictionary
281
     1
  0
DICTIONARY
  5
9C
102
{ACAD_REACTORS
330
9
102
}
330
9
100
AcDbDictionary
281
     1
  0
DICTIONARY
  5
78
102
{ACAD_REACTORS
330
9
102
}
330
9
100
AcDbDictionary
281
     1
  3
Layout1
350
82
  3
Layout2
350
89
  3
Model
350
77
  0
DICTIONARY
  5
B
102
{ACAD_REACTORS
330
9
102
}
330
9
100
AcDbDictionary
281
     1
  3
ByBlock
350
A0
  3
ByLayer
350
9F
  3
Global
350
A
  0
DICTIONARY
  5
9D
102
{ACAD_REACTORS
330
9
102
}
330
9
100
AcDbDictionary
281
     1
  3
Standard
350
A3
  0
DICTIONARY
  5
9E
102
{ACAD_REACTORS
330
9
102
}
330
9
100
AcDbDictionary
281
     1
  0
ACDBDICTIONARYWDFLT
  5
8
102
{ACAD_REACTORS
330
9
102
}
330
9
100
AcDbDictionary
281
     1
  3
Normal
350
7
100
AcDbDictionaryWithDefault
340
7
  0
DICTIONARY
  5
A2
102
{ACAD_REACTORS
330
9
102
}
330
9
100
AcDbDictionary
281
     1
  3
Standard
350
A4
  0
DICTIONARY
  5
7F
102
{ACAD_REACTORS
330
9
102
}
330
9
100
AcDbDictionary
281
     1
  3
2dWireframe
350
7E
  3
3D Hidden
350
D8
  3
3dWireframe
350
A6
  3
Basic
350
D7
  3
Brighten
350
DB
  3
ColorChange
350
DF
  3
Conceptual
350
D9
  3
Dim
350
DA
  3
Facepattern
350
DE
  3
Flat
350
D3
  3
FlatWithEdges
350
D4
  3
Gouraud
350
D5
  3
GouraudWithEdges
350
D6
  3
Linepattern
350
DD
  3
Realistic
350
A5
  3
Thicken
350
DC
  0
DICTIONARY
  5
A9
102
{ACAD_REACTORS
330
9
102
}
330
9
100
AcDbDictionary
281
     1
  3
CTABLESTYLE
350
AA
  3
DIMASSOC
350
AE
  3
HIDETEXT
350
AD
  3
INDEXCTL
350
AC
  3
PROJECTNAME
350
16A
  3
SORTENTS
350
AB
  0
DICTIONARY
  5
10D
102
{ACAD_REACTORS
330
9
102
}
330
9
100
AcDbDictionary
281
     1
  0
DICTIONARY
  5
48D
102
{ACAD_REACTORS
330
8B
102
}
330
8B
100
AcDbDictionary
281
     1
  0
DICTIONARY
  5
8D
102
{ACAD_REACTORS
330
8B
102
}
330
8B
100
AcDbDictionary
281
     1
  0
DICTIONARY
  5
48C
102
{ACAD_REACTORS
330
8B
102
}
330
8B
100
AcDbDictionary
281
     1
1001
ACAD
1000
<All
  0
SORTENTSTABLE
  5
A8
102
{ACAD_REACTORS
330
3
102
}
330
3
100
AcDbSortentsTable
330
2
331
E23
  5
10C4
331
10C4
  5
FC5
331
455
  5
455
331
44B
  5
44B
331
429
  5
429
331
D
  5
13
331
21
  5
22
331
17
  5
17
331
12
  5
16
331
E24
  5
10CB
331
EC6
  5
E21
331
44C
  5
44C
331
27
  5
27
331
22
  5
23
331
13
  5
D
331
1D
  5
1E
331
426
  5
426
331
CDF
  5
CDF
331
44D
  5
44D
331
1CA
  5
1CA
331
23
  5
24
331
14
  5
10
331
1E
  5
1F
331
E21
  5
1057
331
FE9
  5
FED
331
427
  5
427
331
BF1
  5
BF1
331
46F
  5
46F
331
44E
  5
44E
331
449
  5
449
331
10F
  5
10F
331
8BB
  5
976
331
15
  5
11
331
10
  5
14
331
1F
  5
21
331
24
  5
18
331
E22
  5
1072
331
FC5
  5
E25
331
44A
  5
44A
331
110
  5
110
331
25
  5
25
331
16
  5
12
331
11
  5
15
  0
XRECORD
  5
14B
102
{ACAD_REACTORS
330
14A
102
}
330
14A
100
AcDbXrecord
280
     1
 40
0.18
  0
LAYOUT
  5
82
102
{ACAD_XDICTIONARY
360
83
102
}
102
{ACAD_REACTORS
330
78
102
}
330
78
100
AcDbPlotSettings
  1

  2
C:\Documents and Settings\All Users\Dati applicazioni\Autodesk\ADT 2006\enu\Plotters\Default Windows System Printer.pc3
  4
A4
  6

 40
3.174999952316281
 41
3.174999952316281
 42
3.175003051757812
 43
3.17498779296875
 44
209.9733276367186
 45
297.0106506347656
 46
0.0
 47
0.0
 48
0.0
 49
0.0
140
0.0
141
0.0
142
1.0
143
1.0
 70
   688
 72
     1
 73
     1
 74
     5
  7

 75
    16
147
1.0
 76
     0
 77
     2
 78
   300
148
0.0
149
0.0
100
AcDbLayout
  1
Layout1
 70
     1
 71
     1
 10
-3.17498779296875
 20
-3.174999952316281
 11
293.8356628417969
 21
206.7983276844024
 12
0.0
 22
0.0
 32
0.0
 14
29.06606628894805
 24
20.36233246326446
 34
0.0
 15
261.5945966005325
 25
183.2609921693802
 35
0.0
146
0.0
 13
0.0
 23
0.0
 33
0.0
 16
1.0
 26
0.0
 36
0.0
 17
0.0
 27
1.0
 37
0.0
 76
     0
330
79
331
7B
1001
ACAD_PSEXT
1000
C:\Documents and Settings\All Users\Dati applicazioni\Autodesk\ADT 2006\enu\Plotters\Default Windows System Printer.pc3
1000
Microsoft Office Document Image Writer Driver
1000
Microsoft Document Imaging Writer Port:
1000

1070
     0
  0
LAYOUT
  5
89
102
{ACAD_REACTORS
330
78
102
}
330
78
100
AcDbPlotSettings
  1

  2
C:\Documents and Settings\All Users\Dati applicazioni\Autodesk\ADT 2006\enu\Plotters\Default Windows System Printer.pc3
  4

  6

 40
0.0
 41
0.0
 42
0.0
 43
0.0
 44
0.0
 45
0.0
 46
0.0
 47
0.0
 48
0.0
 49
0.0
140
0.0
141
0.0
142
1.0
143
1.0
 70
   688
 72
     0
 73
     0
 74
     5
  7

 75
    16
147
1.0
 76
     0
 77
     2
 78
   300
148
0.0
149
0.0
100
AcDbLayout
  1
Layout2
 70
     1
 71
     2
 10
0.0
 20
0.0
 11
12.0
 21
9.0
 12
0.0
 22
0.0
 32
0.0
 14
0.0
 24
0.0
 34
0.0
 15
0.0
 25
0.0
 35
0.0
146
0.0
 13
0.0
 23
0.0
 33
0.0
 16
1.0
 26
0.0
 36
0.0
 17
0.0
 27
1.0
 37
0.0
 76
     0
330
86
  0
LAYOUT
  5
77
102
{ACAD_REACTORS
330
78
102
}
330
78
100
AcDbPlotSettings
  1

  2
C:\Documents and Settings\All Users\Dati applicazioni\Autodesk\ADT 2006\enu\Plotters\Default Windows System Printer.pc3
  4

  6

 40
0.0
 41
0.0
 42
0.0
 43
0.0
 44
0.0
 45
0.0
 46
0.0
 47
0.0
 48
0.0
 49
0.0
140
0.0
141
0.0
142
1.0
143
1.0
 70
  1712
 72
     0
 73
     0
 74
     0
  7

 75
     0
147
1.0
 76
     0
 77
     2
 78
   300
148
0.0
149
0.0
100
AcDbLayout
  1
Model
 70
     1
 71
     0
 10
0.0
 20
0.0
 11
12.0
 21
9.0
 12
0.0
 22
0.0
 32
0.0
 14
0.0
 24
0.0
 34
0.0
 15
0.0
 25
0.0
 35
0.0
146
0.0
 13
0.0
 23
0.0
 33
0.0
 16
1.0
 26
0.0
 36
0.0
 17
0.0
 27
1.0
 37
0.0
 76
     0
330
2
  0
MATERIAL
  5
A0
102
{ACAD_XDICTIONARY
360
C7
102
}
102
{ACAD_REACTORS
330
B
102
}
330
B
100
AcDbMaterial
  1
ByBlock
  0
MATERIAL
  5
9F
102
{ACAD_XDICTIONARY
360
C5
102
}
102
{ACAD_REACTORS
330
B
102
}
330
B
100
AcDbMaterial
  1
ByLayer
  0
MATERIAL
  5
A
102
{ACAD_XDICTIONARY
360
B1
102
}
102
{ACAD_REACTORS
330
B
102
}
330
B
100
AcDbMaterial
  1
Global
  0
MLINESTYLE
  5
A3
102
{ACAD_REACTORS
330
9D
102
}
330
9D
100
AcDbMlineStyle
  2
STANDARD
 70
     0
  3

 62
   256
 51
90.0
 52
90.0
 71
     2
 49
0.5
 62
   256
  6
BYLAYER
 49
-0.5
 62
   256
  6
BYLAYER
  0
ACDBPLACEHOLDER
  5
7
102
{ACAD_REACTORS
330
8
102
}
330
8
  0
TABLESTYLE
  5
A4
102
{ACAD_XDICTIONARY
360
155
102
}
102
{ACAD_REACTORS
330
A2
102
}
330
A2
100
AcDbTableStyle
  3
Standard
 70
     0
 71
     0
 40
1.5
 41
1.5
280
     0
281
     0
  7
Standard
140
4.5
170
     2
 62
     0
 63
     7
283
     0
274
    -2
284
     1
 64
     0
275
    -2
285
     1
 65
     0
276
    -2
286
     1
 66
     0
277
    -2
287
     1
 67
     0
278
    -2
288
     1
 68
     0
279
    -2
289
     1
 69
     0
  7
Standard
140
6.0
170
     5
 62
     0
 63
     7
283
     0
274
    -2
284
     1
 64
     0
275
    -2
285
     1
 65
     0
276
    -2
286
     1
 66
     0
277
    -2
287
     1
 67
     0
278
    -2
288
     1
 68
     0
279
    -2
289
     1
 69
     0
  7
Standard
140
4.5
170
     5
 62
     0
 63
     7
283
     0
274
    -2
284
     1
 64
     0
275
    -2
285
     1
 65
     0
276
    -2
286
     1
 66
     0
277
    -2
287
     1
 67
     0
278
    -2
288
     1
 68
     0
279
    -2
289
     1
 69
     0
  0
ACAD_PROXY_OBJECT
  5
7E
102
{ACAD_REACTORS
330
7F
102
}
330
7F
100
AcDbProxyObject
 90
      499
 91
      508
 95
  1310743
 70
     1
100
AcDbVisualStyle
  2
2dWireframe
 70
     4
 71
     0
 72
     2
 73
     0
 90
        0
 40
-0.6
 41
-30.0
 62
     5
 63
     7
 74
     1
 91
        4
 64
     7
 65
   257
 75
     1
175
     1
 42
1.0
 92
        0
 66
   257
 43
1.0
 76
     1
 77
     6
 78
     2
 67
     7
 79
     5
170
     0
171
     0
290
     0
174
     0
 93
        1
 44
0.0
173
     0
291
     0
 45
0.0
1001
ACAD
1000
AcDbSavedByObjectVersion
1070
     0
1000
AcDbSavedByObjectVersion
1070
     0
1000
AcDbSavedByObjectVersion
1070
     0
  0
ACAD_PROXY_OBJECT
  5
D8
102
{ACAD_REACTORS
330
7F
102
}
330
7F
100
AcDbProxyObject
 90
      499
 91
      508
 95
  1310743
 70
     1
100
AcDbVisualStyle
  2
3D Hidden
 70
     6
 71
     1
 72
     2
 73
     2
 90
        0
 40
-0.6
 41
-30.0
 62
     5
 63
     7
 74
     2
 91
        2
 64
     7
 65
   257
 75
     2
175
     1
 42
40.0
 92
        0
 66
   257
 43
1.0
 76
     1
 77
     6
 78
     2
 67
     7
 79
     3
170
     0
171
     0
290
     0
174
     0
 93
        1
 44
0.0
173
     0
291
     0
 45
0.0
1001
ACAD
1000
AcDbSavedByObjectVersion
1070
     0
1000
AcDbSavedByObjectVersion
1070
     0
  0
ACAD_PROXY_OBJECT
  5
A6
102
{ACAD_REACTORS
330
7F
102
}
330
7F
100
AcDbProxyObject
 90
      499
 91
      508
 95
  1310743
 70
     1
100
AcDbVisualStyle
  2
3dWireframe
 70
     5
 71
     0
 72
     2
 73
     0
 90
        0
 40
-0.6
 41
-30.0
 62
     5
 63
     7
 74
     1
 91
        4
 64
     7
 65
   257
 75
     1
175
     1
 42
1.0
 92
        0
 66
   257
 43
1.0
 76
     1
 77
     6
 78
     2
 67
     7
 79
     5
170
     0
171
     0
290
     0
174
     0
 93
        1
 44
0.0
173
     0
291
     0
 45
0.0
1001
ACAD
1000
AcDbSavedByObjectVersion
1070
     0
1000
AcDbSavedByObjectVersion
1070
     0
1000
AcDbSavedByObjectVersion
1070
     0
  0
ACAD_PROXY_OBJECT
  5
D7
102
{ACAD_REACTORS
330
7F
102
}
330
7F
100
AcDbProxyObject
 90
      499
 91
      508
 95
  1310743
 70
     1
100
AcDbVisualStyle
  2
Basic
 70
     7
 71
     1
 72
     0
 73
     1
 90
        0
 40
-0.6
 41
-30.0
 62
     5
 63
     7
 74
     0
 91
        4
 64
     7
 65
   257
 75
     1
175
     1
 42
1.0
 92
        8
 66
     7
 43
1.0
 76
     1
 77
     6
 78
     2
 67
     7
 79
     5
170
     0
171
     0
290
     0
174
     0
 93
        1
 44
0.0
173
     0
291
     1
 45
0.0
1001
ACAD
1000
AcDbSavedByObjectVersion
1070
     0
1000
AcDbSavedByObjectVersion
1070
     0
  0
ACAD_PROXY_OBJECT
  5
DB
102
{ACAD_REACTORS
330
7F
102
}
330
7F
100
AcDbProxyObject
 90
      499
 91
      508
 95
  1310743
 70
     1
100
AcDbVisualStyle
  2
Brighten
 70
    12
 71
     2
 72
     2
 73
     0
 90
        0
 40
-0.6
 41
-30.0
 62
     5
 63
     7
 74
     1
 91
        4
 64
     7
 65
   257
 75
     1
175
     1
 42
1.0
 92
        8
 66
     7
 43
1.0
 76
     1
 77
     6
 78
     2
 67
     7
 79
     5
170
     0
171
     0
290
     0
174
     0
 93
        1
 44
50.0
173
     0
291
     1
 45
0.0
1001
ACAD
1000
AcDbSavedByObjectVersion
1070
     0
1000
AcDbSavedByObjectVersion
1070
     0
  0
ACAD_PROXY_OBJECT
  5
DF
102
{ACAD_REACTORS
330
7F
102
}
330
7F
100
AcDbProxyObject
 90
      499
 91
      508
 95
  1310743
 70
     1
100
AcDbVisualStyle
  2
ColorChange
 70
    16
 71
     2
 72
     2
 73
     3
 90
        0
 40
-0.6
 41
-30.0
 62
     5
 63
     8
 74
     1
 91
        4
 64
     7
 65
   257
 75
     1
175
     1
 42
1.0
 92
        8
 66
     8
 43
1.0
 76
     1
 77
     6
 78
     2
 67
     7
 79
     5
170
     0
171
     0
290
     0
174
     0
 93
        1
 44
0.0
173
     0
291
     1
 45
0.0
1001
ACAD
1000
AcDbSavedByObjectVersion
1070
     0
1000
AcDbSavedByObjectVersion
1070
     0
  0
ACAD_PROXY_OBJECT
  5
D9
102
{ACAD_REACTORS
330
7F
102
}
330
7F
100
AcDbProxyObject
 90
      499
 91
      508
 95
  1310743
 70
     1
100
AcDbVisualStyle
  2
Conceptual
 70
     9
 71
     3
 72
     2
 73
     0
 90
        0
 40
-0.6
 41
-30.0
 62
     5
 63
     7
 74
     2
 91
        2
 64
     7
 65
   257
 75
     1
175
     1
 42
40.0
 92
        8
 66
     7
 43
1.0
 76
     1
 77
     6
 78
     2
 67
     7
 79
     3
170
     0
171
     0
290
     0
174
     0
 93
        1
 44
0.0
173
     0
291
     0
 45
0.0
1001
ACAD
1000
AcDbSavedByObjectVersion
1070
     0
1000
AcDbSavedByObjectVersion
1070
     0
  0
ACAD_PROXY_OBJECT
  5
DA
102
{ACAD_REACTORS
330
7F
102
}
330
7F
100
AcDbProxyObject
 90
      499
 91
      508
 95
  1310743
 70
     1
100
AcDbVisualStyle
  2
Dim
 70
    11
 71
     2
 72
     2
 73
     0
 90
        0
 40
-0.6
 41
-30.0
 62
     5
 63
     7
 74
     1
 91
        4
 64
     7
 65
   257
 75
     1
175
     1
 42
1.0
 92
        8
 66
     7
 43
1.0
 76
     1
 77
     6
 78
     2
 67
     7
 79
     5
170
     0
171
     0
290
     0
174
     0
 93
        1
 44
-50.0
173
     0
291
     1
 45
0.0
1001
ACAD
1000
AcDbSavedByObjectVersion
1070
     0
1000
AcDbSavedByObjectVersion
1070
     0
  0
ACAD_PROXY_OBJECT
  5
DE
102
{ACAD_REACTORS
330
7F
102
}
330
7F
100
AcDbProxyObject
 90
      499
 91
      508
 95
  1310743
 70
     1
100
AcDbVisualStyle
  2
Facepattern
 70
    15
 71
     2
 72
     2
 73
     0
 90
        0
 40
-0.6
 41
-30.0
 62
     5
 63
     7
 74
     1
 91
        4
 64
     7
 65
   257
 75
     1
175
     1
 42
1.0
 92
        8
 66
     7
 43
1.0
 76
     1
 77
     6
 78
     2
 67
     7
 79
     5
170
     0
171
     0
290
     0
174
     0
 93
        1
 44
0.0
173
     0
291
     1
 45
0.0
1001
ACAD
1000
AcDbSavedByObjectVersion
1070
     0
1000
AcDbSavedByObjectVersion
1070
     0
  0
ACAD_PROXY_OBJECT
  5
D3
102
{ACAD_REACTORS
330
7F
102
}
330
7F
100
AcDbProxyObject
 90
      499
 91
      508
 95
  1310743
 70
     1
100
AcDbVisualStyle
  2
Flat
 70
     0
 71
     2
 72
     1
 73
     1
 90
        2
 40
-0.6
 41
30.0
 62
     5
 63
     7
 74
     0
 91
        4
 64
     7
 65
   257
 75
     1
175
     1
 42
1.0
 92
        8
 66
     7
 43
1.0
 76
     1
 77
     6
 78
     2
 67
     7
 79
     5
170
     0
171
     0
290
     0
174
     0
 93
       13
 44
0.0
173
     0
291
     1
 45
0.0
1001
ACAD
1000
AcDbSavedByObjectVersion
1070
     0
1000
AcDbSavedByObjectVersion
1070
     0
  0
ACAD_PROXY_OBJECT
  5
D4
102
{ACAD_REACTORS
330
7F
102
}
330
7F
100
AcDbProxyObject
 90
      499
 91
      508
 95
  1310743
 70
     1
100
AcDbVisualStyle
  2
FlatWithEdges
 70
     1
 71
     2
 72
     1
 73
     1
 90
        2
 40
-0.6
 41
30.0
 62
     5
 63
     7
 74
     1
 91
        4
 64
     7
 65
   257
 75
     1
175
     1
 42
1.0
 92
        0
 66
   257
 43
1.0
 76
     1
 77
     6
 78
     2
 67
     7
 79
     5
170
     0
171
     0
290
     0
174
     0
 93
       13
 44
0.0
173
     0
291
     1
 45
0.0
1001
ACAD
1000
AcDbSavedByObjectVersion
1070
     0
1000
AcDbSavedByObjectVersion
1070
     0
  0
ACAD_PROXY_OBJECT
  5
D5
102
{ACAD_REACTORS
330
7F
102
}
330
7F
100
AcDbProxyObject
 90
      499
 91
      508
 95
  1310743
 70
     1
100
AcDbVisualStyle
  2
Gouraud
 70
     2
 71
     2
 72
     2
 73
     1
 90
        2
 40
-0.6
 41
30.0
 62
     5
 63
     7
 74
     0
 91
        4
 64
     7
 65
   257
 75
     1
175
     1
 42
1.0
 92
        0
 66
     7
 43
1.0
 76
     1
 77
     6
 78
     2
 67
     7
 79
     5
170
     0
171
     0
290
     0
174
     0
 93
       13
 44
0.0
173
     0
291
     1
 45
0.0
1001
ACAD
1000
AcDbSavedByObjectVersion
1070
     0
1000
AcDbSavedByObjectVersion
1070
     0
  0
ACAD_PROXY_OBJECT
  5
D6
102
{ACAD_REACTORS
330
7F
102
}
330
7F
100
AcDbProxyObject
 90
      499
 91
      508
 95
  1310743
 70
     1
100
AcDbVisualStyle
  2
GouraudWithEdges
 70
     3
 71
     2
 72
     2
 73
     1
 90
        2
 40
-0.6
 41
30.0
 62
     5
 63
     7
 74
     1
 91
        4
 64
     7
 65
   257
 75
     1
175
     1
 42
1.0
 92
        0
 66
   257
 43
1.0
 76
     1
 77
     6
 78
     2
 67
     7
 79
     5
170
     0
171
     0
290
     0
174
     0
 93
       13
 44
0.0
173
     0
291
     1
 45
0.0
1001
ACAD
1000
AcDbSavedByObjectVersion
1070
     0
1000
AcDbSavedByObjectVersion
1070
     0
  0
ACAD_PROXY_OBJECT
  5
DD
102
{ACAD_REACTORS
330
7F
102
}
330
7F
100
AcDbProxyObject
 90
      499
 91
      508
 95
  1310743
 70
     1
100
AcDbVisualStyle
  2
Linepattern
 70
    14
 71
     2
 72
     2
 73
     0
 90
        0
 40
-0.6
 41
-30.0
 62
     5
 63
     7
 74
     1
 91
        4
 64
     7
 65
   257
 75
     7
175
     7
 42
1.0
 92
        8
 66
     7
 43
1.0
 76
     1
 77
     6
 78
     2
 67
     7
 79
     5
170
     0
171
     0
290
     0
174
     0
 93
        1
 44
0.0
173
     0
291
     1
 45
0.0
1001
ACAD
1000
AcDbSavedByObjectVersion
1070
     0
1000
AcDbSavedByObjectVersion
1070
     0
  0
ACAD_PROXY_OBJECT
  5
A5
102
{ACAD_REACTORS
330
7F
102
}
330
7F
100
AcDbProxyObject
 90
      499
 91
      508
 95
  1310743
 70
     1
100
AcDbVisualStyle
  2
Realistic
 70
     8
 71
     2
 72
     2
 73
     0
 90
        0
 40
-0.6
 41
-30.0
 62
     5
 63
     7
 74
     1
 91
        0
 64
     7
 65
   257
 75
     1
175
     1
 42
1.0
 92
        8
 66
     8
 43
1.0
 76
     1
 77
     6
 78
     2
 67
     7
 79
     5
170
     0
171
     0
290
     0
174
     0
 93
       13
 44
0.0
173
     0
291
     0
 45
0.0
1001
ACAD
1000
AcDbSavedByObjectVersion
1070
     0
1000
AcDbSavedByObjectVersion
1070
     0
1000
AcDbSavedByObjectVersion
1070
     0
  0
ACAD_PROXY_OBJECT
  5
DC
102
{ACAD_REACTORS
330
7F
102
}
330
7F
100
AcDbProxyObject
 90
      499
 91
      508
 95
  1310743
 70
     1
100
AcDbVisualStyle
  2
Thicken
 70
    13
 71
     2
 72
     2
 73
     0
 90
        0
 40
-0.6
 41
-30.0
 62
     5
 63
     7
 74
     1
 91
        4
 64
     7
 65
   257
 75
     1
175
     1
 42
1.0
 92
       12
 66
     7
 43
1.0
 76
     1
 77
     6
 78
     2
 67
     7
 79
     5
170
     0
171
     0
290
     0
174
     0
 93
        1
 44
0.0
173
     0
291
     1
 45
0.0
1001
ACAD
1000
AcDbSavedByObjectVersion
1070
     0
1000
AcDbSavedByObjectVersion
1070
     0
  0
DICTIONARYVAR
  5
AA
102
{ACAD_REACTORS
330
A9
102
}
330
A9
100
DictionaryVariables
280
     0
  1
STANDARD
  0
DICTIONARYVAR
  5
AE
102
{ACAD_REACTORS
330
A9
102
}
330
A9
100
DictionaryVariables
280
     0
  1
2
  0
DICTIONARYVAR
  5
AD
102
{ACAD_REACTORS
330
A9
102
}
330
A9
100
DictionaryVariables
280
     0
  1
1
  0
DICTIONARYVAR
  5
AC
102
{ACAD_REACTORS
330
A9
102
}
330
A9
100
DictionaryVariables
280
     0
  1
0
  0
DICTIONARYVAR
  5
16A
102
{ACAD_REACTORS
330
A9
102
}
330
A9
100
DictionaryVariables
280
     0
  1

  0
DICTIONARYVAR
  5
AB
102
{ACAD_REACTORS
330
A9
102
}
330
A9
100
DictionaryVariables
280
     0
  1
127
  0
DICTIONARY
  5
83
330
82
100
AcDbDictionary
280
     1
281
     1
  3
ADSK_XREC_LAYOUTTHUMBNAIL
360
84
  0
DICTIONARY
  5
C7
330
A0
100
AcDbDictionary
280
     1
281
     1
  3
ACAD_XREC_ROUNDTRIP
360
C8
  0
DICTIONARY
  5
C5
330
9F
100
AcDbDictionary
280
     1
281
     1
  3
ACAD_XREC_ROUNDTRIP
360
C6
  0
DICTIONARY
  5
B1
330
A
100
AcDbDictionary
280
     1
281
     1
  3
ACAD_XREC_ROUNDTRIP
360
B2
  0
DICTIONARY
  5
155
330
A4
100
AcDbDictionary
280
     1
281
     1
  3
ACAD_XREC_ROUNDTRIP
360
156
  0
XRECORD
  5
84
102
{ACAD_REACTORS
330
83
102
}
330
83
100
AcDbXrecord
280
     1
310
28000000B40000007F00000001000800000000004C59000000000000000000000001000000000000FFFFFF0000000000FFFFFF000000000000000000000000000000000000000000000000000000000000000000330000006600000099000000CC000000FF00000000330000333300006633000099330000CC330000FF3300
310
0000660000336600006666000099660000CC660000FF66000000990000339900006699000099990000CC990000FF99000000CC000033CC000066CC000099CC0000CCCC0000FFCC000000FF000033FF000066FF000099FF0000CCFF0000FFFF000000003300330033006600330099003300CC003300FF003300003333003333
310
33006633330099333300CC333300FF33330000663300336633006666330099663300CC663300FF66330000993300339933006699330099993300CC993300FF99330000CC330033CC330066CC330099CC3300CCCC3300FFCC330000FF330033FF330066FF330099FF3300CCFF3300FFFF330000006600330066006600660099
310
006600CC006600FF00660000336600333366006633660099336600CC336600FF33660000666600336666006666660099666600CC666600FF66660000996600339966006699660099996600CC996600FF99660000CC660033CC660066CC660099CC6600CCCC6600FFCC660000FF660033FF660066FF660099FF6600CCFF6600
310
FFFF660000009900330099006600990099009900CC009900FF00990000339900333399006633990099339900CC339900FF33990000669900336699006666990099669900CC669900FF66990000999900339999006699990099999900CC999900FF99990000CC990033CC990066CC990099CC9900CCCC9900FFCC990000FF99
310
0033FF990066FF990099FF9900CCFF9900FFFF99000000CC003300CC006600CC009900CC00CC00CC00FF00CC000033CC003333CC006633CC009933CC00CC33CC00FF33CC000066CC003366CC006666CC009966CC00CC66CC00FF66CC000099CC003399CC006699CC009999CC00CC99CC00FF99CC0000CCCC0033CCCC0066CC
310
CC0099CCCC00CCCCCC00FFCCCC0000FFCC0033FFCC0066FFCC0099FFCC00CCFFCC00FFFFCC000000FF003300FF006600FF009900FF00CC00FF00FF00FF000033FF003333FF006633FF009933FF00CC33FF00FF33FF000066FF003366FF006666FF009966FF00CC66FF00FF66FF000099FF003399FF006699FF009999FF00CC
310
99FF00FF99FF0000CCFF0033CCFF0066CCFF0099CCFF00CCCCFF00FFCCFF0000FFFF0033FFFF0066FFFF0099FFFF00CCFFFF00FFFFFF00000000000D0D0D001A1A1A00282828003535350043434300505050005D5D5D006B6B6B00787878008686860093939300A1A1A100AEAEAE00BBBBBB00C9C9C900D6D6D600E4E4E400
310
F1F1F100FFFFFF0000000000000000000000000000000000000000000000000000000000000000000000000000000000E2E2E2E2E2E2E2E2E2E2E2E2E2E2E2E2E2E2E2E2E2E2E2E2E2E2E2E2E2E2E2E2E2E2E2E2E2E2E2E2E2E2E2E2E2E2E2E2E2E2E2E2E2E2E2E2E2E2E2E2E2E2E2E2E2E2E2E2E2E2E2E2E2E2E2E2E2E2E2
310
E2E2E2E2E2E2E2E2E2E2E2E2E2E2E2E2E2E2E2E2E2E2E2E2E2E2E2E2E2E2E2E2E2E2E2E2E2E2E2E2E2E2E2E2E2E2E2E2E2E2E2E2E2E2E2E2E2E2E2E2E2E2E2E2E2E2E2E2E2E2E2E2E2E2E2E2E2E2E2E2E2E2E2E2E2E2E2E2E2E2E2E2E2E2E2E2E2E2E2E2E2E2F5F5F5F5F5F5F5F5F5F5F5F5F5F5F5F5F5F5F5F5F5F5F5F5F5
310
F5F5F5F5F5F5F5F5F5F5F5F5F5F5F5F5F5F5F5F5F5F5F5F5F5F5F5F5F5F5F5F5F5F5F5F5F5F5F5F5F5F5F5F5F5F5F5F5F5F5F5F5F5F5F5F5F5F5F5F5F5F5F5F5F5F5F5F5F5F5F5F5F5F5F5F5F5F5F5F5F5F5F5F5F5F5F5F5F5F5F5F5F5F5F5F5F5F5F5F5F5F5F5F5F5F5F5F5F5F5F5F5F5F5F5F5F5F5F5F5F5F5F5F5F5F5F5
310
F5F5F5F5F5F5F5F5F5F5F5F5F5F5F5F5F5F5F5F5F5F5F5F5F5F5E2E2F5E2E2E2E2E2E2E2E2E2F5F5F5F5F5F5F5F5F5E2E2E2E2E2E2E2E2E2E2E2E2E2E2E2E2F5F5F5F5F5F5F5F5F5E2E2E2E2E2E2E2E2E2E2E2E2E2E2E2E2F5F5F5F5F5F5F5F5F5E2E2E2E2E2E2E2E2E2E2E2E2E2E2E2E2F5F5F5F5F5F5F5F5F5E2E2E2E2E2
310
E2E2E2E2E2E2E2E2E2E2E2F5F5F5F5F5F5F5F5F5E2E2E2E2E2E2E2E2E2E2E2E2E2E2E2E2F5F5F5F5F5F5F5F5F5E2E2E2E2E2E2E2E2E2E2E2E2E2E2E2E2F5F5F5F5F5F5F5F5F5E2E2E2E2E2E2E2E2F5E2E2F5E2F5F5F5F5F5F5F5F5F5F5F5F5F5F5F5F5F5F5F5F5F5F5F5F5F5F5F5F5F5F5F5F5F5F5F5F5F5F5F5F5F5F5F5F5
310
F5F5F5F5F5F5F5F5F5F5F5F5F5F5F5F5F5F5F5F5F5F5F5F5F5F5F5F5F5F5F5F5F5F5F5F5F5F5F5F5F5F5F5F5F5F5F5F5F5F5F5F5F5F5F5F5F5F5F5F5F5F5F5F5F5F5F5F5F5F5F5F5F5F5F5F5F5F5F5F5F5F5F5F5F5F5F5F5F5F5F5F5F5F5F5F5F5F5F5F5F5F5F5F5F5F5F5F5F5F5F5F5F5F5F5F5F5F5F5F5F5F5F5F5F5F5F5
310
F5F5F5E2F5E2E2F5E2F5F5F5F5F5F5F5F5F5F5F5F5F5F5F5F5F5F5F5F5F5F5F5F5F5F5F5F5F5F5F5F5F5F5F5F5F5F5F5F5F5F5F5F5F5F5F5F5F5F5F5F5F5F5F5F5F5F5F5F5F5F5F5F5F5F5F5F5F5F5F5F5F5F5F5F5F5F5F5F5F5F5F5F5F5F5F5F5F5F5F5F5F5F5F5F5F5F5F5F5F5F5F5F5F5F5F5F5F5F5F5F5F5F5F5F5F5F5
310
F5F5F5F5F5F5F5F5F5F5F5F5F5F5F5F5F5F5F5F5F5F5F5F5F5F5F5F5F5F5F5F5F5F5F5F5F5F5F5F5F5F5F5F5F5F5F5F5F5F5F5F5F5F5F5F5E2F5E2E2F5E2F5F5F5F5F5F5F5F5F5F5F5F5F5F5F5F5F5F5F5F5F5F5F5F5F5F5F5F5F5F5F5F5F5F5F5F5F5F5F5F5F5F5F5F5F5F5F5F5F5F5F5F5F5F5F5F5F5F5F5F5F5F5F5F5F5
310
F5F5F5F5F5F5F5F5F5F5F5F5F5F5F5F5F5F5F5F5F5F5F5F5F5F5F5F5F5F5F5F5F5F5F5F5F5F5F5F5F5F5F5F5F5F5F5F5F5F5F5F5F5F5F5F5F5F5F5F5F5F5F5F5F5F5F5F5F5F5F5F5F5F5F5F5F5F5F5F5F5F5F5F5F5F5F5F5F5F5F5F5F5F5F5F5F5F5F5F5F5F5F5F5F5F5F5F5F5E2F5E2E2F5E2F5F5F5F5F5F5F5F5F5F5F5F5
310
F5F5F5F5F5F5F5F5F5F5F5F5F5F5F5F5F5F5F5F5F5F5F5F5F5F5F5F5F5F5F5F5F5F5F5F5F5F5F5F5F5F5F5F5F5F5F5F5F5F5F5F5F5F5F5F5F5F5F5F5F5F5F5F5F5F5F5F5F5F5F5F5F5F5F5F5F5F5F5F5F5F5F5F5F5F5F5F5F5F5F5F5F5F5F5F5F5F5F5F5F5F5F5F5F5F5F5F5F5F5F5F5F5F5F5F5F5F5F5F5F5F5F5F5F5F5F5
310
F5F5F5F5F5F5F5F5F5F5F5F5F5F5F5F5F5F5F5F5F5F5F5F5F5F5F5F5F5F5F5F5F5F5F5E2F5E2E2F5E2F5F5F5F5F5F5F5F5F5F5F5F5F5F5F5F5F5F5F5F5F5F5F5F5F5F5F5F5F5F5F5F5F5F5F5F5F5F5F5F5F5F5F5F5F5F5F5F5F5F5F5F5F5F5F5F5F5F5F5F5F5F5F5F5F5F5F5F5F5F5F5F5F5F5F5F5F5F5F5F5F5F5F5F5F5F5
310
F5F5F5F5F5F5F5F5F5F5F5F5F5F5F5F5F5F5F5F5F5F5F5F5F5F5F5F5F5F5F5F5F5F5F5F5F5F5F5F5F5F5F5F5F5F5F5F5F5F5F5F5F5F5F5F5F5F5F5F5F5F5F5F5F5F5F5F5F5F5F5F5F5F5F5F5F5F5F5F5F5F5F5F5F5F5F5F5E2F5E2E2F5E2F5F5F5F5F5F5F5F5F5F5F5F5F5F5F5F5F5F5F5F5F5F5F5F5F5F5F5F5F5F5F5F5F5
310
F5F5F5F5F5F5F5F5F5F5F5F5F5F5F5F5F5F5F5F5F5F5F5F5F5F5F5F5F5F5F5F5F5F5F5F5F5F5F5F5F5F5F5F5F5F5F5F5F5F5F5F5F5F5F5F5F5F5F5F5F5F5F5F5F5F5F5F5F5F5F5F5F5F5F5F5F5F5F5F5F5F5F5F5F5F5F5F5F5F5F5F5F5F5F5F5F5F5F5F5F5F5F5F5F5F5F5F5F5F5F5F5F5F5F5F5F5F5F5F5F5F5F5F5F5F5F5
310
F5F5F5F5F5F5F5F5F5F5F5F5F5F5E2F5E2E2F5E2F5F5F5F5F5F5F5F5F5F5F5F5F5F5F5F5F5F5F5F5F5F5F5F5F5F5F5F5F5F5F5F5F5F5F5F5F5F5F5F5F5F5F5F5F5F5F5F5F5F5F5F5F5F5F5F5F5F5F5F5F5F5F5F5F5F5F5F5F5F5F5F5F5F5F5F5F5F5F5F5F5F5F5F5F5F5F5F5F5F5F5F5F5F5F5F5F5F5F5F5F5F5F5F5F5F5F5
310
F5F5F5F5F5F5F5F5F5F5F5F5F5F5F5F5F5F5F5F5F5F5F5F5F5F5F5F5F5F5F5F5F5F5F5F5F5F5F5F5F5F5F5F5F5F5F5F5F5F5F5F5F5F5F5F5F5F5F5F5F5F5F5F5F5F5F5E2F5E2E2F5F5F5F5F5F5F5F5F5F5F5F5F5F5F5F5F5F5F5F5F5F5F5F5F5F5F5F5F5F5F5F5F5F5F5F5F5F5F5F5F5F5F5F5F5F5F5F5F5F5F5F5F5F5F5F5
310
F5F5F5F5F5F5F5F5F5F5F5F5F5F5F5F5F5F5F5F5F5F5F5F5F5F5F5F5F5F5F5F5F5F5F5F5F5F5F5F5F5F5F5F5F5F5F5F5F5F5F5F5F5F5F5F5F5F5F5F5F5F5F5F5F5F5F5F5F5F5F5F5F5F5F5F5F5F5F5F5F5F5F5F5F5F5F5F5F5F5F5F5F5F5F5F5F5F5F5F5F5F5F5F5F5F5F5F5F5F5F5F5F5F5F5F5F5F5F5F5F5F5E2E2F5F5F5
310
F5F5F5F5F5F5F5F5F5F5F5F5F5F5F5F5F5F5F5F5F5F5F5F5F5F5F5F5F5F5F5F5F5F5F5F5F5F5F5F5F5F5F5F5F5F5F5F5F5F5F5F5F5F5F5F5F5F5F5F5F5F5F5F5F5F5F5F5F5F5F5F5F5F5F5F5F5F5F5F5F5F5F5F5F5F5F5F5F5F5F5F5F5F5F5F5F5F5F5F5F5F5F5F5F5F5F5F5F5F5F5F5F5F5F5F5F5F5F5F5F5F5F5F5F5F5F5
310
F5F5F5F5F5F5F5F5F5F5F5F5F5F5F5F5F5F5F5F5F5F5F5F5F5F5F5F5F5F5F5F5F5F5F5F5F5F5F5F5F5F5F5F5F5F5F5F5E2E2F5F5F5F5F5F5F5F5F5F5F5F5F5F5F5F5F5F5F5F5F5F5F5F5F5F5F5F5F5F5F5F5F5F5F5F5F5F5F5F5F5F5F5F5F5F5F5F5F5F5F5F5F5F5F5F5F5F5F5F5F5F5F5F5F5F5F5F5F5F5F5F5F5F5F5F5F5
310
F5F5F5F5F5F5F5F5F5F5F5F5F5F5F5F5F5F5F5F5F5F5F5F5F5F5F5F5F5F5F5F5F5F5F5F5F5F5F5F5F5F5F5F5F5F5F5F5F5F5F5F5F5F5F5F5F5F5F5F5F5F5F5F5F5F5F5F5F5F5F5F5F5F5F5F5F5F5F5F5F5F5F5F5F5F5F5F5F5F5F5F5F5F5F5F5F5F5F5F5F5E2E2F5F5F5F5F5F5F5F5F5F5F5F5F5F5F5F5F5F5F5F5F5F5F5F5
310
F5F5F5F5F5F5F5F5F5F5F5F5F5F5F5F5F5F5F5F5F5F5F5F5F5F5F5F5F5F5F5F5F5F5F5F5F5F5F5F5F5F5F5F5F5F5F5F5F5F5F5F5F5F5F5F5F5F5F5F5F5F5F5F5F5F5F5F5F5F5F5F5F5F5F5F5F5F5F5F5F5F5F5F5F5F5F5F5F5F5F5F5F5F5F5F5F5F5F5F5F5F5F5F5F5F5F5F5F5F5F5F5F5F5F5F5F5F5F5F5F5F5F5F5F5F5F5
310
F5F5F5F5F5F5F5F5F5F5F5F5F5F5F5F5F5F5F5F5F5F5F5F5F5F5F5E2E2F5F5F5F5F5F5F5F5F5F5F5F5F5F5F5F5F5F5F5DCDCDCDCDCDCDCDCDCDCDCDCDCDCDCDCDCDCDCDCDCDCDCDCDCDCDCDCDCDCDCDCDCDCDCDCDCDCDCDCDCDCDCDCDCDCDCDCDCDCDCDCDCDCDCDCDCDCDCDCDCDCDCDCDCDCDCDCDCDCDCDCDCDCDCDCDCDCDC
310
DCDCDCDCDCDCDCDCDCDCDCDCDCDCDCDCDCDCDCDCDCDCDCDCDCDCDCDCDCDCDCDCDCDCDCDCDCDCDCDCDCDCDCDCDCDCDCDCDCDCDCDCDCDCDCDCDCDCDCDCDCF5F5F5F5F5F5F5F5F5F5F5F5F5F5F5F5F5F5F5E2E2F5F5F5F5F5F5F5F5F5F5F5F5F5F5F5F5F5F5F5DCDCDCDCDCDCDCDCDCDCDCDCDCDCDCDCDCDCDCDCDCDCDCDCDCDC
310
DCDCDCDCDCDCDCDCDCDCDCDCDCDCDCDCDCDCDCDCDCDCDCDCDCDCDCDCDCDCDCDCDCDCDCDCDCDCDCDCDCDCDCDCDCDCDCDCDCDCDCDCDCDCDCDCDCDCDCDCDCDCDCDCDCDCDCDCDCDCDCDCDCDCDCDCDCDCDCDCDCDCDCDCDCDCDCDCDCDCDCDCDCDCDCDCDCDCDCDCDCDCDCDCDCDCDCDCDCDCDCDCDCDCF5F5F5F5F5F5F5F5F5F5F5F5F5
310
F5F5F5F5F5F5E2E2F5F5F5F5F5F5F5F5F5F5F5F5F5F5F5F5F5F5F5DCF5F5F5F5F5F5F5F5F5F5F5F5F5F5F5F5F5F5F5F5F5F5F5F5F5F5F5F5F5F5F5F5F5F5F5F5F5F5F5F5F5F5F5F5F5F5F5F5F5F5F5F5F5F5F5F5F5F5F5F5F5F5F5F5F5F5F5F5F5F5F5F5F5F5F5F5F5F5F5F5F5F5F5F5F5F5F5F5F5F5F5F5F5F5F5F5F5F5F5
310
F5F5F5F5F5F5F5F5F5F5F5F5F5F5F5F5F5F5F5F5F5F5F5F5F5F5F5F5F5F5F5F5F5F5F5F5F5F5F5DCF5F5F5F5F5F5F5F5F5F5F5F5F5F5F5F5F5F5F5E2E2F5F5F5F5F5F5F5F5F5F5F5F5F5F5F5F5F5F5F5DCF5282828282828282828282828282828282828282828282828282828282828282828282828282828282828282828
310
28282828282828282828282828282828282828282828282828282828282828282828282828282828282828282828282828282828282828282828282828282828282828282828282828282828282828282828282828282828282828F5DCF5F5F5F5F5F5F5F5F5F5F5F5F5F5F5F5F5F5F5E2E2F5F5F5F5F5F5F5F5F5F5F5F5F5
310
F5F5F5F5F5F5DCF5282D2D2D2D2D2D2D2D2D2D2D2D2D2D2D2D2D2D2D2D2DF5F5F5F5F5F5F5F5F5F5F5F5F5F5F5F5F5F5F5F5F5F5F5F5F5F5F5F5F5F5F5F5F5F5F5F5F5F5F5F5F5F5F5F5F528F5F5F5F5F5F5F5F5F5F5F5F5F5F5F5F5F5F5F5F5F5F5F5F5F5F5F5F5F5F5F5F5F5F5F5F5F5F5F5F5F5F5F5F5F5F5F5F5F5F5F5
310
F5F5F5F5F5F5F5F5F5F5F5F5F5F5F5F528F5DCF5F5F5F5F5F5F5F5F5F5F5F5F5F5F5F5F5F5F5E2E2F5E2F5F5F5F5F5F5F5F5F5F5F5F5F5F5F5F5F5DCF5282D2D2D2D2D2D2D2D2D2D2D2D2D2D2D2D2D2D2D2D2D2D2D2D2D2D2D2D2DF5F5F5F5F5F5F5F5F5F5F5F5F5F5F5F5F5F5F5F5F5F5F5F5F5F5F5F5F5F5F5F5F5F5F5F5
310
F528F5F5F5F5F5F5F5F5F5F5F5F5F5F5F5F5F5F5F5F5F5F5F5F5F5F5F5F5F5F5F5F5F5F5F5F5F5F5F5F5F5F5F5F5F5F5F5F5F5F5F5F5F5F5F5F5F5F5F5F5F5F5F5F5F5F5F528F5DCF5F5F5F5F5F5F5F5F5F5F5F5F5F5F5F5F5E2F5E2E2F5E2F5F5F5F5F5F5F5F5F5F5F5F5F5F5F5F5F5DCF5282D2D2D2D2D2D2D2D2D2D2D2D
310
2D2D2D2D2D2D2D2D2D2D2D2D2D2D2D2D2DF5F5F5F5F5F5F5F5F5F5F5F5F5F5F5F5F5F5F5F5F5F5F5F5F5F5F5F5F5F5F5F5F5F5F5F5F528F5F5F5F5F5F5F5F52D2D2D2D2D2D2D2D2D2D2D2D2D2D2D2D2D2D2D2D2D2D2D2D2D2D2D2D2D2D2D2D2D2D2D2D2D2D2D2D2D2D2D2D2D2D2D2D2D2D2DF5F5F5F5F5F5F5F528F5DCF5F5
310
F5F5F5F5F5F5F5F5F5F5F5F5F5F5F5E2F5E2E2F5E2F5F5F5F5F5F5F5F5F5F5F5F5F5F5F5F5F5DCF5282D2D2D2D2D2D2D2D2D2D2D2D2D2D2D2D2D2D2D2D2D2D2D2D2D2D2D2D2D2D2D2D2D2D2D2D2D2D2D2D2D2D2D2D2D2D2D2D2D2D2D2D2D2D2D2D2D2D2D2D2D2D2D2D2D2D28F5F5F5F5F5F5F5F52D2D2D2D2D2D2D2D2D2D2D
310
2D2D2D2D2D2D2D2D2D2D2D2D2D2D2D2D2D2D2D2D2D2D2D2D2D2D2D2D2D2D2D2D2D2D2D2D2D2D2D2DF5F5F5F5F5F5F5F528F5DCF5F5F5F5F5F5F5F5F5F5F5F5F5F5F5F5F5E2F5E2E2F5E2F5F5F5F5F5F5F5F5F5F5F5F5F5F5F5F5F5DCF5282D2D2D2D2D2D2D2D2D2D2D2D2D2D2D2D2D2D2D2D2D2D2D2D2D2D2D2D2D2D2D2D2D
310
2D2D2D2D2D2D2D2D2D2D2D2D2D2D2D2D2D2D2D2D2D2D2D2D2D2D2D2D2DF5F5F5F528F5F5F5F5F5F5F5F5F5F5F5F52D2D2D2D2D2D2D2D2D2D2D2D2D2D2D2D2D2D2D2D2D2D2D2D2D2D2D2D2D2D2D2D2D2D2D2D2D2D2D2D2D2DF5F5F5F5F5F5F5F5F5F5F5F5F528F5DCF5F5F5F5F5F5F5F5F5F5F5F5F5F5F5F5F5E2F5E2E2F5E2
310
F5F5F5F5F5F5F5F5F5F5F5F5F5F5F5F5F5DCF5282D2D2D2D2D2D2D2D2D2D2D2D2D2D2D2D2D2D2D2D2D2D2D2D2D2D2D2D2D2D2D2D2D2D2D2D2D2D2D2D2D2D2D2D2D2D2D2D2D2D2D2D2D2D2D2D2D2D2D2D2D2DF5F5F5F528F5F5F5F5F5F5F5F5F5F5F5F52D2D2D2D2D2D2D2D2D2D2D2D2D2D2D2D2D2D2D2D2D2D2D2D2D2D2D2D
310
2D2D2D2D2D2D2D2D2D2D2D2D2D2DF5F5F5F5F5F5F5F5F5F5F5F5F528F5DCF5F5F5F5F5F5F5F5F5F5F5F5F5F5F5F5F5E2F5E2E2F5E2F5F5F5F5F5F5F5F5F5F5F5F5F5F5F5F5F5DCF5282D2D2D2D2D2D2D2D2D2D2D2D2D2D2D2D2D2D2D2D2D2D2D2D2D2D2D2D2D2D2D2D2D2D2D2D2D2D2D2D2D2D2D2D2D2D2D2D2D2D2D2D2D2D
310
2D2D2D2D2DF5F5F5F5F5F5F528F5F5F5F5F5F5F5F5F5F5F5F5F5F5F5F5F5F5F5F5F5F5F5F5F5F5F5F52D2D2D2D2D2D2D2D2D2DF5F5F5F5F5F5F5F5F5F5F5F5F5F5F5F5F5F5F5F5F5F5F5F5F5F5F5F5F528F5DCF5F5F5F5F5F5F5F5F5F5F5F5F5F5F5F5F5E2F5E2E2F5E2F5F5F5F5F5F5F5F5F5F5F5F5F5F5F5F5F5DCF5282D
310
2D2D2D2D2D2D2D2D2D2D2D2D2D2D2D2D2D2D2D2D2D2D2D2D2D2D2D2D2D2D2DF5F5F5F5F5F5F5F5F5F5F5F5F5F5F5F5F5F5F5F5F5F5F5F5F5F5F5F5F5F5F5F5F5F528F5F5F5F5F5F5F5F5F5F5F5F5F5F5F5F5F5F5F5F5F5F5F5F5F5F5F5F52D2D2D2D2D2D2D2D2D2DF5F5F5F5F5F5F5F5F5F5F5F5F5F5F5F5F5F5F5F5F5F5F5
310
F5F5F5F5F5F528F5DCF5F5F5F5F5F5F5F5F5F5F5F5F5F5F5F5F5E2F5E2E2F5E2F5F5F5F5F5F5F5F5F5F5F5F5F5F5F5F5F5DCF5282D2D2D2D2D2D2D2D2D2D2D2D2D2D2D2D2D2D2D2D2D2D2D2D2D2D2D2D2D2D2D2DF5F5F5F5F5F5F5F5F5F5F5F5F5F5F5F5F5F5F5F5F5F5F5F5F5F5F5F5F5F5F5F5F5F528F5F5F5F5F5F5F5F5
310
F5F5F5F5F5F5F5F5F5F5F5F5F5F5F5F5F5F5F5F52D2D2D2D2D2D2D2D2D2DF5F5F5F5F5F5F5F5F5F5F5F5F5F5F5F5F5F5F5F5F5F5F5F5F5F5F5F5F528F5DCF5F5F5F5F5F5F5F5F5F5F5F5F5F5F5F5F5E2F5E2E2F5E2F5F5F5F5F5F5F5F5F5F5F5F5F5F5F5F5F5DCF5282D2D2D2D2D2D2D2D2D2D2D2D2D2D2D2D2D2D2D2D2D2D
310
2D2D2D2D2D2D2D2D2D2D2D2D2D2D2D2D2D2D2D2D2D2D2D2D2D2D2D2D2D2D2D2D2D2D2D2D2D2D2D2D2D2DF5F528F5F5F5F5F5F5F5F5F5F5F5F5F5F5F5F5F5F5F5F5F5F5F5F5F5F5F5F5F5F5F5F5F5F5F5F5F5F5F5F5F5F5F5F5F5F5F5F5F5F5F5F5F5F5F5F5F5F5F5F5F5F5F5F5F5F5F528F5DCF5F5F5F5F5F5F5F5F5F5F5F5
310
F5F5F5F5F5E2F5E2E2F5E2F5F5F5F5F5F5F5F5F5F5F5F5F5F5F5F5F5DCF528F5F5F5F5F5F5F5F5F5F5F5F5F5F5F5F5F5F5F5F5F5F5F5F5F5F5F5F5F5F5F5F5F5F5F5F5F5F5F5F5F5F5F5F5F5F5F5F5F5F5F5F5F5F5F5F5F5F5F5F5F5F5F5F5F5F528F5F5F5F5F5F5F5F5F5F5F5F5F5F5F5F5F5F5F5F5F5F5F5F5F5F5F5F5F5
310
F5F5F5F5F5F5F5F5F5F5F5F5F5F5F5F5F5F5F5F5F5F5F5F5F5F5F5F5F5F5F5F5F5F5F5F5F5F528F5DCF5F5F5F5F5F5F5F5F5F5F5F5F5F5F5F5F5E2F5E2E2F5E2F5F5F5F5F5F5F5F5F5F5F5F5F5F5F5F5F5DCF52828282828282828282828282828282828282828282828282828282828282828282828282828282828282828
310
2828282828282828282828282828282828282828282828282828282828282828282828282828282828282828282828282828282828282828282828282828282828282828282828282828282828282828282828282828282828282828F5DCF5F5F5F5F5F5F5F5F5F5F5F5F5F5F5F5F5E2F5E2E2F5E2F5F5F5F5F5F5F5F5F5F5
310
F5F5F5F5F5F5F5DCF528F5F5F5F5F5F5F5F5F5F5F5F5F5F5F5F5F5F5F5F5F5F5F5F5F5F5F5F5F5F5F5F5F5F5F5F5F5F5F5F5F5F5F5F5F5F5F5F5F5F5F5F5F5F5F5F5F5F5F5F5F5F5F5F5F5F5F5F5F5F5F5F5F5F5F5F5F5F5F5F5F5F5F5F5F5F5F5F5F5F5F5F5F5F5F5F5F5F5F5F5F5F5F5F5F5F5F5F5F5F5F5F5F5F5F5F5F5
310
F5F5F5F5F5F5F5F5F5F5F5F5F5F5F5F5F528F5DCF5F5F5F5F5F5F5F5F5F5F5F5F5F5F5F5F5E2F5E2E2F5E2F5F5F5F5F5F5F5F5F5F5F5F5F5F5F5F5F5DCF528F5F5F5F5F5F5F5F5F5F5F5F5F5F5F5F5F5F5F5F5F5F5F5F5F5F5F5F5F5F5F5F5F5F5F5F5F5F5F5F5F5F5F5F5F5F5F5F5F5F5F5F5F5F5F5F5F5F5F5F5F5F5F5F5
310
F5F5F5F5F5F5F5F5F5F5F5F5F5F5F5F5F5F5F5F5F5F5F5F5F5F5F5F5F5F5F5F5F5F5F5F5F5F5F5F5F5F5F5F5F5F5F5F5F5F5F5F5F5F5F5F5F5F5F5F5F5F5F5F5F5F5F5F5F5F528F5DCF5F5F5F5F5F5F5F5F5F5F5F5F5F5F5F5F5E2F5E2E2F5E2F5F5F5F5F5F5F5F5F5F5F5F5F5F5F5F5F5DCF528F5F5F5F5F5F5F5F5F5F5F5
310
F5F5F5F5F5F5F5F5F5F5F5F5F5F5F5F5F5F5F5F5F5F5F5F5F5F5F5F5F5F5F5F5F5F5F5F5F5F5F5F5F5F5F5F5F5F5F5F5F5F5F5F5F5F5F5F5F5F5F5F5F5F5F5F5F5F5F5F5F5F5F5F5F5F5F5F5F5F5F5F5F5F5F5F5F5F5F5F5F5F5F5F5F5F5F5F5F5F5F5F5F5F5F5F5F5F5F5F5F5F5F5F5F5F5F5F5F5F5F5F5F5F5F528F5DCF5
310
F5F5F5F5F5F5F5F5F5F5F5F5F5F5F5F5E2F5E2E2F5E2F5F5F5F5F5F5F5F5F5F5F5F5F5F5F5F5F5DCF528F5F5F5F5F5F5F5F5F5F5F5F5F5F5F5F5F5F5F5F5F5F5F5F5F5F5F5F5F5F5F5F5F5F5F5F5F5F5F5F5F5F5F5F5F5F5F5F5F5F5F5F5F5F5F5F5F5F5F5F5F5F5F5F5F5F5F5F5F5F5F5F5F5F5F5F5F5F5F5F5F5F5F5F5F5
310
F5F5F5F5F5F5F5F5F5F5F5F5F5F5F5F5F5F5F5F5F5F5F5F5F5F5F5F5F5F5F5F5F5F5F5F5F5F5F5F5F5F5F5F5F5F5F5F5F528F5DCF5F5F5F5F5F5F5F5F5F5F5F5F5F5F5F5F5E2F5E2E2F5E2F5F5F5F5F5F5F5F5F5F5F5F5F5F5F5F5F5DCF528F5F5F5F5F5F5F5F5F5F5F5F5F5F5F5F5F5F5F5F5F5F5F5F5F5F5F5F5F5F5F5F5
310
F5F5F5F5F5F5F5F5F5F5F5F5F5F5F5F5F5F5F5F5F5F5F5F5F5F5F5F5F5F5F5F5F5F5F5F5F5F5F5F5F5F5F5F5F5F5F5F5F5F5F5F5F5F5F5F5F5F5F5F5F5F5F5F5F5F5F5F5F5F5F5F5F5F5F5F5F5F5F5F5F5F5F5F5F5F5F5F5F5F5F5F5F5F5F5F5F5F5F5F5F5F528F5DCF5F5F5F5F5F5F5F5F5F5F5F5F5F5F5F5F5E2F5E2E2F5
310
F5F5F5F5F5F5F5F5F5F5F5F5F5F5F5F5F5F5DCF528F5F5F5F5F5F5F5F5F5F5F5F5F5F5F5F5F5F5F5F5F5F5F5F5F5F5F5F5F5F5F5F5F5F5F5F5F5F5F5F5F5F5F5F5F5F5F5F5F5F5F5F5F5F5F5F5F5F5F5F5F5F5F5F5F5F5F5F5F5F5F5F5F5F5F5F5F5F5F5F5F5F5F5F5F5F5F5F5F5F5F5F5F5F5F5F5F5F5F5F5F5F5F5F5F5F5
310
F5F5F5F5F5F5F5F5F5F5F5F5F5F5F5F5F5F5F5F5F5F5F5F5F5F5F5F528F5DCF5F5F5F5F5F5F5F5F5F5F5F5F5F5F5F5F5F5F5E2E2F5F5F5F5F5F5F5F5F5F5F5F5F5F5F5F5F5F5F5DCF528F5F5F5F5F5F5F5F5F5F5F5F5F5F5F5F5F5F5F5F5F5F5F5F5F5F5F5F5F5F5F5F5F5F5F5F5F5F5F5F5F5F5F5F5F5F5F5F5F5F5F5F5F5
310
F5F5F5F5F5F5F5F5F5F5F5F5F5F5F5F5F5F5F5F5F5F5F5F5F5F5F5F5F5F5F5F5F5F5F5F5F5F5F5F5F5F5F5F5F5F5F5F5F5F5F5F5F5F5F5F5F5F5F5F5F5F5F5F5F5F5F5F5F5F5F5F5F5F5F5F5F5F5F5F5F528F5DCF5F5F5F5F5F5F5F5F5F5F5F5F5F5F5F5F5F5F5E2E2F5F5F5F5F5F5F5F5F5F5F5F5F5F5F5F5F5F5F5DCF528
310
F5F5F5F5F5F5F5F5F5F5F5F5F5F5F5F5F5F5F5F5F5F5F5F5F5F5F5F5F5F5F5F5F5F5F5F5F5F5F5F5F5F5F5F5F5F5F5F5F5F5F5F5F5F5F5F5F5F5F5F5F5F5F5F5F5F5F5F5F5F5F5F5F5F5F5F5F5F5F5F5F5F5F5F5F5F5F5F5F5F5F5F5F5F5F5F5F5F5F5F5F5F5F5F5F5F5F5F5F5F5F5F5F5F5F5F5F5F5F5F5F5F5F5F5F5F5F5
310
F5F5F5F5F5F5F528F5DCF5F5F5F5F5F5F5F5F5F5F5F5F5F5F5F5F5F5F5E2E2F5F5F5F5F5F5F5F5F5F5F5F5F5F5F5F5F5F5F5DCF528F5F5F5F5F5F5F5F5F5F5F5F5F5F5F5F5F5F5F5F5F5F5F5F5F5F5F5F5F5F5F5F5F5F5F5F5F5F5F5F5F5F5F5F5F5F5F5F5F5F5F5F5F5F5F5F5F5F5F5F5F5F5F5F5F5F5F5F5F5F5F5F5F5F5
310
F5F5F5F5F5F5F5F5F5F5F5F5F5F5F5F5F5F5F5F5F5F5F5F5F5F5F5F5F5F5F5F5F5F5F5F5F5F5F5F5F5F5F5F5F5F5F5F5F5F5F5F5F5F5F5F5F5F5F5F528F5DCF5F5F5F5F5F5F5F5F5F5F5F5F5F5F5F5F5F5F5E2E2F5F5F5F5F5F5F5F5F5F5F5F5F5F5F5F5F5F5F5DCF528F5F5F5F5F5F5F5F5F5F5F5F5F5F5F5F5F5F5F5F5F5
310
F5F5F5F5F5F5F5F5F5F5F5F5F5F5F5F5F5F5F5F5F5F5F5F5F5F5F5F5F5F5F5F5F5F5F5F5F5F5F5F5F5F5F5F5F5F5F5F5F5F5F5F5F5F5F5F5F5F5F5F5F5F5F5F5F5F5F5F5F5F5F5F5F5F5F5F5F5F5F5F5F5F5F5F5F5F5F5F5F5F5F5F5F5F5F5F5F5F5F5F5F5F5F5F5F5F5F5F5F5F5F5F5F528F5DCF5F5F5F5F5F5F5F5F5F5F5
310
F5F5F5F5F5F5F5F5E2E2F5F5F5F5F5F5F5F5F5F5F5F5F5F5F5F5F5F5F5DCF528F5F5F5F5F5F5F5F5F5F5F5F5F5F5F5F5F5F5F5F5F5F5F5F5F5F5F5F5F5F5F5F5F5F5F5F5F5F5F5F5F5F5F5F5F5F5F5F5F5F5F5F5F5F5F5F5F5F5F5F5F5F5F5F5F5F5F5F5F5F5F5F5F5F5F5F5F5F5F5F5F5F5F5F5F5F5F5F5F5F5F5F5F5F5F5
310
F5F5F5F5F5F5F5F5F5F5F5F5F5F5F5F5F5F5F5F5F5F5F5F5F5F5F5F5F5F5F5F5F5F5F5F5F5F5F528F5DCF5F5F5F5F5F5F5F5F5F5F5F5F5F5F5F5F5F5F5E2E2F5F5F5F5F5F5F5F5F5F5F5F5F5F5F5F5F5F5F5DCF528F5F5F5F5F5F5F5F5F5F5F5F5F5F5F5F5F5F5F5F5F5F5F5F5F5F5F5F5F5F5F5F5F5F5F5F5F5F5F5F5F5F5
310
F5F5F5F5F5F5F5F5F5F5F5F5F5F5F5F5F5F5F5F5F5F5F5F5F5F5F5F5F5F5F5F5F5F5F5F5F5F5F5F5F5F5F5F5F5F5F5F5F5F5F5F5F5F5F5F5F5F5F5F5F5F5F5F5F5F5F5F5F5F5F5F5F5F5F5F5F5F5F5F5F5F5F5F5F5F5F5F5F5F5F5F528F5DCF5F5F5F5F5F5F5F5F5F5F5F5F5F5F5F5F5F5F5E2E2F5F5F5F5F5F5F5F5F5F5F5
310
F5F5F5F5F5F5F5F5DCF528F5F5F5F5F5F5F5F5F5F5F5F5F5F5F52D2D2D2D2D2D2D2D2D2DF5F5F5F5F5F5F5F5F5F5F5F5F5F5F5F5F5F5F5F5F5F5F5F5F5F5F5F5F5F5F5F5F5F5F5F5F5F5F5F5F5F5F5F5F5F5F5F5F5F5F5F5F5F5F5F5F5F5F5F5F5F5F5F5F5F5F5F5F5F5F5F5F5F5F5F5F5F5F5F5F5F5F5F5F5F5F5F5F5F5F5
310
F5F5F5F5F5F5F5F5F5F5F5F5F5F5F5F5F5F528F5DCF5F5F5F5F5F5F5F5F5F5F5F5F5F5F5F5F5F5F5E2E2F5E2F5F5F5F5F5F5F5F5F5F5F5F5F5F5F5F5F5DCF528F5F5F5F5F5F5F5F5F5F5F5F5F5F5F52D2D2D2D2D2D2D2D2D2DF5F5F5F5F5F5F5F5F5F5F5F5F5F5F5F5F5F5F5F5F5F5F5F5F5F5F5F5F5F5F5F5F5F5F5F5F5F5
310
F5F5F5F5F5F5F5F5F5F5F5F5F5F5F5F5F5F5F5F5F5F5F5F5F5F5F5F5F5F5F5F5F5F5F5F5F5F5F5F5F5F5F5F5F5F5F5F5F5F5F5F5F5F5F5F5F5F5F5F5F5F5F5F5F5F5F5F5F5F5F528F5DCF5F5F5F5F5F5F5F5F5F5F5F5F5F5F5F5F5E2F5E2E2F5E2F5F5F5F5F5F5F5F5F5F5F5F5F5F5F5F5F5DCF528F5F5F5F5F5F5F5F5F5F5
310
F5F5F5F5F5F5F5F5F5F5F5F5F5F5F5F5F5F5F5F5F5F5F5F5F5F5F5F5F5F5F5F5F5F5F5F5F5F5F5F5F5F5F5F5F5F5F5F5F5F5F5F5F5F5F5F5F5F5F5F5F5F5F5F5F5F5F5F5F5F5F5F5F5F5F5F5F5F5F5F5F5F5F5F5F5F5F5F5F5F5F5F5F5F5F5F5F5F5F5F5F5F5F5F5F5F5F5F5F5F5F5F5F5F5F5F5F5F5F5F5F5F5F5F528F5DC
310
F5F5F5F5F5F5F5F5F5F5F5F5F5F5F5F5F5E2F5E2E2F5E2F5F5F5F5F5F5F5F5F5F5F5F5F5F5F5F5F5DCF528F5F5F5F5F5F5F5F5F5F5F5F5F5F5F5F5F5F5F5F5F5F5F5F5F5F5F5F5F5F5F5F5F5F5F5F5F5F5F5F5F5F5F5F5F5F5F5F5F5F5F5F5F5F5F5F5F5F5F5F5F5F5F5F5F5F5F5F5F5F5F5F5F5F5F5F5F5F5F5F5F5F5F5F5
310
F5F5F5F5F5F5F5F5F5F5F5F5F5F5F5F5F5F5F5F5F5F5F5F5F5F5F5F5F5F5F5F5F5F5F5F5F5F5F5F5F5F5F5F5F5F5F5F5F5F528F5DCF5F5F5F5F5F5F5F5F5F5F5F5F5F5F5F5F5E2F5E2E2F5E2F5F5F5F5F5F5F5F5F5F5F5F5F5F5F5F5F5DCF528F5F5F5F5F5F5F5F5F5F5F5F5F5F5F5F5F5F5F5F5F5F5F5F5F5F5F5F5F5F5F5
310
F5F5F5F5F5F5F5F5F5F5F5F5F5F5F5F5F5F5F5F5F5F5F5F5F5F5F5F5F5F5F5F5F5F5F5F5F5F5F5F5F5F5F5F5F5F5F5F5F5F5F5F5F5F5F5F5F5F5F5F5F5F5F5F5F5F5F5F5F5F5F5F5F5F5F5F5F5F5F5F5F5F5F5F5F5F5F5F5F5F5F5F5F5F5F5F5F5F5F5F5F5F5F528F5DCF5F5F5F5F5F5F5F5F5F5F5F5F5F5F5F5F5E2F5E2E2
310
F5E2F5F5F5F5F5F5F5F5F5F5F5F5F5F5F5F5F5DCF528F5F5F5F5F5F5F5F5F5F5F5F5F5F5F5F5F5F5F5F5F5F5F5F5F5F5F5F5F5F5F5F5F5F5F5F5F5F5F5F5F5F5F5F5F5F5F5F5F5F5F5F5F5F5F5F5F5F5F5F5F5F5F5F5F5F5F5F5F5F5F5F5F5F5F5F5F5F5F5F5F5F5F5F5F5F5F5F5F5F5F5F5F5F5F5F5F5F5F5F5F5F5F5F5F5
310
F5F5F5F5F5F5F5F5F5F5F5F5F5F5F5F5F5F5F5F5F5F5F5F5F5F5F5F5F528F5DCF5F5F5F5F5F5F5F5F5F5F5F5F5F5F5F5F5E2F5E2E2F5E2F5F5F5F5F5F5F5F5F5F5F5F5F5F5F5F5F5DCF528F5F5F5F5F5F5F5F5F5F5F5F5F5F5F5F5F5F5F5F5F5F5F5F5F5F5F5F5F5F5F5F5F5F5F5F5F5F5F5F5F5F5F5F5F5F5F5F5F5F5F5F5
310
F5F5F5F5F5F5F5F5F5F5F5F5F5F5F5F5F5F5F5F5F5F5F5F5F5F5F5F5F5F5F5F5F5F5F5F5F5F5F5F5F5F5F5F5F5F5F5F5F5F5F5F5F5F5F5F5F5F5F5F5F5F5F5F5F5F5F5F5F5F5F5F5F5F5F5F5F5F5F5F5F5F528F5DCF5F5F5F5F5F5F5F5F5F5F5F5F5F5F5F5F5E2F5E2E2F5E2F5F5F5F5F5F5F5F5F5F5F5F5F5F5F5F5F5DCF5
310
28F5F5F5F5F5F5F5F5F5F5F5F5F5F5F5F5F5F5F5F5F5F5F5F5F5F5F5F5F5F5F5F5F5F5F5F5F5F5F5F5F5F5F5F5F5F5F5F5F5F5F5F5F5F5F5F5F5F5F5F5F5F5F5F5F5F5F5F5F5F5F5F5F5F5F5F5F5F5F5F5F5F5F5F5F5F5F5F5F5F5F5F5F5F5F5F5F5F5F5F5F5F5F5F5F5F5F5F5F5F5F5F5F5F5F5F5F5F5F5F5F5F5F5F5F5F5
310
F5F5F5F5F5F5F5F528F5DCF5F5F5F5F5F5F5F5F5F5F5F5F5F5F5F5F5E2F5E2E2F5E2F5F5F5F5F5F5F5F5F5F5F5F5F5F5F5F5F5DCF528F5F5F5F5F5F5F5F5F5F5F5F5F5F5F5F5F5F5F5F5F5F5F5F5F5F5F5F5F5F5F5F5F5F5F5F5F5F5F5F5F5F5F5F5F5F5F5F5F5F5F5F5F5F5F5F5F5F5F5F5F5F5F5F5F5F5F5F5F5F5F5F5F5
310
F5F5F5F5F5F5F5F5F5F5F5F5F5F5F5F5F5F5F5F5F5F5F5F5F5F5F5F5F5F5F5F5F5F5F5F5F5F5F5F5F5F5F5F5F5F5F5F5F5F5F5F5F5F5F5F5F5F5F5F5F528F5DCF5F5F5F5F5F5F5F5F5F5F5F5F5F5F5F5F5E2F5E2E2F5E2F5F5F5F5F5F5F5F5F5F5F5F5F5F5F5F5F5DCF528F5F5F5F5F5F5F5F5F5F5F5F5F5F5F5F5F5F5F5F5
310
F5F5F5F5F5F5F5F5F5F5F5F5F5F5F5F5F5F5F5F5F5F5F5F5F5F5F5F5F5F5F5F5F5F5F5F5F5F5F5F5F5F5F5F5F5F5F5F5F5F5F5F5F5F5F5F5F5F5F5F5F5F5F5F5F5F5F5F5F5F5F5F5F5F5F5F5F5F5F5F5F5F5F5F5F5F5F5F5F5F5F5F5F5F5F5F5F5F5F5F5F5F5F5F5F5F5F5F5F5F5F5F5F5F528F5DCF5F5F5F5F5F5F5F5F5F5
310
F5F5F5F5F5F5F5E2F5E2E2F5E2F5F5F5F5F5F5F5F5F5F5F5F5F5F5F5F5F5DCF528F5F5F5F5F5F5F5F5F5DCF5F5F5F5F5F5F5F5F5F5F5F5F5F5F5F5F5F5F5F5F5F5F5F5F5F5F5F5F5F5F5F5F5F5F5F5F5F5F5F5F5F5F5F5F5F5F5F5F5F5F5F5F5F5F5F5F5F5F5F5F5F5F5F5F5F5F5F5F5F5F5F5F5F5F5F5F5F5F5F5F5F5F5F5
310
F5F5F5F5F5F5F5F5F5F5F5F5F5F5F5F5F5F5F5F5F5F5F5F5F5F5F5F5F5F5F5F5F5F5F5F5F5F5F5F528F5DCF5F5F5F5F5F5F5F5F5F5F5F5F5F5F5F5F5E2F5E2E2F5E2F5F5F5F5F5F5F5F5F5F5F5F5F5F5F5F5F5DCF528F5F5F5F5F5F5F5F50FDCF5F5F5F5F52D2D2D2D2D2D2D2DF5F5F5F5F50FF5F5F5F5F5F5F5F5F5F5F5F5
310
F5F5F5F5F5F5F5F5F5F5F5F5F5F5F5F5F5F5F5F5F5F5F5F5F5F5F5F5F5F5F5F5F5F5F5F5F5F5F5F5F5F5F5F5F5F5F5F5F5F5F5F5F5F5F5F5F5F5F5F5F5F5F5F5F5F5F5F5F5F5F5F5F5F5F5F5F5F5F5F5F5F5F5F5F5F5F5F5F5F5F5F5F528F5DCF5F5F5F5F5F5F5F5F5F5F5F5F5F5F5F5F5E2F5E2E2F5E2F5F5F5F5F5F5F5F5
310
F5F5F5F5F5F5F5F5F5DCF528F5F5F5F5DCF5F5DC0FDC0F0F0F0F0F2D2D2D2D2D2D2D2D0F0F0F0F0F0F0FF5F5F5F5F5F5F5F5F5F5F5F5F5F5F5F5F5F5F5F5F5F5F5F5F5F5F5F5F5F5F5F5F5F5F5F5F5F5F5F5F5F5F5F5F5F5F5F5F5F5F5F5F5F5F5F5F5F5F5F5F5F5F5F5F5F5F5F5F5F5F5F5F5F5F5F5F5F5F5F5F5F5F5F5F5
310
F5F5F5F5F5F5F5F5F5F5F5F5F5F5F5F5F5F5F528F5DCF5F5F5F5F5F5F5F5F5F5F5F5F5F5F5F5F5E2F5E2E2F5E2F5F5F5F5F5F5F5F5F5F5F5F5F5F5F5F5F5DCF528F5F5F5DCF5F5DCF5F5DCF5F5F5F5F5F5F5F5F5F5F5F5F5F5F5F5F5F50FF5F5F5F5F5F5F5F5F5F5F5F5F5F5F5F5F5F5F5F5F5F5F5F5F5F5F5F5F5F5F5F5F5
310
F5F5F5F5F5F5F5F5F5F5F5F5F5F5F5F5F5F5F5F5F5F5F5F5F5F5F5F5F5F5F5F5F5F5F5F5F5F5F5F5F5F5F5F5F5F5F5F5F5F5F5F5F5F5F5F5F5F5F5F5F5F5F5F5F5F5F5F5F5F5F5F528F5DCF5F5F5F5F5F5F5F5F5F5F5F5F5F5F5F5F5E2F5E2E2F5E2F5F5F5F5F5F5F5F5F5F5F5F5F5F5F5F5F5DCF528F5F5F5F5F5DCF5F5DC
310
DCF5F5F5F5F5F5F5F5F5F5F5F5F5F5F5F5F5F50FF5F5F5F5F5F5F5F5F5F5F5F5F5F5F5F5F5F5F5F5F5F5F5F5F5F5F5F5F5F5F5F5F5F5F5F5F5F5F5F5F5F5F5F5F5F5F5F5F5F5F5F5F5F5F5F5F5F5F5F5F5F5F5F5F5F5F5F5F5F5F5F5F5F5F5F5F5F5F5F5F5F5F5F5F5F5F5F5F5F5F5F5F5F5F5F5F5F5F5F5F5F5F5F5F528F5
310
DCF5F5F5F5F5F5F5F5F5F5F5F5F5F5F5F5F5E2F5E2E2F5E2F5F5F5F5F5F5F5F5F5F5F5F5F5F5F5F5F5DCF528F5F5F5F5DCF5F5DCF5DCF5F5F5F5F5F5F5F5F5F5F5F5F5F5F5F5F5F50FF5F5F5F5F5F5F5F5F5F5F5F5F5F5F5F5F5F5F5F5F5F5F5F5F5F5F5F5F5F5F5F5F5F5F5F5F5F5F5F5F5F5F5F5F5F5F5F5F5F5F5F5F5F5
310
F5F5F5F5F5F5F5F5F5F5F5F5F5F5F5F5F5F5F5F5F5F5F5F5F5F5F5F5F5F5F5F5F5F5F5F5F5F5F5F5F5F5F5F5F5F5F5F5F5F5F528F5DCF5F5F5F5F5F5F5F5F5F5F5F5F5F5F5F5F5E2F5E2E2F5E2F5F5F5F5F5F5F5F5F5F5F5F5F5F5F5F5F5DCF528F5F5F5DCF5F5DCF5F5DCF5F5F5F5F5F5F5F5F5F5F5F5F5F5F5F5F5F50FF5
310
F5F5F5F5F5F5F5F5F5F5F5F5F5F5F5F5F5F5F5F5F5F5F5F5F5F5F5F5F5F5F5F5F5F5F5F5F5F5F5F5F5F5F5F5F5F5F5F5F5F5F5F5F5F5F5F5F5F5F5F5F5F5F5F5F5F5F5F5F5F5F5F5F5F5F5F5F5F5F5F5F5F5F5F5F5F5F5F5F5F5F5F5F5F5F5F5F5F5F5F5F5F5F5F528F5DCF5F5F5F5F5F5F5F5F5F5F5F5F5F5F5F5F5E2F5E2
310
E2F5F5F5F5F5F5F5F5F5F5F5F5F5F5F5F5F5F5F5DCF528F5F5F5F5F5DCF5F5F5DC1B0F0F0F0F0F0F0F0F0F0F0F0F0F0F0F0F0F0F0F0F0F0F0F0F0FF5F5F5F5F5F5F5F5F5F5F5F5F5F5F5F5F5F5F5F5F5F5F5F5F5F5F5F5F5F5F5F5F5F5F5F5F5F5F5F5F5F5F5F5F5F5F5F5F5F5F5F5F5F5F5F5F5F5F5F5F5F5F5F5F5F5F5F5
310
F5F5F5F5F5F5F5F5F5F5F5F5F5F5F5F5F5F5F5F5F5F5F5F5F5F5F5F5F5F528F5DCF5F5F5F5F5F5F5F5F5F5F5F5F5F5F5F5F5F5F5E2E2F5F5F5F5F5F5F5F5F5F5F5F5F5F5F5F5F5F5F5DCF528F5F5F5F5DCF5F5F5DCDCBEF5F5F5F5F5F5F5F5F5F5F5F5F5F5F5F5F50FF5F5F5F5F50FF5F5F5F5F5F5F5F5F5F5F5F5F5F5F5F5
310
F5F5F5F5F5F5F5F5F5F5F5F5F5F5F5F5F5F5F5F5F5F5F5F5F5F5F5F5F5F5F5F5F5F5F5F5F5F5F5F5F5F5F5F5F5F5F5F5F5F5F5F5F5F5F5F5F5F5F5F5F5F5F5F5F5F5F5F5F5F5F5F5F5F5F5F5F5F5F5F5F5F5F528F5DCF5F5F5F5F5F5F5F5F5F5F5F5F5F5F5F5F5F5F5E2E2F5F5F5F5F5F5F5F5F5F5F5F5F5F5F5F5F5F5F5DC
310
F528F5F5F5DCF5F5F5DCF5DCF5BEBEF5F5F5F5F5F5F5F5F5F5F5F5F5F5F50FF5F5F5F5F50FF5F5F5F5F5F5F5F5F5F5F5F5F5F5F5F5F5F5F5F5F5F5F5F5F5F5F5F5F5F5F5F5F5F5F5F5F5F5F5F5F5F5F5F5F5F5F5F5F5F5F5F5F5F5F5F5F5F5F5F5F5F5F5F5F5F5F5F5F5F5F5F5F5F5F5F5F5F5F5F5F5F5F5F5F5F5F5F5F5F5
310
F5F5F5F5F5F5F5F5F528F5DCF5F5F5F5F5F5F5F5F5F5F5F5F5F5F5F5F5F5F5E2E2F5F5F5F5F5F5F5F5F5F5F5F5F5F5F5F5F5F5F5DCF528F5F5F5F5F5DCDCF5F5DCF5F5BEBEF5F5F5F5F5F5F5F5F5F5F5F5F5F50FF5F5F5F5F50FF5F5F5F5F5F5F5F5F5F5F5F5F5F5F5F5F5F5F5F5F5F5F5F5F5F5F5F5F5F5F5F5F5F5F5F5F5
310
F5F5F5F5F5F5F5F5F5F5F5F5F5F5F5F5F5F5F5F5F5F5F5F5F5F5F5F5F5F5F5F5F5F5F5F5F5F5F5F5F5F5F5F5F5F5F5F5F5F5F5F5F5F5F5F5F5F5F5F5F5F528F5DCF5F5F5F5F5F5F5F5F5F5F5F5F5F5F5F5F5F5F5E2E2F5F5F5F5F5F5F5F5F5F5F5F5F5F5F5F5F5F5F5DCF528F5F5F5F5DCF5F5F5DCDCF5F5F5BEF5F5F5F5F5
310
F5F5F5F5F5F5F5F5F50FF5F5F5F5F50FF5F5F5F5F5F5F5F5F5F5F5F5F5F5F5F5F5F5F5F5F5F5F5F5F5F5F5F5F5F5F5F5F5F5F5F5F5F5F5F5F5F5F5F5F5F5F5F5F5F5F5F5F5F5F5F5F5F5F5F5F5F5F5F5F5F5F5F5F5F5F5F5F5F5F5F5F5F5F5F5F5F5F5F5F5F5F5F5F5F5F5F5F5F5F5F5F5F5F528F5DCF5F5F5F5F5F5F5F5F5
310
F5F5F5F5F5F5F5F5F5F5E2E2F5F5F5F5F5F5F5F5F5F5F5F5F5F5F5F5F5F5F5DCF528F5F5F5DCF5F5F5DCF5DCF5F5F5BEBEBEF5F5F5F5F5F5F5F5F5F5F5F50FF5F5F5F5F50FF5F5F5F5F5F5F5F5F5F5F5F5F5F5F5F5F5F5F5F5F5F5F5F5F5F5F5F5F5F5F5F5F5F5F5F5F5F5F5F5F5F5F5F5F5F5F5F5F5F5F5F5F5F5F5F5F5F5
310
F5F5F5F5F5F5F5F5F5F5F5F5F5F5F5F5F5F5F5F5F5F5F5F5F5F5F5F5F5F5F5F5F5F5F5F5F5F5F5F5F528F5DCF5F5F5F5F5F5F5F5F5F5F5F5F5F5F5F5F5F5F5E2E2F5F5F5F5F5F5F5F5F5F5F5F5F5F5F5F5F5F5F5DCF528F5F5F5F5F5DCDCF5F5DCF5F5F5F5BEBEF5F5F5F5F5F5F5F5F5F5F5F50FF5F5F5F5F50FF5F5F5F5F5
310
F5F5F5F5F5F5F5F5F5F5F5F5F5F5F5F5F5F5F5F5F5F5F5F5F5F5F5F5F5F5F5F5F5F5F5F5F5F5F5F5F5F5F5F5F5F5F5F5F5F5F5F5F5F5F5F5F5F5F5F5F5F5F5F5F5F5F5F5F5F5F5F5F5F5F5F5F5F5F5F5F5F5F5F5F5F5F5F5F5F5F5F5F5F528F5DCF5F5F5F5F5F5F5F5F5F5F5F5F5F5F5F5F5F5F5E2E2F5F5F5F5F5F5F5F5F5
310
F5F5F5F5F5F5F5F5F5F5DCF528F5F5F5F5DCF5F5F5DCDCF5F5F5F5BEF5F5F5F5F5F5F5F5F5F5F5F5F50FF5F5F5F5F50FF5F5F5F5F5F5F5F5F5F5F5F5F5F5F5F5F5F5F5F5F5F5F5F5F5F5F5F5F5F5F5F5F5F5F5F5F5F5F5F5F5F5F5F5F5F5F5F5F5F5F5F5F5F5F5F5F5F5F5F5F5F5F5F5F5F5F5F5F5F5F5F5F5F5F5F5F5F5F5
310
F5F5F5F5F5F5F5F5F5F5F5F5F5F5F5F5F5F5F5F528F5DCF5F5F5F5F5F5F5F5F5F5F5F5F5F5F5F5F5F5F5E2E2F5F5F5F5F5F5F5F5F5F5F5F5F5F5F5F5F5F5F5DCF528F5F5F5DCF5F5F5DCF5DCF5F5F5F5BEF5F5F5F5F5F5F5F5F5F5F5F5F50FF5F5F5F5F50FF5F5F5F5F5F5F5F5F5F5F5F5F5F5F5F5F5F5F5F5F5F5F5F5F5F5
310
F5F5F5F5F5F5F5F5F5F5F5F5F5F5F5F5F5F5F5F5F5F5F5F5F5F5F5F5F5F5F5F5F5F5F5F5F5F5F5F5F5F5F5F5F5F5F5F5F5F5F5F5F5F5F5F5F5F5F5F5F5F5F5F5F5F5F5F5F5F5F5F5F528F5DCF5F5F5F5F5F5F5F5F5F5F5F5F5F5F5F5F5F5F5E2E2F5E2F5F5F5F5F5F5F5F5F5F5F5F5F5F5F5F5F5DCF528F5F5F5F5F5F5DCF5
310
F5DCBEBEF5F5BEF5F5F5F5F5F5F5F5F5F5F5F5F50FF5F52D2D2D2D2D2D2D2DF5F5F5F5F5F5F5F5F5F5F5F5F5F5F5F5F5F5F5F5F5F5F5F5F5F5F5F5F5F5F5F5F5F5F5F5F5F5F5F5F5F5F5F5F5F5F5F5F5F5F5F5F5F5F5F5F5F5F5F5F5F5F5F5F5F5F5F5F5F5F5F5F5F5F5F5F5F5F5F5F5F5F5F5F5F5F5F5F5F5F5F5F5F5F528
310
F5DCF5F5F5F5F5F5F5F5F5F5F5F5F5F5F5F5F5E2F5E2E2F5E2F5F5F5F5F5F5F5F5F5F5F5F5F5F5F5F5F5DCF528F5F5F5F5F5DCF5F5DCDCF5BEF5F5BEF5F5F5F5F5F5F5F5F5F5F5F5F50FF5F52D2D2D2D2D2D2D2DF5F5F5F5F5F5F5F5F5F5F5F5F5F5F5F5F5F5F5F5F5F5F5F5F5F5F5F5F5F5F5F5F5F5F5F5F5F5F5F5F5F5F5
310
F5F5F5F5F5F5F5F5F5F5F5F5F5F5F5F5F5F5F5F5F5F5F5F5F5F5F5F5F5F5F5F5F5F5F5F5F5F5F5F5F5F5F5F5F5F5F5F5F5F5F5F528F5DCF5F5F5F5F5F5F5F5F5F5F5F5F5F5F5F5F5E2F5E2E2F5E2F5F5F5F5F5F5F5F5F5F5F5F5F5F5F5F5F5DCF528F5F5F5F5DCF5F5DCF5DCF5BEF5F5BEBEF5F5F5F5F5F5F5F5F5F5F5F50F
310
F5F5F5F5F50FF5F5F5F5F5F5F5F5F5F5F5F5F5F5F5F5F5F5F5F5F5F5F5F5F5F5F5F5F5F5F5F5F5F5F5F5F5F5F5F5F5F5F5F5F5F5F5F5F5F5F5F5F5F5F5F5F5F5F5F5F5F5F5F5F5F5F5F5F5F5F5F5F5F5F5F5F5F5F5F5F5F5F5F5F5F5F5F5F5F5F5F5F5F5F5F5F5F5F528F5DCF5F5F5F5F5F5F5F5F5F5F5F5F5F5F5F5F5E2F5
310
E2E2F5E2F5F5F5F5F5F5F5F5F5F5F5F5F5F5F5F5F5DCF528F5F5F5DCF5F5DCF5F5DCF5F5BEF5F5BEF5F5F5F5F5F5F5F5F5F5F5F50FF5F5F5F5F50FF5F5F5F5F5F5F5F5F5F5F5F5F5F5F5F5F5F5F5F5F5F5F5F5F5F5F5F5F5F5F5F5F5F5F5F5F5F5F5F5F5F5F5F5F5F5F5F5F5F5F5F5F5F5F5F5F5F5F5F5F5F5F5F5F5F5F5F5
310
F5F5F5F5F5F5F5F5F5F5F5F5F5F5F5F5F5F5F5F5F5F5F5F5F5F5F5F5F5F5F528F5DCF5F5F5F5F5F5F5F5F5F5F5F5F5F5F5F5F5E2F5E2E2F5E2F5F5F5F5F5F5F5F5F5F5F5F5F5F5F5F5F5DCF528F5F5F5F5F5DCF5F5DCDCF5F5BEF5F5F5BEBEF5F5F5F5BEBEF5F5F5F50FF5F5F5F5F50FF5F5F5F5F5F5F5F5F5F5F5F5F5F5F5
310
F5F5F5F5F5F5F5F5F5F5F5F5F5F5F5F5F5F5F5F5F5F5F5F5F5F5F5F5F5F5F5F5F5F5F5F5F5F5F5F5F5F5F5F5F5F5F5F5F5F5F5F5F5F5F5F5F5F5F5F5F5F5F5F5F5F5F5F5F5F5F5F5F5F5F5F5F5F5F5F5F5F5F5F528F5DCF5F5F5F5F5F5F5F5F5F5F5F5F5F5F5F5F5E2F5E2E2F5E2F5F5F5F5F5F5F5F5F5F5F5F5F5F5F5F5F5
310
DCF528F5F5F5F5DCF5F5DCF5DCF5F5F5BEF5F5F5BEBEBEBEBEF5BEF5F5F5F50FF5F5F5F5F50FF5F5F5F5F5F5F5F5F5F5F5F5F5F5F5F5F5F5F5F5F5F5F5F5F5F5F5F5F5F5F5F5F5F5F5F5F5F5F5F5F5F5F5F5F5F5F5F5F5F5F5F5F5F5F5F5F5F5F5F5F5F5F5F5F5F5F5F5F5F5F5F5F5F5F5F5F5F5F5F5F5F5F5F5F5F5F5F5F5
310
F5F5F5F5F5F5F5F5F5F528F5DCF5F5F5F5F5F5F5F5F5F5F5F5F5F5F5F5F5E2F5E2E2F5E2F5F5F5F5F5F5F5F5F5F5F5F5F5F5F5F5F5DCF528F5F5F5DCF5F5DCF5F5DCF5F5F5F5BEF5F5F5F5F5F5F5F5BEBEF5F5F50FF5F5F5F5F50FF5F5F5F5F5F5F5F5F5F5F5F5F5F5F5F5F5F5F5F5F5F5F5F5F5F5F5F5F5F5F5F5F5F5F5F5
310
F5F5F5F5F5F5F5F5F5F5F5F5F5F5F5F5F5F5F5F5F5F5F5F5F5F5F5F5F5F5F5F5F5F5F5F5F5F5F5F5F5F5F5F5F5F5F5F5F5F5F5F5F5F5F5F5F5F5F5F5F5F5F528F5DCF5F5F5F5F5F5F5F5F5F5F5F5F5F5F5F5F5E2F5E2E2F5E2F5F5F5F5F5F5F5F5F5F5F5F5F5F5F5F5F5DCF528F5F5F5F5F5DCF5F5F5DCF5F5F5F5F5BEBEBE
310
F5F5F5F5F5F5F5BEBEF50FF5F5F5F5F50FF5F5F5F5F5F5F5F5F5F5F5F5F5F5F5F5F5F5F5F5F5F5F5F5F5F5F5F5F5F5F5F5F5F5F5F5F5F5F5F5F5F5F5F5F5F5F5F5F5F5F5F5F5F5F5F5F5F5F5F5F5F5F5F5F5F5F5F5F5F5F5F5F5F5F5F5F5F5F5F5F5F5F5F5F5F5F5F5F5F5F5F5F5F5F5F5F5F5F528F5DCF5F5F5F5F5F5F5F5
310
F5F5F5F5F5F5F5F5F5E2F5E2E2F5E2F5F5F5F5F5F5F5F5F5F5F5F5F5F5F5F5F5DCF528F5F5F5F5DCF5F5F5DCDCF5F5F5F5F5F5F5F5BEBEF5F5F5F5F5F5BEF50FF5F5F5F5F50FF5F5F5F5F5F5F5F5F5F5F5F5F5F5F5F5F5F5F5F5F5F5F5F5F5F5F5F5F5F5F5F5F5F5F5F5F5F5F5F5F5F5F5F5F5F5F5F5F5F5F5F5F5F5F5F5F5
310
F5F5F5F5F5F5F5F5F5F5F5F5F5F5F5F5F5F5F5F5F5F5F5F5F5F5F5F5F5F5F5F5F5F5F5F5F5F5F5F5F5F528F5DCF5F5F5F5F5F5F5F5F5F5F5F5F5F5F5F5F5E2F5E2E2F5E2F5F5F5F5F5F5F5F5F5F5F5F5F5F5F5F5F5DCF528F5F5F5DCF5F5F5DCF5DCF5F5F5F5F5F5F5F5F5BEBEF5F5F5F5F5F5BE1BF5F5F5F5F50FF5F5F5F5
310
F5F5F5F5F5F5F5F5F5F5F5F5F5F5F5F5F5F5F5F5F5F5F5F5F5F5F5F5F5F5F5F5F5F5F5F5F5F5F5F5F5F5F5F5F5F5F5F5F5F5F5F5F5F5F5F5F5F5F5F5F5F5F5F5F5F5F5F5F5F5F5F5F5F5F5F5F5F5F5F5F5F5F5F5F5F5F5F5F5F5F5F5F5F5F528F5DCF5F5F5F5F5F5F5F5F5F5F5F5F5F5F5F5F5E2F5E2E2F5E2F5F5F5F5F5F5
310
F5F5F5F5F5F5F5F5F5F5F5DCF528F5F5F5F5F5DCDCF5F5DCF5F5F5F5F5F5F5F5F5F5BEF5F5F5F5F5F5F5BEF5F5F5F5F50F0FF5F5F5F5F5F5F5F5F5F5F5F5F5F5F5F5F5F5F5F5F5F5F5F5F5F5F5F5F5F5F5F5F5F5F5F5F5F5F5F5F5F5F5F5F5F5F5F5F5F5F5F5F5F5F5F5F5F5F5F5F5F5F5F5F5F5F5F5F5F5F5F5F5F5F5F5F5
310
F5F5F5F5F5F5F5F5F5F5F5F5F5F5F5F5F5F5F5F5F528F5DCF5F5F5F5F5F5F5F5F5F5F5F5F5F5F5F5F5E2F5E2E2F5E2F5F5F5F5F5F5F5F5F5F5F5F5F5F5F5F5F5DCF528F5F5F5F5DCF5F5F5DCDCDCDCDCDCDCDCDCDCDCDCDCDCDCDCDCDCDCDCDCDCDCDCDCDCDCDCDCF5F5F5F5F5F5F5F5F5F5F5F5F5F5F5F5F5F5F5F5F5F5F5
310
F5F5F5F5F5F5F5F5F5F5F5F5F5F5F5F5F5F5F5F5F5F5F5F5F5F5F5F5F5F5F5F5F5F5F5F5F5F5F5F5F5F5F5F5F5F5F5F5F5F5F5F5F5F5F5F5F5F5F5F5F5F5F5F5F5F5F5F5F5F5F5F5F5F528F5DCF5F5F5F5F5F5F5F5F5F5F5F5F5F5F5F5F5E2F5E2E2F5E2F5F5F5F5F5F5F5F5F5F5F5F5F5F5F5F5F5DCF528F5F5F5DCF5F5F5
310
DCF5F5DCF5F5DCF5F5F5DCF5F5DCF5F5DCF5F5DCF5F5DCF5F5DCF5F5F5F5F5F5F5F5F5F5F5F5F5F5F5F5F5F5F5F5F5F5F5F5F5F5F5F5F5F5F5F5F5F5F5F5F5F5F5F5F5F5F5F5F5F5F5F5F5F5F5F5F5F5F5F5F5F5F5F5F5F5F5F5F5F5F5F5F5F5F5F5F5F5F5F5F5F5F5F5F5F5F5F5F5F5F5F5F5F5F5F5F5F5F5F5F5F5F5F5F5
310
28F5DCF5F5F5F5F5F5F5F5F5F5F5F5F5F5F5F5F5E2F5E2E2F5E2F5F5F5F5F5F5F5F5F5F5F5F5F5F5F5F5F5DCF528F5F5F5F5F5DCDCF5F5DCF5F5DCF5F5F5DCF5F5DCF5F5DCF5F5DCF5F5DCF5F5DCF5F5F5F5F5F5F5F5F5F5F5F5F5F5F5F5F5F5F5F5F5F5F5F5F5F5F5F5F5F5F5F5F5F5F5F5F5F5F5F5F5F5F5F5F5F5F5F5F5
310
F5F5F5F5F5F5F5F5F5F5F5F5F5F5F5F5F5F5F5F5F5F5F5F5F5F5F5F5F5F5F5F5F5F5F5F5F5F5F5F5F5F5F5F5F5F5F5F5F5F5F5F5F528F5DCF5F5F5F5F5F5F5F5F5F5F5F5F5F5F5F5F5E2F5E2E2F5E2F5F5F5F5F5F5F5F5F5F5F5F5F5F5F5F5F5DCF528F5F5F5F5DCF5F5F5DCF5F5DCF5F5DCDCF5DCDCF5DCDCF5F5DCF5F5DC
310
F5F5DCF5F5F5F5F5F5F5F5F5F5F5F5F5F5F5F5F5F5F5F5F5F5F5F5F5F5F5F5F5F5F5F5F5F5F5F5F5F5F5F5F5F5F5F5F5F5F5F5F5F5F5F5F5F5F5F5F5F5F5F5F5F5F5F5F5F5F5F5F5F5F5F5F5F5F5F5F5F5F5F5F5F5F5F5F5F5F5F5F5F5F5F5F5F5F5F5F5F5F5F5F5F5F528F5DCF5F5F5F5F5F5F5F5F5F5F5F5F5F5F5F5F5E2
310
F5E2E2F5E2F5F5F5F5F5F5F5F5F5F5F5F5F5F5F5F5F5DCF528F5F5F5DCF5F5F5DCF5F5DCF5F5DCF5F5DCF5F5DCF5F5F5DCF5F5DCF5F5DCF5F5F5DCF5F5F5F5F5F5F5F5F5F5F5F5F5F5F5F5F5F5F5F5F5F5F5F5F5F5F5F5F5F5F5F5F5F5F5F5F5F5F5F5F5F5F5F5F5F5F5F5F5F5F5F5F5F5F5F5F5F5F5F5F5F5F5F5F5F5F5F5
310
F5F5F5F5F5F5F5F5F5F5F5F5F5F5F5F5F5F5F5F5F5F5F5F5F5F5F5F5F5F5F5F528F5DCF5F5F5F5F5F5F5F5F5F5F5F5F5F5F5F5F5E2F5E2E2F5F5F5F5F5F5F5F5F5F5F5F5F5F5F5F5F5F5F5DCF528F5F5F5F5F5F5DCF5F5DCF5F5DCF5F5DCF5F5DCF5F5F5DCF5F5DCF5F5DCF5F5DCDCF5F5F5F5F5F5F5F5F5F5F5F5F5F5F5F5
310
F5F5F5F5F5F5F5F5F5F5F5F5F5F5F5F5F5F5F5F5F5F5F5F5F5F5F5F5F5F5F5F5F5F5F5F5F5F5F5F5F5F5F5F5F5F5F5F5F5F5F5F5F5F5F5F5F5F5F5F5F5F5F5F5F5F5F5F5F5F5F5F5F5F5F5F5F5F5F5F5F5F5F5F5F528F5DCF5F5F5F5F5F5F5F5F5F5F5F5F5F5F5F5F5F5F5E2E2F5F5F5F5F5F5F5F5F5F5F5F5F5F5F5F5F5F5
310
F5DCF528F5F5F5F5F5F5F5F5F5F5F5F5F5F5F5F5F5F5F5F5F5F5F5F5F5F5F5F5F5F5F5F5F5F5F5F5F5F5F5F5F5F5F5F5F5F5F5F5F5F5F5F5F5F5F5F5F5F5F5F5F5F5F5F5F5F5F5F5F5F5F5F5F5F5F5F5F5F5F5F5F5F5F5F5F5F5F5F5F5F5F5F5F5F5F5F5F5F5F5F5F5F5F5F5F5F5F5F5F5F5F5F5F5F5F5F5F5F5F5F5F5F5F5
310
F5F5F5F5F5F5F5F5F5F5F528F5DCF5F5F5F5F5F5F5F5F5F5F5F5F5F5F5F5F5F5F5E2E2F5F5F5F5F5F5F5F5F5F5F5F5F5F5F5F5F5F5F5DCF528F5F5F5F5F5F5F5F5F5F5F5F5F5F5F5F5F5F5F5F5F5F5F5F5F5F5F5F5F5F5F5F5F5F5F5F5F5F5F5F5F5F5F5F5F5F5F5F5F5F5F5F5F5F5F5F5F5F5F5F5F5F5F5F5F5F5F5F5F5F5
310
F5F5F5F5F5F5F5F5F5F5F5F5F5F5F5F5F5F5F5F5F5F5F5F5F5F5F5F5F5F5F5F5F5F5F5F5F5F5F5F5F5F5F5F5F5F5F5F5F5F5F5F5F5F5F5F5F5F5F5F5F5F5F5F528F5DCF5F5F5F5F5F5F5F5F5F5F5F5F5F5F5F5F5F5F5E2E2F5F5F5F5F5F5F5F5F5F5F5F5F5F5F5F5F5F5F5DCF528F5F5F5F5F5F5F5F5F5F5F5F5F5F5F5F5F5
310
F5F5F5F5F5F5F5F5F5F5F5F5F5F5F5F5F5F5F5F5F5F5F5F5F5F5F5F5F5F5F5F5F5F5F5F5F5F5F5F5F5F5F5F5F5F5F5F5F5F5F5F5F5F5F5F5F5F5F5F5F5F5F5F5F5F5F5F5F5F5F5F5F5F5F5F5F5F5F5F5F5F5F5F5F5F5F5F5F5F5F5F5F5F5F5F5F5F5F5F5F5F5F5F5F5F5F5F5F5F5F5F5F5F5F5F5F528F5DCF5F5F5F5F5F5F5
310
F5F5F5F5F5F5F5F5F5F5F5F5E2E2F5F5F5F5F5F5F5F5F5F5F5F5F5F5F5F5F5F5F5DCF528F5F5F5F5F5F5F5F5F5F5F5F5F5F5F5F5F5F5F5F5F5F5F5F5F5F5F5F5F5F5F5F5F5F5F5F5F5F5F5F5F5F5F5F5F5F5F5F5F5F5F5F5F5F5F5F5F5F5F5F5F5F5F5F5F5F5F5F5F5F5F5F5F5F5F5F5F5F5F5F5F5F5F5F5F5F5F5F5F5F5F5
310
F5F5F5F5F5F5F5F5F5F5F5F5F5F5F5F5F5F5F5F5F5F5F5F5F5F5F5F5F5F5F5F5F5F5F5F5F5F5F5F5F5F5F528F5DCF5F5F5F5F5F5F5F5F5F5F5F5F5F5F5F5F5F5F5E2E2F5F5F5F5F5F5F5F5F5F5F5F5F5F5F5F5F5F5F5DCF528F5F5F5F5F5F5F5F5F5F5F5F5F5F5F5F5F5F5F5F5F5F5F5F5F5F5F5F5F5F5F5F5F5F5F5F5F5F5
310
F5F5F5F5F5F5F5F5F5F5F5F5F5F5F5F5F5F5F5F5F5F5F5F5F5F5F5F5F5F5F5F5F5F5F5F5F5F5F5F5F5F5F5F5F5F5F5F5F5F5F5F5F5F5F5F5F5F5F5F5F5F5F5F5F5F5F5F5F5F5F5F5F5F5F5F5F5F5F5F5F5F5F5F5F5F5F5F5F5F5F5F5F5F5F5F528F5DCF5F5F5F5F5F5F5F5F5F5F5F5F5F5F5F5F5F5F5E2E2F5F5F5F5F5F5F5
310
F5F5F5F5F5F5F5F5F5F5F5F5DCF528F5F5F5F5F5F5F5F5F5F5F5F5F5F5F5F5F5F5F5F5F5F5F5F5F5F5F5F5F5F5F5F5F5F5F5F5F5F5F5F5F5F5F5F5F5F5F5F5F5F5F5F5F5F5F5F5F5F5F5F5F5F5F5F5F5F5F5F5F5F5F5F5F5F5F5F5F5F5F5F5F5F5F5F5F5F5F5F5F5F5F5F5F5F5F5F5F5F5F5F5F5F5F5F5F5F5F5F5F5F5F5F5
310
F5F5F5F5F5F5F5F5F5F5F5F5F5F5F5F5F5F5F5F5F5F528F5DCF5F5F5F5F5F5F5F5F5F5F5F5F5F5F5F5F5F5F5E2E2F5F5F5F5F5F5F5F5F5F5F5F5F5F5F5F5F5F5F5DCF528F5F5F5F5F5F5F5F5F5F5F5F5F5F5F5F5F5F5F5F5F5F5F5F5F5F5F5F5F5F5F5F5F5F5F5F5F5F5F5F5F5F5F5F5F5F5F5F5F5F5F5F5F5F5F5F5F5F5F5
310
F5F5F5F5F5F5F5F5F5F5F5F5F5F5F5F5F5F5F5F5F5F5F5F5F5F5F5F5F5F5F5F5F5F5F5F5F5F5F5F5F5F5F5F5F5F5F5F5F5F5F5F5F5F5F5F5F5F5F5F5F5F5F5F5F5F5F5F5F5F5F5F5F5F5F528F5DCF5F5F5F5F5F5F5F5F5F5F5F5F5F5F5F5F5F5F5E2E2F5E2F5F5F5F5F5F5F5F5F5F5F5F5F5F5F5F5F5DCF528F5F5F5F5F5F5
310
F5F5F5F5F5F5F5F5F5F5F5F5F5F5F5F5F5F5F5F5F5F5F5F5F5F5F5F5F5F5F5F5F5F5F5F5F5F5F5F5F5F5F5F5F5F5F5F5F5F5F5F5F5F5F5F5F5F5F5F5F5F5F5F5F5F5F5F5F5F5F5F5F5F5F5F5F5F5F5F5F5F5F5F5F5F5F5F5F5F5F5F5F5F5F5F5F5F5F5F5F5F5F5F5F5F5F5F5F5F5F5F5F5F5F5F5F5F5F5F5F5F5F5F5F5F5F5
310
F528F5DCF5F5F5F5F5F5F5F5F5F5F5F5F5F5F5F5F5E2F5E2E2F5E2F5F5F5F5F5F5F5F5F5F5F5F5F5F5F5F5F5DCF528F5F5F5F5F5F5F5F5F5F5F5F5F5F5F5F5F5F5F5F5F5F5F5F5F5F5F5F5F5F5F5F5F5F5F5F5F5F5F5F5F5F5F5F5F5F5F5F5F5F5F5F5F5F5F5F5F5F5F5F5F5F5F5F5F5F5F5F5F5F5F5F5F5F5F5F5F5F5F5F5
310
F5F5F5F5F5F5F5F5F5F5F5F5F5F5F5F5F5F5F5F5F5F5F5F5F5F5F5F5F5F5F5F5F5F5F5F5F5F5F5F5F5F5F5F5F5F5F5F5F5F5F5F5F5F528F5DCF5F5F5F5F5F5F5F5F5F5F5F5F5F5F5F5F5E2F5E2E2F5E2F5F5F5F5F5F5F5F5F5F5F5F5F5F5F5F5F5DCF528F5F5F5F5F5F5F5F5F5F5F5F5F5F5F5F5F5F5F5F5F5F5F5F5F5F5F5
310
F5F5F5F5F5F5F5F5F5F5F5F5F5F5F5F5F5F5F5F5F5F5F5F5F5F5F5F5F5F5F5F5F5F5F5F5F5F5F5F5F5F5F5F5F5F5F5F5F5F5F5F5F5F5F5F5F5F5F5F5F5F5F5F5F5F5F5F5F5F5F5F5F5F5F5F5F5F5F5F5F5F5F5F5F5F5F5F5F5F5F5F5F5F5F5F5F5F5F5F5F5F5F5F5F5F5F528F5DCF5F5F5F5F5F5F5F5F5F5F5F5F5F5F5F5F5
310
E2F5E2E2F5E2F5F5F5F5F5F5F5F5F5F5F5F5F5F5F5F5F5DCF528F5F5F5F5F5F5F5F5F5F5F5F5F5F5F5F5F5F5F5F5F5F5F5F5F5F5F5F5F5F5F5F5F5F5F5F5F5F5F5F5F5F5F5F5F5F5F5F5F5F5F5F5F5F5F5F5F5F5F5F5F5F5F5F5F5F5F5F5F5F5F5F5F5F5F5F5F5F5F5F5F5F5F5F5F5F5F5F5F5F5F5F5F5F5F5F5F5F5F5F5F5
310
F5F5F5F5F5F5F5F5F5F5F5F5F5F5F5F5F5F5F5F5F5F5F5F5F5F5F5F5F5F5F5F5F528F5DCF5F5F5F5F5F5F5F5F5F5F5F5F5F5F5F5F5E2F5E2E2F5E2F5F5F5F5F5F5F5F5F5F5F5F5F5F5F5F5F5DCF528F5F5F5F5F5F5F5F5F5F5F5F5F5F5F5F5F5F5F5F5F5F5F5F5F5F5F5F5F5F5F5F5F5F5F5F5F5F5F5F5F5F5F5F5F5F5F5F5
310
F5F5F5F5F5F5F5F5F5F5F5F5F5F5F5F5F5F5F5F5F5F5F5F5F5F5F5F5F5F5F5F5F5F5F5F5F5F5F5F5F5F5F5F5F5F5F5F5F5F5F5F5F5F5F5F5F5F5F5F5F5F5F5F5F5F5F5F5F5F5F5F5F5F5F5F5F5F5F5F5F5F5F5F5F5F528F5DCF5F5F5F5F5F5F5F5F5F5F5F5F5F5F5F5F5E2F5E2E2F5E2F5F5F5F5F5F5F5F5F5F5F5F5F5F5F5
310
F5F5DCF528F5F5F5F5F5F5F5F5F5F5F5F5F5F5F5F5F5F5F5F5F5F5F5F5F5F5F5F5F5F5F5F5F5F5F5F5F5F5F5F5F5F5F5F5F5F5F5F5F5F5F5F5F5F5F5F5F5F5F5F5F5F5F5F5F5F5F5F5F5F5F5F5F5F5F5F5F5F5F5F5F5F5F5F5F5F5F5F5F5F5F5F5F5F5F5F5F5F5F5F5F5F5F5F5F5F5F5F5F5F5F5F5F5F5F5F5F5F5F5F5F5F5
310
F5F5F5F5F5F5F5F5F5F5F5F528F5DCF5F5F5F5F5F5F5F5F5F5F5F5F5F5F5F5F5E2F5E2E2F5E2F5F5F5F5F5F5F5F5F5F5F5F5F5F5F5F5F5DCF528F5F5F5F5F5F5F5F5F5F5F5F5F5F5F5F5F5F5F5F5F5F5F5F5F5F5F5F5F5F5F5F5F5F5F5F5F5F5F5F5F5F5F5F5F5F5F5F5F5F5F5F5F5F5F5F5F5F5F5F5F5F5F5F5F5F5F5F5F5
310
F5F5F5F5F5F5F5F5F5F5F5F5F5F5F5F5F5F5F5F5F5F5F5F5F5F5F5F5F5F5F5F5F5F5F5F5F5F5F5F5F5F5F5F5F5F5F5F5F5F5F5F5F5F5F5F5F5F5F5F5F5F5F5F5F528F5DCF5F5F5F5F5F5F5F5F5F5F5F5F5F5F5F5F5E2F5E2E2F5E2F5F5F5F5F5F5F5F5F5F5F5F5F5F5F5F5F5DCF528F5F5F5F5F5F5F5F5F5F5F5F5F5F5F5F5
310
F5F5F5F5F5F5F5F5F5F5F5F5F5F5F5F5F5F5F5F5F5F5F5F5F5F5F5F5F5F5F5F5F5F5F5F5F5F5F5F5F5F5F5F5F5F5F5F5F5F5F5F5F5F5F5F5F5F5F5F5F5F5F5F5F5F5F5F5F5F5F5F5F5F5F5F5F5F5F5F5F5F5F5F5F5F5F5F5F5F5F5F5F5F5F5F5F5F5F5F5F5F5F5F5F5F5F5F5F5F5F5F5F5F5F5F5F5F528F5DCF5F5F5F5F5F5
310
F5F5F5F5F5F5F5F5F5F5F5E2F5E2E2F5E2F5F5F5F5F5F5F5F5F5F5F5F5F5F5F5F5F5DCF528282828282828282828282828282828282828282828282828282828282828282828282828282828282828282828282828282828282828282828282828282828282828282828282828282828282828282828282828282828282828
310
282828282828282828282828282828282828282828282828282828282828282828282828282828282828282828F5DCF5F5F5F5F5F5F5F5F5F5F5F5F5F5F5F5F5E2F5E2E2F5E2F5F5F5F5F5F5F5F5F5F5F5F5F5F5F5F5F5DCF528F5F5F5F5F5F5F5F5F5F5F5F5F5F5F5F5F5F5F5F5F5F5F5F5F5F5F5F5F5F5F5F5F5F5F5F5F5
310
F5F5F5F5F5F5F5F5F5F5F5F5F5F5F5F5F5F5F5F5F5F5F5F5F5F5F5F5F528F5F5F5F5F5F5F5F5F5F5F5F5F5F5F5F5F5F5F5F5F5F5F5F5F5F5F5F5F5F5F5F5F5F5F5F5F5F5F5F5F5F5F5F5F5F5F5F5F5F5F5F5F5F5F5F5F5F5F5F5F5F5F5F5F5F5F528F5DCF5F5F5F5F5F5F5F5F5F5F5F5F5F5F5F5F5E2F5E2E2F5E2F5F5F5F5
310
F5F5F5F5F5F5F5F5F5F5F5F5F5DCF528F5F5F5F5F5F5F5F5F5F5F5F5F52D2D2D2D2D2D2D2D2D2D2D2D2D2D2D2D2D2D2D2D2D2D2D2D2D2D2D2D2D2D2D2D2D2D2D2D2D2DF5F5F5F5F5F5F5F5F5F5F5F5F5F5F528F5F5F52D2D2D2DF52D2D2D2D2D2DF5F5F5F5F5F5F5F5F5F5F5F5F5F5F5F5F5F5F5F5F5F5F5F5F5F5F5F5F5F5
310
F5F5F5F5F5F5F5F5F5F5F5F5F5F5F5F5F5F5F5F5F5F5F528F5DCF5F5F5F5F5F5F5F5F5F5F5F5F5F5F5F5F5E2F5E2E2F5E2F5F5F5F5F5F5F5F5F5F5F5F5F5F5F5F5F5DCF528F5F5F5F5F5F5F5F5F5F5F5F5F52D2D2D2D2D2D2D2D2D2D2D2D2D2D2D2D2D2D2D2D2D2D2D2D2D2D2D2D2D2D2D2D2D2D2D2D2D2DF5F5F5F5F5F5F5
310
F5F5F5F5F5F5F5F528F5F5F52D2D2D2DF52D2D2D2DF52DF5F5F5F5F5F5F5F5F5F5F5F5F5F5F5F5F5F5F5F5F5F5F5F5F5F5F5F5F5F5F5F5F5F5F5F5F5F5F5F5F5F5F5F5F5F5F5F5F5F5F5F5F528F5DCF5F5F5F5F5F5F5F5F5F5F5F5F5F5F5F5F5E2F5E2E2F5E2F5F5F5F5F5F5F5F5F5F5F5F5F5F5F5F5F5DCF528F5F5F5F5F5
310
F5F5F5F5F5F5F5F5F5F5F5F5F5F5F5F5F5F5F5F5F5F5F5F5F5F5F5F5F5F5F5F5F5F5F5F5F5F5F5F5F5F5F5F5F5F5F5F5F5F5F5F5F5F5F5F5F5F5F5F5F528F5F5F5F5F5F5F5F5F5F5F5F5F5F5F5F5F5F5F5F5F5F5F5F5F5F5F5F5F5F5F5F5F5F5F5F5F5F5F5F5F5F5F5F5F5F5F5F5F5F5F5F5F5F5F5F5F5F5F5F5F5F5F5F5F5
310
F5F528F5DCF5F5F5F5F5F5F5F5F5F5F5F5F5F5F5F5F5E2F5E2E2F5E2F5F5F5F5F5F5F5F5F5F5F5F5F5F5F5F5F5DCF52828282828282828282828282828282828282828282828282828282D2D2D2D2D2D2D2D2D2D2D2D2D28282828282828282828282828282828282828282828282828282828282828282828282828282828
310
2828282828282828282828282828282828282828282828282828282828282828282828282828282828282828282828282828282828282828F5DCF5F5F5F5F5F5F5F5F5F5F5F5F5F5F5F5F5E2F5E2E2F5E2F5F5F5F5F5F5F5F5F5F5F5F5F5F5F5F5F5DCF528F5F5F5F5F5F5F5F5F5F5F5F5F5F5F5F5F5F5F5F5F5F5F5F5F5F5
310
2D2D2D2D2D2D2D2D2D2D2D2D2DF5F5F5F5F5F5F5F5F5F5F5F5F5F5F5F5F5F5F5F5F5F5F5F5F5F5F528F5F5F52D2D2D2D2D2D2D2D2D2D2DF5F52D2D2D2D2D2D2D2D2D2DF5F5F5F5F5F5F5F5F5F5F5F5F5F5F5F5F5F5F5F5F5F5F5F5F5F5F5F5F5F5F5F5F5F5F5F5F5F5F5F5F528F5DCF5F5F5F5F5F5F5F5F5F5F5F5F5F5F5F5
310
F5E2F5E2E2F5E2F5F5F5F5F5F5F5F5F5F5F5F5F5F5F5F5F5DCF528F5F5F5F5F5F5F5F5F5F5F5F5F5F5F5F5F5F5F5F5F5F5F5F5F5F52D2D2D2D2D2D2D2D2D2D2D2D2DF5F5F5F5F5F5F5F5F5F5F5F5F5F5F5F5F5F5F5F5F5F5F5F5F5F5F528F5F5F52D2D2D2D2D2D2D2D2D2D2DF52D2D2D2D2D2D2D2D2D2D2DF5F5F5F5F5F5F5
310
F5F5F5F5F5F5F5F5F5F5F5F5F5F5F5F5F5F5F5F5F5F5F5F5F5F5F5F5F5F5F5F5F5F528F5DCF5F5F5F5F5F5F5F5F5F5F5F5F5F5F5F5F5E2F5E2E2F5F5F5F5F5F5F5F5F5F5F5F5F5F5F5F5F5F5F5DCF528F5F5F5F5F5F5F5F5F5F5F5F5F5F5F5F5F5F5F5F5F5F5F5F5F5F5F5F5F5F5F5F5F5F5F5F5F5F5F5F5F5F5F5F5F5F5F5
310
F5F5F5F5F5F5F5F5F5F5F5F5F5F5F5F5F5F5F528F5F5F5F5F5F5F5F5F5F5F5F5F5F5F5F5F5F5F5F5F5F5F5F5F5F5F5F5F5F5F5F5F5F5F5F5F5F5F5F5F5F5F5F5F5F5F5F5F5F5F5F5F5F5F5F5F5F5F5F5F5F5F5F5F5F5F528F5DCF5F5F5F5F5F5F5F5F5F5F5F5F5F5F5F5F5F5F5E2E2F5F5F5F5F5F5F5F5F5F5F5F5F5F5F5F5
310
F5F5F5DCF52828282828282828282828282828282828282828282828282828282828282828282828282828282828282828282828282828282828282828282828282828282828282828282828282828282828282828282828282828282828282828282828282828282828282828282828282828282828282828282828282828
310
2828282828282828282828282828F5DCF5F5F5F5F5F5F5F5F5F5F5F5F5F5F5F5F5F5F5E2E2F5F5F5F5F5F5F5F5F5F5F5F5F5F5F5F5F5F5F5DCF5F5F5F5F5F5F5F5F5F5F5F5F5F5F5F5F5F5F5F5F5F5F5F5F5F5F5F5F5F5F5F5F5F5F5F5F5F5F5F5F5F5F5F5F5F5F5F5F5F5F5F5F5F5F5F5F5F5F5F5F5F5F5F5F5F5F5F5F5F5
310
F5F5F5F5F5F5F5F5F5F5F5F5F5F5F5F5F5F5F5F5F5F5F5F5F5F5F5F5F5F5F5F5F5F5F5F5F5F5F5F5F5F5F5F5F5F5F5F5F5F5F5F5F5F5F5F5F5F5F5F5F5F5F5F5F5F5F5F5DCF5F5F5F5F5F5F5F5F5F5F5F5F5F5F5F5F5F5F5E2E2F5F5F5F5F5F5F5F5F5F5F5F5F5F5F5F5F5F5F5DCDCDCDCDCDCDCDCDCDCDCDCDCDCDCDCDCDC
310
DCDCDCDCDCDCDCDCDCDCDCDCDCDCDCDCDCDCDCDCDCDCDCDCDCDCDCDCDCDCDCDCDCDCDCDCDCDCDCDCDCDCDCDCDCDCDCDCDCDCDCDCDCDCDCDCDCDCDCDCDCDCDCDCDCDCDCDCDCDCDCDCDCDCDCDCDCDCDCDCDCDCDCDCDCDCDCDCDCDCDCDCDCDCDCDCDCDCDCDCDCDCDCDCDCDCDCDCDCDCDCDCDCDCDCDCDCDCDCDCDCDCF5F5F5F5F5
310
F5F5F5F5F5F5F5F5F5F5F5F5F5F5E2E2F5F5F5F5F5F5F5F5F5F5F5F5F5F5F5F5F5F5F5DCDCDCDCDCDCDCDCDCDCDCDCDCDCDCDCDCDCDCDCDCDCDCDCDCDCDCDCDCDCDCDCDCDCDCDCDCDCDCDCDCDCDCDCDCDCDCDCDCDCDCDCDCDCDCDCDCDCDCDCDCDCDCDCDCDCDCDCDCDCDCDCDCDCDCDCDCDCDCDCDCDCDCDCDCDCDCDCDCDCDCDC
310
DCDCDCDCDCDCDCDCDCDCDCDCDCDCDCDCDCDCDCDCDCDCDCDCDCDCDCDCDCDCDCDCDCDCDCDCDCDCDCDCDCDCDCDCDCDCDCDCF5F5F5F5F5F5F5F5F5F5F5F5F5F5F5F5F5F5F5E2E2F5F5F5F5F5F5F5F5F5F5F5F5F5F5F5F5F5F5F5F5F5F5F5F5F5F5F5F5F5F5F5F5F5F5F5F5F5F5F5F5F5F5F5F5F5F5F5F5F5F5F5F5F5F5F5F5F5F5
310
F5F5F5F5F5F5F5F5F5F5F5F5F5F5F5F5F5F5F5F5F5F5F5F5F5F5F5F5F5F5F5F5F5F5F5F5F5F5F5F5F5F5F5F5F5F5F5F5F5F5F5F5F5F5F5F5F5F5F5F5F5F5F5F5F5F5F5F5F5F5F5F5F5F5F5F5F5F5F5F5F5F5F5F5F5F5F5F5F5F5F5F5F5F5F5F5F5F5F5F5F5F5F5F5F5F5F5F5F5F5F5F5F5F5F5F5F5F5F5F5E2E2F5F5F5F5F5
310
F5F5F5F5F5F5F5F5F5F5F5F5F5F5F5F5F5F5F5F5F5F5F5F5F5F5F5F5F5F5F5F5F5F5F5F5F5F5F5F5F5F5F5F5F5F5F5F5F5F5F5F5F5F5F5F5F5F5F5F5F5F5F5F5F5F5F5F5F5F5F5F5F5F5F5F5F5F5F5F5F5F5F5F5F5F5F5F5F5F5F5F5F5F5F5F5F5F5F5F5F5F5F5F5F5F5F5F5F5F5F5F5F5F5F5F5F5F5F5F5F5F5F5F5F5F5F5
310
F5F5F5F5F5F5F5F5F5F5F5F5F5F5F5F5F5F5F5F5F5F5F5F5F5F5F5F5F5F5F5F5F5F5F5F5F5F5F5F5F5F5F5F5F5F5E2E2F5F5F5F5F5F5F5F5F5F5F5F5F5F5F5F5F5F5F5F5F5F5F5F5F5F5F5F5F5F5F5F5F5F5F5F5F5F5F5F5F5F5F5F5F5F5F5F5F5F5F5F5F5F5F5F5F5F5F5F5F5F5F5F5F5F5F5F5F5F5F5F5F5F5F5F5F5F5F5
310
F5F5F5F5F5F5F5F5F5F5F5F5F5F5F5F5F5F5F5F5F5F5F5F5F5F5F5F5F5F5F5F5F5F5F5F5F5F5F5F5F5F5F5F5F5F5F5F5F5F5F5F5F5F5F5F5F5F5F5F5F5F5F5F5F5F5F5F5F5F5F5F5F5F5F5F5F5F5F5F5F5F5F5F5F5F5F5F5F5F5F5F5F5F5F5F5F5F5F5E2E2F5F5F5F5F5F5F5F5F5F5F5F5F5F5F5F5F5F5F5F5F5F5F5F5F5F5
310
F5F5F5F5F5F5F5F5F5F5F5F5F5F5F5F5F5F5F5F5F5F5F5F5F5F5F5F5F5F5F5F5F5F5F5F5F5F5F5F5F5F5F5F5F5F5F5F5F5F5F5F5F5F5F5F5F5F5F5F5F5F5F5F5F5F5F5F5F5F5F5F5F5F5F5F5F5F5F5F5F5F5F5F5F5F5F5F5F5F5F5F5F5F5F5F5F5F5F5F5F5F5F5F5F5F5F5F5F5F5F5F5F5F5F5F5F5F5F5F5F5F5F5F5F5F5F5
310
F5F5F5F5F5F5F5F5F5F5F5F5F5F5F5F5F5F5F5F5F5F5F5F5F5E2E2F5E2F5F5F5F5F5F5F5F5F5F5F5F5F5F5F5F5F5F5F5F5F5F5F5F5F5F5F5F5F5F5F5F5F5F5F5F5F5F5F5F5F5F5F5F5F5F5F5F5F5F5F5F5F5F5F5F5F5F5F5F5F5F5F5F5F5F5F5F5F5F5F5F5F5F5F5F5F5F5F5F5F5F5F5F5F5F5F5F5F5F5F5F5F5F5F5F5F5F5
310
F5F5F5F5F5F5F5F5F5F5F5F5F5F5F5F5F5F5F5F5F5F5F5F5F5F5F5F5F5F5F5F5F5F5F5F5F5F5F5F5F5F5F5F5F5F5F5F5F5F5F5F5F5F5F5F5F5F5F5F5F5F5F5F5F5F5F5F5F5F5F5F5F5F5F5F5E2F5E2E2F5E2F5F5F5F5F5F5F5F5F5F5F5F5F5F5F5F5F5F5F5F5F5F5F5F5F5F5F5F5F5F5F5F5F5F5F5F5F5F5F5F5F5F5F5F5F5
310
F5F5F5F5F5F5F5F5F5F5F5F5F5F5F5F5F5F5F5F5F5F5F5F5F5F5F5F5F5F5F5F5F5F5F5F5F5F5F5F5F5F5F5F5F5F5F5F5F5F5F5F5F5F5F5F5F5F5F5F5F5F5F5F5F5F5F5F5F5F5F5F5F5F5F5F5F5F5F5F5F5F5F5F5F5F5F5F5F5F5F5F5F5F5F5F5F5F5F5F5F5F5F5F5F5F5F5F5F5F5F5F5F5F5F5F5F5F5F5F5F5F5F5F5F5F5F5
310
F5F5E2F5E2E2F5E2F5F5F5F5F5F5F5F5F5F5F5F5F5F5F5F5F5F5F5F5F5F5F5F5F5F5F5F5F5F5F5F5F5F5F5F5F5F5F5F5F5F5F5F5F5F5F5F5F5F5F5F5F5F5F5F5F5F5F5F5F5F5F5F5F5F5F5F5F5F5F5F5F5F5F5F5F5F5F5F5F5F5F5F5F5F5F5F5F5F5F5F5F5F5F5F5F5F5F5F5F5F5F5F5F5F5F5F5F5F5F5F5F5F5F5F5F5F5F5
310
F5F5F5F5F5F5F5F5F5F5F5F5F5F5F5F5F5F5F5F5F5F5F5F5F5F5F5F5F5F5F5F5F5F5F5F5F5F5F5F5F5F5F5F5F5F5F5F5F5F5F5F5F5F5F5E2F5E2E2F5E2F5F5F5F5F5F5F5F5F5F5F5F5F5F5F5F5F5F5F5F5F5F5F5F5F5F5F5F5F5F5F5F5F5F5F5F5F5F5F5F5F5F5F5F5F5F5F5F5F5F5F5F5F5F5F5F5F5F5F5F5F5F5F5F5F5F5
310
F5F5F5F5F5F5F5F5F5F5F5F5F5F5F5F5F5F5F5F5F5F5F5F5F5F5F5F5F5F5F5F5F5F5F5F5F5F5F5F5F5F5F5F5F5F5F5F5F5F5F5F5F5F5F5F5F5F5F5F5F5F5F5F5F5F5F5F5F5F5F5F5F5F5F5F5F5F5F5F5F5F5F5F5F5F5F5F5F5F5F5F5F5F5F5F5F5F5F5F5F5F5F5F5F5F5F5F5E2F5E2E2F5E2F5F5F5F5F5F5F5F5F5F5F5F5F5
310
F5F5F5F5F5F5F5F5F5F5F5F5F5F5F5F5F5F5F5F5F5F5F5F5F5F5F5F5F5F5F5F5F5F5F5F5F5F5F5F5F5F5F5F5F5F5F5F5F5F5F5F5F5F5F5F5F5F5F5F5F5F5F5F5F5F5F5F5F5F5F5F5F5F5F5F5F5F5F5F5F5F5F5F5F5F5F5F5F5F5F5F5F5F5F5F5F5F5F5F5F5F5F5F5F5F5F5F5F5F5F5F5F5F5F5F5F5F5F5F5F5F5F5F5F5F5F5
310
F5F5F5F5F5F5F5F5F5F5F5F5F5F5F5F5F5F5F5F5F5F5F5F5F5F5F5F5F5F5F5F5F5F5E2F5E2E2F5E2F5F5F5F5F5F5F5F5F5F5F5F5F5F5F5F5F5F5F5F5F5F5F5F5F5F5F5F5F5F5F5F5F5F5F5F5F5F5F5F5F5F5F5F5F5F5F5F5F5F5F5F5F5F5F5F5F5F5F5F5F5F5F5F5F5F5F5F5F5F5F5F5F5F5F5F5F5F5F5F5F5F5F5F5F5F5F5
310
F5F5F5F5F5F5F5F5F5F5F5F5F5F5F5F5F5F5F5F5F5F5F5F5F5F5F5F5F5F5F5F5F5F5F5F5F5F5F5F5F5F5F5F5F5F5F5F5F5F5F5F5F5F5F5F5F5F5F5F5F5F5F5F5F5F5F5F5F5F5F5F5F5F5F5F5F5F5F5F5F5F5F5F5F5F5F5E2F5E2E2F5E2F5F5F5F5F5F5F5F5F5F5F5F5F5F5F5F5F5F5F5F5F5F5F5F5F5F5F5F5F5F5F5F5F5F5
310
F5F5F5F5F5F5F5F5F5F5F5F5F5F5F5F5F5F5F5F5F5F5F5F5F5F5F5F5F5F5F5F5F5F5F5F5F5F5F5F5F5F5F5F5F5F5F5F5F5F5F5F5F5F5F5F5F5F5F5F5F5F5F5F5F5F5F5F5F5F5F5F5F5F5F5F5F5F5F5F5F5F5F5F5F5F5F5F5F5F5F5F5F5F5F5F5F5F5F5F5F5F5F5F5F5F5F5F5F5F5F5F5F5F5F5F5F5F5F5F5F5F5F5F5F5F5F5
310
F5F5F5F5F5F5F5F5F5F5F5F5F5E2F5E2E2F5E2E2E2E2E2E2E2E2E2F5F5F5F5F5F5F5F5F5E2E2E2E2E2E2E2E2E2E2E2E2E2E2E2E2F5F5F5F5F5F5F5F5F5E2E2E2E2E2E2E2E2E2E2E2E2E2E2E2E2F5F5F5F5F5F5F5F5F5E2E2E2E2E2E2E2E2E2E2E2E2E2E2E2E2F5F5F5F5F5F5F5F5F5E2E2E2E2E2E2E2E2E2E2E2E2E2E2E2E2
310
F5F5F5F5F5F5F5F5F5E2E2E2E2E2E2E2E2E2E2E2E2E2E2E2E2F5F5F5F5F5F5F5F5F5E2E2E2E2E2E2E2E2E2E2E2E2E2E2E2E2F5F5F5F5F5F5F5F5F5E2E2E2E2E2E2E2E2F5E2E2F5F5F5F5F5F5F5F5F5F5F5F5F5F5F5F5F5F5F5F5F5F5F5F5F5F5F5F5F5F5F5F5F5F5F5F5F5F5F5F5F5F5F5F5F5F5F5F5F5F5F5F5F5F5F5F5F5
310
F5F5F5F5F5F5F5F5F5F5F5F5F5F5F5F5F5F5F5F5F5F5F5F5F5F5F5F5F5F5F5F5F5F5F5F5F5F5F5F5F5F5F5F5F5F5F5F5F5F5F5F5F5F5F5F5F5F5F5F5F5F5F5F5F5F5F5F5F5F5F5F5F5F5F5F5F5F5F5F5F5F5F5F5F5F5F5F5F5F5F5F5F5F5F5F5F5F5F5F5F5F5F5F5F5F5F5F5F5F5F5F5F5F5F5F5F5F5F5F5F5E2E2E2E2E2E2
310
E2E2E2E2E2E2E2E2E2E2E2E2E2E2E2E2E2E2E2E2E2E2E2E2E2E2E2E2E2E2E2E2E2E2E2E2E2E2E2E2E2E2E2E2E2E2E2E2E2E2E2E2E2E2E2E2E2E2E2E2E2E2E2E2E2E2E2E2E2E2E2E2E2E2E2E2E2E2E2E2E2E2E2E2E2E2E2E2E2E2E2E2E2E2E2E2E2E2E2E2E2E2E2E2E2E2E2E2E2E2E2E2E2E2E2E2E2E2E2E2E2E2E2E2E2E2E2
310
E2E2E2E2E2E2E2E2E2E2E2E2E2E2E2E2E2E2E2E2E2E2E2E2E2E2E2E2E2E2E2E2E2E2E2E2E2E2E2E2E2E2E2E2E2E2E2E2
  0
XRECORD
  5
C8
102
{ACAD_REACTORS
330
C7
102
}
330
C7
100
AcDbXrecord
280
     1
102
MATERIAL
148
0.0
149
0.0
149
0.0
 93
        0
 94
       63
282
     0
 72
     1
 77
     1
171
     1
175
     1
179
     1
273
     0
  0
XRECORD
  5
C6
102
{ACAD_REACTORS
330
C5
102
}
330
C5
100
AcDbXrecord
280
     1
102
MATERIAL
148
0.0
149
0.0
149
0.0
 93
        0
 94
       63
282
     0
 72
     1
 77
     1
171
     1
175
     1
179
     1
273
     0
  0
XRECORD
  5
B2
102
{ACAD_REACTORS
330
B1
102
}
330
B1
100
AcDbXrecord
280
     1
102
MATERIAL
148
0.0
149
0.0
149
0.0
 93
        0
 94
       63
282
     0
 72
     1
 77
     1
171
     1
175
     1
179
     1
273
     0
  0
XRECORD
  5
156
102
{ACAD_REACTORS
330
155
102
}
330
155
100
AcDbXrecord
280
     1
102
ACAD_ROUNDTRIP_PRE2007_TABLESTYLE
 90
        4
 91
        0
  1

 92
        4
 93
        0
  2

 94
        4
 95
        0
  3

  0
ENDSEC
  0
EOF
