  0
SECTION
  2
HEADER
  9
$ACADVER
  1
AC1018
  9
$ACADMAINTVER
 70
   104
  9
$DWGCODEPAGE
  3
ANSI_1252
  9
$LASTSAVEDBY
  1
Simone
  9
$INSBASE
 10
0.0
 20
0.0
 30
0.0
  9
$EXTMIN
 10
0.0149999999999999
 20
0.015
 30
0.0
  9
$EXTMAX
 10
0.4050000000000001
 20
0.282
 30
0.0
  9
$LIMMIN
 10
0.0
 20
0.0
  9
$LIMMAX
 10
1.0
 20
0.5
  9
$ORTHOMODE
 70
     0
  9
$REGENMODE
 70
     1
  9
$FILLMODE
 70
     1
  9
$QTEXTMODE
 70
     0
  9
$MIRRTEXT
 70
     0
  9
$LTSCALE
 40
1.0
  9
$ATTMODE
 70
     1
  9
$TEXTSIZE
 40
0.005
  9
$TRACEWID
 40
1.0
  9
$TEXTSTYLE
  7
style1
  9
$CLAYER
  8
Dimensione
  9
$CELTYPE
  6
ByLayer
  9
$CECOLOR
 62
     2
  9
$CELTSCALE
 40
1.0
  9
$DISPSILH
 70
     0
  9
$DIMSCALE
 40
0.001
  9
$DIMASZ
 40
1.5
  9
$DIMEXO
 40
0.0625
  9
$DIMDLI
 40
0.38
  9
$DIMRND
 40
0.0
  9
$DIMDLE
 40
0.0
  9
$DIMEXE
 40
0.18
  9
$DIMTP
 40
0.0
  9
$DIMTM
 40
0.0
  9
$DIMTXT
 40
3.0
  9
$DIMCEN
 40
0.0
  9
$DIMTSZ
 40
0.0
  9
$DIMTOL
 70
     0
  9
$DIMLIM
 70
     0
  9
$DIMTIH
 70
     1
  9
$DIMTOH
 70
     1
  9
$DIMSE1
 70
     0
  9
$DIMSE2
 70
     0
  9
$DIMTAD
 70
     0
  9
$DIMZIN
 70
     0
  9
$DIMBLK
  1
ArchTick
  9
$DIMASO
 70
     1
  9
$DIMSHO
 70
     1
  9
$DIMPOST
  1

  9
$DIMAPOST
  1

  9
$DIMALT
 70
     0
  9
$DIMALTD
 70
     2
  9
$DIMALTF
 40
25.4
  9
$DIMLFAC
 40
1.0
  9
$DIMTOFL
 70
     0
  9
$DIMTVP
 40
0.0
  9
$DIMTIX
 70
     0
  9
$DIMSOXD
 70
     0
  9
$DIMSAH
 70
     0
  9
$DIMBLK1
  1

  9
$DIMBLK2
  1

  9
$DIMSTYLE
  2
Bovelacci
  9
$DIMCLRD
 70
     5
  9
$DIMCLRE
 70
     5
  9
$DIMCLRT
 70
     4
  9
$DIMTFAC
 40
1.0
  9
$DIMGAP
 40
2.0
  9
$DIMJUST
 70
     0
  9
$DIMSD1
 70
     0
  9
$DIMSD2
 70
     0
  9
$DIMTOLJ
 70
     1
  9
$DIMTZIN
 70
     0
  9
$DIMALTZ
 70
     0
  9
$DIMALTTZ
 70
     0
  9
$DIMUPT
 70
     0
  9
$DIMDEC
 70
     2
  9
$DIMTDEC
 70
     2
  9
$DIMALTU
 70
     2
  9
$DIMALTTD
 70
     2
  9
$DIMTXSTY
  7
ROMANS
  9
$DIMAUNIT
 70
     0
  9
$DIMADEC
 70
     0
  9
$DIMALTRND
 40
0.0
  9
$DIMAZIN
 70
     0
  9
$DIMDSEP
 70
    46
  9
$DIMATFIT
 70
     3
  9
$DIMFRAC
 70
     0
  9
$DIMLDRBLK
  1

  9
$DIMLUNIT
 70
     2
  9
$DIMLWD
 70
    -2
  9
$DIMLWE
 70
    -2
  9
$DIMTMOVE
 70
     2
  9
$LUNITS
 70
     2
  9
$LUPREC
 70
     2
  9
$SKETCHINC
 40
1.0
  9
$FILLETRAD
 40
0.0
  9
$AUNITS
 70
     0
  9
$AUPREC
 70
     0
  9
$MENU
  1
.
  9
$ELEVATION
 40
0.0
  9
$PELEVATION
 40
0.0
  9
$THICKNESS
 40
0.0
  9
$LIMCHECK
 70
     0
  9
$CHAMFERA
 40
0.0
  9
$CHAMFERB
 40
0.0
  9
$CHAMFERC
 40
0.0
  9
$CHAMFERD
 40
0.0
  9
$SKPOLY
 70
     0
  9
$TDCREATE
 40
2454297.625402373
  9
$TDUCREATE
 40
2454297.542069039
  9
$TDUPDATE
 40
2454396.418211030
  9
$TDUUPDATE
 40
2454396.334877697
  9
$TDINDWG
 40
0.1339149306
  9
$TDUSRTIMER
 40
0.1339143750
  9
$USRTIMER
 70
     1
  9
$ANGBASE
 50
0.0
  9
$ANGDIR
 70
     0
  9
$PDMODE
 70
     0
  9
$PDSIZE
 40
0.0
  9
$PLINEWID
 40
0.0
  9
$SPLFRAME
 70
     0
  9
$SPLINETYPE
 70
     6
  9
$SPLINESEGS
 70
     8
  9
$HANDSEED
  5
FD8
  9
$SURFTAB1
 70
     6
  9
$SURFTAB2
 70
     6
  9
$SURFTYPE
 70
     6
  9
$SURFU
 70
     6
  9
$SURFV
 70
     6
  9
$UCSBASE
  2

  9
$UCSNAME
  2

  9
$UCSORG
 10
0.0
 20
0.0
 30
0.0
  9
$UCSXDIR
 10
1.0
 20
0.0
 30
0.0
  9
$UCSYDIR
 10
0.0
 20
1.0
 30
0.0
  9
$UCSORTHOREF
  2

  9
$UCSORTHOVIEW
 70
     0
  9
$UCSORGTOP
 10
0.0
 20
0.0
 30
0.0
  9
$UCSORGBOTTOM
 10
0.0
 20
0.0
 30
0.0
  9
$UCSORGLEFT
 10
0.0
 20
0.0
 30
0.0
  9
$UCSORGRIGHT
 10
0.0
 20
0.0
 30
0.0
  9
$UCSORGFRONT
 10
0.0
 20
0.0
 30
0.0
  9
$UCSORGBACK
 10
0.0
 20
0.0
 30
0.0
  9
$PUCSBASE
  2

  9
$PUCSNAME
  2

  9
$PUCSORG
 10
0.0
 20
0.0
 30
0.0
  9
$PUCSXDIR
 10
1.0
 20
0.0
 30
0.0
  9
$PUCSYDIR
 10
0.0
 20
1.0
 30
0.0
  9
$PUCSORTHOREF
  2

  9
$PUCSORTHOVIEW
 70
     0
  9
$PUCSORGTOP
 10
0.0
 20
0.0
 30
0.0
  9
$PUCSORGBOTTOM
 10
0.0
 20
0.0
 30
0.0
  9
$PUCSORGLEFT
 10
0.0
 20
0.0
 30
0.0
  9
$PUCSORGRIGHT
 10
0.0
 20
0.0
 30
0.0
  9
$PUCSORGFRONT
 10
0.0
 20
0.0
 30
0.0
  9
$PUCSORGBACK
 10
0.0
 20
0.0
 30
0.0
  9
$USERI1
 70
     0
  9
$USERI2
 70
     0
  9
$USERI3
 70
     0
  9
$USERI4
 70
     0
  9
$USERI5
 70
     0
  9
$USERR1
 40
0.0
  9
$USERR2
 40
0.0
  9
$USERR3
 40
0.0
  9
$USERR4
 40
0.0
  9
$USERR5
 40
0.0
  9
$WORLDVIEW
 70
     1
  9
$SHADEDGE
 70
     3
  9
$SHADEDIF
 70
    70
  9
$TILEMODE
 70
     1
  9
$MAXACTVP
 70
    64
  9
$PINSBASE
 10
0.0
 20
0.0
 30
0.0
  9
$PLIMCHECK
 70
     0
  9
$PEXTMIN
 10
29.06606628894805
 20
20.36233246326446
 30
0.0
  9
$PEXTMAX
 10
261.5945966005325
 20
183.2609921693802
 30
0.0
  9
$PLIMMIN
 10
-3.17498779296875
 20
-3.174999952316281
  9
$PLIMMAX
 10
293.8356628417969
 20
206.7983276844024
  9
$UNITMODE
 70
     0
  9
$VISRETAIN
 70
     1
  9
$PLINEGEN
 70
     0
  9
$PSLTSCALE
 70
     1
  9
$TREEDEPTH
 70
  3020
  9
$CMLSTYLE
  2
Standard
  9
$CMLJUST
 70
     0
  9
$CMLSCALE
 40
20.0
  9
$PROXYGRAPHICS
 70
     1
  9
$MEASUREMENT
 70
     1
  9
$CELWEIGHT
370
    -1
  9
$ENDCAPS
280
     0
  9
$JOINSTYLE
280
     0
  9
$LWDISPLAY
290
     0
  9
$INSUNITS
 70
     4
  9
$HYPERLINKBASE
  1

  9
$STYLESHEET
  1

  9
$XEDIT
290
     1
  9
$CEPSNTYPE
380
     0
  9
$PSTYLEMODE
290
     1
  9
$FINGERPRINTGUID
  2
{4F38C4E7-9F37-4C76-96D9-79C94F9B03D9}
  9
$VERSIONGUID
  2
{2F48111E-28F0-4DA6-BC33-4394F3607DEA}
  9
$EXTNAMES
290
     1
  9
$PSVPSCALE
 40
0.0
  9
$OLESTARTUP
290
     0
  9
$SORTENTS
280
   127
  9
$INDEXCTL
280
     0
  9
$HIDETEXT
280
     1
  9
$XCLIPFRAME
290
     0
  9
$HALOGAP
280
     0
  9
$OBSCOLOR
 70
   257
  9
$OBSLTYPE
280
     0
  9
$INTERSECTIONDISPLAY
280
     0
  9
$INTERSECTIONCOLOR
 70
   257
  9
$DIMASSOC
280
     2
  9
$PROJECTNAME
  1

  0
ENDSEC
  0
SECTION
  2
CLASSES
  0
CLASS
  1
ACDBDICTIONARYWDFLT
  2
AcDbDictionaryWithDefault
  3
ObjectDBX Classes
 90
        0
 91
        1
280
     0
281
     0
  0
CLASS
  1
TABLESTYLE
  2
AcDbTableStyle
  3
ObjectDBX Classes
 90
     4095
 91
        1
280
     0
281
     0
  0
CLASS
  1
SORTENTSTABLE
  2
AcDbSortentsTable
  3
ObjectDBX Classes
 90
        0
 91
        1
280
     0
281
     0
  0
CLASS
  1
DICTIONARYVAR
  2
AcDbDictionaryVar
  3
ObjectDBX Classes
 90
        0
 91
        6
280
     0
281
     0
  0
CLASS
  1
DIMASSOC
  2
AcDbDimAssoc
  3
"AcDbDimAssoc|Product Desc:     AcDim ARX App For Dimension|Company:          Autodesk, Inc.|WEB Address:      www.autodesk.com"
 90
        0
 91
        0
280
     0
281
     0
  0
CLASS
  1
MATERIAL
  2
AcDbMaterial
  3
ObjectDBX Classes
 90
     1024
 91
        3
280
     0
281
     0
  0
CLASS
  1
VISUALSTYLE
  2
AcDbVisualStyle
  3
ObjectDBX Classes
 90
     4095
 91
       16
280
     0
281
     0
  0
ENDSEC
  0
SECTION
  2
TABLES
  0
TABLE
  2
VPORT
  5
96
102
{ACAD_XDICTIONARY
360
CC9
102
}
330
0
100
AcDbSymbolTable
 70
     1
  0
VPORT
  5
CED
330
96
100
AcDbSymbolTableRecord
100
AcDbViewportTableRecord
  2
*Active
 70
     0
 10
0.0
 20
0.0
 11
1.0
 21
1.0
 12
0.1463335497462195
 22
0.168550312153682
 13
0.0
 23
0.0
 14
10.0
 24
10.0
 15
10.0
 25
10.0
 16
0.0
 26
0.0
 36
1.0
 17
0.0
 27
0.0
 37
0.0
 40
0.2807239994872397
 41
1.620782726045884
 42
50.0
 43
0.0
 44
0.0
 50
0.0
 51
0.0
 71
     0
 72
  1000
 73
     1
 74
     3
 75
     0
 76
     0
 77
     0
 78
     0
281
     0
 65
     1
110
0.0
120
0.0
130
0.0
111
1.0
121
0.0
131
0.0
112
0.0
122
1.0
132
0.0
 79
     0
146
0.0
  0
ENDTAB
  0
TABLE
  2
LTYPE
  5
91
330
0
100
AcDbSymbolTable
 70
     4
  0
LTYPE
  5
92
330
91
100
AcDbSymbolTableRecord
100
AcDbLinetypeTableRecord
  2
ByBlock
 70
     0
  3

 72
    65
 73
     0
 40
0.0
  0
LTYPE
  5
93
330
91
100
AcDbSymbolTableRecord
100
AcDbLinetypeTableRecord
  2
ByLayer
 70
     0
  3

 72
    65
 73
     0
 40
0.0
  0
LTYPE
  5
C
330
91
100
AcDbSymbolTableRecord
100
AcDbLinetypeTableRecord
  2
Continuous
 70
     0
  3
Solid line
 72
    65
 73
     0
 40
0.0
  0
LTYPE
  5
105
330
91
100
AcDbSymbolTableRecord
100
AcDbLinetypeTableRecord
  2
ACAD_ISO10W100
 70
     0
  3
ISO dash dot __ . __ . __ . __ . __ . __ . __ .
 72
    65
 73
     4
 40
18.0
 49
12.0
 74
     0
 49
-3.0
 74
     0
 49
0.0
 74
     0
 49
-3.0
 74
     0
  0
LTYPE
  5
190
330
91
100
AcDbSymbolTableRecord
100
AcDbLinetypeTableRecord
  2
RAYITAX4
 70
     0
  3
RAYITAX4
 72
    65
 73
     2
 40
18.0
 49
12.0
 74
     0
 49
-6.0
 74
     0
  0
ENDTAB
  0
TABLE
  2
LAYER
  5
8A
102
{ACAD_XDICTIONARY
360
8B
102
}
330
0
100
AcDbSymbolTable
 70
    11
  0
LAYER
  5
6
330
8A
100
AcDbSymbolTableRecord
100
AcDbLayerTableRecord
  2
0
 70
     0
 62
     7
  6
Continuous
370
    -3
390
7
  0
LAYER
  5
3F
330
8A
100
AcDbSymbolTableRecord
100
AcDbLayerTableRecord
  2
Defpoints
 70
     0
 62
     7
  6
Continuous
290
     0
370
    -3
390
7
  0
LAYER
  5
2E
330
8A
100
AcDbSymbolTableRecord
100
AcDbLayerTableRecord
  2
Dimensione
 70
     0
 62
   150
  6
Continuous
370
    -3
390
7
1001
AcAecLayerStandard
1000

1000

  0
LAYER
  5
2A
330
8A
100
AcDbSymbolTableRecord
100
AcDbLayerTableRecord
  2
Profilo
 70
     0
 62
     1
  6
Continuous
370
    -3
390
7
1001
AcAecLayerStandard
1000

1000

  0
LAYER
  5
54
330
8A
100
AcDbSymbolTableRecord
100
AcDbLayerTableRecord
  2
Sezione
 70
     0
 62
     2
  6
Continuous
370
    -3
390
7
1001
AcAecLayerStandard
1000

1000

  0
LAYER
  5
E
330
8A
100
AcDbSymbolTableRecord
100
AcDbLayerTableRecord
  2
Table
 70
     0
 62
     3
  6
Continuous
370
    -3
390
7
1001
AcAecLayerStandard
1000

1000

  0
LAYER
  5
19
330
8A
100
AcDbSymbolTableRecord
100
AcDbLayerTableRecord
  2
Text
 70
     0
 62
     4
  6
Continuous
370
    -3
390
7
1001
AcAecLayerStandard
1000

1000

  0
LAYER
  5
5C
330
8A
100
AcDbSymbolTableRecord
100
AcDbLayerTableRecord
  2
Vista
 70
     0
 62
     2
  6
Continuous
370
    -3
390
7
1001
AcAecLayerStandard
1000

1000

  0
LAYER
  5
256
330
8A
100
AcDbSymbolTableRecord
100
AcDbLayerTableRecord
  2
CORTE
 70
     0
 62
     1
  6
Continuous
370
    -3
390
7
  0
LAYER
  5
40E
330
8A
100
AcDbSymbolTableRecord
100
AcDbLayerTableRecord
  2
COTAS
 70
     0
 62
     4
  6
Continuous
370
    -3
390
7
  0
LAYER
  5
49D
330
8A
100
AcDbSymbolTableRecord
100
AcDbLayerTableRecord
  2
Eurostyl
 70
     0
 62
   233
420
 14702479
  6
Continuous
370
    -3
390
7
  0
ENDTAB
  0
TABLE
  2
STYLE
  5
8F
330
0
100
AcDbSymbolTable
 70
     4
  0
STYLE
  5
1A
330
8F
100
AcDbSymbolTableRecord
100
AcDbTextStyleTableRecord
  2
Standard
 70
     0
 40
0.0
 41
1.0
 50
0.0
 71
     0
 42
2.5
  3
txt
  4

  0
STYLE
  5
20
330
8F
100
AcDbSymbolTableRecord
100
AcDbTextStyleTableRecord
  2
ROMANS
 70
     0
 40
0.0
 41
1.0
 50
0.0
 71
     0
 42
2.5
  3
romans
  4

  0
STYLE
  5
28
330
8F
100
AcDbSymbolTableRecord
100
AcDbTextStyleTableRecord
  2
Arial
 70
     0
 40
0.0
 41
1.0
 50
0.0
 71
     0
 42
0.25
  3
ARIAL.TTF
  4

1001
ACAD
1000
Arial
1071
       34
  0
STYLE
  5
26
330
8F
100
AcDbSymbolTableRecord
100
AcDbTextStyleTableRecord
  2
style1
 70
     0
 40
0.0
 41
1.0
 50
0.0
 71
     0
 42
0.005
  3
TIMES.TTF
  4

1001
ACAD
1000
Times New Roman
1071
       18
  0
ENDTAB
  0
TABLE
  2
VIEW
  5
94
330
0
100
AcDbSymbolTable
 70
     0
  0
ENDTAB
  0
TABLE
  2
UCS
  5
95
330
0
100
AcDbSymbolTable
 70
     0
  0
ENDTAB
  0
TABLE
  2
APPID
  5
98
330
0
100
AcDbSymbolTable
 70
     9
  0
APPID
  5
1B
330
98
100
AcDbSymbolTableRecord
100
AcDbRegAppTableRecord
  2
ACAD
 70
     0
  0
APPID
  5
34
330
98
100
AcDbSymbolTableRecord
100
AcDbRegAppTableRecord
  2
ACAD_DSTYLE_DIMJOGGED_JOGANGLE_SYMBOL
 70
     0
  0
APPID
  5
F
330
98
100
AcDbSymbolTableRecord
100
AcDbRegAppTableRecord
  2
AcAecLayerStandard
 70
     0
  0
APPID
  5
85
330
98
100
AcDbSymbolTableRecord
100
AcDbRegAppTableRecord
  2
ACAD_PSEXT
 70
     0
  0
APPID
  5
BA
330
98
100
AcDbSymbolTableRecord
100
AcDbRegAppTableRecord
  2
ACAD_DSTYLE_DIMEXT_LENGTH
 70
     0
  0
APPID
  5
101
330
98
100
AcDbSymbolTableRecord
100
AcDbRegAppTableRecord
  2
ACAD_EXEMPT_FROM_CAD_STANDARDS
 70
     0
  0
APPID
  5
102
330
98
100
AcDbSymbolTableRecord
100
AcDbRegAppTableRecord
  2
ACAD_DSTYLE_DIM_LINETYPE
 70
     0
  0
APPID
  5
103
330
98
100
AcDbSymbolTableRecord
100
AcDbRegAppTableRecord
  2
ACAD_DSTYLE_DIM_EXT1_LINETYPE
 70
     0
  0
APPID
  5
104
330
98
100
AcDbSymbolTableRecord
100
AcDbRegAppTableRecord
  2
ACAD_DSTYLE_DIM_EXT2_LINETYPE
 70
     0
  0
ENDTAB
  0
TABLE
  2
DIMSTYLE
  5
99
330
0
100
AcDbSymbolTable
 70
     4
100
AcDbDimStyleTable
 71
     2
340
2F
340
9A
  0
DIMSTYLE
105
9A
330
99
100
AcDbSymbolTableRecord
100
AcDbDimStyleTableRecord
  2
ISO-25
 70
     0
 41
2.5
 42
0.625
 43
3.75
 44
1.25
 73
     0
 74
     0
 77
     1
 78
     8
140
2.5
141
2.5
143
0.03937007874016
147
0.625
171
     3
172
     1
271
     2
272
     2
274
     3
278
    44
283
     0
284
     8
340
1A
  0
DIMSTYLE
105
2F
102
{ACAD_REACTORS
330
455
330
46F
102
}
330
99
100
AcDbSymbolTableRecord
100
AcDbDimStyleTableRecord
  2
Bovelacci
 70
     0
 40
0.001
 41
1.5
140
3.0
141
0.0
147
2.0
176
     5
177
     5
178
     4
271
     2
272
     2
279
     2
340
20
342
30
1001
ACAD_DSTYLE_DIMJOGGED_JOGANGLE_SYMBOL
1070
   384
1040
0.7853981633974483
1001
ACAD_DSTYLE_DIMEXT_LENGTH
1070
   378
1040
0.18
  0
DIMSTYLE
105
194
330
99
100
AcDbSymbolTableRecord
100
AcDbDimStyleTableRecord
  2
STANDARD
 70
     0
340
1A
  0
ENDTAB
  0
TABLE
  2
BLOCK_RECORD
  5
1
330
0
100
AcDbSymbolTable
 70
     9
  0
BLOCK_RECORD
  5
2
102
{ACAD_XDICTIONARY
360
3
102
}
330
1
100
AcDbSymbolTableRecord
100
AcDbBlockTableRecord
  2
*Model_Space
340
77
  0
BLOCK_RECORD
  5
79
330
1
100
AcDbSymbolTableRecord
100
AcDbBlockTableRecord
  2
*Paper_Space
340
82
  0
BLOCK_RECORD
  5
86
330
1
100
AcDbSymbolTableRecord
100
AcDbBlockTableRecord
  2
*Paper_Space0
340
89
  0
BLOCK_RECORD
  5
30
330
1
100
AcDbSymbolTableRecord
100
AcDbBlockTableRecord
  2
_ArchTick
340
0
310
2800000020000000200000000100080000000000000400000000000000000000000000000000000000000000000080000080000000808000800000008000800080800000C0C0C000C0DCC000F0CAA6000020400000206000002080000020A0000020C0000020E00000400000004020000040400000406000004080000040A0
310
000040C0000040E00000600000006020000060400000606000006080000060A0000060C0000060E00000800000008020000080400000806000008080000080A0000080C0000080E00000A0000000A0200000A0400000A0600000A0800000A0A00000A0C00000A0E00000C0000000C0200000C0400000C0600000C0800000C0
310
A00000C0C00000C0E00000E0000000E0200000E0400000E0600000E0800000E0A00000E0C00000E0E00040000000400020004000400040006000400080004000A0004000C0004000E00040200000402020004020400040206000402080004020A0004020C0004020E000404000004040200040404000404060004040800040
310
40A0004040C0004040E00040600000406020004060400040606000406080004060A0004060C0004060E00040800000408020004080400040806000408080004080A0004080C0004080E00040A0000040A0200040A0400040A0600040A0800040A0A00040A0C00040A0E00040C0000040C0200040C0400040C0600040C08000
310
40C0A00040C0C00040C0E00040E0000040E0200040E0400040E0600040E0800040E0A00040E0C00040E0E00080000000800020008000400080006000800080008000A0008000C0008000E00080200000802020008020400080206000802080008020A0008020C0008020E00080400000804020008040400080406000804080
310
008040A0008040C0008040E00080600000806020008060400080606000806080008060A0008060C0008060E00080800000808020008080400080806000808080008080A0008080C0008080E00080A0000080A0200080A0400080A0600080A0800080A0A00080A0C00080A0E00080C0000080C0200080C0400080C0600080C0
310
800080C0A00080C0C00080C0E00080E0000080E0200080E0400080E0600080E0800080E0A00080E0C00080E0E000C0000000C0002000C0004000C0006000C0008000C000A000C000C000C000E000C0200000C0202000C0204000C0206000C0208000C020A000C020C000C020E000C0400000C0402000C0404000C0406000C0
310
408000C040A000C040C000C040E000C0600000C0602000C0604000C0606000C0608000C060A000C060C000C060E000C0800000C0802000C0804000C0806000C0808000C080A000C080C000C080E000C0A00000C0A02000C0A04000C0A06000C0A08000C0A0A000C0A0C000C0A0E000C0C00000C0C02000C0C04000C0C06000
310
C0C08000C0C0A000F0FBFF00A4A0A000808080000000FF0000FF000000FFFF00FF000000FF00FF00FFFF0000FFFFFF00000000FF000000000000000000000000000000000000000000000000000000000000FF00FF00000000000000000000000000000000000000000000000000000000FF000000FF000000000000000000
310
0000000000000000000000000000000000FF0000000000FF0000000000000000000000000000000000000000000000000000FF0000000000FF0000000000000000000000000000000000000000000000000000FF0000000000FF0000000000000000000000000000000000000000000000000000FF0000000000FF00000000
310
00000000000000000000000000000000000000000000FF0000000000FF0000000000000000000000000000000000000000000000000000FF0000000000FF0000000000000000000000000000000000000000000000000000FF0000000000FF0000000000000000000000000000000000000000000000000000FF0000000000
310
FF0000000000000000000000000000000000000000000000000000FF0000000000FF0000000000000000000000000000000000000000000000000000FF0000000000FF0000000000000000000000000000000000000000000000000000FF0000000000FF0000000000000000000000000000000000000000000000000000FF
310
0000000000FF0000000000000000000000000000000000000000000000000000FF0000000000FF0000000000000000000000000000000000000000000000000000FF0000000000FF0000000000000000000000000000000000000000000000000000FF0000000000FF00000000000000000000000000000000000000000000
310
00000000FF0000000000FF0000000000000000000000000000000000000000000000000000FF0000000000FF0000000000000000000000000000000000000000000000000000FF0000000000FF0000000000000000000000000000000000000000000000000000FF0000000000FF0000000000000000000000000000000000
310
000000000000000000FF0000000000FF0000000000000000000000000000000000000000000000000000FF0000000000FF0000000000000000000000000000000000000000000000000000FF0000000000FF0000000000000000000000000000000000000000000000000000FF0000000000FF000000000000000000000000
310
0000000000000000000000000000FF0000000000FF0000000000000000000000000000000000000000000000000000FF0000000000FF0000000000000000000000000000000000000000000000000000FF0000000000FF0000000000000000000000000000000000000000000000000000FF000000FF000000000000000000
310
00000000000000000000000000000000000000FF00FF000000000000000000000000000000000000000000000000000000000000FF000000
102
{BLKREFS
331
C88
331
C89
331
C9C
331
C9D
102
}
  0
BLOCK_RECORD
  5
179
330
1
100
AcDbSymbolTableRecord
100
AcDbBlockTableRecord
  2
DOT
340
0
  0
BLOCK_RECORD
  5
213
330
1
100
AcDbSymbolTableRecord
100
AcDbBlockTableRecord
  2
ELEMENT
340
0
102
{BLKREFS
331
244
102
}
  0
BLOCK_RECORD
  5
235
330
1
100
AcDbSymbolTableRecord
100
AcDbBlockTableRecord
  2
NOM-J
340
0
  0
BLOCK_RECORD
  5
3FB
330
1
100
AcDbSymbolTableRecord
100
AcDbBlockTableRecord
  2
NOM-QR
340
0
  0
BLOCK_RECORD
  5
456
330
1
100
AcDbSymbolTableRecord
100
AcDbBlockTableRecord
  2
*D6
340
0
  0
BLOCK_RECORD
  5
470
330
1
100
AcDbSymbolTableRecord
100
AcDbBlockTableRecord
  2
*D7
340
0
  0
ENDTAB
  0
ENDSEC
  0
SECTION
  2
BLOCKS
  0
BLOCK
  5
5
330
2
100
AcDbEntity
  8
0
100
AcDbBlockBegin
  2
*Model_Space
 70
     0
 10
0.0
 20
0.0
 30
0.0
  3
*Model_Space
  1

  0
ENDBLK
  5
76
330
2
100
AcDbEntity
  8
0
100
AcDbBlockEnd
  0
BLOCK
  5
7A
330
79
100
AcDbEntity
 67
     1
  8
0
100
AcDbBlockBegin
  2
*Paper_Space
 70
     0
 10
0.0
 20
0.0
 30
0.0
  3
*Paper_Space
  1

  0
ENDBLK
  5
81
330
79
100
AcDbEntity
 67
     1
  8
0
100
AcDbBlockEnd
  0
BLOCK
  5
87
330
86
100
AcDbEntity
 67
     1
  8
0
100
AcDbBlockBegin
  2
*Paper_Space0
 70
     0
 10
0.0
 20
0.0
 30
0.0
  3
*Paper_Space0
  1

  0
ENDBLK
  5
88
330
86
100
AcDbEntity
 67
     1
  8
0
100
AcDbBlockEnd
  0
BLOCK
  5
31
330
30
100
AcDbEntity
  8
0
 62
     1
100
AcDbBlockBegin
  2
_ArchTick
 70
     0
 10
0.0
 20
0.0
 30
0.0
  3
_ArchTick
  1

  0
LWPOLYLINE
  5
32
330
30
100
AcDbEntity
  8
0
  6
ByBlock
 62
     0
100
AcDbPolyline
 90
        2
 70
     0
 43
0.15
 10
-0.5
 20
-0.5
 10
0.5
 20
0.5
  0
ENDBLK
  5
33
330
30
100
AcDbEntity
  8
0
 62
     1
100
AcDbBlockEnd
  0
BLOCK
  5
17A
330
179
100
AcDbEntity
  8
0
100
AcDbBlockBegin
  2
DOT
 70
     0
 10
0.0
 20
0.0
 30
0.0
  3
DOT
  1

  0
LWPOLYLINE
  5
17B
330
179
100
AcDbEntity
  8
0
  6
ByBlock
 62
     0
100
AcDbPolyline
 90
        2
 70
     1
 43
0.5
 10
-0.25
 20
0.0
 42
1.0
 10
0.25
 20
0.0
 42
1.0
  0
LINE
  5
17C
330
179
100
AcDbEntity
  8
0
  6
ByBlock
 62
     0
100
AcDbLine
 10
-0.5
 20
0.0
 30
0.0
 11
-1.0
 21
0.0
 31
0.0
  0
ENDBLK
  5
17D
330
179
100
AcDbEntity
  8
0
100
AcDbBlockEnd
  0
BLOCK
  5
214
330
213
100
AcDbEntity
  8
0
100
AcDbBlockBegin
  2
ELEMENT
 70
     0
 10
0.0
 20
0.0
 30
0.0
  3
ELEMENT
  1

  0
LINE
  5
215
330
213
100
AcDbEntity
  8
CORTE
 62
     1
100
AcDbLine
 10
0.0287752548522349
 20
0.037775254852221
 30
0.0
 11
0.0062928932188697
 21
0.015292893218799
 31
0.0
  0
ARC
  5
216
330
213
100
AcDbEntity
  8
CORTE
 62
     1
100
AcDbCircle
 10
0.0148333333333994
 20
0.0291666666666402
 30
0.0
 40
0.0191847740553366
100
AcDbArc
 50
270.4730994291238
 51
359.5269005707907
  0
LINE
  5
217
330
213
100
AcDbEntity
  8
CORTE
100
AcDbLine
 10
0.0130000000000337
 20
-0.0000000000000568
 30
0.0
 11
0.0099999999999909
 21
0.0000000000000284
 31
0.0
  0
LINE
  5
218
330
213
100
AcDbEntity
  8
CORTE
100
AcDbLine
 10
-0.0009999999999764
 20
0.0010000000000048
 30
0.0
 11
-0.0009999999999764
 21
0.0140000000000384
 31
0.0
  0
ARC
  5
219
330
213
100
AcDbEntity
  8
CORTE
100
AcDbCircle
 10
0.0
 20
0.0010000000000048
 30
0.0
 40
0.001
100
AcDbArc
 50
180.0
 51
269.9999999991858
  0
LINE
  5
21A
330
213
100
AcDbEntity
  8
CORTE
100
AcDbLine
 10
0.0040000000000191
 20
-0.0039999999999623
 30
0.0
 11
0.0040000000000191
 21
-0.0010000000000332
 31
0.0
  0
LINE
  5
21B
330
213
100
AcDbEntity
  8
CORTE
100
AcDbLine
 10
0.0090000000000146
 20
-0.0039999999999907
 30
0.0
 11
0.0090000000000146
 21
-0.0009999999999764
 31
0.0
  0
ARC
  5
21C
330
213
100
AcDbEntity
  8
CORTE
100
AcDbCircle
 10
0.0049999999999955
 20
-0.0039999999999623
 30
0.0
 40
0.001
100
AcDbArc
 50
180.0
 51
269.9999999996743
  0
LINE
  5
21D
330
213
100
AcDbEntity
  8
CORTE
100
AcDbLine
 10
0.0080000000000382
 20
-0.0049999999999955
 30
0.0
 11
0.0049999999999955
 21
-0.004999999999967
 31
0.0
  0
ARC
  5
21E
330
213
100
AcDbEntity
  8
CORTE
100
AcDbCircle
 10
0.0080000000000382
 20
-0.0039999999999907
 30
0.0
 40
0.001
100
AcDbArc
 50
269.9999999995929
 51
0.000000000000007
  0
LINE
  5
21F
330
213
100
AcDbEntity
  8
CORTE
100
AcDbLine
 10
0.0030000000000427
 20
-0.0000000000000284
 30
0.0
 11
0.0
 21
0.0
 31
0.0
  0
ARC
  5
220
330
213
100
AcDbEntity
  8
CORTE
100
AcDbCircle
 10
0.0030000000000427
 20
-0.0010000000000332
 30
0.0
 40
0.001
100
AcDbArc
 50
0.000000000000007
 51
89.99999999967434
  0
ARC
  5
221
330
213
100
AcDbEntity
  8
CORTE
100
AcDbCircle
 10
0.0099999999999909
 20
-0.0009999999999764
 30
0.0
 40
0.001
100
AcDbArc
 50
89.99999999967434
 51
180.0
  0
ARC
  5
222
330
213
100
AcDbEntity
  8
CORTE
100
AcDbCircle
 10
0.0
 20
0.0140000000000384
 30
0.0
 40
0.001
100
AcDbArc
 50
89.99999999975274
 51
180.0
  0
LINE
  5
223
330
213
100
AcDbEntity
  8
CORTE
100
AcDbLine
 10
0.0055857864376776
 20
0.0149999999999864
 30
0.0
 11
0.0
 21
0.0150000000000432
 31
0.0
  0
ARC
  5
224
330
213
100
AcDbEntity
  8
CORTE
 62
     1
100
AcDbCircle
 10
0.0055857864376776
 20
0.0159999999999911
 30
0.0
 40
0.001
100
AcDbArc
 50
269.9999999997674
 51
315.0000000000357
  0
LINE
  5
225
330
213
100
AcDbEntity
  8
CORTE
100
AcDbLine
 10
0.01400000000001
 20
0.0009999999999479
 30
0.0
 11
0.01400000000001
 21
0.0089825806863075
 31
0.0
  0
ARC
  5
226
330
213
100
AcDbEntity
  8
CORTE
100
AcDbCircle
 10
0.0130000000000337
 20
0.0009999999999479
 30
0.0
 40
0.001
100
AcDbArc
 50
269.9999999991858
 51
0.000000000000007
  0
ARC
  5
227
330
213
100
AcDbEntity
  8
CORTE
 62
     1
100
AcDbCircle
 10
0.0149999999999864
 20
0.0089825806862791
 30
0.0
 40
0.001
100
AcDbArc
 50
90.47309942941524
 51
179.9999999983715
  0
LINE
  5
228
330
213
100
AcDbEntity
  8
CORTE
100
AcDbLine
 10
0.0440000000000964
 20
0.0339999999999918
 30
0.0
 11
0.0440000000000396
 21
0.0310000000000059
 31
0.0
  0
ARC
  5
229
330
213
100
AcDbEntity
  8
CORTE
100
AcDbCircle
 10
0.0430000000000632
 20
0.0310000000000059
 30
0.0
 40
0.001
100
AcDbArc
 50
270.0
 51
0.000000000000007
  0
ARC
  5
22A
330
213
100
AcDbEntity
  8
CORTE
 62
     1
100
AcDbCircle
 10
0.0350174193137605
 20
0.0290000000000248
 30
0.0
 40
0.001
100
AcDbArc
 50
90.00000000325689
 51
179.5269005705982
  0
LINE
  5
22B
330
213
100
AcDbEntity
  8
CORTE
100
AcDbLine
 10
0.0430000000000632
 20
0.0300000000000011
 30
0.0
 11
0.0350174193137036
 21
0.0300000000000296
 31
0.0
  0
LINE
  5
22C
330
213
100
AcDbEntity
  8
CORTE
100
AcDbLine
 10
0.047999999999945
 20
0.0400000000000205
 30
0.0
 11
0.0300000000000296
 21
0.0400000000000205
 31
0.0
  0
ARC
  5
22D
330
213
100
AcDbEntity
  8
CORTE
 62
     1
100
AcDbCircle
 10
0.0300000000000296
 20
0.0390000000000157
 30
0.0
 40
0.001
100
AcDbArc
 50
90.0
 51
195.0000055997392
  0
ARC
  5
22E
330
213
100
AcDbEntity
  8
CORTE
 62
     1
100
AcDbCircle
 10
0.0280681480710428
 20
0.0384823616334131
 30
0.0
 40
0.001
100
AcDbArc
 50
315.0
 51
15.00000559812761
  0
LINE
  5
22F
330
213
100
AcDbEntity
  8
CORTE
100
AcDbLine
 10
0.0489999999998645
 20
0.0360000000000582
 30
0.0
 11
0.0489999999999213
 21
0.0389999999999873
 31
0.0
  0
LINE
  5
230
330
213
100
AcDbEntity
  8
CORTE
100
AcDbLine
 10
0.0480000000000018
 20
0.0350000000000534
 30
0.0
 11
0.0450000000000728
 21
0.0349999999999966
 31
0.0
  0
ARC
  5
231
330
213
100
AcDbEntity
  8
CORTE
100
AcDbCircle
 10
0.0480000000000018
 20
0.0360000000000582
 30
0.0
 40
0.001
100
AcDbArc
 50
270.0000000004071
 51
0.000000000000007
  0
ARC
  5
232
330
213
100
AcDbEntity
  8
CORTE
100
AcDbCircle
 10
0.0450000000000728
 20
0.0339999999999918
 30
0.0
 40
0.001
100
AcDbArc
 50
90.0
 51
180.0
  0
ARC
  5
233
330
213
100
AcDbEntity
  8
CORTE
100
AcDbCircle
 10
0.047999999999945
 20
0.0390000000000157
 30
0.0
 40
0.001
100
AcDbArc
 50
359.9999999991858
 51
90.0
  0
ENDBLK
  5
234
330
213
100
AcDbEntity
  8
0
100
AcDbBlockEnd
  0
BLOCK
  5
236
330
235
100
AcDbEntity
  8
0
 62
     4
100
AcDbBlockBegin
  2
NOM-J
 70
     0
 10
0.0
 20
0.0
 30
0.0
  3
NOM-J
  1

  0
LINE
  5
237
330
235
100
AcDbEntity
  8
Vista
 62
     4
100
AcDbLine
 10
0.0211489998446837
 20
0.0224999999999795
 30
0.0
 11
0.093805067538824
 21
0.0379594292031982
 31
0.0
  0
LINE
  5
238
330
235
100
AcDbEntity
  8
Vista
 62
     4
100
AcDbLine
 10
0.0197074998707194
 20
0.0224999999999795
 30
0.0
 11
0.0923635675646324
 21
0.0379594292032266
 31
0.0
  0
LINE
  5
239
330
235
100
AcDbEntity
  8
Vista
 62
     4
100
AcDbLine
 10
0.0182659998964141
 20
0.0224999999999795
 30
0.0
 11
0.0909220675904408
 21
0.0379594292031982
 31
0.0
  0
LINE
  5
23A
330
235
100
AcDbEntity
  8
Vista
 62
     4
100
AcDbLine
 10
0.0168244999223362
 20
0.0224999999999795
 30
0.0
 11
0.0894805676163628
 21
0.0379594292032266
 31
0.0
  0
LINE
  5
23B
330
235
100
AcDbEntity
  8
Vista
 62
     4
100
AcDbLine
 10
0.0153829999481445
 20
0.0224999999999795
 30
0.0
 11
0.0880390676422849
 21
0.0379594292032266
 31
0.0
  0
LINE
  5
23C
330
235
100
AcDbEntity
  8
Vista
 62
     4
100
AcDbLine
 10
0.0139414999740666
 20
0.0224999999999795
 30
0.0
 11
0.0865975676682069
 21
0.0379594292032266
 31
0.0
  0
LINE
  5
23D
330
235
100
AcDbEntity
  8
Vista
 62
     2
100
AcDbLine
 10
0.0125000000000455
 20
0.022500000000008
 30
0.0
 11
0.0851560676940153
 21
0.0379594292032266
 31
0.0
  0
LINE
  5
23E
330
235
100
AcDbEntity
  8
Vista
 62
     2
100
AcDbLine
 10
0.0218535533905424
 20
0.0223535533905874
 30
0.0
 11
0.0945096210847396
 21
0.0378129825938061
 31
0.0
  0
LINE
  5
23F
330
235
100
AcDbEntity
  8
Vista
 62
     2
100
AcDbLine
 10
0.02150000000006
 20
0.0200000000000387
 30
0.0
 11
0.094359627334427
 21
0.0355027417029987
 31
0.0
  0
LINE
  5
240
330
235
100
AcDbEntity
  8
Vista
 62
     2
100
AcDbLine
 10
0.0190000000000055
 20
0.0175000000000125
 30
0.0
 11
0.0918596273343724
 21
0.0330027417029726
 31
0.0
  0
LINE
  5
241
330
235
100
AcDbEntity
  8
Vista
 62
     2
100
AcDbLine
 10
0.0075428343679391
 20
0.0078574386832884
 30
0.0
 11
0.0801989020703786
 21
0.0233168678888376
 31
0.0
  0
LINE
  5
242
330
235
100
AcDbEntity
  8
Vista
 62
     2
100
AcDbLine
 10
0.0040000000000191
 20
0.0024999999999693
 30
0.0
 11
0.0746560676942068
 21
0.0175338782567849
 31
0.0
  0
LINE
  5
243
330
235
100
AcDbEntity
  8
Vista
 62
     3
100
AcDbLine
 10
0.0018535533906174
 20
0.0001464466094205
 30
0.0
 11
0.074509621085781
 21
0.0156058758136055
 31
0.0
  0
INSERT
  5
244
330
235
100
AcDbEntity
  8
CORTE
 62
     4
100
AcDbBlockReference
  2
ELEMENT
 10
-0.0024999999999977
 20
0.0024999999999977
 30
0.0
 41
0.5
 42
0.5
 43
0.5
  0
LINE
  5
245
330
235
100
AcDbEntity
  8
Vista
 62
     2
100
AcDbLine
 10
-0.0024999999999977
 20
0.0100000000000193
 30
0.0
 11
0.0013108568762163
 21
0.0108108568761622
 31
0.0
  0
ARC
  5
246
330
235
100
AcDbEntity
  8
CORTE
 62
     3
100
AcDbCircle
 10
0.0775727343608992
 20
0.0325427625365364
 30
0.0
 40
0.0095923870276683
100
AcDbArc
 50
278.1349003175446
 51
356.7599311023579
  0
LINE
  5
247
330
235
100
AcDbEntity
  8
CORTE
 62
     3
100
AcDbLine
 10
0.0771560676942045
 20
0.0184594292032045
 30
0.0
 11
0.0771560676942045
 21
0.0224507195463559
 31
0.0
  0
ARC
  5
248
330
235
100
AcDbEntity
  8
CORTE
 62
     3
100
AcDbCircle
 10
0.0751560676941949
 20
0.0174594292032282
 30
0.0
 40
0.0005
100
AcDbArc
 50
89.99999999967434
 51
180.0
  0
LINE
  5
249
330
235
100
AcDbEntity
  8
Vista
 62
     3
100
AcDbLine
 10
0.074509621085781
 20
0.0156058758135771
 30
0.0
 11
0.0746560676941499
 21
0.0156370360599851
 31
0.0
  0
ARC
  5
24A
330
235
100
AcDbEntity
  8
CORTE
100
AcDbCircle
 10
0.0741560676942186
 20
0.0159594292032068
 30
0.0
 40
0.0005
100
AcDbArc
 50
315.0000001496929
 51
0.000000000000007
  0
LINE
  5
24B
330
235
100
AcDbEntity
  8
CORTE
 62
     3
100
AcDbLine
 10
0.0746560676942068
 20
0.0159594292032068
 30
0.0
 11
0.0746560676942068
 21
0.0174594292032282
 31
0.0
  0
ARC
  5
24C
330
235
100
AcDbEntity
  8
CORTE
 62
     3
100
AcDbCircle
 10
0.0766560676942163
 20
0.0184594292032045
 30
0.0
 40
0.0005
100
AcDbArc
 50
269.9999999991858
 51
0.000000000000007
  0
LINE
  5
24D
330
235
100
AcDbEntity
  8
CORTE
 62
     3
100
AcDbLine
 10
0.0766560676942163
 20
0.017959429203188
 30
0.0
 11
0.0751560676941949
 21
0.0179594292032164
 31
0.0
  0
ARC
  5
24E
330
235
100
AcDbEntity
  8
CORTE
 62
     3
100
AcDbCircle
 10
0.0776560676941927
 20
0.0224507195463559
 30
0.0
 40
0.0005
100
AcDbArc
 50
152.521182623883
 51
179.9999999983715
  0
LINE
  5
24F
330
235
100
AcDbEntity
  8
CORTE
 62
     3
100
AcDbLine
 10
0.0946560676941317
 20
0.0359594292032455
 30
0.0
 11
0.0946560676941317
 21
0.03745942920321
 31
0.0
  0
ARC
  5
250
330
235
100
AcDbEntity
  8
CORTE
 62
     3
100
AcDbCircle
 10
0.0916560676942027
 20
0.0334594292032193
 30
0.0
 40
0.0005
100
AcDbArc
 50
270.0
 51
0.000000000000007
  0
ARC
  5
251
330
235
100
AcDbEntity
  8
CORTE
 62
     3
100
AcDbCircle
 10
0.0941560676942004
 20
0.0359594292032455
 30
0.0
 40
0.0005
100
AcDbArc
 50
294.0240004981589
 51
0.000000000000007
  0
LINE
  5
252
330
235
100
AcDbEntity
  8
CORTE
 62
     3
100
AcDbLine
 10
0.0921560676942477
 20
0.0349594292032123
 30
0.0
 11
0.0921560676941908
 21
0.0334594292032193
 31
0.0
  0
LINE
  5
253
330
235
100
AcDbEntity
  8
CORTE
 62
     3
100
AcDbLine
 10
0.0941560676941436
 20
0.0379594292032266
 30
0.0
 11
0.0851560676942427
 21
0.0379594292032266
 31
0.0
  0
ARC
  5
254
330
235
100
AcDbEntity
  8
CORTE
 62
     3
100
AcDbCircle
 10
0.0941560676941436
 20
0.03745942920321
 30
0.0
 40
0.0005
100
AcDbArc
 50
359.9999999991858
 51
90.0
  0
ENDBLK
  5
255
330
235
100
AcDbEntity
  8
0
 62
     4
100
AcDbBlockEnd
  0
BLOCK
  5
3FC
330
3FB
100
AcDbEntity
  8
0
 62
     1
100
AcDbBlockBegin
  2
NOM-QR
 70
     0
 10
0.0
 20
0.0
 30
0.0
  3
NOM-QR
  1

  0
LINE
  5
3FD
330
3FB
100
AcDbEntity
  8
CORTE
 62
     4
100
AcDbLine
 10
0.0184292030348843
 20
0.0200000000000102
 30
0.0
 11
0.0860297709413658
 21
0.0343689442811126
 31
0.0
  0
LINE
  5
3FE
330
3FB
100
AcDbEntity
  8
CORTE
 62
     4
100
AcDbLine
 10
0.0155433624279908
 20
0.0200000000000102
 30
0.0
 11
0.0831439303344155
 21
0.0343689442811126
 31
0.0
  0
LINE
  5
3FF
330
3FB
100
AcDbEntity
  8
CORTE
 62
     4
100
AcDbLine
 10
0.0126575218209837
 20
0.0200000000000102
 30
0.0
 11
0.0802580897274084
 21
0.034368944281141
 31
0.0
  0
LINE
  5
400
330
3FB
100
AcDbEntity
  8
CORTE
 62
     4
100
AcDbLine
 10
0.0097716812139765
 20
0.0200000000000102
 30
0.0
 11
0.077372249120458
 21
0.0343689442811126
 31
0.0
  0
LINE
  5
401
330
3FB
100
AcDbEntity
  8
CORTE
 62
     4
100
AcDbLine
 10
0.0068858406069694
 20
0.0200000000000102
 30
0.0
 11
0.0744864085134509
 21
0.0343689442811126
 31
0.0
  0
LINE
  5
402
330
3FB
100
AcDbEntity
  8
CORTE
 62
     3
100
AcDbLine
 10
0.0081347328614925
 20
0.0017290908471352
 30
0.0
 11
0.0757353007679171
 21
0.0160980351282376
 31
0.0
  0
LINE
  5
403
330
3FB
100
AcDbEntity
  8
CORTE
 62
     3
100
AcDbLine
 10
0.0040000000000191
 20
0.0200000000000102
 30
0.0
 11
0.0716005679065006
 21
0.034368944281141
 31
0.0
  0
LINE
  5
404
330
3FB
100
AcDbEntity
  8
CORTE
 62
     3
100
AcDbLine
 10
0.0200000000000387
 20
0.0200000000000102
 30
0.0
 11
0.0876005679064633
 21
0.0343689442811126
 31
0.0
  0
ARC
  5
405
330
3FB
100
AcDbEntity
  8
CORTE
 62
     1
100
AcDbCircle
 10
0.0
 20
0.0200000000000102
 30
0.0
 40
0.0200000000000102
100
AcDbArc
 50
270.0
 51
0.0
  0
LINE
  5
406
330
3FB
100
AcDbEntity
  8
CORTE
 62
     1
100
AcDbLine
 10
0.0
 20
0.0160000000000196
 30
0.0
 11
0.0
 21
0.0
 31
0.0
  0
LINE
  5
407
330
3FB
100
AcDbEntity
  8
COTAS
 62
     1
100
AcDbLine
 10
0.0200000000000387
 20
0.0200000000000102
 30
0.0
 11
0.0040000000000191
 21
0.0200000000000102
 31
0.0
  0
ARC
  5
408
330
3FB
100
AcDbEntity
  8
CORTE
 62
     1
100
AcDbCircle
 10
0.0
 20
0.0200000000000102
 30
0.0
 40
0.004
100
AcDbArc
 50
270.0
 51
0.0
  0
ARC
  5
409
330
3FB
100
AcDbEntity
  8
CORTE
 62
     1
100
AcDbCircle
 10
0.0676005679064247
 20
0.0343689442811126
 30
0.0
 40
0.0200000000000102
100
AcDbArc
 50
270.0
 51
0.0
  0
LINE
  5
40A
330
3FB
100
AcDbEntity
  8
COTAS
 62
     1
100
AcDbLine
 10
0.0876005679064633
 20
0.0343689442811126
 30
0.0
 11
0.0716005679064438
 21
0.0343689442811126
 31
0.0
  0
ENDBLK
  5
40B
330
3FB
100
AcDbEntity
  8
0
 62
     1
100
AcDbBlockEnd
  0
BLOCK
  5
461
330
456
100
AcDbEntity
  8
0
 62
     6
100
AcDbBlockBegin
  2
*D6
 70
     1
 10
0.0
 20
0.0
 30
0.0
  3
*D6
  1

  0
LINE
  5
C98
330
456
100
AcDbEntity
  8
Dimensione
 62
     5
370
    -2
100
AcDbLine
 10
0.0810054382389104
 20
0.1347635712421038
 30
0.0
 11
0.178771207674144
 21
0.1347635712421038
 31
0.0
  0
LINE
  5
C99
330
456
100
AcDbEntity
  8
Dimensione
 62
     5
370
    -2
100
AcDbLine
 10
0.1350329956119573
 20
0.1948768224513628
 30
0.0
 11
0.1787712076741441
 21
0.1948768224513628
 31
0.0
  0
LINE
  5
C9A
330
456
100
AcDbEntity
  8
Dimensione
 62
     5
370
    -2
100
AcDbLine
 10
0.178591207674144
 20
0.1347635712421038
 30
0.0
 11
0.178591207674144
 21
0.1613201968467333
 31
0.0
  0
LINE
  5
C9B
330
456
100
AcDbEntity
  8
Dimensione
 62
     5
370
    -2
100
AcDbLine
 10
0.178591207674144
 20
0.1948768224513628
 30
0.0
 11
0.178591207674144
 21
0.1683201968467333
 31
0.0
  0
INSERT
  5
C9C
330
456
100
AcDbEntity
  8
Dimensione
 62
     5
370
    -2
100
AcDbBlockReference
  2
_ArchTick
 10
0.178591207674144
 20
0.1347635712421038
 30
0.0
 41
0.0015
 42
0.0015
 43
0.0015
 50
270.0
  0
INSERT
  5
C9D
330
456
100
AcDbEntity
  8
Dimensione
 62
     5
370
    -2
100
AcDbBlockReference
  2
_ArchTick
 10
0.178591207674144
 20
0.1948768224513628
 30
0.0
 41
0.0015
 42
0.0015
 43
0.0015
 50
90.0
  0
MTEXT
  5
C9E
330
456
100
AcDbEntity
  8
Dimensione
 62
     4
100
AcDbMText
 10
0.178591207674144
 20
0.1648201968467333
 30
0.0
 40
0.003
 41
0.0
 71
     5
 72
     1
  1
\A1;60 mm
  7
ROMANS
 73
     1
 44
1.0
  0
POINT
  5
C9F
330
456
100
AcDbEntity
  8
Defpoints
 62
     0
100
AcDbPoint
 10
0.0809429382389104
 20
0.1347635712421038
 30
0.0
  0
POINT
  5
CA0
330
456
100
AcDbEntity
  8
Defpoints
 62
     0
100
AcDbPoint
 10
0.1349704956119573
 20
0.1948768224513628
 30
0.0
  0
POINT
  5
CA1
330
456
100
AcDbEntity
  8
Defpoints
 62
     0
100
AcDbPoint
 10
0.178591207674144
 20
0.1948768224513628
 30
0.0
  0
ENDBLK
  5
462
330
456
100
AcDbEntity
  8
0
 62
     6
100
AcDbBlockEnd
  0
BLOCK
  5
47B
330
470
100
AcDbEntity
  8
0
 62
     6
100
AcDbBlockBegin
  2
*D7
 70
     1
 10
0.0
 20
0.0
 30
0.0
  3
*D7
  1

  0
LINE
  5
C84
330
470
100
AcDbEntity
  8
Dimensione
 62
     5
370
    -2
100
AcDbLine
 10
0.075505759999662
 20
0.1351767341888048
 30
0.0
 11
0.075505759999662
 21
0.1037458141974126
 31
0.0
  0
LINE
  5
C85
330
470
100
AcDbEntity
  8
Dimensione
 62
     5
370
    -2
100
AcDbLine
 10
0.1349704956119573
 20
0.1902024726665118
 30
0.0
 11
0.1349704956119573
 21
0.1037458141974126
 31
0.0
  0
LINE
  5
C86
330
470
100
AcDbEntity
  8
Dimensione
 62
     5
370
    -2
100
AcDbLine
 10
0.075505759999662
 20
0.1039258141974126
 30
0.0
 11
0.0951666992343811
 21
0.1039258141974126
 31
0.0
  0
LINE
  5
C87
330
470
100
AcDbEntity
  8
Dimensione
 62
     5
370
    -2
100
AcDbLine
 10
0.1349704956119573
 20
0.1039258141974126
 30
0.0
 11
0.1153095563772382
 21
0.1039258141974126
 31
0.0
  0
INSERT
  5
C88
330
470
100
AcDbEntity
  8
Dimensione
 62
     5
370
    -2
100
AcDbBlockReference
  2
_ArchTick
 10
0.075505759999662
 20
0.1039258141974126
 30
0.0
 41
0.0015
 42
0.0015
 43
0.0015
 50
180.0
  0
INSERT
  5
C89
330
470
100
AcDbEntity
  8
Dimensione
 62
     5
370
    -2
100
AcDbBlockReference
  2
_ArchTick
 10
0.1349704956119573
 20
0.1039258141974126
 30
0.0
 41
0.0015
 42
0.0015
 43
0.0015
  0
MTEXT
  5
C8A
330
470
100
AcDbEntity
  8
Dimensione
 62
     4
100
AcDbMText
 10
0.1052381278058096
 20
0.1039258141974126
 30
0.0
 40
0.003
 41
0.0
 71
     5
 72
     1
  1
\A1;60 mm
  7
ROMANS
 73
     1
 44
1.0
  0
POINT
  5
C8B
330
470
100
AcDbEntity
  8
Defpoints
 62
     0
100
AcDbPoint
 10
0.075505759999662
 20
0.1352392341888048
 30
0.0
  0
POINT
  5
C8C
330
470
100
AcDbEntity
  8
Defpoints
 62
     0
100
AcDbPoint
 10
0.1349704956119573
 20
0.1902649726665118
 30
0.0
  0
POINT
  5
C8D
330
470
100
AcDbEntity
  8
Defpoints
 62
     0
100
AcDbPoint
 10
0.1349704956119573
 20
0.1039258141974126
 30
0.0
  0
ENDBLK
  5
47C
330
470
100
AcDbEntity
  8
0
 62
     6
100
AcDbBlockEnd
  0
ENDSEC
  0
SECTION
  2
ENTITIES
  0
LINE
  5
D
330
2
100
AcDbEntity
  8
Table
100
AcDbLine
 10
0.02
 20
0.02
 30
0.0
 11
0.4
 21
0.02
 31
0.0
  0
LINE
  5
10
330
2
100
AcDbEntity
  8
Table
100
AcDbLine
 10
0.4
 20
0.02
 30
0.0
 11
0.4
 21
0.2769999999999999
 31
0.0
  0
LINE
  5
11
330
2
100
AcDbEntity
  8
Table
100
AcDbLine
 10
0.4
 20
0.2769999999999999
 30
0.0
 11
0.02
 21
0.277
 31
0.0
  0
LINE
  5
12
330
2
100
AcDbEntity
  8
Table
100
AcDbLine
 10
0.02
 20
0.277
 30
0.0
 11
0.02
 21
0.02
 31
0.0
  0
LINE
  5
13
330
2
100
AcDbEntity
  8
Table
 62
     2
100
AcDbLine
 10
0.015
 20
0.015
 30
0.0
 11
0.4050000000000001
 21
0.015
 31
0.0
  0
LINE
  5
14
330
2
100
AcDbEntity
  8
Table
 62
     2
100
AcDbLine
 10
0.4050000000000001
 20
0.015
 30
0.0
 11
0.4050000000000001
 21
0.2819999999999998
 31
0.0
  0
LINE
  5
15
330
2
100
AcDbEntity
  8
Table
 62
     2
100
AcDbLine
 10
0.4050000000000001
 20
0.2819999999999998
 30
0.0
 11
0.0149999999999999
 21
0.282
 31
0.0
  0
LINE
  5
16
330
2
100
AcDbEntity
  8
Table
 62
     2
100
AcDbLine
 10
0.0149999999999999
 20
0.282
 30
0.0
 11
0.015
 21
0.015
 31
0.0
  0
LINE
  5
17
330
2
100
AcDbEntity
  8
Table
100
AcDbLine
 10
0.21
 20
0.2769999999999999
 30
0.0
 11
0.21
 21
0.2532994226089223
 31
0.0
  0
LINE
  5
1D
330
2
100
AcDbEntity
  8
Table
100
AcDbLine
 10
0.02
 20
0.0528099428524846
 30
0.0
 11
0.4
 21
0.0528099428524846
 31
0.0
  0
MTEXT
  5
1E
330
2
100
AcDbEntity
  8
Text
100
AcDbMText
 10
0.1133313047219695
 20
0.2610796890771976
 30
0.0
 40
0.003
 41
0.1103605678262056
 71
     2
 72
     5
  1
{\fTimes New Roman|b0|i0|c0|p18;Le cornici estruse per soffitti \fTimes New Roman|b0|i1|c0|p18;      Extruded ceilings moulding}
 73
     1
 44
1.0
1001
ACAD
1000
ACAD_MTEXT_DEFINED_HEIGHT_BEGIN
1070
    46
1040
0.0141952763113409
1000
ACAD_MTEXT_DEFINED_HEIGHT_END
  0
TEXT
  5
1F
330
2
100
AcDbEntity
  8
Text
100
AcDbText
 10
0.2180556919891047
 20
0.269976982173197
 30
0.0
 40
0.003
  1
Cornice - Moulding : H 60 x 60 mm
  7
ROMANS
100
AcDbText
  0
TEXT
  5
21
330
2
100
AcDbEntity
  8
Text
100
AcDbText
 10
0.2184542410678115
 20
0.2576348370183962
 30
0.0
 40
0.003
  1
File : I 758
  7
ROMANS
100
AcDbText
  0
LINE
  5
22
330
2
100
AcDbEntity
  8
Table
100
AcDbLine
 10
0.4
 20
0.2654452889427402
 30
0.0
 11
0.02
 21
0.2654452889427403
 31
0.0
  0
LINE
  5
23
330
2
100
AcDbEntity
  8
Table
100
AcDbLine
 10
0.4
 20
0.2532994226089223
 30
0.0
 11
0.02
 21
0.2532994226089225
 31
0.0
  0
LINE
  5
24
330
2
100
AcDbEntity
  8
Table
100
AcDbLine
 10
0.21
 20
0.0528099428524846
 30
0.0
 11
0.21
 21
0.02
 31
0.0
  0
TEXT
  5
25
330
2
100
AcDbEntity
  8
Text
100
AcDbText
 10
0.0964227676712103
 20
0.2687784133392506
 30
0.0
 40
0.005
  1
ITALSTYL
  7
style1
 72
     1
 11
0.1140561490699125
 21
0.2687784133392506
 31
0.0
100
AcDbText
  0
TEXT
  5
27
330
2
100
AcDbEntity
  8
Text
100
AcDbText
 10
0.2749390669818674
 20
0.0773304520434606
 30
0.0
 40
0.005
  1
scala 1:2
  7
Arial
100
AcDbText
  0
MTEXT
  5
10F
330
2
100
AcDbEntity
  8
Text
100
AcDbMText
 10
0.305
 20
0.0471738284815141
 30
0.0
 40
0.005
 41
0.1900000000000001
 71
     2
 72
     5
  3
\pt0.09;{\fTimes New Roman|b0|i0|c238|p18;\H1.6x;\C4;Bovelacci\P\H0.4375x;\T0.95;via del Commercio, 5  47100 Forli - Italy  \fTimes New Roman|b0|i0|c0|p18;\P\fTimes New Roman|b0|i0|c238|p18;tel.+39-0543721386  fax +39-0543721127\fTimes New Roman|b0|i
  1
0|c0|p18; \fTimes New Roman|b0|i0|c238|p18;www.bovelacci.it\fTimes New Roman|b0|i0|c0|p18; \fTimes New Roman|b0|i0|c238|p18;e-mail: bovelacci@bovelacci\fTimes New Roman|b0|i0|c0|p18;.it}
 73
     1
 44
1.0
1001
ACAD
1000
ACAD_MTEXT_DEFINED_HEIGHT_BEGIN
1070
    46
1040
0.0271738284815141
1000
ACAD_MTEXT_DEFINED_HEIGHT_END
  0
MTEXT
  5
110
102
{ACAD_XDICTIONARY
360
CD1
102
}
330
2
100
AcDbEntity
  8
Text
100
AcDbMText
 10
0.0219676065851835
 20
0.0500313976452307
 30
0.0
 40
0.002
 41
0.1863544980601608
 71
     1
 72
     5
  3
{\fArial|b0|i0|c0|p34;\H1.25x;Le caratteristiche tecniche indicate vengono fornite a titolo indicativo e potranno essere modificate senza preavviso. Non devono quindi essere considerate a scopo di specifica.\P\fArial|b0|i1|c0|p34;The given values are
  3
 indicative and can be changed without notice. They cannot be considered like a state.\PThis lealfet and designs embodied within are protected by copyright law and international treaties. Unauthorized repro- duction of the leaflet or any portion of i
  1
t or reproduction of any of the designs embodied therein may result in severe civil penalties and will be prosecuted to the maximum.\PAll right reserved, Bovelacci Forl\U+00EC Italy.}
 73
     1
 44
1.0
  0
TEXT
  5
1CA
330
2
100
AcDbEntity
  8
Text
100
AcDbText
 10
0.1085393793425715
 20
0.0840480078468504
 30
0.0
 40
0.005
  1
scala 1:1
  7
Arial
100
AcDbText
  0
LINE
  5
426
330
2
100
AcDbEntity
  8
Sezione
  6
RAYITAX4
100
AcDbLine
 10
0.0753343795841253
 20
0.1948768224513628
 30
0.0
 11
0.0753343795840439
 21
0.1156846243620643
 31
0.0
  0
LINE
  5
427
330
2
100
AcDbEntity
  8
Sezione
  6
RAYITAX4
100
AcDbLine
 10
0.0753343795841253
 20
0.1948768224513628
 30
0.0
 11
0.1510661593923839
 21
0.194876822451306
 31
0.0
  0
HATCH
  5
429
330
2
100
AcDbEntity
  8
Sezione
100
AcDbHatch
 10
0.0
 20
0.0
 30
0.0
210
0.0
220
0.0
230
1.0
  2
ANSI31
 70
     0
 71
     0
 91
        1
 92
        2
 72
     0
 73
     1
 93
        6
 10
0.0753343795841253
 20
0.1948768224513628
 10
0.1482449106748844
 20
0.1948768224513628
 10
0.1482449106748844
 20
0.2091634498011579
 10
0.0574533250300706
 20
0.2091634498011579
 10
0.0574533250300706
 20
0.1174067068418119
 10
0.0753343795841253
 20
0.1174067068418119
 97
        0
 75
     0
 76
     1
 52
0.0
 41
0.05
 77
     0
 78
     1
 53
45.0
 43
-349.408771903001
 44
-202.475635997156
 45
-0.0044194173824159
 46
0.0044194173824159
 79
     0
 98
        1
 10
0.1089602635713951
 20
0.2016907093737927
  0
LINE
  5
449
330
2
100
AcDbEntity
  8
Vista
 62
     3
100
AcDbLine
 10
0.2512937988549884
 20
0.1443120282921344
 30
0.0
 11
0.2593062590826212
 21
0.1443120282921628
 31
0.0
  0
LINE
  5
44A
330
2
100
AcDbEntity
  8
Vista
 62
     6
100
AcDbLine
 10
0.2662150548904951
 20
0.1443120282921344
 30
0.0
 11
0.2662150548904951
 21
0.1142554026875389
 31
0.0
  0
LINE
  5
44B
330
2
100
AcDbEntity
  8
Vista
 62
     6
100
AcDbLine
 10
0.3393834944342875
 20
0.1443120282921344
 30
0.0
 11
0.3393834944342307
 21
0.1142554026875673
 31
0.0
  0
LINE
  5
44C
330
2
100
AcDbEntity
  8
Vista
 62
     3
100
AcDbLine
 10
0.2662150548904383
 20
0.1443120282921344
 30
0.0
 11
0.3393834944342875
 21
0.1443120282921344
 31
0.0
  0
LINE
  5
44D
330
2
100
AcDbEntity
  8
Vista
 62
     3
100
AcDbLine
 10
0.2662150548904951
 20
0.1142554026875389
 30
0.0
 11
0.3393834944342307
 21
0.1142554026875673
 31
0.0
  0
LINE
  5
44E
330
2
100
AcDbEntity
  8
Vista
 62
     6
100
AcDbLine
 10
0.259306259082678
 20
0.1142554026875333
 30
0.0
 11
0.259306259082678
 21
0.144312028292106
 31
0.0
  0
LINE
  5
451
330
2
100
AcDbEntity
  8
Vista
 62
     3
100
AcDbLine
 10
0.2242800201684649
 20
0.1142554026875049
 30
0.0
 11
0.259306259082678
 21
0.1142554026875333
 31
0.0
  0
DIMENSION
  5
455
330
2
100
AcDbEntity
  8
Dimensione
 62
     6
100
AcDbDimension
  2
*D6
 10
0.178591207674144
 20
0.1948768224513628
 30
0.0
 11
0.178591207674144
 21
0.1648201968467333
 31
0.0
 70
    32
  1
60 mm
 71
     5
 42
0.060113251209259
  3
Bovelacci
100
AcDbAlignedDimension
 13
0.0809429382389104
 23
0.1347635712421038
 33
0.0
 14
0.1349704956119573
 24
0.1948768224513628
 34
0.0
 50
90.0
100
AcDbRotatedDimension
  0
DIMENSION
  5
46F
330
2
100
AcDbEntity
  8
Dimensione
 62
     6
100
AcDbDimension
  2
*D7
 10
0.1349704956119573
 20
0.1039258141974126
 30
0.0
 11
0.1052381278058096
 21
0.1039258141974126
 31
0.0
 70
    32
  1
60 mm
 71
     5
 42
0.0594647356122953
  3
Bovelacci
100
AcDbAlignedDimension
 13
0.075505759999662
 23
0.1352392341888048
 33
0.0
 14
0.1349704956119573
 24
0.1902649726665118
 34
0.0
100
AcDbRotatedDimension
  0
LINE
  5
8BB
330
2
100
AcDbEntity
  8
Dimensione
 62
     3
100
AcDbLine
 10
0.2309866475702734
 20
0.2040504887907852
 30
0.0
 11
0.343439153364982
 21
0.2344334671920931
 31
0.0
  0
POLYLINE
  5
BDD
330
2
100
AcDbEntity
  8
Profilo
100
AcDb2dPolyline
 66
     1
 10
0.0
 20
0.0
 30
0.0
 70
     1
  0
VERTEX
  5
BDE
330
BDD
100
AcDbEntity
  8
Profilo
100
AcDbVertex
100
AcDb2dVertex
 10
0.0753343795841253
 20
0.1347635712421038
 30
0.0
  0
VERTEX
  5
BDF
330
BDD
100
AcDbEntity
  8
Profilo
100
AcDbVertex
100
AcDb2dVertex
 10
0.0809429382389104
 20
0.1347635712421038
 30
0.0
  0
VERTEX
  5
BE0
330
BDD
100
AcDbEntity
  8
Profilo
100
AcDbVertex
100
AcDb2dVertex
 10
0.0813043808048284
 20
0.1419877733981707
 30
0.0
  0
VERTEX
  5
BE1
330
BDD
100
AcDbEntity
  8
Profilo
100
AcDbVertex
100
AcDb2dVertex
 10
0.0817077850406682
 20
0.1454923476970293
 30
0.0
  0
VERTEX
  5
BE2
330
BDD
100
AcDbEntity
  8
Profilo
100
AcDbVertex
100
AcDb2dVertex
 10
0.0820039009159124
 20
0.1471989478862383
 30
0.0
  0
VERTEX
  5
BE3
330
BDD
100
AcDbEntity
  8
Profilo
100
AcDbVertex
100
AcDb2dVertex
 10
0.0823782180851018
 20
0.1488678779399493
 30
0.0
  0
VERTEX
  5
BE4
330
BDD
100
AcDbEntity
  8
Profilo
100
AcDbVertex
100
AcDb2dVertex
 10
0.0828417038028753
 20
0.1504938330447771
 30
0.0
  0
VERTEX
  5
BE5
330
BDD
100
AcDbEntity
  8
Profilo
100
AcDbVertex
100
AcDb2dVertex
 10
0.0831101631229436
 20
0.1512890186107256
 30
0.0
  0
VERTEX
  5
BE6
330
BDD
100
AcDbEntity
  8
Profilo
100
AcDbVertex
100
AcDb2dVertex
 10
0.0834053253238714
 20
0.1520714487826922
 30
0.0
  0
VERTEX
  5
BE7
330
BDD
100
AcDbEntity
  8
Profilo
100
AcDbVertex
100
AcDb2dVertex
 10
0.0837281440799749
 20
0.1528404083049395
 30
0.0
  0
VERTEX
  5
BE8
330
BDD
100
AcDbEntity
  8
Profilo
100
AcDbVertex
100
AcDb2dVertex
 10
0.0840800499027288
 20
0.153595241526375
 30
0.0
  0
VERTEX
  5
BE9
330
BDD
100
AcDbEntity
  8
Profilo
100
AcDbVertex
100
AcDb2dVertex
 10
0.0844629501407659
 20
0.1543353524005511
 30
0.0
  0
VERTEX
  5
BEA
330
BDD
100
AcDbEntity
  8
Profilo
100
AcDbVertex
100
AcDb2dVertex
 10
0.0848777984684026
 20
0.1550599660670855
 30
0.0
  0
VERTEX
  5
BEB
330
BDD
100
AcDbEntity
  8
Profilo
100
AcDbVertex
100
AcDb2dVertex
 10
0.0853255485599554
 20
0.1557684268748858
 30
0.0
  0
VERTEX
  5
BEC
330
BDD
100
AcDbEntity
  8
Profilo
100
AcDbVertex
100
AcDb2dVertex
 10
0.0858085846012151
 20
0.1564601387775042
 30
0.0
  0
VERTEX
  5
BED
330
BDD
100
AcDbEntity
  8
Profilo
100
AcDbVertex
100
AcDb2dVertex
 10
0.0863278602664983
 20
0.1571343865192034
 30
0.0
  0
VERTEX
  5
BEE
330
BDD
100
AcDbEntity
  8
Profilo
100
AcDbVertex
100
AcDb2dVertex
 10
0.0868843292301214
 20
0.1577904548442461
 30
0.0
  0
VERTEX
  5
BEF
330
BDD
100
AcDbEntity
  8
Profilo
100
AcDbVertex
100
AcDb2dVertex
 10
0.0874798988407171
 20
0.1584276881015398
 30
0.0
  0
VERTEX
  5
BF0
330
BDD
100
AcDbEntity
  8
Profilo
100
AcDbVertex
100
AcDb2dVertex
 10
0.08811599960976
 20
0.1590454902446368
 30
0.0
  0
VERTEX
  5
BF1
330
BDD
100
AcDbEntity
  8
Profilo
100
AcDbVertex
100
AcDb2dVertex
 10
0.0887935852115667
 20
0.1596430864131548
 30
0.0
  0
VERTEX
  5
BF2
330
BDD
100
AcDbEntity
  8
Profilo
100
AcDbVertex
100
AcDb2dVertex
 10
0.0895145629947698
 20
0.1602198805606463
 30
0.0
  0
VERTEX
  5
BF3
330
BDD
100
AcDbEntity
  8
Profilo
100
AcDbVertex
100
AcDb2dVertex
 10
0.090277979285053
 20
0.1607637133395769
 30
0.0
  0
VERTEX
  5
BF4
330
BDD
100
AcDbEntity
  8
Profilo
100
AcDbVertex
100
AcDb2dVertex
 10
0.0910800193851507
 20
0.1612650480067828
 30
0.0
  0
VERTEX
  5
BF5
330
BDD
100
AcDbEntity
  8
Profilo
100
AcDbVertex
100
AcDb2dVertex
 10
0.0919178222721136
 20
0.1617274012363055
 30
0.0
  0
VERTEX
  5
BF6
330
BDD
100
AcDbEntity
  8
Profilo
100
AcDbVertex
100
AcDb2dVertex
 10
0.0927885269229925
 20
0.1621541108882525
 30
0.0
  0
VERTEX
  5
BF7
330
BDD
100
AcDbEntity
  8
Profilo
100
AcDbVertex
100
AcDb2dVertex
 10
0.09368879547768
 20
0.162548574427376
 30
0.0
  0
VERTEX
  5
BF8
330
BDD
100
AcDbEntity
  8
Profilo
100
AcDbVertex
100
AcDb2dVertex
 10
0.0946152900760686
 20
0.1629141893184283
 30
0.0
  0
VERTEX
  5
BF9
330
BDD
100
AcDbEntity
  8
Profilo
100
AcDbVertex
100
AcDb2dVertex
 10
0.0965369438236272
 20
0.1635724034106829
 30
0.0
  0
VERTEX
  5
BFA
330
BDD
100
AcDbEntity
  8
Profilo
100
AcDbVertex
100
AcDb2dVertex
 10
0.1046784614627874
 20
0.1657288398540118
 30
0.0
  0
VERTEX
  5
BFB
330
BDD
100
AcDbEntity
  8
Profilo
100
AcDbVertex
100
AcDb2dVertex
 10
0.106705973059467
 20
0.1662845339572527
 30
0.0
  0
VERTEX
  5
BFC
330
BDD
100
AcDbEntity
  8
Profilo
100
AcDbVertex
100
AcDb2dVertex
 10
0.1086819862430608
 20
0.1669010844028094
 30
0.0
  0
VERTEX
  5
BFD
330
BDD
100
AcDbEntity
  8
Profilo
100
AcDbVertex
100
AcDb2dVertex
 10
0.110581705481342
 20
0.1676056709086993
 30
0.0
  0
VERTEX
  5
BFE
330
BDD
100
AcDbEntity
  8
Profilo
100
AcDbVertex
100
AcDb2dVertex
 10
0.1114953254764592
 20
0.1679994191920855
 30
0.0
  0
VERTEX
  5
BFF
330
BDD
100
AcDbEntity
  8
Profilo
100
AcDbVertex
100
AcDb2dVertex
 10
0.1123808120792424
 20
0.1684253539836504
 30
0.0
  0
VERTEX
  5
C00
330
BDD
100
AcDbEntity
  8
Profilo
100
AcDbVertex
100
AcDb2dVertex
 10
0.1132353042667424
 20
0.1688868727481463
 30
0.0
  0
VERTEX
  5
C01
330
BDD
100
AcDbEntity
  8
Profilo
100
AcDbVertex
100
AcDb2dVertex
 10
0.1140554641788518
 20
0.1693873133456805
 30
0.0
  0
VERTEX
  5
C02
330
BDD
100
AcDbEntity
  8
Profilo
100
AcDbVertex
100
AcDb2dVertex
 10
0.1148384307926213
 20
0.1699300732410052
 30
0.0
  0
VERTEX
  5
C03
330
BDD
100
AcDbEntity
  8
Profilo
100
AcDbVertex
100
AcDb2dVertex
 10
0.1155808662479436
 20
0.1705186095035174
 30
0.0
  0
VERTEX
  5
C04
330
BDD
100
AcDbEntity
  8
Profilo
100
AcDbVertex
100
AcDb2dVertex
 10
0.1159361099308049
 20
0.17083105705143
 30
0.0
  0
VERTEX
  5
C05
330
BDD
100
AcDbEntity
  8
Profilo
100
AcDbVertex
100
AcDb2dVertex
 10
0.1162803863590276
 20
0.1711562599933245
 30
0.0
  0
VERTEX
  5
C06
330
BDD
100
AcDbEntity
  8
Profilo
100
AcDbVertex
100
AcDb2dVertex
 10
0.1166127418582952
 20
0.1714945759570696
 30
0.0
  0
VERTEX
  5
C07
330
BDD
100
AcDbEntity
  8
Profilo
100
AcDbVertex
100
AcDb2dVertex
 10
0.1169331764286077
 20
0.1718464221751788
 30
0.0
  0
VERTEX
  5
C08
330
BDD
100
AcDbEntity
  8
Profilo
100
AcDbVertex
100
AcDb2dVertex
 10
0.1172412132328069
 20
0.1722122754848101
 30
0.0
  0
VERTEX
  5
C09
330
BDD
100
AcDbEntity
  8
Profilo
100
AcDbVertex
100
AcDb2dVertex
 10
0.1175363754337346
 20
0.1725924935138323
 30
0.0
  0
VERTEX
  5
C0A
330
BDD
100
AcDbEntity
  8
Profilo
100
AcDbVertex
100
AcDb2dVertex
 10
0.1178186630313909
 20
0.1729875530994036
 30
0.0
  0
VERTEX
  5
C0B
330
BDD
100
AcDbEntity
  8
Profilo
100
AcDbVertex
100
AcDb2dVertex
 10
0.1180871223514592
 20
0.1733978714740374
 30
0.0
  0
VERTEX
  5
C0C
330
BDD
100
AcDbEntity
  8
Profilo
100
AcDbVertex
100
AcDb2dVertex
 10
0.1190694068973577
 20
0.1750394429957964
 30
0.0
  0
VERTEX
  5
C0D
330
BDD
100
AcDbEntity
  8
Profilo
100
AcDbVertex
100
AcDb2dVertex
 10
0.1199305748050725
 20
0.1766168799197771
 30
0.0
  0
VERTEX
  5
C0E
330
BDD
100
AcDbEntity
  8
Profilo
100
AcDbVertex
100
AcDb2dVertex
 10
0.1213443969791448
 20
0.1795624222552874
 30
0.0
  0
VERTEX
  5
C0F
330
BDD
100
AcDbEntity
  8
Profilo
100
AcDbVertex
100
AcDb2dVertex
 10
0.1233151649539983
 20
0.1845001306331255
 30
0.0
  0
VERTEX
  5
C10
330
BDD
100
AcDbEntity
  8
Profilo
100
AcDbVertex
100
AcDb2dVertex
 10
0.124089071661762
 20
0.1864255990779497
 30
0.0
  0
VERTEX
  5
C11
330
BDD
100
AcDbEntity
  8
Profilo
100
AcDbVertex
100
AcDb2dVertex
 10
0.1244700645511663
 20
0.1872378911769488
 30
0.0
  0
VERTEX
  5
C12
330
BDD
100
AcDbEntity
  8
Profilo
100
AcDbVertex
100
AcDb2dVertex
 10
0.1246650909488713
 20
0.1876046385562517
 30
0.0
  0
VERTEX
  5
C13
330
BDD
100
AcDbEntity
  8
Profilo
100
AcDbVertex
100
AcDb2dVertex
 10
0.1248658393924749
 20
0.1879443850314715
 30
0.0
  0
VERTEX
  5
C14
330
BDD
100
AcDbEntity
  8
Profilo
100
AcDbVertex
100
AcDb2dVertex
 10
0.125072786719135
 20
0.1882566537654497
 30
0.0
  0
VERTEX
  5
C15
330
BDD
100
AcDbEntity
  8
Profilo
100
AcDbVertex
100
AcDb2dVertex
 10
0.125288793951801
 20
0.1885409083163836
 30
0.0
  0
VERTEX
  5
C16
330
BDD
100
AcDbEntity
  8
Profilo
100
AcDbVertex
100
AcDb2dVertex
 10
0.1254003738468206
 20
0.1886723365581133
 30
0.0
  0
VERTEX
  5
C17
330
BDD
100
AcDbEntity
  8
Profilo
100
AcDbVertex
100
AcDb2dVertex
 10
0.1255148147647893
 20
0.18879661224247
 30
0.0
  0
VERTEX
  5
C18
330
BDD
100
AcDbEntity
  8
Profilo
100
AcDbVertex
100
AcDb2dVertex
 10
0.1256325935428655
 20
0.1889135565555193
 30
0.0
  0
VERTEX
  5
C19
330
BDD
100
AcDbEntity
  8
Profilo
100
AcDbVertex
100
AcDb2dVertex
 10
0.1257532333438909
 20
0.189023229101906
 30
0.0
  0
VERTEX
  5
C1A
330
BDD
100
AcDbEntity
  8
Profilo
100
AcDbVertex
100
AcDb2dVertex
 10
0.1258772110050237
 20
0.1891255106723406
 30
0.0
  0
VERTEX
  5
C1B
330
BDD
100
AcDbEntity
  8
Profilo
100
AcDbVertex
100
AcDb2dVertex
 10
0.1260050033634221
 20
0.1892202820575335
 30
0.0
  0
VERTEX
  5
C1C
330
BDD
100
AcDbEntity
  8
Profilo
100
AcDbVertex
100
AcDb2dVertex
 10
0.1261366104190862
 20
0.1893076028621294
 30
0.0
  0
VERTEX
  5
C1D
330
BDD
100
AcDbEntity
  8
Profilo
100
AcDbVertex
100
AcDb2dVertex
 10
0.1262725090091741
 20
0.1893872942721941
 30
0.0
  0
VERTEX
  5
C1E
330
BDD
100
AcDbEntity
  8
Profilo
100
AcDbVertex
100
AcDb2dVertex
 10
0.1264122222965276
 20
0.1894592966830828
 30
0.0
  0
VERTEX
  5
C1F
330
BDD
100
AcDbEntity
  8
Profilo
100
AcDbVertex
100
AcDb2dVertex
 10
0.1265567039554631
 20
0.1895236100947954
 30
0.0
  0
VERTEX
  5
C20
330
BDD
100
AcDbEntity
  8
Profilo
100
AcDbVertex
100
AcDb2dVertex
 10
0.1267059539859807
 20
0.1895801152980425
 30
0.0
  0
VERTEX
  5
C21
330
BDD
100
AcDbEntity
  8
Profilo
100
AcDbVertex
100
AcDb2dVertex
 10
0.1268599723880803
 20
0.189628812292824
 30
0.0
  0
VERTEX
  5
C22
330
BDD
100
AcDbEntity
  8
Profilo
100
AcDbVertex
100
AcDb2dVertex
 10
0.1280697082584417
 20
0.1899366106784441
 30
0.0
  0
VERTEX
  5
C23
330
BDD
100
AcDbEntity
  8
Profilo
100
AcDbVertex
100
AcDb2dVertex
 10
0.1292007659976995
 20
0.1901531543529131
 30
0.0
  0
VERTEX
  5
C24
330
BDD
100
AcDbEntity
  8
Profilo
100
AcDbVertex
100
AcDb2dVertex
 10
0.1302650665348088
 20
0.1902913775241473
 30
0.0
  0
VERTEX
  5
C25
330
BDD
100
AcDbEntity
  8
Profilo
100
AcDbVertex
100
AcDb2dVertex
 10
0.1312731002872502
 20
0.1903643336093523
 30
0.0
  0
VERTEX
  5
C26
330
BDD
100
AcDbEntity
  8
Profilo
100
AcDbVertex
100
AcDb2dVertex
 10
0.1322367881839788
 20
0.1903851952350237
 30
0.0
  0
VERTEX
  5
C27
330
BDD
100
AcDbEntity
  8
Profilo
100
AcDbVertex
100
AcDb2dVertex
 10
0.1331666206424749
 20
0.1903668370044329
 30
0.0
  0
VERTEX
  5
C28
330
BDD
100
AcDbEntity
  8
Profilo
100
AcDbVertex
100
AcDb2dVertex
 10
0.1349704956119573
 20
0.1902649726665118
 30
0.0
  0
VERTEX
  5
C29
330
BDD
100
AcDbEntity
  8
Profilo
100
AcDbVertex
100
AcDb2dVertex
 10
0.1349704956119573
 20
0.1948768224513628
 30
0.0
  0
VERTEX
  5
C2A
330
BDD
100
AcDbEntity
  8
Profilo
100
AcDbVertex
100
AcDb2dVertex
 10
0.1198628639286077
 20
0.1948768224513628
 30
0.0
  0
VERTEX
  5
C2B
330
BDD
100
AcDbEntity
  8
Profilo
100
AcDbVertex
100
AcDb2dVertex
 10
0.117321321875385
 20
0.1881668295657732
 30
0.0
  0
VERTEX
  5
C2C
330
BDD
100
AcDbEntity
  8
Profilo
100
AcDbVertex
100
AcDb2dVertex
 10
0.1160047744815862
 20
0.1849938359058001
 30
0.0
  0
VERTEX
  5
C2D
330
BDD
100
AcDbEntity
  8
Profilo
100
AcDbVertex
100
AcDb2dVertex
 10
0.1146324371402776
 20
0.1820393528735735
 30
0.0
  0
VERTEX
  5
C2E
330
BDD
100
AcDbEntity
  8
Profilo
100
AcDbVertex
100
AcDb2dVertex
 10
0.1139200424259221
 20
0.1806667771136858
 30
0.0
  0
VERTEX
  5
C2F
330
BDD
100
AcDbEntity
  8
Profilo
100
AcDbVertex
100
AcDb2dVertex
 10
0.1131866668766057
 20
0.1793760981357195
 30
0.0
  0
VERTEX
  5
C30
330
BDD
100
AcDbEntity
  8
Profilo
100
AcDbVertex
100
AcDb2dVertex
 10
0.1124299263065374
 20
0.1781764354503252
 30
0.0
  0
VERTEX
  5
C31
330
BDD
100
AcDbEntity
  8
Profilo
100
AcDbVertex
100
AcDb2dVertex
 10
0.1116483902042424
 20
0.1770769085681536
 30
0.0
  0
VERTEX
  5
C32
330
BDD
100
AcDbEntity
  8
Profilo
100
AcDbVertex
100
AcDb2dVertex
 10
0.1112473701541936
 20
0.1765675272739031
 30
0.0
  0
VERTEX
  5
C33
330
BDD
100
AcDbEntity
  8
Profilo
100
AcDbVertex
100
AcDb2dVertex
 10
0.1108387207096135
 20
0.1760866369998553
 30
0.0
  0
VERTEX
  5
C34
330
BDD
100
AcDbEntity
  8
Profilo
100
AcDbVertex
100
AcDb2dVertex
 10
0.1104229187076604
 20
0.1756352510249712
 30
0.0
  0
VERTEX
  5
C35
330
BDD
100
AcDbEntity
  8
Profilo
100
AcDbVertex
100
AcDb2dVertex
 10
0.109999487311176
 20
0.1752146210467913
 30
0.0
  0
VERTEX
  5
C36
330
BDD
100
AcDbEntity
  8
Profilo
100
AcDbVertex
100
AcDb2dVertex
 10
0.1095679496830022
 20
0.1748258795535662
 30
0.0
  0
VERTEX
  5
C37
330
BDD
100
AcDbEntity
  8
Profilo
100
AcDbVertex
100
AcDb2dVertex
 10
0.1091278289859807
 20
0.1744700994289019
 30
0.0
  0
VERTEX
  5
C38
330
BDD
100
AcDbEntity
  8
Profilo
100
AcDbVertex
100
AcDb2dVertex
 10
0.1086791252201116
 20
0.1741484727656939
 30
0.0
  0
VERTEX
  5
C39
330
BDD
100
AcDbEntity
  8
Profilo
100
AcDbVertex
100
AcDb2dVertex
 10
0.1082213615482366
 20
0.1738620724475481
 30
0.0
  0
VERTEX
  5
C3A
330
BDD
100
AcDbEntity
  8
Profilo
100
AcDbVertex
100
AcDb2dVertex
 10
0.107729265600971
 20
0.1735982622897723
 30
0.0
  0
VERTEX
  5
C3B
330
BDD
100
AcDbEntity
  8
Profilo
100
AcDbVertex
100
AcDb2dVertex
 10
0.107179949194721
 20
0.1733429159915545
 30
0.0
  0
VERTEX
  5
C3C
330
BDD
100
AcDbEntity
  8
Profilo
100
AcDbVertex
100
AcDb2dVertex
 10
0.106576750189594
 20
0.1730949010646441
 30
0.0
  0
VERTEX
  5
C3D
330
BDD
100
AcDbEntity
  8
Profilo
100
AcDbVertex
100
AcDb2dVertex
 10
0.1059239601200139
 20
0.1728532042300799
 30
0.0
  0
VERTEX
  5
C3E
330
BDD
100
AcDbEntity
  8
Profilo
100
AcDbVertex
100
AcDb2dVertex
 10
0.1044834350650823
 20
0.1723844733035662
 30
0.0
  0
VERTEX
  5
C3F
330
BDD
100
AcDbEntity
  8
Profilo
100
AcDbVertex
100
AcDb2dVertex
 10
0.102888891608051
 20
0.1719282593524554
 30
0.0
  0
VERTEX
  5
C40
330
BDD
100
AcDbEntity
  8
Profilo
100
AcDbVertex
100
AcDb2dVertex
 10
0.0955684875553167
 20
0.1700595345294573
 30
0.0
  0
VERTEX
  5
C41
330
BDD
100
AcDbEntity
  8
Profilo
100
AcDbVertex
100
AcDb2dVertex
 10
0.0917633270328557
 20
0.1689802732265093
 30
0.0
  0
VERTEX
  5
C42
330
BDD
100
AcDbEntity
  8
Profilo
100
AcDbVertex
100
AcDb2dVertex
 10
0.0899294113224065
 20
0.1683747496402361
 30
0.0
  0
VERTEX
  5
C43
330
BDD
100
AcDbEntity
  8
Profilo
100
AcDbVertex
100
AcDb2dVertex
 10
0.0881813263004339
 20
0.1677140917575457
 30
0.0
  0
VERTEX
  5
C44
330
BDD
100
AcDbEntity
  8
Profilo
100
AcDbVertex
100
AcDb2dVertex
 10
0.0865495895450628
 20
0.1669897761142351
 30
0.0
  0
VERTEX
  5
C45
330
BDD
100
AcDbEntity
  8
Profilo
100
AcDbVertex
100
AcDb2dVertex
 10
0.0857861732547796
 20
0.1666011538302996
 30
0.0
  0
VERTEX
  5
C46
330
BDD
100
AcDbEntity
  8
Profilo
100
AcDbVertex
100
AcDb2dVertex
 10
0.0850632881229436
 20
0.1661933984553912
 30
0.0
  0
VERTEX
  5
C47
330
BDD
100
AcDbEntity
  8
Profilo
100
AcDbVertex
100
AcDb2dVertex
 10
0.0843847488468206
 20
0.1657654967105486
 30
0.0
  0
VERTEX
  5
C48
330
BDD
100
AcDbEntity
  8
Profilo
100
AcDbVertex
100
AcDb2dVertex
 10
0.0837534164493597
 20
0.1653163757121661
 30
0.0
  0
VERTEX
  5
C49
330
BDD
100
AcDbEntity
  8
Profilo
100
AcDbVertex
100
AcDb2dVertex
 10
0.0831740593021429
 20
0.1648450221812823
 30
0.0
  0
VERTEX
  5
C4A
330
BDD
100
AcDbEntity
  8
Profilo
100
AcDbVertex
100
AcDb2dVertex
 10
0.0829046463077581
 20
0.1646007027423479
 30
0.0
  0
VERTEX
  5
C4B
330
BDD
100
AcDbEntity
  8
Profilo
100
AcDbVertex
100
AcDb2dVertex
 10
0.0826495384281194
 20
0.1643503632342913
 30
0.0
  0
VERTEX
  5
C4C
330
BDD
100
AcDbEntity
  8
Profilo
100
AcDbVertex
100
AcDb2dVertex
 10
0.0816877578800237
 20
0.1633265938556292
 30
0.0
  0
VERTEX
  5
C4D
330
BDD
100
AcDbEntity
  8
Profilo
100
AcDbVertex
100
AcDb2dVertex
 10
0.0807851051395452
 20
0.1622709359920122
 30
0.0
  0
VERTEX
  5
C4E
330
BDD
100
AcDbEntity
  8
Profilo
100
AcDbVertex
100
AcDb2dVertex
 10
0.0799439643924749
 20
0.1611665811336138
 30
0.0
  0
VERTEX
  5
C4F
330
BDD
100
AcDbEntity
  8
Profilo
100
AcDbVertex
100
AcDb2dVertex
 10
0.0791652893131292
 20
0.159996780375252
 30
0.0
  0
VERTEX
  5
C50
330
BDD
100
AcDbEntity
  8
Profilo
100
AcDbVertex
100
AcDb2dVertex
 10
0.0788000320499456
 20
0.1593821372783282
 30
0.0
  0
VERTEX
  5
C51
330
BDD
100
AcDbEntity
  8
Profilo
100
AcDbVertex
100
AcDb2dVertex
 10
0.0784509872501409
 20
0.1587448444163897
 30
0.0
  0
VERTEX
  5
C52
330
BDD
100
AcDbEntity
  8
Profilo
100
AcDbVertex
100
AcDb2dVertex
 10
0.0781186317508733
 20
0.1580828752315142
 30
0.0
  0
VERTEX
  5
C53
330
BDD
100
AcDbEntity
  8
Profilo
100
AcDbVertex
100
AcDb2dVertex
 10
0.0778029655521428
 20
0.157394024351845
 30
0.0
  0
VERTEX
  5
C54
330
BDD
100
AcDbEntity
  8
Profilo
100
AcDbVertex
100
AcDb2dVertex
 10
0.0772226547306096
 20
0.1559275712764361
 30
0.0
  0
VERTEX
  5
C55
330
BDD
100
AcDbEntity
  8
Profilo
100
AcDbVertex
100
AcDb2dVertex
 10
0.0767119621341741
 20
0.154328736284981
 30
0.0
  0
VERTEX
  5
C56
330
BDD
100
AcDbEntity
  8
Profilo
100
AcDbVertex
100
AcDb2dVertex
 10
0.076272795111469
 20
0.1525807704722979
 30
0.0
  0
VERTEX
  5
C57
330
BDD
100
AcDbEntity
  8
Profilo
100
AcDbVertex
100
AcDb2dVertex
 10
0.0759061073368108
 20
0.1506669845378497
 30
0.0
  0
VERTEX
  5
C58
330
BDD
100
AcDbEntity
  8
Profilo
100
AcDbVertex
100
AcDb2dVertex
 10
0.0756142829959905
 20
0.1485705699718096
 30
0.0
  0
VERTEX
  5
C59
330
BDD
100
AcDbEntity
  8
Profilo
100
AcDbVertex
100
AcDb2dVertex
 10
0.0753987526004827
 20
0.1462747778689959
 30
0.0
  0
VERTEX
  5
C5A
330
BDD
100
AcDbEntity
  8
Profilo
100
AcDbVertex
100
AcDb2dVertex
 10
0.0752037262027776
 20
0.141018303850899
 30
0.0
  0
SEQEND
  5
C5B
330
BDD
100
AcDbEntity
  8
Profilo
  0
POLYLINE
  5
CFC
330
2
100
AcDbEntity
  8
Profilo
100
AcDb2dPolyline
 66
     1
 10
0.0
 20
0.0
 30
0.0
 70
     1
  0
VERTEX
  5
CFD
330
CFC
100
AcDbEntity
  8
Profilo
100
AcDbVertex
100
AcDb2dVertex
 10
0.2087224053980322
 20
0.1739938631861557
 30
0.0
  0
VERTEX
  5
CFE
330
CFC
100
AcDbEntity
  8
Profilo
100
AcDbVertex
100
AcDb2dVertex
 10
0.2115266847254248
 20
0.1739938631861557
 30
0.0
  0
VERTEX
  5
CFF
330
CFC
100
AcDbEntity
  8
Profilo
100
AcDbVertex
100
AcDb2dVertex
 10
0.2117074060083838
 20
0.1776059642641891
 30
0.0
  0
VERTEX
  5
D00
330
CFC
100
AcDbEntity
  8
Profilo
100
AcDbVertex
100
AcDb2dVertex
 10
0.2119091081263037
 20
0.1793582514136184
 30
0.0
  0
VERTEX
  5
D01
330
CFC
100
AcDbEntity
  8
Profilo
100
AcDbVertex
100
AcDb2dVertex
 10
0.2120571660639258
 20
0.1802115515082229
 30
0.0
  0
VERTEX
  5
D02
330
CFC
100
AcDbEntity
  8
Profilo
100
AcDbVertex
100
AcDb2dVertex
 10
0.2122443246485205
 20
0.1810460165350784
 30
0.0
  0
VERTEX
  5
D03
330
CFC
100
AcDbEntity
  8
Profilo
100
AcDbVertex
100
AcDb2dVertex
 10
0.2124760675074072
 20
0.1818589940874923
 30
0.0
  0
VERTEX
  5
D04
330
CFC
100
AcDbEntity
  8
Profilo
100
AcDbVertex
100
AcDb2dVertex
 10
0.2126102971674414
 20
0.1822565868704666
 30
0.0
  0
VERTEX
  5
D05
330
CFC
100
AcDbEntity
  8
Profilo
100
AcDbVertex
100
AcDb2dVertex
 10
0.2127578782679053
 20
0.1826478019564499
 30
0.0
  0
VERTEX
  5
D06
330
CFC
100
AcDbEntity
  8
Profilo
100
AcDbVertex
100
AcDb2dVertex
 10
0.212919287645957
 20
0.1830322817175735
 30
0.0
  0
VERTEX
  5
D07
330
CFC
100
AcDbEntity
  8
Profilo
100
AcDbVertex
100
AcDb2dVertex
 10
0.213095240557334
 20
0.1834096983282913
 30
0.0
  0
VERTEX
  5
D08
330
CFC
100
AcDbEntity
  8
Profilo
100
AcDbVertex
100
AcDb2dVertex
 10
0.2132866906763525
 20
0.1837797537653793
 30
0.0
  0
VERTEX
  5
D09
330
CFC
100
AcDbEntity
  8
Profilo
100
AcDbVertex
100
AcDb2dVertex
 10
0.2134941148401709
 20
0.1841420605986465
 30
0.0
  0
VERTEX
  5
D0A
330
CFC
100
AcDbEntity
  8
Profilo
100
AcDbVertex
100
AcDb2dVertex
 10
0.2137179898859473
 20
0.1844962910025467
 30
0.0
  0
VERTEX
  5
D0B
330
CFC
100
AcDbEntity
  8
Profilo
100
AcDbVertex
100
AcDb2dVertex
 10
0.2139595079065772
 20
0.1848421469538559
 30
0.0
  0
VERTEX
  5
D0C
330
CFC
100
AcDbEntity
  8
Profilo
100
AcDbVertex
100
AcDb2dVertex
 10
0.2142191457392188
 20
0.1851792708247055
 30
0.0
  0
VERTEX
  5
D0D
330
CFC
100
AcDbEntity
  8
Profilo
100
AcDbVertex
100
AcDb2dVertex
 10
0.2144973802210303
 20
0.1855073049872268
 30
0.0
  0
VERTEX
  5
D0E
330
CFC
100
AcDbEntity
  8
Profilo
100
AcDbVertex
100
AcDb2dVertex
 10
0.2147951650263281
 20
0.1858259216158737
 30
0.0
  0
VERTEX
  5
D0F
330
CFC
100
AcDbEntity
  8
Profilo
100
AcDbVertex
100
AcDb2dVertex
 10
0.2151132154108496
 20
0.1861348226874222
 30
0.0
  0
VERTEX
  5
D10
330
CFC
100
AcDbEntity
  8
Profilo
100
AcDbVertex
100
AcDb2dVertex
 10
0.2154520082117529
 20
0.1864336207716812
 30
0.0
  0
VERTEX
  5
D11
330
CFC
100
AcDbEntity
  8
Profilo
100
AcDbVertex
100
AcDb2dVertex
 10
0.2158124971033545
 20
0.1867220178454269
 30
0.0
  0
VERTEX
  5
D12
330
CFC
100
AcDbEntity
  8
Profilo
100
AcDbVertex
100
AcDb2dVertex
 10
0.2161942052484961
 20
0.1869939342348923
 30
0.0
  0
VERTEX
  5
D13
330
CFC
100
AcDbEntity
  8
Profilo
100
AcDbVertex
100
AcDb2dVertex
 10
0.2165952252985449
 20
0.1872446015684952
 30
0.0
  0
VERTEX
  5
D14
330
CFC
100
AcDbEntity
  8
Profilo
100
AcDbVertex
100
AcDb2dVertex
 10
0.2170141267420264
 20
0.1874757781832565
 30
0.0
  0
VERTEX
  5
D15
330
CFC
100
AcDbEntity
  8
Profilo
100
AcDbVertex
100
AcDb2dVertex
 10
0.2174494790674658
 20
0.18768913300923
 30
0.0
  0
VERTEX
  5
D16
330
CFC
100
AcDbEntity
  8
Profilo
100
AcDbVertex
100
AcDb2dVertex
 10
0.2178996133448096
 20
0.1878863647787918
 30
0.0
  0
VERTEX
  5
D17
330
CFC
100
AcDbEntity
  8
Profilo
100
AcDbVertex
100
AcDb2dVertex
 10
0.2183628606440039
 20
0.1880691722243179
 30
0.0
  0
VERTEX
  5
D18
330
CFC
100
AcDbEntity
  8
Profilo
100
AcDbVertex
100
AcDb2dVertex
 10
0.2193236875177832
 20
0.1883982792704452
 30
0.0
  0
VERTEX
  5
D19
330
CFC
100
AcDbEntity
  8
Profilo
100
AcDbVertex
100
AcDb2dVertex
 10
0.2233944463373633
 20
0.1894764974921097
 30
0.0
  0
VERTEX
  5
D1A
330
CFC
100
AcDbEntity
  8
Profilo
100
AcDbVertex
100
AcDb2dVertex
 10
0.2244082021357031
 20
0.1897543445437301
 30
0.0
  0
VERTEX
  5
D1B
330
CFC
100
AcDbEntity
  8
Profilo
100
AcDbVertex
100
AcDb2dVertex
 10
0.2253962087275
 20
0.1900626197665085
 30
0.0
  0
VERTEX
  5
D1C
330
CFC
100
AcDbEntity
  8
Profilo
100
AcDbVertex
100
AcDb2dVertex
 10
0.2263460683466406
 20
0.1904149130194534
 30
0.0
  0
VERTEX
  5
D1D
330
CFC
100
AcDbEntity
  8
Profilo
100
AcDbVertex
100
AcDb2dVertex
 10
0.2268028783441992
 20
0.1906117871611465
 30
0.0
  0
VERTEX
  5
D1E
330
CFC
100
AcDbEntity
  8
Profilo
100
AcDbVertex
100
AcDb2dVertex
 10
0.2272456216455908
 20
0.190824754556929
 30
0.0
  0
VERTEX
  5
D1F
330
CFC
100
AcDbEntity
  8
Profilo
100
AcDbVertex
100
AcDb2dVertex
 10
0.2276728677393408
 20
0.1910555139391769
 30
0.0
  0
VERTEX
  5
D20
330
CFC
100
AcDbEntity
  8
Profilo
100
AcDbVertex
100
AcDb2dVertex
 10
0.2280829476953955
 20
0.191305734237944
 30
0.0
  0
VERTEX
  5
D21
330
CFC
100
AcDbEntity
  8
Profilo
100
AcDbVertex
100
AcDb2dVertex
 10
0.2284744310022803
 20
0.1915771141856064
 30
0.0
  0
VERTEX
  5
D22
330
CFC
100
AcDbEntity
  8
Profilo
100
AcDbVertex
100
AcDb2dVertex
 10
0.2288456487299414
 20
0.1918713823168625
 30
0.0
  0
VERTEX
  5
D23
330
CFC
100
AcDbEntity
  8
Profilo
100
AcDbVertex
100
AcDb2dVertex
 10
0.2290232705713721
 20
0.1920276060908188
 30
0.0
  0
VERTEX
  5
D24
330
CFC
100
AcDbEntity
  8
Profilo
100
AcDbVertex
100
AcDb2dVertex
 10
0.2291954087854834
 20
0.192190207561766
 30
0.0
  0
VERTEX
  5
D25
330
CFC
100
AcDbEntity
  8
Profilo
100
AcDbVertex
100
AcDb2dVertex
 10
0.2293615865351172
 20
0.1923593655436386
 30
0.0
  0
VERTEX
  5
D26
330
CFC
100
AcDbEntity
  8
Profilo
100
AcDbVertex
100
AcDb2dVertex
 10
0.2295218038202734
 20
0.1925352886526932
 30
0.0
  0
VERTEX
  5
D27
330
CFC
100
AcDbEntity
  8
Profilo
100
AcDbVertex
100
AcDb2dVertex
 10
0.2296758222223731
 20
0.1927182153075088
 30
0.0
  0
VERTEX
  5
D28
330
CFC
100
AcDbEntity
  8
Profilo
100
AcDbVertex
100
AcDb2dVertex
 10
0.2298234033228369
 20
0.1929083243220199
 30
0.0
  0
VERTEX
  5
D29
330
CFC
100
AcDbEntity
  8
Profilo
100
AcDbVertex
100
AcDb2dVertex
 10
0.229964547121665
 20
0.1931058541148056
 30
0.0
  0
VERTEX
  5
D2A
330
CFC
100
AcDbEntity
  8
Profilo
100
AcDbVertex
100
AcDb2dVertex
 10
0.2300987767816992
 20
0.1933110133021225
 30
0.0
  0
VERTEX
  5
D2B
330
CFC
100
AcDbEntity
  8
Profilo
100
AcDbVertex
100
AcDb2dVertex
 10
0.2305899190546484
 20
0.194131799063002
 30
0.0
  0
VERTEX
  5
D2C
330
CFC
100
AcDbEntity
  8
Profilo
100
AcDbVertex
100
AcDb2dVertex
 10
0.2310205030085059
 20
0.1949205175249923
 30
0.0
  0
VERTEX
  5
D2D
330
CFC
100
AcDbEntity
  8
Profilo
100
AcDbVertex
100
AcDb2dVertex
 10
0.231727414095542
 20
0.1963932886927475
 30
0.0
  0
VERTEX
  5
D2E
330
CFC
100
AcDbEntity
  8
Profilo
100
AcDbVertex
100
AcDb2dVertex
 10
0.2327127980829688
 20
0.1988621428816665
 30
0.0
  0
VERTEX
  5
D2F
330
CFC
100
AcDbEntity
  8
Profilo
100
AcDbVertex
100
AcDb2dVertex
 10
0.2330997514368506
 20
0.1998248771040787
 30
0.0
  0
VERTEX
  5
D30
330
CFC
100
AcDbEntity
  8
Profilo
100
AcDbVertex
100
AcDb2dVertex
 10
0.2332902478815527
 20
0.2002310231535782
 30
0.0
  0
VERTEX
  5
D31
330
CFC
100
AcDbEntity
  8
Profilo
100
AcDbVertex
100
AcDb2dVertex
 10
0.2333877610804053
 20
0.2004143968432297
 30
0.0
  0
VERTEX
  5
D32
330
CFC
100
AcDbEntity
  8
Profilo
100
AcDbVertex
100
AcDb2dVertex
 10
0.233488135302207
 20
0.2005842700808395
 30
0.0
  0
VERTEX
  5
D33
330
CFC
100
AcDbEntity
  8
Profilo
100
AcDbVertex
100
AcDb2dVertex
 10
0.2335916089655371
 20
0.2007404044478287
 30
0.0
  0
VERTEX
  5
D34
330
CFC
100
AcDbEntity
  8
Profilo
100
AcDbVertex
100
AcDb2dVertex
 10
0.2336996125818701
 20
0.2008825317232956
 30
0.0
  0
VERTEX
  5
D35
330
CFC
100
AcDbEntity
  8
Profilo
100
AcDbVertex
100
AcDb2dVertex
 10
0.2337554025293799
 20
0.2009482458441604
 30
0.0
  0
VERTEX
  5
D36
330
CFC
100
AcDbEntity
  8
Profilo
100
AcDbVertex
100
AcDb2dVertex
 10
0.2338126229883643
 20
0.2010103836863388
 30
0.0
  0
VERTEX
  5
D37
330
CFC
100
AcDbEntity
  8
Profilo
100
AcDbVertex
100
AcDb2dVertex
 10
0.2338715123774024
 20
0.2010688558428634
 30
0.0
  0
VERTEX
  5
D38
330
CFC
100
AcDbEntity
  8
Profilo
100
AcDbVertex
100
AcDb2dVertex
 10
0.233931832277915
 20
0.2011236921160568
 30
0.0
  0
VERTEX
  5
D39
330
CFC
100
AcDbEntity
  8
Profilo
100
AcDbVertex
100
AcDb2dVertex
 10
0.2339938211084815
 20
0.2011748329012741
 30
0.0
  0
VERTEX
  5
D3A
330
CFC
100
AcDbEntity
  8
Profilo
100
AcDbVertex
100
AcDb2dVertex
 10
0.2340577172876807
 20
0.2012222185938705
 30
0.0
  0
VERTEX
  5
D3B
330
CFC
100
AcDbEntity
  8
Profilo
100
AcDbVertex
100
AcDb2dVertex
 10
0.2341235208155127
 20
0.2012658789961685
 30
0.0
  0
VERTEX
  5
D3C
330
CFC
100
AcDbEntity
  8
Profilo
100
AcDbVertex
100
AcDb2dVertex
 10
0.2341914701105566
 20
0.2013057247012008
 30
0.0
  0
VERTEX
  5
D3D
330
CFC
100
AcDbEntity
  8
Profilo
100
AcDbVertex
100
AcDb2dVertex
 10
0.2342613267542334
 20
0.2013417259066452
 30
0.0
  0
VERTEX
  5
D3E
330
CFC
100
AcDbEntity
  8
Profilo
100
AcDbVertex
100
AcDb2dVertex
 10
0.2343335675837012
 20
0.2013738826125015
 30
0.0
  0
VERTEX
  5
D3F
330
CFC
100
AcDbEntity
  8
Profilo
100
AcDbVertex
100
AcDb2dVertex
 10
0.23440819259896
 20
0.201402135214125
 30
0.0
  0
VERTEX
  5
D40
330
CFC
100
AcDbEntity
  8
Profilo
100
AcDbVertex
100
AcDb2dVertex
 10
0.2344852018000098
 20
0.2014264837115158
 30
0.0
  0
VERTEX
  5
D41
330
CFC
100
AcDbEntity
  8
Profilo
100
AcDbVertex
100
AcDb2dVertex
 10
0.2350900697351904
 20
0.2015803829043258
 30
0.0
  0
VERTEX
  5
D42
330
CFC
100
AcDbEntity
  8
Profilo
100
AcDbVertex
100
AcDb2dVertex
 10
0.2356555986048193
 20
0.2016886547415603
 30
0.0
  0
VERTEX
  5
D43
330
CFC
100
AcDbEntity
  8
Profilo
100
AcDbVertex
100
AcDb2dVertex
 10
0.236187748873374
 20
0.2017577663271774
 30
0.0
  0
VERTEX
  5
D44
330
CFC
100
AcDbEntity
  8
Profilo
100
AcDbVertex
100
AcDb2dVertex
 10
0.2366917657495947
 20
0.2017942443697799
 30
0.0
  0
VERTEX
  5
D45
330
CFC
100
AcDbEntity
  8
Profilo
100
AcDbVertex
100
AcDb2dVertex
 10
0.237173609697959
 20
0.2018046751826156
 30
0.0
  0
VERTEX
  5
D46
330
CFC
100
AcDbEntity
  8
Profilo
100
AcDbVertex
100
AcDb2dVertex
 10
0.237638525927207
 20
0.2017954960673202
 30
0.0
  0
VERTEX
  5
D47
330
CFC
100
AcDbEntity
  8
Profilo
100
AcDbVertex
100
AcDb2dVertex
 10
0.2385404634119483
 20
0.2017445638983597
 30
0.0
  0
VERTEX
  5
D48
330
CFC
100
AcDbEntity
  8
Profilo
100
AcDbVertex
100
AcDb2dVertex
 10
0.2385404634119483
 20
0.2040504887907852
 30
0.0
  0
VERTEX
  5
D49
330
CFC
100
AcDbEntity
  8
Profilo
100
AcDbVertex
100
AcDb2dVertex
 10
0.2309866475702734
 20
0.2040504887907852
 30
0.0
  0
VERTEX
  5
D4A
330
CFC
100
AcDbEntity
  8
Profilo
100
AcDbVertex
100
AcDb2dVertex
 10
0.2297158765436621
 20
0.2006954923479904
 30
0.0
  0
VERTEX
  5
D4B
330
CFC
100
AcDbEntity
  8
Profilo
100
AcDbVertex
100
AcDb2dVertex
 10
0.2290576028467627
 20
0.1991089955180038
 30
0.0
  0
VERTEX
  5
D4C
330
CFC
100
AcDbEntity
  8
Profilo
100
AcDbVertex
100
AcDb2dVertex
 10
0.2283714341761084
 20
0.1976317540018905
 30
0.0
  0
VERTEX
  5
D4D
330
CFC
100
AcDbEntity
  8
Profilo
100
AcDbVertex
100
AcDb2dVertex
 10
0.2280152368189307
 20
0.1969454661219467
 30
0.0
  0
VERTEX
  5
D4E
330
CFC
100
AcDbEntity
  8
Profilo
100
AcDbVertex
100
AcDb2dVertex
 10
0.2276485490442725
 20
0.1963001266329635
 30
0.0
  0
VERTEX
  5
D4F
330
CFC
100
AcDbEntity
  8
Profilo
100
AcDbVertex
100
AcDb2dVertex
 10
0.2272701787592383
 20
0.1957002952902664
 30
0.0
  0
VERTEX
  5
D50
330
CFC
100
AcDbEntity
  8
Profilo
100
AcDbVertex
100
AcDb2dVertex
 10
0.2268794107080908
 20
0.1951505318491806
 30
0.0
  0
VERTEX
  5
D51
330
CFC
100
AcDbEntity
  8
Profilo
100
AcDbVertex
100
AcDb2dVertex
 10
0.2266789006830664
 20
0.1948958412020553
 30
0.0
  0
VERTEX
  5
D52
330
CFC
100
AcDbEntity
  8
Profilo
100
AcDbVertex
100
AcDb2dVertex
 10
0.2264745759607764
 20
0.1946553960650314
 30
0.0
  0
VERTEX
  5
D53
330
CFC
100
AcDbEntity
  8
Profilo
100
AcDbVertex
100
AcDb2dVertex
 10
0.2262666749597998
 20
0.1944297030775894
 30
0.0
  0
VERTEX
  5
D54
330
CFC
100
AcDbEntity
  8
Profilo
100
AcDbVertex
100
AcDb2dVertex
 10
0.2260549592615576
 20
0.1942193880884994
 30
0.0
  0
VERTEX
  5
D55
330
CFC
100
AcDbEntity
  8
Profilo
100
AcDbVertex
100
AcDb2dVertex
 10
0.2258391904474707
 20
0.1940250173418869
 30
0.0
  0
VERTEX
  5
D56
330
CFC
100
AcDbEntity
  8
Profilo
100
AcDbVertex
100
AcDb2dVertex
 10
0.22561913009896
 20
0.1938471272795547
 30
0.0
  0
VERTEX
  5
D57
330
CFC
100
AcDbEntity
  8
Profilo
100
AcDbVertex
100
AcDb2dVertex
 10
0.2253947782160254
 20
0.1936863139479507
 30
0.0
  0
VERTEX
  5
D58
330
CFC
100
AcDbEntity
  8
Profilo
100
AcDbVertex
100
AcDb2dVertex
 10
0.2251658963800879
 20
0.1935431137888778
 30
0.0
  0
VERTEX
  5
D59
330
CFC
100
AcDbEntity
  8
Profilo
100
AcDbVertex
100
AcDb2dVertex
 10
0.2249198484064551
 20
0.1934112087099899
 30
0.0
  0
VERTEX
  5
D5A
330
CFC
100
AcDbEntity
  8
Profilo
100
AcDbVertex
100
AcDb2dVertex
 10
0.2246451902033301
 20
0.193283535560881
 30
0.0
  0
VERTEX
  5
D5B
330
CFC
100
AcDbEntity
  8
Profilo
100
AcDbVertex
100
AcDb2dVertex
 10
0.2243435907007666
 20
0.1931595280974258
 30
0.0
  0
VERTEX
  5
D5C
330
CFC
100
AcDbEntity
  8
Profilo
100
AcDbVertex
100
AcDb2dVertex
 10
0.2240171956659766
 20
0.1930386796801437
 30
0.0
  0
VERTEX
  5
D5D
330
CFC
100
AcDbEntity
  8
Profilo
100
AcDbVertex
100
AcDb2dVertex
 10
0.2232969331385108
 20
0.1928043142168869
 30
0.0
  0
VERTEX
  5
D5E
330
CFC
100
AcDbEntity
  8
Profilo
100
AcDbVertex
100
AcDb2dVertex
 10
0.2224996614099951
 20
0.1925762072413315
 30
0.0
  0
VERTEX
  5
D5F
330
CFC
100
AcDbEntity
  8
Profilo
100
AcDbVertex
100
AcDb2dVertex
 10
0.2188394593836279
 20
0.1916418448298324
 30
0.0
  0
VERTEX
  5
D60
330
CFC
100
AcDbEntity
  8
Profilo
100
AcDbVertex
100
AcDb2dVertex
 10
0.2169368791223975
 20
0.1911022141783584
 30
0.0
  0
VERTEX
  5
D61
330
CFC
100
AcDbEntity
  8
Profilo
100
AcDbVertex
100
AcDb2dVertex
 10
0.2160199212671729
 20
0.1907994523852218
 30
0.0
  0
VERTEX
  5
D62
330
CFC
100
AcDbEntity
  8
Profilo
100
AcDbVertex
100
AcDb2dVertex
 10
0.2151458787561865
 20
0.1904691234438766
 30
0.0
  0
VERTEX
  5
D63
330
CFC
100
AcDbEntity
  8
Profilo
100
AcDbVertex
100
AcDb2dVertex
 10
0.214330010378501
 20
0.1901069656222214
 30
0.0
  0
VERTEX
  5
D64
330
CFC
100
AcDbEntity
  8
Profilo
100
AcDbVertex
100
AcDb2dVertex
 10
0.2139483022333594
 20
0.1899126544802536
 30
0.0
  0
VERTEX
  5
D65
330
CFC
100
AcDbEntity
  8
Profilo
100
AcDbVertex
100
AcDb2dVertex
 10
0.2135868596674414
 20
0.1897087767927994
 30
0.0
  0
VERTEX
  5
D66
330
CFC
100
AcDbEntity
  8
Profilo
100
AcDbVertex
100
AcDb2dVertex
 10
0.2132475900293799
 20
0.1894948259203781
 30
0.0
  0
VERTEX
  5
D67
330
CFC
100
AcDbEntity
  8
Profilo
100
AcDbVertex
100
AcDb2dVertex
 10
0.2129319238306494
 20
0.1892702654211868
 30
0.0
  0
VERTEX
  5
D68
330
CFC
100
AcDbEntity
  8
Profilo
100
AcDbVertex
100
AcDb2dVertex
 10
0.212642245257041
 20
0.1890345886557449
 30
0.0
  0
VERTEX
  5
D69
330
CFC
100
AcDbEntity
  8
Profilo
100
AcDbVertex
100
AcDb2dVertex
 10
0.2125075387598486
 20
0.1889124289362777
 30
0.0
  0
VERTEX
  5
D6A
330
CFC
100
AcDbEntity
  8
Profilo
100
AcDbVertex
100
AcDb2dVertex
 10
0.2123799848200293
 20
0.1887872591822494
 30
0.0
  0
VERTEX
  5
D6B
330
CFC
100
AcDbEntity
  8
Profilo
100
AcDbVertex
100
AcDb2dVertex
 10
0.2118990945459815
 20
0.1882753744929184
 30
0.0
  0
VERTEX
  5
D6C
330
CFC
100
AcDbEntity
  8
Profilo
100
AcDbVertex
100
AcDb2dVertex
 10
0.2114477681757422
 20
0.1877475455611099
 30
0.0
  0
VERTEX
  5
D6D
330
CFC
100
AcDbEntity
  8
Profilo
100
AcDbVertex
100
AcDb2dVertex
 10
0.211027197802207
 20
0.1871953681319107
 30
0.0
  0
VERTEX
  5
D6E
330
CFC
100
AcDbEntity
  8
Profilo
100
AcDbVertex
100
AcDb2dVertex
 10
0.2106378602625342
 20
0.1866104677527298
 30
0.0
  0
VERTEX
  5
D6F
330
CFC
100
AcDbEntity
  8
Profilo
100
AcDbVertex
100
AcDb2dVertex
 10
0.2104552316309424
 20
0.1863031462042679
 30
0.0
  0
VERTEX
  5
D70
330
CFC
100
AcDbEntity
  8
Profilo
100
AcDbVertex
100
AcDb2dVertex
 10
0.21028070923104
 20
0.1859844997732986
 30
0.0
  0
VERTEX
  5
D71
330
CFC
100
AcDbEntity
  8
Profilo
100
AcDbVertex
100
AcDb2dVertex
 10
0.2101145314814063
 20
0.1856535151808609
 30
0.0
  0
VERTEX
  5
D72
330
CFC
100
AcDbEntity
  8
Profilo
100
AcDbVertex
100
AcDb2dVertex
 10
0.209956698382041
 20
0.1853090897410263
 30
0.0
  0
VERTEX
  5
D73
330
CFC
100
AcDbEntity
  8
Profilo
100
AcDbVertex
100
AcDb2dVertex
 10
0.2096665429712744
 20
0.1845758632033218
 30
0.0
  0
VERTEX
  5
D74
330
CFC
100
AcDbEntity
  8
Profilo
100
AcDbVertex
100
AcDb2dVertex
 10
0.2094111966730566
 20
0.1837764457075943
 30
0.0
  0
VERTEX
  5
D75
330
CFC
100
AcDbEntity
  8
Profilo
100
AcDbVertex
100
AcDb2dVertex
 10
0.2091916131617041
 20
0.1829024628012527
 30
0.0
  0
VERTEX
  5
D76
330
CFC
100
AcDbEntity
  8
Profilo
100
AcDbVertex
100
AcDb2dVertex
 10
0.209008269274375
 20
0.1819455698340286
 30
0.0
  0
VERTEX
  5
D77
330
CFC
100
AcDbEntity
  8
Profilo
100
AcDbVertex
100
AcDb2dVertex
 10
0.2088623571039649
 20
0.1808973625510086
 30
0.0
  0
VERTEX
  5
D78
330
CFC
100
AcDbEntity
  8
Profilo
100
AcDbVertex
100
AcDb2dVertex
 10
0.2087545919062109
 20
0.1797494664996017
 30
0.0
  0
VERTEX
  5
D79
330
CFC
100
AcDbEntity
  8
Profilo
100
AcDbVertex
100
AcDb2dVertex
 10
0.2086570787073584
 20
0.1771212294905533
 30
0.0
  0
SEQEND
  5
D7A
330
CFC
100
AcDbEntity
  8
Profilo
  0
POLYLINE
  5
DFA
330
2
100
AcDbEntity
  8
Profilo
100
AcDb2dPolyline
 66
     1
 10
0.0
 20
0.0
 30
0.0
 70
     1
  0
VERTEX
  5
DFB
330
DFA
100
AcDbEntity
  8
Profilo
100
AcDbVertex
100
AcDb2dVertex
 10
0.2214757408410723
 20
0.1142554026875049
 30
0.0
  0
VERTEX
  5
DFC
330
DFA
100
AcDbEntity
  8
Profilo
100
AcDbVertex
100
AcDb2dVertex
 10
0.2242800201684649
 20
0.1142554026875049
 30
0.0
  0
VERTEX
  5
DFD
330
DFA
100
AcDbEntity
  8
Profilo
100
AcDbVertex
100
AcDb2dVertex
 10
0.2244607414514239
 20
0.1178675037655383
 30
0.0
  0
VERTEX
  5
DFE
330
DFA
100
AcDbEntity
  8
Profilo
100
AcDbVertex
100
AcDb2dVertex
 10
0.2246624435693438
 20
0.1196197909149677
 30
0.0
  0
VERTEX
  5
DFF
330
DFA
100
AcDbEntity
  8
Profilo
100
AcDbVertex
100
AcDb2dVertex
 10
0.2248105015069659
 20
0.1204730910095721
 30
0.0
  0
VERTEX
  5
E00
330
DFA
100
AcDbEntity
  8
Profilo
100
AcDbVertex
100
AcDb2dVertex
 10
0.2249976600915606
 20
0.1213075560364276
 30
0.0
  0
VERTEX
  5
E01
330
DFA
100
AcDbEntity
  8
Profilo
100
AcDbVertex
100
AcDb2dVertex
 10
0.2252294029504473
 20
0.1221205335888416
 30
0.0
  0
VERTEX
  5
E02
330
DFA
100
AcDbEntity
  8
Profilo
100
AcDbVertex
100
AcDb2dVertex
 10
0.2253636326104815
 20
0.1225181263718158
 30
0.0
  0
VERTEX
  5
E03
330
DFA
100
AcDbEntity
  8
Profilo
100
AcDbVertex
100
AcDb2dVertex
 10
0.2255112137109454
 20
0.1229093414577991
 30
0.0
  0
VERTEX
  5
E04
330
DFA
100
AcDbEntity
  8
Profilo
100
AcDbVertex
100
AcDb2dVertex
 10
0.2256726230889972
 20
0.1232938212189227
 30
0.0
  0
VERTEX
  5
E05
330
DFA
100
AcDbEntity
  8
Profilo
100
AcDbVertex
100
AcDb2dVertex
 10
0.2258485760003741
 20
0.1236712378296405
 30
0.0
  0
VERTEX
  5
E06
330
DFA
100
AcDbEntity
  8
Profilo
100
AcDbVertex
100
AcDb2dVertex
 10
0.2260400261193927
 20
0.1240412932667285
 30
0.0
  0
VERTEX
  5
E07
330
DFA
100
AcDbEntity
  8
Profilo
100
AcDbVertex
100
AcDb2dVertex
 10
0.226247450283211
 20
0.1244036000999957
 30
0.0
  0
VERTEX
  5
E08
330
DFA
100
AcDbEntity
  8
Profilo
100
AcDbVertex
100
AcDb2dVertex
 10
0.2264713253289874
 20
0.1247578305038959
 30
0.0
  0
VERTEX
  5
E09
330
DFA
100
AcDbEntity
  8
Profilo
100
AcDbVertex
100
AcDb2dVertex
 10
0.2267128433496173
 20
0.1251036864552051
 30
0.0
  0
VERTEX
  5
E0A
330
DFA
100
AcDbEntity
  8
Profilo
100
AcDbVertex
100
AcDb2dVertex
 10
0.2269724811822589
 20
0.1254408103260547
 30
0.0
  0
VERTEX
  5
E0B
330
DFA
100
AcDbEntity
  8
Profilo
100
AcDbVertex
100
AcDb2dVertex
 10
0.2272507156640704
 20
0.1257688444885761
 30
0.0
  0
VERTEX
  5
E0C
330
DFA
100
AcDbEntity
  8
Profilo
100
AcDbVertex
100
AcDb2dVertex
 10
0.2275485004693682
 20
0.1260874611172229
 30
0.0
  0
VERTEX
  5
E0D
330
DFA
100
AcDbEntity
  8
Profilo
100
AcDbVertex
100
AcDb2dVertex
 10
0.2278665508538897
 20
0.1263963621887714
 30
0.0
  0
VERTEX
  5
E0E
330
DFA
100
AcDbEntity
  8
Profilo
100
AcDbVertex
100
AcDb2dVertex
 10
0.2282053436547931
 20
0.1266951602730304
 30
0.0
  0
VERTEX
  5
E0F
330
DFA
100
AcDbEntity
  8
Profilo
100
AcDbVertex
100
AcDb2dVertex
 10
0.2285658325463946
 20
0.1269835573467761
 30
0.0
  0
VERTEX
  5
E10
330
DFA
100
AcDbEntity
  8
Profilo
100
AcDbVertex
100
AcDb2dVertex
 10
0.2289475406915362
 20
0.1272554737362415
 30
0.0
  0
VERTEX
  5
E11
330
DFA
100
AcDbEntity
  8
Profilo
100
AcDbVertex
100
AcDb2dVertex
 10
0.229348560741585
 20
0.1275061410698444
 30
0.0
  0
VERTEX
  5
E12
330
DFA
100
AcDbEntity
  8
Profilo
100
AcDbVertex
100
AcDb2dVertex
 10
0.2297674621850665
 20
0.1277373176846057
 30
0.0
  0
VERTEX
  5
E13
330
DFA
100
AcDbEntity
  8
Profilo
100
AcDbVertex
100
AcDb2dVertex
 10
0.2302028145105059
 20
0.1279506725105792
 30
0.0
  0
VERTEX
  5
E14
330
DFA
100
AcDbEntity
  8
Profilo
100
AcDbVertex
100
AcDb2dVertex
 10
0.2306529487878497
 20
0.128147904280141
 30
0.0
  0
VERTEX
  5
E15
330
DFA
100
AcDbEntity
  8
Profilo
100
AcDbVertex
100
AcDb2dVertex
 10
0.231116196087044
 20
0.1283307117256671
 30
0.0
  0
VERTEX
  5
E16
330
DFA
100
AcDbEntity
  8
Profilo
100
AcDbVertex
100
AcDb2dVertex
 10
0.2320770229608233
 20
0.1286598187717944
 30
0.0
  0
VERTEX
  5
E17
330
DFA
100
AcDbEntity
  8
Profilo
100
AcDbVertex
100
AcDb2dVertex
 10
0.2361477817804034
 20
0.1297380369934589
 30
0.0
  0
VERTEX
  5
E18
330
DFA
100
AcDbEntity
  8
Profilo
100
AcDbVertex
100
AcDb2dVertex
 10
0.2371615375787432
 20
0.1300158840450793
 30
0.0
  0
VERTEX
  5
E19
330
DFA
100
AcDbEntity
  8
Profilo
100
AcDbVertex
100
AcDb2dVertex
 10
0.2381495441705401
 20
0.1303241592678577
 30
0.0
  0
VERTEX
  5
E1A
330
DFA
100
AcDbEntity
  8
Profilo
100
AcDbVertex
100
AcDb2dVertex
 10
0.2390994037896807
 20
0.1306764525208026
 30
0.0
  0
VERTEX
  5
E1B
330
DFA
100
AcDbEntity
  8
Profilo
100
AcDbVertex
100
AcDb2dVertex
 10
0.2395562137872393
 20
0.1308733266624957
 30
0.0
  0
VERTEX
  5
E1C
330
DFA
100
AcDbEntity
  8
Profilo
100
AcDbVertex
100
AcDb2dVertex
 10
0.2399989570886309
 20
0.1310862940582782
 30
0.0
  0
VERTEX
  5
E1D
330
DFA
100
AcDbEntity
  8
Profilo
100
AcDbVertex
100
AcDb2dVertex
 10
0.2404262031823809
 20
0.1313170534405261
 30
0.0
  0
VERTEX
  5
E1E
330
DFA
100
AcDbEntity
  8
Profilo
100
AcDbVertex
100
AcDb2dVertex
 10
0.2408362831384356
 20
0.1315672737392932
 30
0.0
  0
VERTEX
  5
E1F
330
DFA
100
AcDbEntity
  8
Profilo
100
AcDbVertex
100
AcDb2dVertex
 10
0.2412277664453204
 20
0.1318386536869556
 30
0.0
  0
VERTEX
  5
E20
330
DFA
100
AcDbEntity
  8
Profilo
100
AcDbVertex
100
AcDb2dVertex
 10
0.2415989841729815
 20
0.1321329218182117
 30
0.0
  0
VERTEX
  5
E21
330
DFA
100
AcDbEntity
  8
Profilo
100
AcDbVertex
100
AcDb2dVertex
 10
0.2417766060144122
 20
0.132289145592168
 30
0.0
  0
VERTEX
  5
E22
330
DFA
100
AcDbEntity
  8
Profilo
100
AcDbVertex
100
AcDb2dVertex
 10
0.2419487442285235
 20
0.1324517470631152
 30
0.0
  0
VERTEX
  5
E23
330
DFA
100
AcDbEntity
  8
Profilo
100
AcDbVertex
100
AcDb2dVertex
 10
0.2421149219781573
 20
0.1326209050449878
 30
0.0
  0
VERTEX
  5
E24
330
DFA
100
AcDbEntity
  8
Profilo
100
AcDbVertex
100
AcDb2dVertex
 10
0.2422751392633136
 20
0.1327968281540424
 30
0.0
  0
VERTEX
  5
E25
330
DFA
100
AcDbEntity
  8
Profilo
100
AcDbVertex
100
AcDb2dVertex
 10
0.2424291576654132
 20
0.132979754808858
 30
0.0
  0
VERTEX
  5
E26
330
DFA
100
AcDbEntity
  8
Profilo
100
AcDbVertex
100
AcDb2dVertex
 10
0.242576738765877
 20
0.1331698638233691
 30
0.0
  0
VERTEX
  5
E27
330
DFA
100
AcDbEntity
  8
Profilo
100
AcDbVertex
100
AcDb2dVertex
 10
0.2427178825647052
 20
0.1333673936161548
 30
0.0
  0
VERTEX
  5
E28
330
DFA
100
AcDbEntity
  8
Profilo
100
AcDbVertex
100
AcDb2dVertex
 10
0.2428521122247393
 20
0.1335725528034717
 30
0.0
  0
VERTEX
  5
E29
330
DFA
100
AcDbEntity
  8
Profilo
100
AcDbVertex
100
AcDb2dVertex
 10
0.2433432544976886
 20
0.1343933385643512
 30
0.0
  0
VERTEX
  5
E2A
330
DFA
100
AcDbEntity
  8
Profilo
100
AcDbVertex
100
AcDb2dVertex
 10
0.243773838451546
 20
0.1351820570263416
 30
0.0
  0
VERTEX
  5
E2B
330
DFA
100
AcDbEntity
  8
Profilo
100
AcDbVertex
100
AcDb2dVertex
 10
0.2444807495385821
 20
0.1366548281940967
 30
0.0
  0
VERTEX
  5
E2C
330
DFA
100
AcDbEntity
  8
Profilo
100
AcDbVertex
100
AcDb2dVertex
 10
0.2454661335260089
 20
0.1391236823830158
 30
0.0
  0
VERTEX
  5
E2D
330
DFA
100
AcDbEntity
  8
Profilo
100
AcDbVertex
100
AcDb2dVertex
 10
0.2458530868798907
 20
0.1400864166054279
 30
0.0
  0
VERTEX
  5
E2E
330
DFA
100
AcDbEntity
  8
Profilo
100
AcDbVertex
100
AcDb2dVertex
 10
0.2460435833245929
 20
0.1404925626549274
 30
0.0
  0
VERTEX
  5
E2F
330
DFA
100
AcDbEntity
  8
Profilo
100
AcDbVertex
100
AcDb2dVertex
 10
0.2461410965234454
 20
0.1406759363445789
 30
0.0
  0
VERTEX
  5
E30
330
DFA
100
AcDbEntity
  8
Profilo
100
AcDbVertex
100
AcDb2dVertex
 10
0.2462414707452472
 20
0.1408458095821887
 30
0.0
  0
VERTEX
  5
E31
330
DFA
100
AcDbEntity
  8
Profilo
100
AcDbVertex
100
AcDb2dVertex
 10
0.2463449444085772
 20
0.1410019439491779
 30
0.0
  0
VERTEX
  5
E32
330
DFA
100
AcDbEntity
  8
Profilo
100
AcDbVertex
100
AcDb2dVertex
 10
0.2464529480249102
 20
0.1411440712246448
 30
0.0
  0
VERTEX
  5
E33
330
DFA
100
AcDbEntity
  8
Profilo
100
AcDbVertex
100
AcDb2dVertex
 10
0.24650873797242
 20
0.1412097853455096
 30
0.0
  0
VERTEX
  5
E34
330
DFA
100
AcDbEntity
  8
Profilo
100
AcDbVertex
100
AcDb2dVertex
 10
0.2465659584314044
 20
0.141271923187688
 30
0.0
  0
VERTEX
  5
E35
330
DFA
100
AcDbEntity
  8
Profilo
100
AcDbVertex
100
AcDb2dVertex
 10
0.2466248478204425
 20
0.1413303953442127
 30
0.0
  0
VERTEX
  5
E36
330
DFA
100
AcDbEntity
  8
Profilo
100
AcDbVertex
100
AcDb2dVertex
 10
0.2466851677209552
 20
0.141385231617406
 30
0.0
  0
VERTEX
  5
E37
330
DFA
100
AcDbEntity
  8
Profilo
100
AcDbVertex
100
AcDb2dVertex
 10
0.2467471565515216
 20
0.1414363724026233
 30
0.0
  0
VERTEX
  5
E38
330
DFA
100
AcDbEntity
  8
Profilo
100
AcDbVertex
100
AcDb2dVertex
 10
0.2468110527307208
 20
0.1414837580952197
 30
0.0
  0
VERTEX
  5
E39
330
DFA
100
AcDbEntity
  8
Profilo
100
AcDbVertex
100
AcDb2dVertex
 10
0.2468768562585528
 20
0.1415274184975177
 30
0.0
  0
VERTEX
  5
E3A
330
DFA
100
AcDbEntity
  8
Profilo
100
AcDbVertex
100
AcDb2dVertex
 10
0.2469448055535968
 20
0.1415672642025501
 30
0.0
  0
VERTEX
  5
E3B
330
DFA
100
AcDbEntity
  8
Profilo
100
AcDbVertex
100
AcDb2dVertex
 10
0.2470146621972735
 20
0.1416032654079944
 30
0.0
  0
VERTEX
  5
E3C
330
DFA
100
AcDbEntity
  8
Profilo
100
AcDbVertex
100
AcDb2dVertex
 10
0.2470869030267413
 20
0.1416354221138507
 30
0.0
  0
VERTEX
  5
E3D
330
DFA
100
AcDbEntity
  8
Profilo
100
AcDbVertex
100
AcDb2dVertex
 10
0.2471615280420001
 20
0.1416636747154742
 30
0.0
  0
VERTEX
  5
E3E
330
DFA
100
AcDbEntity
  8
Profilo
100
AcDbVertex
100
AcDb2dVertex
 10
0.2472385372430499
 20
0.141688023212865
 30
0.0
  0
VERTEX
  5
E3F
330
DFA
100
AcDbEntity
  8
Profilo
100
AcDbVertex
100
AcDb2dVertex
 10
0.2478434051782306
 20
0.1418419224056751
 30
0.0
  0
VERTEX
  5
E40
330
DFA
100
AcDbEntity
  8
Profilo
100
AcDbVertex
100
AcDb2dVertex
 10
0.2484089340478595
 20
0.1419501942429095
 30
0.0
  0
VERTEX
  5
E41
330
DFA
100
AcDbEntity
  8
Profilo
100
AcDbVertex
100
AcDb2dVertex
 10
0.2489410843164141
 20
0.1420193058285266
 30
0.0
  0
VERTEX
  5
E42
330
DFA
100
AcDbEntity
  8
Profilo
100
AcDbVertex
100
AcDb2dVertex
 10
0.2494451011926348
 20
0.1420557838711292
 30
0.0
  0
VERTEX
  5
E43
330
DFA
100
AcDbEntity
  8
Profilo
100
AcDbVertex
100
AcDb2dVertex
 10
0.2499269451409991
 20
0.1420662146839648
 30
0.0
  0
VERTEX
  5
E44
330
DFA
100
AcDbEntity
  8
Profilo
100
AcDbVertex
100
AcDb2dVertex
 10
0.2503918613702472
 20
0.1420570355686694
 30
0.0
  0
VERTEX
  5
E45
330
DFA
100
AcDbEntity
  8
Profilo
100
AcDbVertex
100
AcDb2dVertex
 10
0.2512937988549884
 20
0.1420061033997089
 30
0.0
  0
VERTEX
  5
E46
330
DFA
100
AcDbEntity
  8
Profilo
100
AcDbVertex
100
AcDb2dVertex
 10
0.2512937988549884
 20
0.1443120282921344
 30
0.0
  0
VERTEX
  5
E47
330
DFA
100
AcDbEntity
  8
Profilo
100
AcDbVertex
100
AcDb2dVertex
 10
0.2437399830133136
 20
0.1443120282921344
 30
0.0
  0
VERTEX
  5
E48
330
DFA
100
AcDbEntity
  8
Profilo
100
AcDbVertex
100
AcDb2dVertex
 10
0.2424692119867022
 20
0.1409570318493396
 30
0.0
  0
VERTEX
  5
E49
330
DFA
100
AcDbEntity
  8
Profilo
100
AcDbVertex
100
AcDb2dVertex
 10
0.2418109382898028
 20
0.139370535019353
 30
0.0
  0
VERTEX
  5
E4A
330
DFA
100
AcDbEntity
  8
Profilo
100
AcDbVertex
100
AcDb2dVertex
 10
0.2411247696191485
 20
0.1378932935032397
 30
0.0
  0
VERTEX
  5
E4B
330
DFA
100
AcDbEntity
  8
Profilo
100
AcDbVertex
100
AcDb2dVertex
 10
0.2407685722619708
 20
0.1372070056232959
 30
0.0
  0
VERTEX
  5
E4C
330
DFA
100
AcDbEntity
  8
Profilo
100
AcDbVertex
100
AcDb2dVertex
 10
0.2404018844873126
 20
0.1365616661343127
 30
0.0
  0
VERTEX
  5
E4D
330
DFA
100
AcDbEntity
  8
Profilo
100
AcDbVertex
100
AcDb2dVertex
 10
0.2400235142022784
 20
0.1359618347916156
 30
0.0
  0
VERTEX
  5
E4E
330
DFA
100
AcDbEntity
  8
Profilo
100
AcDbVertex
100
AcDb2dVertex
 10
0.2396327461511309
 20
0.1354120713505298
 30
0.0
  0
VERTEX
  5
E4F
330
DFA
100
AcDbEntity
  8
Profilo
100
AcDbVertex
100
AcDb2dVertex
 10
0.2394322361261065
 20
0.1351573807034045
 30
0.0
  0
VERTEX
  5
E50
330
DFA
100
AcDbEntity
  8
Profilo
100
AcDbVertex
100
AcDb2dVertex
 10
0.2392279114038165
 20
0.1349169355663806
 30
0.0
  0
VERTEX
  5
E51
330
DFA
100
AcDbEntity
  8
Profilo
100
AcDbVertex
100
AcDb2dVertex
 10
0.2390200104028399
 20
0.1346912425789386
 30
0.0
  0
VERTEX
  5
E52
330
DFA
100
AcDbEntity
  8
Profilo
100
AcDbVertex
100
AcDb2dVertex
 10
0.2388082947045977
 20
0.1344809275898486
 30
0.0
  0
VERTEX
  5
E53
330
DFA
100
AcDbEntity
  8
Profilo
100
AcDbVertex
100
AcDb2dVertex
 10
0.2385925258905108
 20
0.1342865568432361
 30
0.0
  0
VERTEX
  5
E54
330
DFA
100
AcDbEntity
  8
Profilo
100
AcDbVertex
100
AcDb2dVertex
 10
0.2383724655420001
 20
0.1341086667809039
 30
0.0
  0
VERTEX
  5
E55
330
DFA
100
AcDbEntity
  8
Profilo
100
AcDbVertex
100
AcDb2dVertex
 10
0.2381481136590655
 20
0.1339478534492999
 30
0.0
  0
VERTEX
  5
E56
330
DFA
100
AcDbEntity
  8
Profilo
100
AcDbVertex
100
AcDb2dVertex
 10
0.237919231823128
 20
0.1338046532902271
 30
0.0
  0
VERTEX
  5
E57
330
DFA
100
AcDbEntity
  8
Profilo
100
AcDbVertex
100
AcDb2dVertex
 10
0.2376731838494952
 20
0.1336727482113391
 30
0.0
  0
VERTEX
  5
E58
330
DFA
100
AcDbEntity
  8
Profilo
100
AcDbVertex
100
AcDb2dVertex
 10
0.2373985256463702
 20
0.1335450750622302
 30
0.0
  0
VERTEX
  5
E59
330
DFA
100
AcDbEntity
  8
Profilo
100
AcDbVertex
100
AcDb2dVertex
 10
0.2370969261438067
 20
0.133421067598775
 30
0.0
  0
VERTEX
  5
E5A
330
DFA
100
AcDbEntity
  8
Profilo
100
AcDbVertex
100
AcDb2dVertex
 10
0.2367705311090167
 20
0.1333002191814929
 30
0.0
  0
VERTEX
  5
E5B
330
DFA
100
AcDbEntity
  8
Profilo
100
AcDbVertex
100
AcDb2dVertex
 10
0.2360502685815509
 20
0.1330658537182361
 30
0.0
  0
VERTEX
  5
E5C
330
DFA
100
AcDbEntity
  8
Profilo
100
AcDbVertex
100
AcDb2dVertex
 10
0.2352529968530352
 20
0.1328377467426807
 30
0.0
  0
VERTEX
  5
E5D
330
DFA
100
AcDbEntity
  8
Profilo
100
AcDbVertex
100
AcDb2dVertex
 10
0.2315927948266681
 20
0.1319033843311816
 30
0.0
  0
VERTEX
  5
E5E
330
DFA
100
AcDbEntity
  8
Profilo
100
AcDbVertex
100
AcDb2dVertex
 10
0.2296902145654376
 20
0.1313637536797076
 30
0.0
  0
VERTEX
  5
E5F
330
DFA
100
AcDbEntity
  8
Profilo
100
AcDbVertex
100
AcDb2dVertex
 10
0.228773256710213
 20
0.131060991886571
 30
0.0
  0
VERTEX
  5
E60
330
DFA
100
AcDbEntity
  8
Profilo
100
AcDbVertex
100
AcDb2dVertex
 10
0.2278992141992266
 20
0.1307306629452258
 30
0.0
  0
VERTEX
  5
E61
330
DFA
100
AcDbEntity
  8
Profilo
100
AcDbVertex
100
AcDb2dVertex
 10
0.2270833458215411
 20
0.1303685051235706
 30
0.0
  0
VERTEX
  5
E62
330
DFA
100
AcDbEntity
  8
Profilo
100
AcDbVertex
100
AcDb2dVertex
 10
0.2267016376763995
 20
0.1301741939816028
 30
0.0
  0
VERTEX
  5
E63
330
DFA
100
AcDbEntity
  8
Profilo
100
AcDbVertex
100
AcDb2dVertex
 10
0.2263401951104815
 20
0.1299703162941486
 30
0.0
  0
VERTEX
  5
E64
330
DFA
100
AcDbEntity
  8
Profilo
100
AcDbVertex
100
AcDb2dVertex
 10
0.22600092547242
 20
0.1297563654217273
 30
0.0
  0
VERTEX
  5
E65
330
DFA
100
AcDbEntity
  8
Profilo
100
AcDbVertex
100
AcDb2dVertex
 10
0.2256852592736895
 20
0.129531804922536
 30
0.0
  0
VERTEX
  5
E66
330
DFA
100
AcDbEntity
  8
Profilo
100
AcDbVertex
100
AcDb2dVertex
 10
0.2253955807000811
 20
0.1292961281570941
 30
0.0
  0
VERTEX
  5
E67
330
DFA
100
AcDbEntity
  8
Profilo
100
AcDbVertex
100
AcDb2dVertex
 10
0.2252608742028888
 20
0.129173968437627
 30
0.0
  0
VERTEX
  5
E68
330
DFA
100
AcDbEntity
  8
Profilo
100
AcDbVertex
100
AcDb2dVertex
 10
0.2251333202630694
 20
0.1290487986835986
 30
0.0
  0
VERTEX
  5
E69
330
DFA
100
AcDbEntity
  8
Profilo
100
AcDbVertex
100
AcDb2dVertex
 10
0.2246524299890216
 20
0.1285369139942676
 30
0.0
  0
VERTEX
  5
E6A
330
DFA
100
AcDbEntity
  8
Profilo
100
AcDbVertex
100
AcDb2dVertex
 10
0.2242011036187823
 20
0.1280090850624591
 30
0.0
  0
VERTEX
  5
E6B
330
DFA
100
AcDbEntity
  8
Profilo
100
AcDbVertex
100
AcDb2dVertex
 10
0.2237805332452472
 20
0.1274569076332599
 30
0.0
  0
VERTEX
  5
E6C
330
DFA
100
AcDbEntity
  8
Profilo
100
AcDbVertex
100
AcDb2dVertex
 10
0.2233911957055743
 20
0.126872007254079
 30
0.0
  0
VERTEX
  5
E6D
330
DFA
100
AcDbEntity
  8
Profilo
100
AcDbVertex
100
AcDb2dVertex
 10
0.2232085670739825
 20
0.1265646857056171
 30
0.0
  0
VERTEX
  5
E6E
330
DFA
100
AcDbEntity
  8
Profilo
100
AcDbVertex
100
AcDb2dVertex
 10
0.2230340446740802
 20
0.1262460392746478
 30
0.0
  0
VERTEX
  5
E6F
330
DFA
100
AcDbEntity
  8
Profilo
100
AcDbVertex
100
AcDb2dVertex
 10
0.2228678669244464
 20
0.1259150546822101
 30
0.0
  0
VERTEX
  5
E70
330
DFA
100
AcDbEntity
  8
Profilo
100
AcDbVertex
100
AcDb2dVertex
 10
0.2227100338250811
 20
0.1255706292423755
 30
0.0
  0
VERTEX
  5
E71
330
DFA
100
AcDbEntity
  8
Profilo
100
AcDbVertex
100
AcDb2dVertex
 10
0.2224198784143145
 20
0.124837402704671
 30
0.0
  0
VERTEX
  5
E72
330
DFA
100
AcDbEntity
  8
Profilo
100
AcDbVertex
100
AcDb2dVertex
 10
0.2221645321160968
 20
0.1240379852089435
 30
0.0
  0
VERTEX
  5
E73
330
DFA
100
AcDbEntity
  8
Profilo
100
AcDbVertex
100
AcDb2dVertex
 10
0.2219449486047442
 20
0.1231640023026019
 30
0.0
  0
VERTEX
  5
E74
330
DFA
100
AcDbEntity
  8
Profilo
100
AcDbVertex
100
AcDb2dVertex
 10
0.2217616047174151
 20
0.1222071093353778
 30
0.0
  0
VERTEX
  5
E75
330
DFA
100
AcDbEntity
  8
Profilo
100
AcDbVertex
100
AcDb2dVertex
 10
0.221615692547005
 20
0.1211589020523578
 30
0.0
  0
VERTEX
  5
E76
330
DFA
100
AcDbEntity
  8
Profilo
100
AcDbVertex
100
AcDb2dVertex
 10
0.2215079273492511
 20
0.1200110060009509
 30
0.0
  0
VERTEX
  5
E77
330
DFA
100
AcDbEntity
  8
Profilo
100
AcDbVertex
100
AcDb2dVertex
 10
0.2214104141503985
 20
0.1173827689919025
 30
0.0
  0
SEQEND
  5
E78
330
DFA
100
AcDbEntity
  8
Profilo
  0
LINE
  5
E80
330
2
100
AcDbEntity
  8
Dimensione
 62
     2
100
AcDbLine
 10
0.2512937988549884
 20
0.1420061033997089
 30
0.0
 11
0.259306259082678
 21
0.1420061033997089
 31
0.0
  0
LINE
  5
E82
330
2
100
AcDbEntity
  8
Dimensione
 62
     2
100
AcDbLine
 10
0.2662150548904951
 20
0.1420061033997089
 30
0.0
 11
0.3393834944342831
 21
0.1420061033997089
 31
0.0
  0
LINE
  5
E83
330
2
100
AcDbEntity
  8
Dimensione
 62
     2
100
AcDbLine
 10
0.2385404634119483
 20
0.2040504887907852
 30
0.0
 11
0.3509929692066568
 21
0.2344334671920931
 31
0.0
  0
LINE
  5
E84
330
2
100
AcDbEntity
  8
Dimensione
 62
     2
100
AcDbLine
 10
0.2385404634119483
 20
0.2017445638983597
 30
0.0
 11
0.3509929692066568
 21
0.2321275422996676
 31
0.0
  0
LINE
  5
E85
330
2
100
AcDbEntity
  8
Dimensione
 62
     3
100
AcDbLine
 10
0.2115266847254248
 20
0.1739938631861557
 30
0.0
 11
0.3239791905201334
 21
0.2043768415874636
 31
0.0
  0
POLYLINE
  5
F5E
330
2
100
AcDbEntity
  8
Profilo
100
AcDb2dPolyline
 66
     1
 10
0.0
 20
0.0
 30
0.0
  0
VERTEX
  5
F5F
330
F5E
100
AcDbEntity
  8
Profilo
100
AcDbVertex
100
AcDb2dVertex
 10
0.3239791905201334
 20
0.2043768415874636
 30
0.0
  0
VERTEX
  5
F60
330
F5E
100
AcDbEntity
  8
Profilo
100
AcDbVertex
100
AcDb2dVertex
 10
0.3241599118030924
 20
0.2079889426654971
 30
0.0
  0
VERTEX
  5
F61
330
F5E
100
AcDbEntity
  8
Profilo
100
AcDbVertex
100
AcDb2dVertex
 10
0.3243616139210123
 20
0.2097412298149264
 30
0.0
  0
VERTEX
  5
F62
330
F5E
100
AcDbEntity
  8
Profilo
100
AcDbVertex
100
AcDb2dVertex
 10
0.3245096718586343
 20
0.2105945299095309
 30
0.0
  0
VERTEX
  5
F63
330
F5E
100
AcDbEntity
  8
Profilo
100
AcDbVertex
100
AcDb2dVertex
 10
0.3246968304432291
 20
0.2114289949363863
 30
0.0
  0
VERTEX
  5
F64
330
F5E
100
AcDbEntity
  8
Profilo
100
AcDbVertex
100
AcDb2dVertex
 10
0.3249285733021158
 20
0.2122419724888003
 30
0.0
  0
VERTEX
  5
F65
330
F5E
100
AcDbEntity
  8
Profilo
100
AcDbVertex
100
AcDb2dVertex
 10
0.32506280296215
 20
0.2126395652717745
 30
0.0
  0
VERTEX
  5
F66
330
F5E
100
AcDbEntity
  8
Profilo
100
AcDbVertex
100
AcDb2dVertex
 10
0.3252103840626138
 20
0.2130307803577578
 30
0.0
  0
VERTEX
  5
F67
330
F5E
100
AcDbEntity
  8
Profilo
100
AcDbVertex
100
AcDb2dVertex
 10
0.3253717934406656
 20
0.2134152601188815
 30
0.0
  0
VERTEX
  5
F68
330
F5E
100
AcDbEntity
  8
Profilo
100
AcDbVertex
100
AcDb2dVertex
 10
0.3255477463520425
 20
0.2137926767295992
 30
0.0
  0
VERTEX
  5
F69
330
F5E
100
AcDbEntity
  8
Profilo
100
AcDbVertex
100
AcDb2dVertex
 10
0.3257391964710611
 20
0.2141627321666872
 30
0.0
  0
VERTEX
  5
F6A
330
F5E
100
AcDbEntity
  8
Profilo
100
AcDbVertex
100
AcDb2dVertex
 10
0.3259466206348795
 20
0.2145250389999544
 30
0.0
  0
VERTEX
  5
F6B
330
F5E
100
AcDbEntity
  8
Profilo
100
AcDbVertex
100
AcDb2dVertex
 10
0.3261704956806558
 20
0.2148792694038546
 30
0.0
  0
VERTEX
  5
F6C
330
F5E
100
AcDbEntity
  8
Profilo
100
AcDbVertex
100
AcDb2dVertex
 10
0.3264120137012857
 20
0.2152251253551638
 30
0.0
  0
VERTEX
  5
F6D
330
F5E
100
AcDbEntity
  8
Profilo
100
AcDbVertex
100
AcDb2dVertex
 10
0.3266716515339273
 20
0.2155622492260134
 30
0.0
  0
VERTEX
  5
F6E
330
F5E
100
AcDbEntity
  8
Profilo
100
AcDbVertex
100
AcDb2dVertex
 10
0.3269498860157388
 20
0.2158902833885348
 30
0.0
  0
VERTEX
  5
F6F
330
F5E
100
AcDbEntity
  8
Profilo
100
AcDbVertex
100
AcDb2dVertex
 10
0.3272476708210367
 20
0.2162089000171816
 30
0.0
  0
VERTEX
  5
F70
330
F5E
100
AcDbEntity
  8
Profilo
100
AcDbVertex
100
AcDb2dVertex
 10
0.3275657212055582
 20
0.2165178010887301
 30
0.0
  0
VERTEX
  5
F71
330
F5E
100
AcDbEntity
  8
Profilo
100
AcDbVertex
100
AcDb2dVertex
 10
0.3279045140064615
 20
0.2168165991729891
 30
0.0
  0
VERTEX
  5
F72
330
F5E
100
AcDbEntity
  8
Profilo
100
AcDbVertex
100
AcDb2dVertex
 10
0.3282650028980631
 20
0.2171049962467348
 30
0.0
  0
VERTEX
  5
F73
330
F5E
100
AcDbEntity
  8
Profilo
100
AcDbVertex
100
AcDb2dVertex
 10
0.3286467110432047
 20
0.2173769126362002
 30
0.0
  0
VERTEX
  5
F74
330
F5E
100
AcDbEntity
  8
Profilo
100
AcDbVertex
100
AcDb2dVertex
 10
0.3290477310932535
 20
0.2176275799698031
 30
0.0
  0
VERTEX
  5
F75
330
F5E
100
AcDbEntity
  8
Profilo
100
AcDbVertex
100
AcDb2dVertex
 10
0.3294666325367349
 20
0.2178587565845644
 30
0.0
  0
VERTEX
  5
F76
330
F5E
100
AcDbEntity
  8
Profilo
100
AcDbVertex
100
AcDb2dVertex
 10
0.3299019848621744
 20
0.2180721114105379
 30
0.0
  0
VERTEX
  5
F77
330
F5E
100
AcDbEntity
  8
Profilo
100
AcDbVertex
100
AcDb2dVertex
 10
0.3303521191395181
 20
0.2182693431800997
 30
0.0
  0
VERTEX
  5
F78
330
F5E
100
AcDbEntity
  8
Profilo
100
AcDbVertex
100
AcDb2dVertex
 10
0.3308153664387125
 20
0.2184521506256258
 30
0.0
  0
VERTEX
  5
F79
330
F5E
100
AcDbEntity
  8
Profilo
100
AcDbVertex
100
AcDb2dVertex
 10
0.3317761933124918
 20
0.2187812576717532
 30
0.0
  0
VERTEX
  5
F7A
330
F5E
100
AcDbEntity
  8
Profilo
100
AcDbVertex
100
AcDb2dVertex
 10
0.3358469521320718
 20
0.2198594758934176
 30
0.0
  0
VERTEX
  5
F7B
330
F5E
100
AcDbEntity
  8
Profilo
100
AcDbVertex
100
AcDb2dVertex
 10
0.3368607079304117
 20
0.2201373229450381
 30
0.0
  0
VERTEX
  5
F7C
330
F5E
100
AcDbEntity
  8
Profilo
100
AcDbVertex
100
AcDb2dVertex
 10
0.3378487145222086
 20
0.2204455981678164
 30
0.0
  0
VERTEX
  5
F7D
330
F5E
100
AcDbEntity
  8
Profilo
100
AcDbVertex
100
AcDb2dVertex
 10
0.3387985741413492
 20
0.2207978914207613
 30
0.0
  0
VERTEX
  5
F7E
330
F5E
100
AcDbEntity
  8
Profilo
100
AcDbVertex
100
AcDb2dVertex
 10
0.3392553841389078
 20
0.2209947655624544
 30
0.0
  0
VERTEX
  5
F7F
330
F5E
100
AcDbEntity
  8
Profilo
100
AcDbVertex
100
AcDb2dVertex
 10
0.3396981274402994
 20
0.2212077329582369
 30
0.0
  0
VERTEX
  5
F80
330
F5E
100
AcDbEntity
  8
Profilo
100
AcDbVertex
100
AcDb2dVertex
 10
0.3401253735340494
 20
0.2214384923404848
 30
0.0
  0
VERTEX
  5
F81
330
F5E
100
AcDbEntity
  8
Profilo
100
AcDbVertex
100
AcDb2dVertex
 10
0.3405354534901041
 20
0.2216887126392519
 30
0.0
  0
VERTEX
  5
F82
330
F5E
100
AcDbEntity
  8
Profilo
100
AcDbVertex
100
AcDb2dVertex
 10
0.3409269367969888
 20
0.2219600925869143
 30
0.0
  0
VERTEX
  5
F83
330
F5E
100
AcDbEntity
  8
Profilo
100
AcDbVertex
100
AcDb2dVertex
 10
0.34129815452465
 20
0.2222543607181704
 30
0.0
  0
VERTEX
  5
F84
330
F5E
100
AcDbEntity
  8
Profilo
100
AcDbVertex
100
AcDb2dVertex
 10
0.3414757763660806
 20
0.2224105844921267
 30
0.0
  0
VERTEX
  5
F85
330
F5E
100
AcDbEntity
  8
Profilo
100
AcDbVertex
100
AcDb2dVertex
 10
0.341647914580192
 20
0.222573185963074
 30
0.0
  0
VERTEX
  5
F86
330
F5E
100
AcDbEntity
  8
Profilo
100
AcDbVertex
100
AcDb2dVertex
 10
0.3418140923298258
 20
0.2227423439449465
 30
0.0
  0
VERTEX
  5
F87
330
F5E
100
AcDbEntity
  8
Profilo
100
AcDbVertex
100
AcDb2dVertex
 10
0.341974309614982
 20
0.2229182670540011
 30
0.0
  0
VERTEX
  5
F88
330
F5E
100
AcDbEntity
  8
Profilo
100
AcDbVertex
100
AcDb2dVertex
 10
0.3421283280170816
 20
0.2231011937088168
 30
0.0
  0
VERTEX
  5
F89
330
F5E
100
AcDbEntity
  8
Profilo
100
AcDbVertex
100
AcDb2dVertex
 10
0.3422759091175455
 20
0.2232913027233279
 30
0.0
  0
VERTEX
  5
F8A
330
F5E
100
AcDbEntity
  8
Profilo
100
AcDbVertex
100
AcDb2dVertex
 10
0.3424170529163736
 20
0.2234888325161135
 30
0.0
  0
VERTEX
  5
F8B
330
F5E
100
AcDbEntity
  8
Profilo
100
AcDbVertex
100
AcDb2dVertex
 10
0.3425512825764078
 20
0.2236939917034304
 30
0.0
  0
VERTEX
  5
F8C
330
F5E
100
AcDbEntity
  8
Profilo
100
AcDbVertex
100
AcDb2dVertex
 10
0.343042424849357
 20
0.2245147774643099
 30
0.0
  0
VERTEX
  5
F8D
330
F5E
100
AcDbEntity
  8
Profilo
100
AcDbVertex
100
AcDb2dVertex
 10
0.3434730088032144
 20
0.2253034959263003
 30
0.0
  0
VERTEX
  5
F8E
330
F5E
100
AcDbEntity
  8
Profilo
100
AcDbVertex
100
AcDb2dVertex
 10
0.3441799198902506
 20
0.2267762670940554
 30
0.0
  0
VERTEX
  5
F8F
330
F5E
100
AcDbEntity
  8
Profilo
100
AcDbVertex
100
AcDb2dVertex
 10
0.3451653038776773
 20
0.2292451212829745
 30
0.0
  0
VERTEX
  5
F90
330
F5E
100
AcDbEntity
  8
Profilo
100
AcDbVertex
100
AcDb2dVertex
 10
0.3455522572315592
 20
0.2302078555053866
 30
0.0
  0
VERTEX
  5
F91
330
F5E
100
AcDbEntity
  8
Profilo
100
AcDbVertex
100
AcDb2dVertex
 10
0.3457427536762613
 20
0.2306140015548861
 30
0.0
  0
VERTEX
  5
F92
330
F5E
100
AcDbEntity
  8
Profilo
100
AcDbVertex
100
AcDb2dVertex
 10
0.3458017553474957
 20
0.2307249542697717
 30
0.0
  0
SEQEND
  5
F93
330
F5E
100
AcDbEntity
  8
Profilo
  0
POLYLINE
  5
F94
330
2
100
AcDbEntity
  8
Profilo
100
AcDb2dPolyline
 66
     1
 10
0.0
 20
0.0
 30
0.0
  0
VERTEX
  5
F95
330
F94
100
AcDbEntity
  8
Profilo
100
AcDbVertex
100
AcDb2dVertex
 10
0.3509929692066568
 20
0.2321275422996676
 30
0.0
  0
VERTEX
  5
F96
330
F94
100
AcDbEntity
  8
Profilo
100
AcDbVertex
100
AcDb2dVertex
 10
0.3509929692066568
 20
0.2344334671920931
 30
0.0
  0
VERTEX
  5
F97
330
F94
100
AcDbEntity
  8
Profilo
100
AcDbVertex
100
AcDb2dVertex
 10
0.343439153364982
 20
0.2344334671920931
 30
0.0
  0
SEQEND
  5
F98
330
F94
100
AcDbEntity
  8
Profilo
  0
VIEWPORT
  5
7B
330
79
100
AcDbEntity
 67
     1
  8
0
100
AcDbViewport
 10
145.330337524414
 20
101.8116638660431
 30
0.0
 40
351.1337450215151
 41
222.1517806396485
 68
     1
 69
     1
 12
145.330337524414
 22
101.8116638660431
 13
0.0
 23
0.0
 14
10.0
 24
10.0
 15
10.0
 25
10.0
 16
0.0
 26
0.0
 36
1.0
 17
0.0
 27
0.0
 37
0.0
 42
50.0
 43
0.0
 44
0.0
 45
222.1517806396485
 50
0.0
 51
0.0
 72
  1000
 90
    32800
  1

281
     0
 71
     1
 74
     0
110
0.0
120
0.0
130
0.0
111
1.0
121
0.0
131
0.0
112
0.0
122
1.0
132
0.0
 79
     0
146
0.0
170
     0
  0
VIEWPORT
  5
80
330
79
100
AcDbEntity
 67
     1
  8
Sezione
100
AcDbViewport
 10
145.3303314447403
 20
101.8116623163223
 30
0.0
 40
232.5285303115845
 41
162.8986597061157
 68
     2
 69
     2
 12
0.2100067158578973
 22
0.1484909068076998
 13
0.0
 23
0.0
 14
10.0
 24
10.0
 15
10.0
 25
10.0
 16
0.0
 26
0.0
 36
1.0
 17
0.0
 27
0.0
 37
0.0
 42
50.0
 43
0.0
 44
0.0
 45
0.2752830087467564
 50
0.0
 51
0.0
 72
  1000
 90
    32864
  1

281
     0
 71
     1
 74
     0
110
0.0
120
0.0
130
0.0
111
1.0
121
0.0
131
0.0
112
0.0
122
1.0
132
0.0
 79
     0
146
0.0
170
     0
  0
ENDSEC
  0
SECTION
  2
OBJECTS
  0
DICTIONARY
  5
9
330
0
100
AcDbDictionary
281
     1
  3
ACAD_2007HEADERVARS_RT
350
FCD
  3
ACAD_COLOR
350
A1
  3
ACAD_GROUP
350
9C
  3
ACAD_LAYOUT
350
78
  3
ACAD_MATERIAL
350
B
  3
ACAD_MLINESTYLE
350
9D
  3
ACAD_PLOTSETTINGS
350
9E
  3
ACAD_PLOTSTYLENAME
350
8
  3
ACAD_TABLESTYLE
350
A2
  3
ACAD_VISUALSTYLE
350
7F
  3
AcDbVariableDictionary
350
A9
  3
AEC_PROPERTY_SET_DEFS
350
10D
  0
DICTIONARY
  5
CC9
330
96
100
AcDbDictionary
280
     1
281
     1
  0
DICTIONARY
  5
8B
330
8A
100
AcDbDictionary
280
     1
281
     1
  3
ACAD_LAYERFILTERS
360
48D
  3
ACAD_LAYERSTATES
360
8D
  3
ACLYDICTIONARY
360
48C
  0
DICTIONARY
  5
3
330
2
100
AcDbDictionary
280
     1
281
     1
  3
ACAD_SORTENTS
360
A8
  0
DICTIONARY
  5
CD1
330
110
100
AcDbDictionary
280
     1
281
     1
  3
ACAD_MTEXT_RT
360
FD7
  0
DICTIONARY
  5
FCD
102
{ACAD_REACTORS
330
9
102
}
330
9
100
AcDbDictionary
281
     1
  3
DIMFXL
350
FCE
  0
DICTIONARY
  5
A1
102
{ACAD_REACTORS
330
9
102
}
330
9
100
AcDbDictionary
281
     1
  0
DICTIONARY
  5
9C
102
{ACAD_REACTORS
330
9
102
}
330
9
100
AcDbDictionary
281
     1
  0
DICTIONARY
  5
78
102
{ACAD_REACTORS
330
9
102
}
330
9
100
AcDbDictionary
281
     1
  3
Layout1
350
82
  3
Layout2
350
89
  3
Model
350
77
  0
DICTIONARY
  5
B
102
{ACAD_REACTORS
330
9
102
}
330
9
100
AcDbDictionary
281
     1
  3
ByBlock
350
A0
  3
ByLayer
350
9F
  3
Global
350
A
  0
DICTIONARY
  5
9D
102
{ACAD_REACTORS
330
9
102
}
330
9
100
AcDbDictionary
281
     1
  3
Standard
350
A3
  0
DICTIONARY
  5
9E
102
{ACAD_REACTORS
330
9
102
}
330
9
100
AcDbDictionary
281
     1
  0
ACDBDICTIONARYWDFLT
  5
8
102
{ACAD_REACTORS
330
9
102
}
330
9
100
AcDbDictionary
281
     1
  3
Normal
350
7
100
AcDbDictionaryWithDefault
340
7
  0
DICTIONARY
  5
A2
102
{ACAD_REACTORS
330
9
102
}
330
9
100
AcDbDictionary
281
     1
  3
Standard
350
A4
  0
DICTIONARY
  5
7F
102
{ACAD_REACTORS
330
9
102
}
330
9
100
AcDbDictionary
281
     1
  3
2dWireframe
350
7E
  3
3D Hidden
350
D8
  3
3dWireframe
350
A6
  3
Basic
350
D7
  3
Brighten
350
DB
  3
ColorChange
350
DF
  3
Conceptual
350
D9
  3
Dim
350
DA
  3
Facepattern
350
DE
  3
Flat
350
D3
  3
FlatWithEdges
350
D4
  3
Gouraud
350
D5
  3
GouraudWithEdges
350
D6
  3
Linepattern
350
DD
  3
Realistic
350
A5
  3
Thicken
350
DC
  0
DICTIONARY
  5
A9
102
{ACAD_REACTORS
330
9
102
}
330
9
100
AcDbDictionary
281
     1
  3
CTABLESTYLE
350
AA
  3
DIMASSOC
350
AE
  3
HIDETEXT
350
AD
  3
INDEXCTL
350
AC
  3
PROJECTNAME
350
16A
  3
SORTENTS
350
AB
  0
DICTIONARY
  5
10D
102
{ACAD_REACTORS
330
9
102
}
330
9
100
AcDbDictionary
281
     1
  0
DICTIONARY
  5
48D
102
{ACAD_REACTORS
330
8B
102
}
330
8B
100
AcDbDictionary
281
     1
  0
DICTIONARY
  5
8D
102
{ACAD_REACTORS
330
8B
102
}
330
8B
100
AcDbDictionary
281
     1
  0
DICTIONARY
  5
48C
102
{ACAD_REACTORS
330
8B
102
}
330
8B
100
AcDbDictionary
281
     1
1001
ACAD
1000
<All
  0
SORTENTSTABLE
  5
A8
102
{ACAD_REACTORS
330
3
102
}
330
3
100
AcDbSortentsTable
330
2
331
CFC
  5
CFC
331
429
  5
429
331
16
  5
12
331
451
  5
451
331
8BB
  5
976
331
427
  5
427
331
14
  5
10
331
12
  5
16
331
24
  5
18
331
F94
  5
E84
331
DFA
  5
F09
331
22
  5
23
331
44D
  5
44D
331
10
  5
14
331
E84
  5
F94
331
44B
  5
44B
331
1CA
  5
1CA
331
E82
  5
F5A
331
1F
  5
21
331
449
  5
449
331
E80
  5
F40
331
1D
  5
1E
331
17
  5
17
331
15
  5
11
331
27
  5
27
331
25
  5
25
331
426
  5
426
331
13
  5
D
331
F5E
  5
E86
331
23
  5
24
331
44E
  5
44E
331
11
  5
15
331
110
  5
110
331
21
  5
22
331
E85
  5
F99
331
10F
  5
10F
331
44C
  5
44C
331
E83
  5
F5E
331
D
  5
13
331
46F
  5
46F
331
44A
  5
44A
331
BDD
  5
BDD
331
1E
  5
1F
331
455
  5
455
  0
XRECORD
  5
FD7
102
{ACAD_REACTORS
330
CD1
102
}
330
CD1
100
AcDbXrecord
280
     1
 40
21861278.0
  1
{\fArial|b0|i0|c0|p34;\H1.25x;Le caratteristiche tecniche indicate vengono fornite a titolo indicativo e potranno essere modificate senza preavviso. Non devono quindi essere considerate a scopo di specifica.\P\fArial|b0|i1|c0|p34;The given values are
  1
 indicative and can be changed without notice. They cannot be considered like a state.\PThis lealfet and designs embodied within are protected by copyright law and international treaties. Unauthorized repro- duction of the leaflet or any portion of i
  1
t or reproduction of any of the designs embodied therein may result in severe civil penalties and will be prosecuted to the maximum.\PAll right reserved, Bovelacci Forlì Italy.}
  0
XRECORD
  5
FCE
102
{ACAD_REACTORS
330
FCD
102
}
330
FCD
100
AcDbXrecord
280
     1
 40
0.18
  0
LAYOUT
  5
82
102
{ACAD_XDICTIONARY
360
83
102
}
102
{ACAD_REACTORS
330
78
102
}
330
78
100
AcDbPlotSettings
  1

  2
C:\Documents and Settings\All Users\Dati applicazioni\Autodesk\ADT 2006\enu\Plotters\Default Windows System Printer.pc3
  4
A4
  6

 40
3.174999952316281
 41
3.174999952316281
 42
3.175003051757812
 43
3.17498779296875
 44
209.9733276367186
 45
297.0106506347656
 46
0.0
 47
0.0
 48
0.0
 49
0.0
140
0.0
141
0.0
142
1.0
143
1.0
 70
   688
 72
     1
 73
     1
 74
     5
  7

 75
    16
147
1.0
 76
     0
 77
     2
 78
   300
148
0.0
149
0.0
100
AcDbLayout
  1
Layout1
 70
     1
 71
     1
 10
-3.17498779296875
 20
-3.174999952316281
 11
293.8356628417969
 21
206.7983276844024
 12
0.0
 22
0.0
 32
0.0
 14
29.06606628894805
 24
20.36233246326446
 34
0.0
 15
261.5945966005325
 25
183.2609921693802
 35
0.0
146
0.0
 13
0.0
 23
0.0
 33
0.0
 16
1.0
 26
0.0
 36
0.0
 17
0.0
 27
1.0
 37
0.0
 76
     0
330
79
331
7B
1001
ACAD_PSEXT
1000
C:\Documents and Settings\All Users\Dati applicazioni\Autodesk\ADT 2006\enu\Plotters\Default Windows System Printer.pc3
1000
Microsoft Office Document Image Writer Driver
1000
Microsoft Document Imaging Writer Port:
1000

1070
     0
  0
LAYOUT
  5
89
102
{ACAD_REACTORS
330
78
102
}
330
78
100
AcDbPlotSettings
  1

  2
C:\Documents and Settings\All Users\Dati applicazioni\Autodesk\ADT 2006\enu\Plotters\Default Windows System Printer.pc3
  4

  6

 40
0.0
 41
0.0
 42
0.0
 43
0.0
 44
0.0
 45
0.0
 46
0.0
 47
0.0
 48
0.0
 49
0.0
140
0.0
141
0.0
142
1.0
143
1.0
 70
   688
 72
     0
 73
     0
 74
     5
  7

 75
    16
147
1.0
 76
     0
 77
     2
 78
   300
148
0.0
149
0.0
100
AcDbLayout
  1
Layout2
 70
     1
 71
     2
 10
0.0
 20
0.0
 11
12.0
 21
9.0
 12
0.0
 22
0.0
 32
0.0
 14
0.0
 24
0.0
 34
0.0
 15
0.0
 25
0.0
 35
0.0
146
0.0
 13
0.0
 23
0.0
 33
0.0
 16
1.0
 26
0.0
 36
0.0
 17
0.0
 27
1.0
 37
0.0
 76
     0
330
86
  0
LAYOUT
  5
77
102
{ACAD_REACTORS
330
78
102
}
330
78
100
AcDbPlotSettings
  1

  2
C:\Documents and Settings\All Users\Dati applicazioni\Autodesk\ADT 2006\enu\Plotters\Default Windows System Printer.pc3
  4

  6

 40
0.0
 41
0.0
 42
0.0
 43
0.0
 44
0.0
 45
0.0
 46
0.0
 47
0.0
 48
0.0
 49
0.0
140
0.0
141
0.0
142
1.0
143
1.0
 70
  1712
 72
     0
 73
     0
 74
     0
  7

 75
     0
147
1.0
 76
     0
 77
     2
 78
   300
148
0.0
149
0.0
100
AcDbLayout
  1
Model
 70
     1
 71
     0
 10
0.0
 20
0.0
 11
12.0
 21
9.0
 12
0.0
 22
0.0
 32
0.0
 14
0.0
 24
0.0
 34
0.0
 15
0.0
 25
0.0
 35
0.0
146
0.0
 13
0.0
 23
0.0
 33
0.0
 16
1.0
 26
0.0
 36
0.0
 17
0.0
 27
1.0
 37
0.0
 76
     0
330
2
331
CED
  0
MATERIAL
  5
A0
102
{ACAD_XDICTIONARY
360
FD3
102
}
102
{ACAD_REACTORS
330
B
102
}
330
B
100
AcDbMaterial
  1
ByBlock
  0
MATERIAL
  5
9F
102
{ACAD_XDICTIONARY
360
FD1
102
}
102
{ACAD_REACTORS
330
B
102
}
330
B
100
AcDbMaterial
  1
ByLayer
  0
MATERIAL
  5
A
102
{ACAD_XDICTIONARY
360
FCF
102
}
102
{ACAD_REACTORS
330
B
102
}
330
B
100
AcDbMaterial
  1
Global
  0
MLINESTYLE
  5
A3
102
{ACAD_REACTORS
330
9D
102
}
330
9D
100
AcDbMlineStyle
  2
STANDARD
 70
     0
  3

 62
   256
 51
90.0
 52
90.0
 71
     2
 49
0.5
 62
   256
  6
BYLAYER
 49
-0.5
 62
   256
  6
BYLAYER
  0
ACDBPLACEHOLDER
  5
7
102
{ACAD_REACTORS
330
8
102
}
330
8
  0
TABLESTYLE
  5
A4
102
{ACAD_XDICTIONARY
360
FD5
102
}
102
{ACAD_REACTORS
330
A2
102
}
330
A2
100
AcDbTableStyle
  3
Standard
 70
     0
 71
     0
 40
1.5
 41
1.5
280
     0
281
     0
  7
Standard
140
4.5
170
     2
 62
     0
 63
     7
283
     0
274
    -2
284
     1
 64
     0
275
    -2
285
     1
 65
     0
276
    -2
286
     1
 66
     0
277
    -2
287
     1
 67
     0
278
    -2
288
     1
 68
     0
279
    -2
289
     1
 69
     0
  7
Standard
140
6.0
170
     5
 62
     0
 63
     7
283
     0
274
    -2
284
     1
 64
     0
275
    -2
285
     1
 65
     0
276
    -2
286
     1
 66
     0
277
    -2
287
     1
 67
     0
278
    -2
288
     1
 68
     0
279
    -2
289
     1
 69
     0
  7
Standard
140
4.5
170
     5
 62
     0
 63
     7
283
     0
274
    -2
284
     1
 64
     0
275
    -2
285
     1
 65
     0
276
    -2
286
     1
 66
     0
277
    -2
287
     1
 67
     0
278
    -2
288
     1
 68
     0
279
    -2
289
     1
 69
     0
  0
VISUALSTYLE
  5
7E
102
{ACAD_REACTORS
330
7F
102
}
330
7F
100
AcDbVisualStyle
  2
2dWireframe
 70
     4
 71
     0
 72
     2
 73
     0
 90
        0
 40
-0.6
 41
-30.0
 62
     5
 63
     7
 74
     1
 91
        4
 64
     7
 65
   257
 75
     1
175
     1
 42
1.0
 92
        0
 66
   257
 43
1.0
 76
     1
 77
     6
 78
     2
 67
     7
 79
     5
170
     0
171
     0
290
     0
174
     0
 93
        1
 44
0.0
173
     0
291
     0
 45
0.0
1001
ACAD
1000
AcDbSavedByObjectVersion
1070
     0
1000
AcDbSavedByObjectVersion
1070
     0
1000
AcDbSavedByObjectVersion
1070
     0
  0
VISUALSTYLE
  5
D8
102
{ACAD_REACTORS
330
7F
102
}
330
7F
100
AcDbVisualStyle
  2
3D Hidden
 70
     6
 71
     1
 72
     2
 73
     2
 90
        0
 40
-0.6
 41
-30.0
 62
     5
 63
     7
 74
     2
 91
        2
 64
     7
 65
   257
 75
     2
175
     1
 42
40.0
 92
        0
 66
   257
 43
1.0
 76
     1
 77
     6
 78
     2
 67
     7
 79
     3
170
     0
171
     0
290
     0
174
     0
 93
        1
 44
0.0
173
     0
291
     0
 45
0.0
1001
ACAD
1000
AcDbSavedByObjectVersion
1070
     0
1000
AcDbSavedByObjectVersion
1070
     0
  0
VISUALSTYLE
  5
A6
102
{ACAD_REACTORS
330
7F
102
}
330
7F
100
AcDbVisualStyle
  2
3dWireframe
 70
     5
 71
     0
 72
     2
 73
     0
 90
        0
 40
-0.6
 41
-30.0
 62
     5
 63
     7
 74
     1
 91
        4
 64
     7
 65
   257
 75
     1
175
     1
 42
1.0
 92
        0
 66
   257
 43
1.0
 76
     1
 77
     6
 78
     2
 67
     7
 79
     5
170
     0
171
     0
290
     0
174
     0
 93
        1
 44
0.0
173
     0
291
     0
 45
0.0
1001
ACAD
1000
AcDbSavedByObjectVersion
1070
     0
1000
AcDbSavedByObjectVersion
1070
     0
1000
AcDbSavedByObjectVersion
1070
     0
  0
VISUALSTYLE
  5
D7
102
{ACAD_REACTORS
330
7F
102
}
330
7F
100
AcDbVisualStyle
  2
Basic
 70
     7
 71
     1
 72
     0
 73
     1
 90
        0
 40
-0.6
 41
-30.0
 62
     5
 63
     7
 74
     0
 91
        4
 64
     7
 65
   257
 75
     1
175
     1
 42
1.0
 92
        8
 66
     7
 43
1.0
 76
     1
 77
     6
 78
     2
 67
     7
 79
     5
170
     0
171
     0
290
     0
174
     0
 93
        1
 44
0.0
173
     0
291
     1
 45
0.0
1001
ACAD
1000
AcDbSavedByObjectVersion
1070
     0
1000
AcDbSavedByObjectVersion
1070
     0
  0
VISUALSTYLE
  5
DB
102
{ACAD_REACTORS
330
7F
102
}
330
7F
100
AcDbVisualStyle
  2
Brighten
 70
    12
 71
     2
 72
     2
 73
     0
 90
        0
 40
-0.6
 41
-30.0
 62
     5
 63
     7
 74
     1
 91
        4
 64
     7
 65
   257
 75
     1
175
     1
 42
1.0
 92
        8
 66
     7
 43
1.0
 76
     1
 77
     6
 78
     2
 67
     7
 79
     5
170
     0
171
     0
290
     0
174
     0
 93
        1
 44
50.0
173
     0
291
     1
 45
0.0
1001
ACAD
1000
AcDbSavedByObjectVersion
1070
     0
1000
AcDbSavedByObjectVersion
1070
     0
  0
VISUALSTYLE
  5
DF
102
{ACAD_REACTORS
330
7F
102
}
330
7F
100
AcDbVisualStyle
  2
ColorChange
 70
    16
 71
     2
 72
     2
 73
     3
 90
        0
 40
-0.6
 41
-30.0
 62
     5
 63
     8
 74
     1
 91
        4
 64
     7
 65
   257
 75
     1
175
     1
 42
1.0
 92
        8
 66
     8
 43
1.0
 76
     1
 77
     6
 78
     2
 67
     7
 79
     5
170
     0
171
     0
290
     0
174
     0
 93
        1
 44
0.0
173
     0
291
     1
 45
0.0
1001
ACAD
1000
AcDbSavedByObjectVersion
1070
     0
1000
AcDbSavedByObjectVersion
1070
     0
  0
VISUALSTYLE
  5
D9
102
{ACAD_REACTORS
330
7F
102
}
330
7F
100
AcDbVisualStyle
  2
Conceptual
 70
     9
 71
     3
 72
     2
 73
     0
 90
        0
 40
-0.6
 41
-30.0
 62
     5
 63
     7
 74
     2
 91
        2
 64
     7
 65
   257
 75
     1
175
     1
 42
40.0
 92
        8
 66
     7
 43
1.0
 76
     1
 77
     6
 78
     2
 67
     7
 79
     3
170
     0
171
     0
290
     0
174
     0
 93
        1
 44
0.0
173
     0
291
     0
 45
0.0
1001
ACAD
1000
AcDbSavedByObjectVersion
1070
     0
1000
AcDbSavedByObjectVersion
1070
     0
  0
VISUALSTYLE
  5
DA
102
{ACAD_REACTORS
330
7F
102
}
330
7F
100
AcDbVisualStyle
  2
Dim
 70
    11
 71
     2
 72
     2
 73
     0
 90
        0
 40
-0.6
 41
-30.0
 62
     5
 63
     7
 74
     1
 91
        4
 64
     7
 65
   257
 75
     1
175
     1
 42
1.0
 92
        8
 66
     7
 43
1.0
 76
     1
 77
     6
 78
     2
 67
     7
 79
     5
170
     0
171
     0
290
     0
174
     0
 93
        1
 44
-50.0
173
     0
291
     1
 45
0.0
1001
ACAD
1000
AcDbSavedByObjectVersion
1070
     0
1000
AcDbSavedByObjectVersion
1070
     0
  0
VISUALSTYLE
  5
DE
102
{ACAD_REACTORS
330
7F
102
}
330
7F
100
AcDbVisualStyle
  2
Facepattern
 70
    15
 71
     2
 72
     2
 73
     0
 90
        0
 40
-0.6
 41
-30.0
 62
     5
 63
     7
 74
     1
 91
        4
 64
     7
 65
   257
 75
     1
175
     1
 42
1.0
 92
        8
 66
     7
 43
1.0
 76
     1
 77
     6
 78
     2
 67
     7
 79
     5
170
     0
171
     0
290
     0
174
     0
 93
        1
 44
0.0
173
     0
291
     1
 45
0.0
1001
ACAD
1000
AcDbSavedByObjectVersion
1070
     0
1000
AcDbSavedByObjectVersion
1070
     0
  0
VISUALSTYLE
  5
D3
102
{ACAD_REACTORS
330
7F
102
}
330
7F
100
AcDbVisualStyle
  2
Flat
 70
     0
 71
     2
 72
     1
 73
     1
 90
        2
 40
-0.6
 41
30.0
 62
     5
 63
     7
 74
     0
 91
        4
 64
     7
 65
   257
 75
     1
175
     1
 42
1.0
 92
        8
 66
     7
 43
1.0
 76
     1
 77
     6
 78
     2
 67
     7
 79
     5
170
     0
171
     0
290
     0
174
     0
 93
       13
 44
0.0
173
     0
291
     1
 45
0.0
1001
ACAD
1000
AcDbSavedByObjectVersion
1070
     0
1000
AcDbSavedByObjectVersion
1070
     0
  0
VISUALSTYLE
  5
D4
102
{ACAD_REACTORS
330
7F
102
}
330
7F
100
AcDbVisualStyle
  2
FlatWithEdges
 70
     1
 71
     2
 72
     1
 73
     1
 90
        2
 40
-0.6
 41
30.0
 62
     5
 63
     7
 74
     1
 91
        4
 64
     7
 65
   257
 75
     1
175
     1
 42
1.0
 92
        0
 66
   257
 43
1.0
 76
     1
 77
     6
 78
     2
 67
     7
 79
     5
170
     0
171
     0
290
     0
174
     0
 93
       13
 44
0.0
173
     0
291
     1
 45
0.0
1001
ACAD
1000
AcDbSavedByObjectVersion
1070
     0
1000
AcDbSavedByObjectVersion
1070
     0
  0
VISUALSTYLE
  5
D5
102
{ACAD_REACTORS
330
7F
102
}
330
7F
100
AcDbVisualStyle
  2
Gouraud
 70
     2
 71
     2
 72
     2
 73
     1
 90
        2
 40
-0.6
 41
30.0
 62
     5
 63
     7
 74
     0
 91
        4
 64
     7
 65
   257
 75
     1
175
     1
 42
1.0
 92
        0
 66
     7
 43
1.0
 76
     1
 77
     6
 78
     2
 67
     7
 79
     5
170
     0
171
     0
290
     0
174
     0
 93
       13
 44
0.0
173
     0
291
     1
 45
0.0
1001
ACAD
1000
AcDbSavedByObjectVersion
1070
     0
1000
AcDbSavedByObjectVersion
1070
     0
  0
VISUALSTYLE
  5
D6
102
{ACAD_REACTORS
330
7F
102
}
330
7F
100
AcDbVisualStyle
  2
GouraudWithEdges
 70
     3
 71
     2
 72
     2
 73
     1
 90
        2
 40
-0.6
 41
30.0
 62
     5
 63
     7
 74
     1
 91
        4
 64
     7
 65
   257
 75
     1
175
     1
 42
1.0
 92
        0
 66
   257
 43
1.0
 76
     1
 77
     6
 78
     2
 67
     7
 79
     5
170
     0
171
     0
290
     0
174
     0
 93
       13
 44
0.0
173
     0
291
     1
 45
0.0
1001
ACAD
1000
AcDbSavedByObjectVersion
1070
     0
1000
AcDbSavedByObjectVersion
1070
     0
  0
VISUALSTYLE
  5
DD
102
{ACAD_REACTORS
330
7F
102
}
330
7F
100
AcDbVisualStyle
  2
Linepattern
 70
    14
 71
     2
 72
     2
 73
     0
 90
        0
 40
-0.6
 41
-30.0
 62
     5
 63
     7
 74
     1
 91
        4
 64
     7
 65
   257
 75
     7
175
     7
 42
1.0
 92
        8
 66
     7
 43
1.0
 76
     1
 77
     6
 78
     2
 67
     7
 79
     5
170
     0
171
     0
290
     0
174
     0
 93
        1
 44
0.0
173
     0
291
     1
 45
0.0
1001
ACAD
1000
AcDbSavedByObjectVersion
1070
     0
1000
AcDbSavedByObjectVersion
1070
     0
  0
VISUALSTYLE
  5
A5
102
{ACAD_REACTORS
330
7F
102
}
330
7F
100
AcDbVisualStyle
  2
Realistic
 70
     8
 71
     2
 72
     2
 73
     0
 90
        0
 40
-0.6
 41
-30.0
 62
     5
 63
     7
 74
     1
 91
        0
 64
     7
 65
   257
 75
     1
175
     1
 42
1.0
 92
        8
 66
     8
 43
1.0
 76
     1
 77
     6
 78
     2
 67
     7
 79
     5
170
     0
171
     0
290
     0
174
     0
 93
       13
 44
0.0
173
     0
291
     0
 45
0.0
1001
ACAD
1000
AcDbSavedByObjectVersion
1070
     0
1000
AcDbSavedByObjectVersion
1070
     0
1000
AcDbSavedByObjectVersion
1070
     0
  0
VISUALSTYLE
  5
DC
102
{ACAD_REACTORS
330
7F
102
}
330
7F
100
AcDbVisualStyle
  2
Thicken
 70
    13
 71
     2
 72
     2
 73
     0
 90
        0
 40
-0.6
 41
-30.0
 62
     5
 63
     7
 74
     1
 91
        4
 64
     7
 65
   257
 75
     1
175
     1
 42
1.0
 92
       12
 66
     7
 43
1.0
 76
     1
 77
     6
 78
     2
 67
     7
 79
     5
170
     0
171
     0
290
     0
174
     0
 93
        1
 44
0.0
173
     0
291
     1
 45
0.0
1001
ACAD
1000
AcDbSavedByObjectVersion
1070
     0
1000
AcDbSavedByObjectVersion
1070
     0
  0
DICTIONARYVAR
  5
AA
102
{ACAD_REACTORS
330
A9
102
}
330
A9
100
DictionaryVariables
280
     0
  1
STANDARD
  0
DICTIONARYVAR
  5
AE
102
{ACAD_REACTORS
330
A9
102
}
330
A9
100
DictionaryVariables
280
     0
  1
2
  0
DICTIONARYVAR
  5
AD
102
{ACAD_REACTORS
330
A9
102
}
330
A9
100
DictionaryVariables
280
     0
  1
1
  0
DICTIONARYVAR
  5
AC
102
{ACAD_REACTORS
330
A9
102
}
330
A9
100
DictionaryVariables
280
     0
  1
0
  0
DICTIONARYVAR
  5
16A
102
{ACAD_REACTORS
330
A9
102
}
330
A9
100
DictionaryVariables
280
     0
  1

  0
DICTIONARYVAR
  5
AB
102
{ACAD_REACTORS
330
A9
102
}
330
A9
100
DictionaryVariables
280
     0
  1
127
  0
DICTIONARY
  5
83
330
82
100
AcDbDictionary
280
     1
281
     1
  3
ADSK_XREC_LAYOUTTHUMBNAIL
360
84
  0
DICTIONARY
  5
FD3
330
A0
100
AcDbDictionary
280
     1
281
     1
  3
ACAD_XREC_ROUNDTRIP
360
FD4
  0
DICTIONARY
  5
FD1
330
9F
100
AcDbDictionary
280
     1
281
     1
  3
ACAD_XREC_ROUNDTRIP
360
FD2
  0
DICTIONARY
  5
FCF
330
A
100
AcDbDictionary
280
     1
281
     1
  3
ACAD_XREC_ROUNDTRIP
360
FD0
  0
DICTIONARY
  5
FD5
330
A4
100
AcDbDictionary
280
     1
281
     1
  3
ACAD_XREC_ROUNDTRIP
360
FD6
  0
XRECORD
  5
84
102
{ACAD_REACTORS
330
83
102
}
330
83
100
AcDbXrecord
280
     1
310
28000000B40000007F00000001000800000000004C59000000000000000000000001000000000000FFFFFF0000000000FFFFFF000000000000000000000000000000000000000000000000000000000000000000330000006600000099000000CC000000FF00000000330000333300006633000099330000CC330000FF3300
310
0000660000336600006666000099660000CC660000FF66000000990000339900006699000099990000CC990000FF99000000CC000033CC000066CC000099CC0000CCCC0000FFCC000000FF000033FF000066FF000099FF0000CCFF0000FFFF000000003300330033006600330099003300CC003300FF003300003333003333
310
33006633330099333300CC333300FF33330000663300336633006666330099663300CC663300FF66330000993300339933006699330099993300CC993300FF99330000CC330033CC330066CC330099CC3300CCCC3300FFCC330000FF330033FF330066FF330099FF3300CCFF3300FFFF330000006600330066006600660099
310
006600CC006600FF00660000336600333366006633660099336600CC336600FF33660000666600336666006666660099666600CC666600FF66660000996600339966006699660099996600CC996600FF99660000CC660033CC660066CC660099CC6600CCCC6600FFCC660000FF660033FF660066FF660099FF6600CCFF6600
310
FFFF660000009900330099006600990099009900CC009900FF00990000339900333399006633990099339900CC339900FF33990000669900336699006666990099669900CC669900FF66990000999900339999006699990099999900CC999900FF99990000CC990033CC990066CC990099CC9900CCCC9900FFCC990000FF99
310
0033FF990066FF990099FF9900CCFF9900FFFF99000000CC003300CC006600CC009900CC00CC00CC00FF00CC000033CC003333CC006633CC009933CC00CC33CC00FF33CC000066CC003366CC006666CC009966CC00CC66CC00FF66CC000099CC003399CC006699CC009999CC00CC99CC00FF99CC0000CCCC0033CCCC0066CC
310
CC0099CCCC00CCCCCC00FFCCCC0000FFCC0033FFCC0066FFCC0099FFCC00CCFFCC00FFFFCC000000FF003300FF006600FF009900FF00CC00FF00FF00FF000033FF003333FF006633FF009933FF00CC33FF00FF33FF000066FF003366FF006666FF009966FF00CC66FF00FF66FF000099FF003399FF006699FF009999FF00CC
310
99FF00FF99FF0000CCFF0033CCFF0066CCFF0099CCFF00CCCCFF00FFCCFF0000FFFF0033FFFF0066FFFF0099FFFF00CCFFFF00FFFFFF00000000000D0D0D001A1A1A00282828003535350043434300505050005D5D5D006B6B6B00787878008686860093939300A1A1A100AEAEAE00BBBBBB00C9C9C900D6D6D600E4E4E400
310
F1F1F100FFFFFF0000000000000000000000000000000000000000000000000000000000000000000000000000000000E2E2E2E2E2E2E2E2E2E2E2E2E2E2E2E2E2E2E2E2E2E2E2E2E2E2E2E2E2E2E2E2E2E2E2E2E2E2E2E2E2E2E2E2E2E2E2E2E2E2E2E2E2E2E2E2E2E2E2E2E2E2E2E2E2E2E2E2E2E2E2E2E2E2E2E2E2E2E2
310
E2E2E2E2E2E2E2E2E2E2E2E2E2E2E2E2E2E2E2E2E2E2E2E2E2E2E2E2E2E2E2E2E2E2E2E2E2E2E2E2E2E2E2E2E2E2E2E2E2E2E2E2E2E2E2E2E2E2E2E2E2E2E2E2E2E2E2E2E2E2E2E2E2E2E2E2E2E2E2E2E2E2E2E2E2E2E2E2E2E2E2E2E2E2E2E2E2E2E2E2E2E2F5F5F5F5F5F5F5F5F5F5F5F5F5F5F5F5F5F5F5F5F5F5F5F5F5
310
F5F5F5F5F5F5F5F5F5F5F5F5F5F5F5F5F5F5F5F5F5F5F5F5F5F5F5F5F5F5F5F5F5F5F5F5F5F5F5F5F5F5F5F5F5F5F5F5F5F5F5F5F5F5F5F5F5F5F5F5F5F5F5F5F5F5F5F5F5F5F5F5F5F5F5F5F5F5F5F5F5F5F5F5F5F5F5F5F5F5F5F5F5F5F5F5F5F5F5F5F5F5F5F5F5F5F5F5F5F5F5F5F5F5F5F5F5F5F5F5F5F5F5F5F5F5F5
310
F5F5F5F5F5F5F5F5F5F5F5F5F5F5F5F5F5F5F5F5F5F5F5F5F5F5E2E2F5E2E2E2E2E2E2E2E2E2F5F5F5F5F5F5F5F5F5E2E2E2E2E2E2E2E2E2E2E2E2E2E2E2E2F5F5F5F5F5F5F5F5F5E2E2E2E2E2E2E2E2E2E2E2E2E2E2E2E2F5F5F5F5F5F5F5F5F5E2E2E2E2E2E2E2E2E2E2E2E2E2E2E2E2F5F5F5F5F5F5F5F5F5E2E2E2E2E2
310
E2E2E2E2E2E2E2E2E2E2E2F5F5F5F5F5F5F5F5F5E2E2E2E2E2E2E2E2E2E2E2E2E2E2E2E2F5F5F5F5F5F5F5F5F5E2E2E2E2E2E2E2E2E2E2E2E2E2E2E2E2F5F5F5F5F5F5F5F5F5E2E2E2E2E2E2E2E2F5E2E2F5E2F5F5F5F5F5F5F5F5F5F5F5F5F5F5F5F5F5F5F5F5F5F5F5F5F5F5F5F5F5F5F5F5F5F5F5F5F5F5F5F5F5F5F5F5
310
F5F5F5F5F5F5F5F5F5F5F5F5F5F5F5F5F5F5F5F5F5F5F5F5F5F5F5F5F5F5F5F5F5F5F5F5F5F5F5F5F5F5F5F5F5F5F5F5F5F5F5F5F5F5F5F5F5F5F5F5F5F5F5F5F5F5F5F5F5F5F5F5F5F5F5F5F5F5F5F5F5F5F5F5F5F5F5F5F5F5F5F5F5F5F5F5F5F5F5F5F5F5F5F5F5F5F5F5F5F5F5F5F5F5F5F5F5F5F5F5F5F5F5F5F5F5F5
310
F5F5F5E2F5E2E2F5E2F5F5F5F5F5F5F5F5F5F5F5F5F5F5F5F5F5F5F5F5F5F5F5F5F5F5F5F5F5F5F5F5F5F5F5F5F5F5F5F5F5F5F5F5F5F5F5F5F5F5F5F5F5F5F5F5F5F5F5F5F5F5F5F5F5F5F5F5F5F5F5F5F5F5F5F5F5F5F5F5F5F5F5F5F5F5F5F5F5F5F5F5F5F5F5F5F5F5F5F5F5F5F5F5F5F5F5F5F5F5F5F5F5F5F5F5F5F5
310
F5F5F5F5F5F5F5F5F5F5F5F5F5F5F5F5F5F5F5F5F5F5F5F5F5F5F5F5F5F5F5F5F5F5F5F5F5F5F5F5F5F5F5F5F5F5F5F5F5F5F5F5F5F5F5F5E2F5E2E2F5E2F5F5F5F5F5F5F5F5F5F5F5F5F5F5F5F5F5F5F5F5F5F5F5F5F5F5F5F5F5F5F5F5F5F5F5F5F5F5F5F5F5F5F5F5F5F5F5F5F5F5F5F5F5F5F5F5F5F5F5F5F5F5F5F5F5
310
F5F5F5F5F5F5F5F5F5F5F5F5F5F5F5F5F5F5F5F5F5F5F5F5F5F5F5F5F5F5F5F5F5F5F5F5F5F5F5F5F5F5F5F5F5F5F5F5F5F5F5F5F5F5F5F5F5F5F5F5F5F5F5F5F5F5F5F5F5F5F5F5F5F5F5F5F5F5F5F5F5F5F5F5F5F5F5F5F5F5F5F5F5F5F5F5F5F5F5F5F5F5F5F5F5F5F5F5F5E2F5E2E2F5E2F5F5F5F5F5F5F5F5F5F5F5F5
310
F5F5F5F5F5F5F5F5F5F5F5F5F5F5F5F5F5F5F5F5F5F5F5F5F5F5F5F5F5F5F5F5F5F5F5F5F5F5F5F5F5F5F5F5F5F5F5F5F5F5F5F5F5F5F5F5F5F5F5F5F5F5F5F5F5F5F5F5F5F5F5F5F5F5F5F5F5F5F5F5F5F5F5F5F5F5F5F5F5F5F5F5F5F5F5F5F5F5F5F5F5F5F5F5F5F5F5F5F5F5F5F5F5F5F5F5F5F5F5F5F5F5F5F5F5F5F5
310
F5F5F5F5F5F5F5F5F5F5F5F5F5F5F5F5F5F5F5F5F5F5F5F5F5F5F5F5F5F5F5F5F5F5F5E2F5E2E2F5E2F5F5F5F5F5F5F5F5F5F5F5F5F5F5F5F5F5F5F5F5F5F5F5F5F5F5F5F5F5F5F5F5F5F5F5F5F5F5F5F5F5F5F5F5F5F5F5F5F5F5F5F5F5F5F5F5F5F5F5F5F5F5F5F5F5F5F5F5F5F5F5F5F5F5F5F5F5F5F5F5F5F5F5F5F5F5
310
F5F5F5F5F5F5F5F5F5F5F5F5F5F5F5F5F5F5F5F5F5F5F5F5F5F5F5F5F5F5F5F5F5F5F5F5F5F5F5F5F5F5F5F5F5F5F5F5F5F5F5F5F5F5F5F5F5F5F5F5F5F5F5F5F5F5F5F5F5F5F5F5F5F5F5F5F5F5F5F5F5F5F5F5F5F5F5F5E2F5E2E2F5E2F5F5F5F5F5F5F5F5F5F5F5F5F5F5F5F5F5F5F5F5F5F5F5F5F5F5F5F5F5F5F5F5F5
310
F5F5F5F5F5F5F5F5F5F5F5F5F5F5F5F5F5F5F5F5F5F5F5F5F5F5F5F5F5F5F5F5F5F5F5F5F5F5F5F5F5F5F5F5F5F5F5F5F5F5F5F5F5F5F5F5F5F5F5F5F5F5F5F5F5F5F5F5F5F5F5F5F5F5F5F5F5F5F5F5F5F5F5F5F5F5F5F5F5F5F5F5F5F5F5F5F5F5F5F5F5F5F5F5F5F5F5F5F5F5F5F5F5F5F5F5F5F5F5F5F5F5F5F5F5F5F5
310
F5F5F5F5F5F5F5F5F5F5F5F5F5F5E2F5E2E2F5E2F5F5F5F5F5F5F5F5F5F5F5F5F5F5F5F5F5F5F5F5F5F5F5F5F5F5F5F5F5F5F5F5F5F5F5F5F5F5F5F5F5F5F5F5F5F5F5F5F5F5F5F5F5F5F5F5F5F5F5F5F5F5F5F5F5F5F5F5F5F5F5F5F5F5F5F5F5F5F5F5F5F5F5F5F5F5F5F5F5F5F5F5F5F5F5F5F5F5F5F5F5F5F5F5F5F5F5
310
F5F5F5F5F5F5F5F5F5F5F5F5F5F5F5F5F5F5F5F5F5F5F5F5F5F5F5F5F5F5F5F5F5F5F5F5F5F5F5F5F5F5F5F5F5F5F5F5F5F5F5F5F5F5F5F5F5F5F5F5F5F5F5F5F5F5F5E2F5E2E2F5F5F5F5F5F5F5F5F5F5F5F5F5F5F5F5F5F5F5F5F5F5F5F5F5F5F5F5F5F5F5F5F5F5F5F5F5F5F5F5F5F5F5F5F5F5F5F5F5F5F5F5F5F5F5F5
310
F5F5F5F5F5F5F5F5F5F5F5F5F5F5F5F5F5F5F5F5F5F5F5F5F5F5F5F5F5F5F5F5F5F5F5F5F5F5F5F5F5F5F5F5F5F5F5F5F5F5F5F5F5F5F5F5F5F5F5F5F5F5F5F5F5F5F5F5F5F5F5F5F5F5F5F5F5F5F5F5F5F5F5F5F5F5F5F5F5F5F5F5F5F5F5F5F5F5F5F5F5F5F5F5F5F5F5F5F5F5F5F5F5F5F5F5F5F5F5F5F5F5E2E2F5F5F5
310
F5F5F5F5F5F5F5F5F5F5F5F5F5F5F5F5F5F5F5F5F5F5F5F5F5F5F5F5F5F5F5F5F5F5F5F5F5F5F5F5F5F5F5F5F5F5F5F5F5F5F5F5F5F5F5F5F5F5F5F5F5F5F5F5F5F5F5F5F5F5F5F5F5F5F5F5F5F5F5F5F5F5F5F5F5F5F5F5F5F5F5F5F5F5F5F5F5F5F5F5F5F5F5F5F5F5F5F5F5F5F5F5F5F5F5F5F5F5F5F5F5F5F5F5F5F5F5
310
F5F5F5F5F5F5F5F5F5F5F5F5F5F5F5F5F5F5F5F5F5F5F5F5F5F5F5F5F5F5F5F5F5F5F5F5F5F5F5F5F5F5F5F5F5F5F5F5E2E2F5F5F5F5F5F5F5F5F5F5F5F5F5F5F5F5F5F5F5F5F5F5F5F5F5F5F5F5F5F5F5F5F5F5F5F5F5F5F5F5F5F5F5F5F5F5F5F5F5F5F5F5F5F5F5F5F5F5F5F5F5F5F5F5F5F5F5F5F5F5F5F5F5F5F5F5F5
310
F5F5F5F5F5F5F5F5F5F5F5F5F5F5F5F5F5F5F5F5F5F5F5F5F5F5F5F5F5F5F5F5F5F5F5F5F5F5F5F5F5F5F5F5F5F5F5F5F5F5F5F5F5F5F5F5F5F5F5F5F5F5F5F5F5F5F5F5F5F5F5F5F5F5F5F5F5F5F5F5F5F5F5F5F5F5F5F5F5F5F5F5F5F5F5F5F5F5F5F5F5E2E2F5F5F5F5F5F5F5F5F5F5F5F5F5F5F5F5F5F5F5F5F5F5F5F5
310
F5F5F5F5F5F5F5F5F5F5F5F5F5F5F5F5F5F5F5F5F5F5F5F5F5F5F5F5F5F5F5F5F5F5F5F5F5F5F5F5F5F5F5F5F5F5F5F5F5F5F5F5F5F5F5F5F5F5F5F5F5F5F5F5F5F5F5F5F5F5F5F5F5F5F5F5F5F5F5F5F5F5F5F5F5F5F5F5F5F5F5F5F5F5F5F5F5F5F5F5F5F5F5F5F5F5F5F5F5F5F5F5F5F5F5F5F5F5F5F5F5F5F5F5F5F5F5
310
F5F5F5F5F5F5F5F5F5F5F5F5F5F5F5F5F5F5F5F5F5F5F5F5F5F5F5E2E2F5F5F5F5F5F5F5F5F5F5F5F5F5F5F5F5F5F5F5DCDCDCDCDCDCDCDCDCDCDCDCDCDCDCDCDCDCDCDCDCDCDCDCDCDCDCDCDCDCDCDCDCDCDCDCDCDCDCDCDCDCDCDCDCDCDCDCDCDCDCDCDCDCDCDCDCDCDCDCDCDCDCDCDCDCDCDCDCDCDCDCDCDCDCDCDCDCDC
310
DCDCDCDCDCDCDCDCDCDCDCDCDCDCDCDCDCDCDCDCDCDCDCDCDCDCDCDCDCDCDCDCDCDCDCDCDCDCDCDCDCDCDCDCDCDCDCDCDCDCDCDCDCDCDCDCDCDCDCDCDCF5F5F5F5F5F5F5F5F5F5F5F5F5F5F5F5F5F5F5E2E2F5F5F5F5F5F5F5F5F5F5F5F5F5F5F5F5F5F5F5DCDCDCDCDCDCDCDCDCDCDCDCDCDCDCDCDCDCDCDCDCDCDCDCDCDC
310
DCDCDCDCDCDCDCDCDCDCDCDCDCDCDCDCDCDCDCDCDCDCDCDCDCDCDCDCDCDCDCDCDCDCDCDCDCDCDCDCDCDCDCDCDCDCDCDCDCDCDCDCDCDCDCDCDCDCDCDCDCDCDCDCDCDCDCDCDCDCDCDCDCDCDCDCDCDCDCDCDCDCDCDCDCDCDCDCDCDCDCDCDCDCDCDCDCDCDCDCDCDCDCDCDCDCDCDCDCDCDCDCDCDCF5F5F5F5F5F5F5F5F5F5F5F5F5
310
F5F5F5F5F5F5E2E2F5F5F5F5F5F5F5F5F5F5F5F5F5F5F5F5F5F5F5DCF5F5F5F5F5F5F5F5F5F5F5F5F5F5F5F5F5F5F5F5F5F5F5F5F5F5F5F5F5F5F5F5F5F5F5F5F5F5F5F5F5F5F5F5F5F5F5F5F5F5F5F5F5F5F5F5F5F5F5F5F5F5F5F5F5F5F5F5F5F5F5F5F5F5F5F5F5F5F5F5F5F5F5F5F5F5F5F5F5F5F5F5F5F5F5F5F5F5F5
310
F5F5F5F5F5F5F5F5F5F5F5F5F5F5F5F5F5F5F5F5F5F5F5F5F5F5F5F5F5F5F5F5F5F5F5F5F5F5F5DCF5F5F5F5F5F5F5F5F5F5F5F5F5F5F5F5F5F5F5E2E2F5F5F5F5F5F5F5F5F5F5F5F5F5F5F5F5F5F5F5DCF5282828282828282828282828282828282828282828282828282828282828282828282828282828282828282828
310
28282828282828282828282828282828282828282828282828282828282828282828282828282828282828282828282828282828282828282828282828282828282828282828282828282828282828282828282828282828282828F5DCF5F5F5F5F5F5F5F5F5F5F5F5F5F5F5F5F5F5F5E2E2F5F5F5F5F5F5F5F5F5F5F5F5F5
310
F5F5F5F5F5F5DCF5282D2D2D2D2D2D2D2D2D2D2D2D2D2D2D2D2D2D2D2D2DF5F5F5F5F5F5F5F5F5F5F5F5F5F5F5F5F5F5F5F5F5F5F5F5F5F5F5F5F5F5F5F5F5F5F5F5F5F5F5F5F5F5F5F5F528F5F5F5F5F5F5F5F5F5F5F5F5F5F5F5F5F5F5F5F5F5F5F5F5F5F5F5F5F5F5F5F5F5F5F5F5F5F5F5F5F5F5F5F5F5F5F5F5F5F5F5
310
F5F5F5F5F5F5F5F5F5F5F5F5F5F5F5F528F5DCF5F5F5F5F5F5F5F5F5F5F5F5F5F5F5F5F5F5F5E2E2F5E2F5F5F5F5F5F5F5F5F5F5F5F5F5F5F5F5F5DCF5282D2D2D2D2D2D2D2D2D2D2D2D2D2D2D2D2D2D2D2D2D2D2D2D2D2D2D2D2DF5F5F5F5F5F5F5F5F5F5F5F5F5F5F5F5F5F5F5F5F5F5F5F5F5F5F5F5F5F5F5F5F5F5F5F5
310
F528F5F5F5F5F5F5F5F5F5F5F5F5F5F5F5F5F5F5F5F5F5F5F5F5F5F5F5F5F5F5F5F5F5F5F5F5F5F5F5F5F5F5F5F5F5F5F5F5F5F5F5F5F5F5F5F5F5F5F5F5F5F5F5F5F5F5F528F5DCF5F5F5F5F5F5F5F5F5F5F5F5F5F5F5F5F5E2F5E2E2F5E2F5F5F5F5F5F5F5F5F5F5F5F5F5F5F5F5F5DCF5282D2D2D2D2D2D2D2D2D2D2D2D
310
2D2D2D2D2D2D2D2D2D2D2D2D2D2D2D2D2DF5F5F5F5F5F5F5F5F5F5F5F5F5F5F5F5F5F5F5F5F5F5F5F5F5F5F5F5F5F5F5F5F5F5F5F5F528F5F5F5F5F5F5F5F52D2D2D2D2D2D2D2D2D2D2D2D2D2D2D2D2D2D2D2D2D2D2D2D2D2D2D2D2D2D2D2D2D2D2D2D2D2D2D2D2D2D2D2D2D2D2D2D2D2D2DF5F5F5F5F5F5F5F528F5DCF5F5
310
F5F5F5F5F5F5F5F5F5F5F5F5F5F5F5E2F5E2E2F5E2F5F5F5F5F5F5F5F5F5F5F5F5F5F5F5F5F5DCF5282D2D2D2D2D2D2D2D2D2D2D2D2D2D2D2D2D2D2D2D2D2D2D2D2D2D2D2D2D2D2D2D2D2D2D2D2D2D2D2D2D2D2D2D2D2D2D2D2D2D2D2D2D2D2D2D2D2D2D2D2D2D2D2D2D2D28F5F5F5F5F5F5F5F52D2D2D2D2D2D2D2D2D2D2D
310
2D2D2D2D2D2D2D2D2D2D2D2D2D2D2D2D2D2D2D2D2D2D2D2D2D2D2D2D2D2D2D2D2D2D2D2D2D2D2D2DF5F5F5F5F5F5F5F528F5DCF5F5F5F5F5F5F5F5F5F5F5F5F5F5F5F5F5E2F5E2E2F5E2F5F5F5F5F5F5F5F5F5F5F5F5F5F5F5F5F5DCF5282D2D2D2D2D2D2D2D2D2D2D2D2D2D2D2D2D2D2D2D2D2D2D2D2D2D2D2D2D2D2D2D2D
310
2D2D2D2D2D2D2D2D2D2D2D2D2D2D2D2D2D2D2D2D2D2D2D2D2D2D2D2D2DF5F5F5F528F5F5F5F5F5F5F5F5F5F5F5F52D2D2D2D2D2D2D2D2D2D2D2D2D2D2D2D2D2D2D2D2D2D2D2D2D2D2D2D2D2D2D2D2D2D2D2D2D2D2D2D2D2DF5F5F5F5F5F5F5F5F5F5F5F5F528F5DCF5F5F5F5F5F5F5F5F5F5F5F5F5F5F5F5F5E2F5E2E2F5E2
310
F5F5F5F5F5F5F5F5F5F5F5F5F5F5F5F5F5DCF5282D2D2D2D2D2D2D2D2D2D2D2D2D2D2D2D2D2D2D2D2D2D2D2D2D2D2D2D2D2D2D2D2D2D2D2D2D2D2D2D2D2D2D2D2D2D2D2D2D2D2D2D2D2D2D2D2D2D2D2D2D2DF5F5F5F528F5F5F5F5F5F5F5F5F5F5F5F52D2D2D2D2D2D2D2D2D2D2D2D2D2D2D2D2D2D2D2D2D2D2D2D2D2D2D2D
310
2D2D2D2D2D2D2D2D2D2D2D2D2D2DF5F5F5F5F5F5F5F5F5F5F5F5F528F5DCF5F5F5F5F5F5F5F5F5F5F5F5F5F5F5F5F5E2F5E2E2F5E2F5F5F5F5F5F5F5F5F5F5F5F5F5F5F5F5F5DCF5282D2D2D2D2D2D2D2D2D2D2D2D2D2D2D2D2D2D2D2D2D2D2D2D2D2D2D2D2D2D2D2D2D2D2D2D2D2D2D2D2D2D2D2D2D2D2D2D2D2D2D2D2D2D
310
2D2D2D2D2DF5F5F5F5F5F5F528F5F5F5F5F5F5F5F5F5F5F5F5F5F5F5F5F5F5F5F5F5F5F5F5F5F5F5F52D2D2D2D2D2D2D2D2D2DF5F5F5F5F5F5F5F5F5F5F5F5F5F5F5F5F5F5F5F5F5F5F5F5F5F5F5F5F528F5DCF5F5F5F5F5F5F5F5F5F5F5F5F5F5F5F5F5E2F5E2E2F5E2F5F5F5F5F5F5F5F5F5F5F5F5F5F5F5F5F5DCF5282D
310
2D2D2D2D2D2D2D2D2D2D2D2D2D2D2D2D2D2D2D2D2D2D2D2D2D2D2D2D2D2D2DF5F5F5F5F5F5F5F5F5F5F5F5F5F5F5F5F5F5F5F5F5F5F5F5F5F5F5F5F5F5F5F5F5F528F5F5F5F5F5F5F5F5F5F5F5F5F5F5F5F5F5F5F5F5F5F5F5F5F5F5F5F52D2D2D2D2D2D2D2D2D2DF5F5F5F5F5F5F5F5F5F5F5F5F5F5F5F5F5F5F5F5F5F5F5
310
F5F5F5F5F5F528F5DCF5F5F5F5F5F5F5F5F5F5F5F5F5F5F5F5F5E2F5E2E2F5E2F5F5F5F5F5F5F5F5F5F5F5F5F5F5F5F5F5DCF5282D2D2D2D2D2D2D2D2D2D2D2D2D2D2D2D2D2D2D2D2D2D2D2D2D2D2D2D2D2D2D2DF5F5F5F5F5F5F5F5F5F5F5F5F5F5F5F5F5F5F5F5F5F5F5F5F5F5F5F5F5F5F5F5F5F528F5F5F5F5F5F5F5F5
310
F5F5F5F5F5F5F5F5F5F5F5F5F5F5F5F5F5F5F5F52D2D2D2D2D2D2D2D2D2DF5F5F5F5F5F5F5F5F5F5F5F5F5F5F5F5F5F5F5F5F5F5F5F5F5F5F5F5F528F5DCF5F5F5F5F5F5F5F5F5F5F5F5F5F5F5F5F5E2F5E2E2F5E2F5F5F5F5F5F5F5F5F5F5F5F5F5F5F5F5F5DCF5282D2D2D2D2D2D2D2D2D2D2D2D2D2D2D2D2D2D2D2D2D2D
310
2D2D2D2D2D2D2D2D2D2D2D2D2D2D2D2D2D2D2D2D2D2D2D2D2D2D2D2D2D2D2D2D2D2D2D2D2D2D2D2D2D2DF5F528F5F5F5F5F5F5F5F5F5F5F5F5F5F5F5F5F5F5F5F5F5F5F5F5F5F5F5F5F5F5F5F5F5F5F5F5F5F5F5F5F5F5F5F5F5F5F5F5F5F5F5F5F5F5F5F5F5F5F5F5F5F5F5F5F5F5F528F5DCF5F5F5F5F5F5F5F5F5F5F5F5
310
F5F5F5F5F5E2F5E2E2F5E2F5F5F5F5F5F5F5F5F5F5F5F5F5F5F5F5F5DCF528F5F5F5F5F5F5F5F5F5F5F5F5F5F5F5F5F5F5F5F5F5F5F5F5F5F5F5F5F5F5F5F5F5F5F5F5F5F5F5F5F5F5F5F5F5F5F5F5F5F5F5F5F5F5F5F5F5F5F5F5F5F5F5F5F5F528F5F5F5F5F5F5F5F5F5F5F5F5F5F5F5F5F5F5F5F5F5F5F5F5F5F5F5F5F5
310
F5F5F5F5F5F5F5F5F5F5F5F5F5F5F5F5F5F5F5F5F5F5F5F5F5F5F5F5F5F5F5F5F5F5F5F5F5F528F5DCF5F5F5F5F5F5F5F5F5F5F5F5F5F5F5F5F5E2F5E2E2F5E2F5F5F5F5F5F5F5F5F5F5F5F5F5F5F5F5F5DCF52828282828282828282828282828282828282828282828282828282828282828282828282828282828282828
310
2828282828282828282828282828282828282828282828282828282828282828282828282828282828282828282828282828282828282828282828282828282828282828282828282828282828282828282828282828282828282828F5DCF5F5F5F5F5F5F5F5F5F5F5F5F5F5F5F5F5E2F5E2E2F5E2F5F5F5F5F5F5F5F5F5F5
310
F5F5F5F5F5F5F5DCF528F5F5F5F5F5F5F5F5F5F5F5F5F5F5F5F5F5F5F5F5F5F5F5F5F5F5F5F5F5F5F5F5F5F5F5F5F5F5F5F5F5F5F5F5F5F5F5F5F5F5F5F5F5F5F5F5F5F5F5F5F5F5F5F5F5F5F5F5F5F5F5F5F5F5F5F5F5F5F5F5F5F5F5F5F5F5F5F5F5F5F5F5F5F5F5F5F5F5F5F5F5F5F5F5F5F5F5F5F5F5F5F5F5F5F5F5F5
310
F5F5F5F5F5F5F5F5F5F5F5F5F5F5F5F5F528F5DCF5F5F5F5F5F5F5F5F5F5F5F5F5F5F5F5F5E2F5E2E2F5E2F5F5F5F5F5F5F5F5F5F5F5F5F5F5F5F5F5DCF528F5F5F5F5F5F5F5F5F5F5F5F5F5F5F5F5F5F5F5F5F5F5F5F5F5F5F5F5F5F5F5F5F5F5F5F5F5F5F5F5F5F5F5F5F5F5F5F5F5F5F5F5F5F5F5F5F5F5F5F5F5F5F5F5
310
F5F5F5F5F5F5F5F5F5F5F5F5F5F5F5F5F5F5F5F5F5F5F5F5F5F5F5F5F5F5F5F5F5F5F5F5F5F5F5F5F5F5F5F5F5F5F5F5F5F5F5F5F5F5F5F5F5F5F5F5F5F5F5F5F5F5F5F5F5F528F5DCF5F5F5F5F5F5F5F5F5F5F5F5F5F5F5F5F5E2F5E2E2F5E2F5F5F5F5F5F5F5F5F5F5F5F5F5F5F5F5F5DCF528F5F5F5F5F5F5F5F5F5F5F5
310
F5F5F5F5F5F5F5F5F5F5F5F5F5F5F5F5F5F5F5F5F5F5F5F5F5F5F5F5F5F5F5F5F5F5F5F5F5F5F5F5F5F5F5F5F5F5F5F5F5F5F5F5F5F5F5F5F5F5F5F5F5F5F5F5F5F5F5F5F5F5F5F5F5F5F5F5F5F5F5F5F5F5F5F5F5F5F5F5F5F5F5F5F5F5F5F5F5F5F5F5F5F5F5F5F5F5F5F5F5F5F5F5F5F5F5F5F5F5F5F5F5F5F528F5DCF5
310
F5F5F5F5F5F5F5F5F5F5F5F5F5F5F5F5E2F5E2E2F5E2F5F5F5F5F5F5F5F5F5F5F5F5F5F5F5F5F5DCF528F5F5F5F5F5F5F5F5F5F5F5F5F5F5F5F5F5F5F5F5F5F5F5F5F5F5F5F5F5F5F5F5F5F5F5F5F5F5F5F5F5F5F5F5F5F5F5F5F5F5F5F5F5F5F5F5F5F5F5F5F5F5F5F5F5F5F5F5F5F5F5F5F5F5F5F5F5F5F5F5F5F5F5F5F5
310
F5F5F5F5F5F5F5F5F5F5F5F5F5F5F5F5F5F5F5F5F5F5F5F5F5F5F5F5F5F5F5F5F5F5F5F5F5F5F5F5F5F5F5F5F5F5F5F5F528F5DCF5F5F5F5F5F5F5F5F5F5F5F5F5F5F5F5F5E2F5E2E2F5E2F5F5F5F5F5F5F5F5F5F5F5F5F5F5F5F5F5DCF528F5F5F5F5F5F5F5F5F5F5F5F5F5F5F5F5F5F5F5F5F5F5F5F5F5F5F5F5F5F5F5F5
310
F5F5F5F5F5F5F5F5F5F5F5F5F5F5F5F5F5F5F5F5F5F5F5F5F5F5F5F5F5F5F5F5F5F5F5F5F5F5F5F5F5F5F5F5F5F5F5F5F5F5F5F5F5F5F5F5F5F5F5F5F5F5F5F5F5F5F5F5F5F5F5F5F5F5F5F5F5F5F5F5F5F5F5F5F5F5F5F5F5F5F5F5F5F5F5F5F5F5F5F5F5F528F5DCF5F5F5F5F5F5F5F5F5F5F5F5F5F5F5F5F5E2F5E2E2F5
310
F5F5F5F5F5F5F5F5F5F5F5F5F5F5F5F5F5F5DCF528F5F5F5F5F5F5F5F5F5F5F5F5F5F5F5F5F5F5F5F5F5F5F5F5F5F5F5F5F5F5F5F5F5F5F5F5F5F5F5F5F5F5F5F5F5F5F5F5F5F5F5F5F5F5F5F5F5F5F5F5F5F5F5F5F5F5F5F5F5F5F5F5F5F5F5F5F5F5F5F5F5F5F5F5F5F5F5F5F5F5F5F5F5F5F5F5F5F5F5F5F5F5F5F5F5F5
310
F5F5F5F5F5F5F5F5F5F5F5F5F5F5F5F5F5F5F5F5F5F5F5F5F5F5F5F528F5DCF5F5F5F5F5F5F5F5F5F5F5F5F5F5F5F5F5F5F5E2E2F5F5F5F5F5F5F5F5F5F5F5F5F5F5F5F5F5F5F5DCF528F5F5F5F5F5F5F5F5F5F5F5F5F5F5F5F5F5F5F5F5F5F5F5F5F5F5F5F5F5F5F5F5F5F5F5F5F5F5F5F5F5F5F5F5F5F5F5F5F5F5F5F5F5
310
F5F5F5F5F5F5F5F5F5F5F5F5F5F5F5F5F5F5F5F5F5F5F5F5F5F5F5F5F5F5F5F5F5F5F5F5F5F5F5F5F5F5F5F5F5F5F5F5F5F5F5F5F5F5F5F5F5F5F5F5F5F5F5F5F5F5F5F5F5F5F5F5F5F5F5F5F5F5F5F5F528F5DCF5F5F5F5F5F5F5F5F5F5F5F5F5F5F5F5F5F5F5E2E2F5F5F5F5F5F5F5F5F5F5F5F5F5F5F5F5F5F5F5DCF528
310
F5F5F5F5F5F5F5F5F5F5F5F5F5F5F5F5F5F5F5F5F5F5F5F5F5F5F5F5F5F5F5F5F5F5F5F5F5F5F5F5F5F5F5F5F5F5F5F5F5F5F5F5F5F5F5F5F5F5F5F5F5F5F5F5F5F5F5F5F5F5F5F5F5F5F5F5F5F5F5F5F5F5F5F5F5F5F5F5F5F5F5F5F5F5F5F5F5F5F5F5F5F5F5F5F5F5F5F5F5F5F5F5F5F5F5F5F5F5F5F5F5F5F5F5F5F5F5
310
F5F5F5F5F5F5F528F5DCF5F5F5F5F5F5F5F5F5F5F5F5F5F5F5F5F5F5F5E2E2F5F5F5F5F5F5F5F5F5F5F5F5F5F5F5F5F5F5F5DCF528F5F5F5F5F5F5F5F5F5F5F5F5F5F5F5F5F5F5F5F5F5F5F5F5F5F5F5F5F5F5F5F5F5F5F5F5F5F5F5F5F5F5F5F5F5F5F5F5F5F5F5F5F5F5F5F5F5F5F5F5F5F5F5F5F5F5F5F5F5F5F5F5F5F5
310
F5F5F5F5F5F5F5F5F5F5F5F5F5F5F5F5F5F5F5F5F5F5F5F5F5F5F5F5F5F5F5F5F5F5F5F5F5F5F5F5F5F5F5F5F5F5F5F5F5F5F5F5F5F5F5F5F5F5F5F528F5DCF5F5F5F5F5F5F5F5F5F5F5F5F5F5F5F5F5F5F5E2E2F5F5F5F5F5F5F5F5F5F5F5F5F5F5F5F5F5F5F5DCF528F5F5F5F5F5F5F5F5F5F5F5F5F5F5F5F5F5F5F5F5F5
310
F5F5F5F5F5F5F5F5F5F5F5F5F5F5F5F5F5F5F5F5F5F5F5F5F5F5F5F5F5F5F5F5F5F5F5F5F5F5F5F5F5F5F5F5F5F5F5F5F5F5F5F5F5F5F5F5F5F5F5F5F5F5F5F5F5F5F5F5F5F5F5F5F5F5F5F5F5F5F5F5F5F5F5F5F5F5F5F5F5F5F5F5F5F5F5F5F5F5F5F5F5F5F5F5F5F5F5F5F5F5F5F5F528F5DCF5F5F5F5F5F5F5F5F5F5F5
310
F5F5F5F5F5F5F5F5E2E2F5F5F5F5F5F5F5F5F5F5F5F5F5F5F5F5F5F5F5DCF528F5F5F5F5F5F5F5F5F5F5F5F5F5F5F5F5F5F5F5F5F5F5F5F5F5F5F5F5F5F5F5F5F5F5F5F5F5F5F5F5F5F5F5F5F5F5F5F5F5F5F5F5F5F5F5F5F5F5F5F5F5F5F5F5F5F5F5F5F5F5F5F5F5F5F5F5F5F5F5F5F5F5F5F5F5F5F5F5F5F5F5F5F5F5F5
310
F5F5F5F5F5F5F5F5F5F5F5F5F5F5F5F5F5F5F5F5F5F5F5F5F5F5F5F5F5F5F5F5F5F5F5F5F5F5F528F5DCF5F5F5F5F5F5F5F5F5F5F5F5F5F5F5F5F5F5F5E2E2F5F5F5F5F5F5F5F5F5F5F5F5F5F5F5F5F5F5F5DCF528F5F5F5F5F5F5F5F5F5F5F5F5F5F5F5F5F5F5F5F5F5F5F5F5F5F5F5F5F5F5F5F5F5F5F5F5F5F5F5F5F5F5
310
F5F5F5F5F5F5F5F5F5F5F5F5F5F5F5F5F5F5F5F5F5F5F5F5F5F5F5F5F5F5F5F5F5F5F5F5F5F5F5F5F5F5F5F5F5F5F5F5F5F5F5F5F5F5F5F5F5F5F5F5F5F5F5F5F5F5F5F5F5F5F5F5F5F5F5F5F5F5F5F5F5F5F5F5F5F5F5F5F5F5F5F528F5DCF5F5F5F5F5F5F5F5F5F5F5F5F5F5F5F5F5F5F5E2E2F5F5F5F5F5F5F5F5F5F5F5
310
F5F5F5F5F5F5F5F5DCF528F5F5F5F5F5F5F5F5F5F5F5F5F5F5F52D2D2D2D2D2D2D2D2D2DF5F5F5F5F5F5F5F5F5F5F5F5F5F5F5F5F5F5F5F5F5F5F5F5F5F5F5F5F5F5F5F5F5F5F5F5F5F5F5F5F5F5F5F5F5F5F5F5F5F5F5F5F5F5F5F5F5F5F5F5F5F5F5F5F5F5F5F5F5F5F5F5F5F5F5F5F5F5F5F5F5F5F5F5F5F5F5F5F5F5F5
310
F5F5F5F5F5F5F5F5F5F5F5F5F5F5F5F5F5F528F5DCF5F5F5F5F5F5F5F5F5F5F5F5F5F5F5F5F5F5F5E2E2F5E2F5F5F5F5F5F5F5F5F5F5F5F5F5F5F5F5F5DCF528F5F5F5F5F5F5F5F5F5F5F5F5F5F5F52D2D2D2D2D2D2D2D2D2DF5F5F5F5F5F5F5F5F5F5F5F5F5F5F5F5F5F5F5F5F5F5F5F5F5F5F5F5F5F5F5F5F5F5F5F5F5F5
310
F5F5F5F5F5F5F5F5F5F5F5F5F5F5F5F5F5F5F5F5F5F5F5F5F5F5F5F5F5F5F5F5F5F5F5F5F5F5F5F5F5F5F5F5F5F5F5F5F5F5F5F5F5F5F5F5F5F5F5F5F5F5F5F5F5F5F5F5F5F5F528F5DCF5F5F5F5F5F5F5F5F5F5F5F5F5F5F5F5F5E2F5E2E2F5E2F5F5F5F5F5F5F5F5F5F5F5F5F5F5F5F5F5DCF528F5F5F5F5F5F5F5F5F5F5
310
F5F5F5F5F5F5F5F5F5F5F5F5F5F5F5F5F5F5F5F5F5F5F5F5F5F5F5F5F5F5F5F5F5F5F5F5F5F5F5F5F5F5F5F5F5F5F5F5F5F5F5F5F5F5F5F5F5F5F5F5F5F5F5F5F5F5F5F5F5F5F5F5F5F5F5F5F5F5F5F5F5F5F5F5F5F5F5F5F5F5F5F5F5F5F5F5F5F5F5F5F5F5F5F5F5F5F5F5F5F5F5F5F5F5F5F5F5F5F5F5F5F5F5F528F5DC
310
F5F5F5F5F5F5F5F5F5F5F5F5F5F5F5F5F5E2F5E2E2F5E2F5F5F5F5F5F5F5F5F5F5F5F5F5F5F5F5F5DCF528F5F5F5F5F5F5F5F5F5F5F5F5F5F5F5F5F5F5F5F5F5F5F5F5F5F5F5F5F5F5F5F5F5F5F5F5F5F5F5F5F5F5F5F5F5F5F5F5F5F5F5F5F5F5F5F5F5F5F5F5F5F5F5F5F5F5F5F5F5F5F5F5F5F5F5F5F5F5F5F5F5F5F5F5
310
F5F5F5F5F5F5F5F5F5F5F5F5F5F5F5F5F5F5F5F5F5F5F5F5F5F5F5F5F5F5F5F5F5F5F5F5F5F5F5F5F5F5F5F5F5F5F5F5F5F528F5DCF5F5F5F5F5F5F5F5F5F5F5F5F5F5F5F5F5E2F5E2E2F5E2F5F5F5F5F5F5F5F5F5F5F5F5F5F5F5F5F5DCF528F5F5F5F5F5F5F5F5F5F5F5F5F5F5F5F5F5F5F5F5F5F5F5F5F5F5F5F5F5F5F5
310
F5F5F5F5F5F5F5F5F5F5F5F5F5F5F5F5F5F5F5F5F5F5F5F5F5F5F5F5F5F5F5F5F5F5F5F5F5F5F5F5F5F5F5F5F5F5F5F5F5F5F5F5F5F5F5F5F5F5F5F5F5F5F5F5F5F5F5F5F5F5F5F5F5F5F5F5F5F5F5F5F5F5F5F5F5F5F5F5F5F5F5F5F5F5F5F5F5F5F5F5F5F5F528F5DCF5F5F5F5F5F5F5F5F5F5F5F5F5F5F5F5F5E2F5E2E2
310
F5E2F5F5F5F5F5F5F5F5F5F5F5F5F5F5F5F5F5DCF528F5F5F5F5F5F5F5F5F5F5F5F5F5F5F5F5F5F5F5F5F5F5F5F5F5F5F5F5F5F5F5F5F5F5F5F5F5F5F5F5F5F5F5F5F5F5F5F5F5F5F5F5F5F5F5F5F5F5F5F5F5F5F5F5F5F5F5F5F5F5F5F5F5F5F5F5F5F5F5F5F5F5F5F5F5F5F5F5F5F5F5F5F5F5F5F5F5F5F5F5F5F5F5F5F5
310
F5F5F5F5F5F5F5F5F5F5F5F5F5F5F5F5F5F5F5F5F5F5F5F5F5F5F5F5F528F5DCF5F5F5F5F5F5F5F5F5F5F5F5F5F5F5F5F5E2F5E2E2F5E2F5F5F5F5F5F5F5F5F5F5F5F5F5F5F5F5F5DCF528F5F5F5F5F5F5F5F5F5F5F5F5F5F5F5F5F5F5F5F5F5F5F5F5F5F5F5F5F5F5F5F5F5F5F5F5F5F5F5F5F5F5F5F5F5F5F5F5F5F5F5F5
310
F5F5F5F5F5F5F5F5F5F5F5F5F5F5F5F5F5F5F5F5F5F5F5F5F5F5F5F5F5F5F5F5F5F5F5F5F5F5F5F5F5F5F5F5F5F5F5F5F5F5F5F5F5F5F5F5F5F5F5F5F5F5F5F5F5F5F5F5F5F5F5F5F5F5F5F5F5F5F5F5F5F528F5DCF5F5F5F5F5F5F5F5F5F5F5F5F5F5F5F5F5E2F5E2E2F5E2F5F5F5F5F5F5F5F5F5F5F5F5F5F5F5F5F5DCF5
310
28F5F5F5F5F5F5F5F5F5F5F5F5F5F5F5F5F5F5F5F5F5F5F5F5F5F5F5F5F5F5F5F5F5F5F5F5F5F5F5F5F5F5F5F5F5F5F5F5F5F5F5F5F5F5F5F5F5F5F5F5F5F5F5F5F5F5F5F5F5F5F5F5F5F5F5F5F5F5F5F5F5F5F5F5F5F5F5F5F5F5F5F5F5F5F5F5F5F5F5F5F5F5F5F5F5F5F5F5F5F5F5F5F5F5F5F5F5F5F5F5F5F5F5F5F5F5
310
F5F5F5F5F5F5F5F528F5DCF5F5F5F5F5F5F5F5F5F5F5F5F5F5F5F5F5E2F5E2E2F5E2F5F5F5F5F5F5F5F5F5F5F5F5F5F5F5F5F5DCF528F5F5F5F5F5F5F5F5F5F5F5F5F5F5F5F5F5F5F5F5F5F5F5F5F5F5F5F5F5F5F5F5F5F5F5F5F5F5F5F5F5F5F5F5F5F5F5F5F5F5F5F5F5F5F5F5F5F5F5F5F5F5F5F5F5F5F5F5F5F5F5F5F5
310
F5F5F5F5F5F5F5F5F5F5F5F5F5F5F5F5F5F5F5F5F5F5F5F5F5F5F5F5F5F5F5F5F5F5F5F5F5F5F5F5F5F5F5F5F5F5F5F5F5F5F5F5F5F5F5F5F5F5F5F5F528F5DCF5F5F5F5F5F5F5F5F5F5F5F5F5F5F5F5F5E2F5E2E2F5E2F5F5F5F5F5F5F5F5F5F5F5F5F5F5F5F5F5DCF528F5F5F5F5F5F5F5F5F5F5F5F5F5F5F5F5F5F5F5F5
310
F5F5F5F5F5F5F5F5F5F5F5F5F5F5F5F5F5F5F5F5F5F5F5F5F5F5F5F5F5F5F5F5F5F5F5F5F5F5F5F5F5F5F5F5F5F5F5F5F5F5F5F5F5F5F5F5F5F5F5F5F5F5F5F5F5F5F5F5F5F5F5F5F5F5F5F5F5F5F5F5F5F5F5F5F5F5F5F5F5F5F5F5F5F5F5F5F5F5F5F5F5F5F5F5F5F5F5F5F5F5F5F5F5F528F5DCF5F5F5F5F5F5F5F5F5F5
310
F5F5F5F5F5F5F5E2F5E2E2F5E2F5F5F5F5F5F5F5F5F5F5F5F5F5F5F5F5F5DCF528F5F5F5F5F5F5F5F5F5DCF5F5F5F5F5F5F5F5F5F5F5F5F5F5F5F5F5F5F5F5F5F5F5F5F5F5F5F5F5F5F5F5F5F5F5F5F5F5F5F5F5F5F5F5F5F5F5F5F5F5F5F5F5F5F5F5F5F5F5F5F5F5F5F5F5F5F5F5F5F5F5F5F5F5F5F5F5F5F5F5F5F5F5F5
310
F5F5F5F5F5F5F5F5F5F5F5F5F5F5F5F5F5F5F5F5F5F5F5F5F5F5F5F5F5F5F5F5F5F5F5F5F5F5F5F528F5DCF5F5F5F5F5F5F5F5F5F5F5F5F5F5F5F5F5E2F5E2E2F5E2F5F5F5F5F5F5F5F5F5F5F5F5F5F5F5F5F5DCF528F5F5F5F5F5F5F5F50FDCF5F5F5F5F52D2D2D2D2D2D2D2DF5F5F5F5F50FF5F5F5F5F5F5F5F5F5F5F5F5
310
F5F5F5F5F5F5F5F5F5F5F5F5F5F5F5F5F5F5F5F5F5F5F5F5F5F5F5F5F5F5F5F5F5F5F5F5F5F5F5F5F5F5F5F5F5F5F5F5F5F5F5F5F5F5F5F5F5F5F5F5F5F5F5F5F5F5F5F5F5F5F5F5F5F5F5F5F5F5F5F5F5F5F5F5F5F5F5F5F5F5F5F5F528F5DCF5F5F5F5F5F5F5F5F5F5F5F5F5F5F5F5F5E2F5E2E2F5E2F5F5F5F5F5F5F5F5
310
F5F5F5F5F5F5F5F5F5DCF528F5F5F5F5DCF5F5DC0FDC0F0F0F0F0F2D2D2D2D2D2D2D2D0F0F0F0F0F0F0FF5F5F5F5F5F5F5F5F5F5F5F5F5F5F5F5F5F5F5F5F5F5F5F5F5F5F5F5F5F5F5F5F5F5F5F5F5F5F5F5F5F5F5F5F5F5F5F5F5F5F5F5F5F5F5F5F5F5F5F5F5F5F5F5F5F5F5F5F5F5F5F5F5F5F5F5F5F5F5F5F5F5F5F5F5
310
F5F5F5F5F5F5F5F5F5F5F5F5F5F5F5F5F5F5F528F5DCF5F5F5F5F5F5F5F5F5F5F5F5F5F5F5F5F5E2F5E2E2F5E2F5F5F5F5F5F5F5F5F5F5F5F5F5F5F5F5F5DCF528F5F5F5DCF5F5DCF5F5DCF5F5F5F5F5F5F5F5F5F5F5F5F5F5F5F5F5F50FF5F5F5F5F5F5F5F5F5F5F5F5F5F5F5F5F5F5F5F5F5F5F5F5F5F5F5F5F5F5F5F5F5
310
F5F5F5F5F5F5F5F5F5F5F5F5F5F5F5F5F5F5F5F5F5F5F5F5F5F5F5F5F5F5F5F5F5F5F5F5F5F5F5F5F5F5F5F5F5F5F5F5F5F5F5F5F5F5F5F5F5F5F5F5F5F5F5F5F5F5F5F5F5F5F5F528F5DCF5F5F5F5F5F5F5F5F5F5F5F5F5F5F5F5F5E2F5E2E2F5E2F5F5F5F5F5F5F5F5F5F5F5F5F5F5F5F5F5DCF528F5F5F5F5F5DCF5F5DC
310
DCF5F5F5F5F5F5F5F5F5F5F5F5F5F5F5F5F5F50FF5F5F5F5F5F5F5F5F5F5F5F5F5F5F5F5F5F5F5F5F5F5F5F5F5F5F5F5F5F5F5F5F5F5F5F5F5F5F5F5F5F5F5F5F5F5F5F5F5F5F5F5F5F5F5F5F5F5F5F5F5F5F5F5F5F5F5F5F5F5F5F5F5F5F5F5F5F5F5F5F5F5F5F5F5F5F5F5F5F5F5F5F5F5F5F5F5F5F5F5F5F5F5F5F528F5
310
DCF5F5F5F5F5F5F5F5F5F5F5F5F5F5F5F5F5E2F5E2E2F5E2F5F5F5F5F5F5F5F5F5F5F5F5F5F5F5F5F5DCF528F5F5F5F5DCF5F5DCF5DCF5F5F5F5F5F5F5F5F5F5F5F5F5F5F5F5F5F50FF5F5F5F5F5F5F5F5F5F5F5F5F5F5F5F5F5F5F5F5F5F5F5F5F5F5F5F5F5F5F5F5F5F5F5F5F5F5F5F5F5F5F5F5F5F5F5F5F5F5F5F5F5F5
310
F5F5F5F5F5F5F5F5F5F5F5F5F5F5F5F5F5F5F5F5F5F5F5F5F5F5F5F5F5F5F5F5F5F5F5F5F5F5F5F5F5F5F5F5F5F5F5F5F5F5F528F5DCF5F5F5F5F5F5F5F5F5F5F5F5F5F5F5F5F5E2F5E2E2F5E2F5F5F5F5F5F5F5F5F5F5F5F5F5F5F5F5F5DCF528F5F5F5DCF5F5DCF5F5DCF5F5F5F5F5F5F5F5F5F5F5F5F5F5F5F5F5F50FF5
310
F5F5F5F5F5F5F5F5F5F5F5F5F5F5F5F5F5F5F5F5F5F5F5F5F5F5F5F5F5F5F5F5F5F5F5F5F5F5F5F5F5F5F5F5F5F5F5F5F5F5F5F5F5F5F5F5F5F5F5F5F5F5F5F5F5F5F5F5F5F5F5F5F5F5F5F5F5F5F5F5F5F5F5F5F5F5F5F5F5F5F5F5F5F5F5F5F5F5F5F5F5F5F5F528F5DCF5F5F5F5F5F5F5F5F5F5F5F5F5F5F5F5F5E2F5E2
310
E2F5F5F5F5F5F5F5F5F5F5F5F5F5F5F5F5F5F5F5DCF528F5F5F5F5F5DCF5F5F5DC1B0F0F0F0F0F0F0F0F0F0F0F0F0F0F0F0F0F0F0F0F0F0F0F0F0FF5F5F5F5F5F5F5F5F5F5F5F5F5F5F5F5F5F5F5F5F5F5F5F5F5F5F5F5F5F5F5F5F5F5F5F5F5F5F5F5F5F5F5F5F5F5F5F5F5F5F5F5F5F5F5F5F5F5F5F5F5F5F5F5F5F5F5F5
310
F5F5F5F5F5F5F5F5F5F5F5F5F5F5F5F5F5F5F5F5F5F5F5F5F5F5F5F5F5F528F5DCF5F5F5F5F5F5F5F5F5F5F5F5F5F5F5F5F5F5F5E2E2F5F5F5F5F5F5F5F5F5F5F5F5F5F5F5F5F5F5F5DCF528F5F5F5F5DCF5F5F5DCDCBEF5F5F5F5F5F5F5F5F5F5F5F5F5F5F5F5F50FF5F5F5F5F50FF5F5F5F5F5F5F5F5F5F5F5F5F5F5F5F5
310
F5F5F5F5F5F5F5F5F5F5F5F5F5F5F5F5F5F5F5F5F5F5F5F5F5F5F5F5F5F5F5F5F5F5F5F5F5F5F5F5F5F5F5F5F5F5F5F5F5F5F5F5F5F5F5F5F5F5F5F5F5F5F5F5F5F5F5F5F5F5F5F5F5F5F5F5F5F5F5F5F5F5F528F5DCF5F5F5F5F5F5F5F5F5F5F5F5F5F5F5F5F5F5F5E2E2F5F5F5F5F5F5F5F5F5F5F5F5F5F5F5F5F5F5F5DC
310
F528F5F5F5DCF5F5F5DCF5DCF5BEBEF5F5F5F5F5F5F5F5F5F5F5F5F5F5F50FF5F5F5F5F50FF5F5F5F5F5F5F5F5F5F5F5F5F5F5F5F5F5F5F5F5F5F5F5F5F5F5F5F5F5F5F5F5F5F5F5F5F5F5F5F5F5F5F5F5F5F5F5F5F5F5F5F5F5F5F5F5F5F5F5F5F5F5F5F5F5F5F5F5F5F5F5F5F5F5F5F5F5F5F5F5F5F5F5F5F5F5F5F5F5F5
310
F5F5F5F5F5F5F5F5F528F5DCF5F5F5F5F5F5F5F5F5F5F5F5F5F5F5F5F5F5F5E2E2F5F5F5F5F5F5F5F5F5F5F5F5F5F5F5F5F5F5F5DCF528F5F5F5F5F5DCDCF5F5DCF5F5BEBEF5F5F5F5F5F5F5F5F5F5F5F5F5F50FF5F5F5F5F50FF5F5F5F5F5F5F5F5F5F5F5F5F5F5F5F5F5F5F5F5F5F5F5F5F5F5F5F5F5F5F5F5F5F5F5F5F5
310
F5F5F5F5F5F5F5F5F5F5F5F5F5F5F5F5F5F5F5F5F5F5F5F5F5F5F5F5F5F5F5F5F5F5F5F5F5F5F5F5F5F5F5F5F5F5F5F5F5F5F5F5F5F5F5F5F5F5F5F5F5F528F5DCF5F5F5F5F5F5F5F5F5F5F5F5F5F5F5F5F5F5F5E2E2F5F5F5F5F5F5F5F5F5F5F5F5F5F5F5F5F5F5F5DCF528F5F5F5F5DCF5F5F5DCDCF5F5F5BEF5F5F5F5F5
310
F5F5F5F5F5F5F5F5F50FF5F5F5F5F50FF5F5F5F5F5F5F5F5F5F5F5F5F5F5F5F5F5F5F5F5F5F5F5F5F5F5F5F5F5F5F5F5F5F5F5F5F5F5F5F5F5F5F5F5F5F5F5F5F5F5F5F5F5F5F5F5F5F5F5F5F5F5F5F5F5F5F5F5F5F5F5F5F5F5F5F5F5F5F5F5F5F5F5F5F5F5F5F5F5F5F5F5F5F5F5F5F5F5F528F5DCF5F5F5F5F5F5F5F5F5
310
F5F5F5F5F5F5F5F5F5F5E2E2F5F5F5F5F5F5F5F5F5F5F5F5F5F5F5F5F5F5F5DCF528F5F5F5DCF5F5F5DCF5DCF5F5F5BEBEBEF5F5F5F5F5F5F5F5F5F5F5F50FF5F5F5F5F50FF5F5F5F5F5F5F5F5F5F5F5F5F5F5F5F5F5F5F5F5F5F5F5F5F5F5F5F5F5F5F5F5F5F5F5F5F5F5F5F5F5F5F5F5F5F5F5F5F5F5F5F5F5F5F5F5F5F5
310
F5F5F5F5F5F5F5F5F5F5F5F5F5F5F5F5F5F5F5F5F5F5F5F5F5F5F5F5F5F5F5F5F5F5F5F5F5F5F5F5F528F5DCF5F5F5F5F5F5F5F5F5F5F5F5F5F5F5F5F5F5F5E2E2F5F5F5F5F5F5F5F5F5F5F5F5F5F5F5F5F5F5F5DCF528F5F5F5F5F5DCDCF5F5DCF5F5F5F5BEBEF5F5F5F5F5F5F5F5F5F5F5F50FF5F5F5F5F50FF5F5F5F5F5
310
F5F5F5F5F5F5F5F5F5F5F5F5F5F5F5F5F5F5F5F5F5F5F5F5F5F5F5F5F5F5F5F5F5F5F5F5F5F5F5F5F5F5F5F5F5F5F5F5F5F5F5F5F5F5F5F5F5F5F5F5F5F5F5F5F5F5F5F5F5F5F5F5F5F5F5F5F5F5F5F5F5F5F5F5F5F5F5F5F5F5F5F5F5F528F5DCF5F5F5F5F5F5F5F5F5F5F5F5F5F5F5F5F5F5F5E2E2F5F5F5F5F5F5F5F5F5
310
F5F5F5F5F5F5F5F5F5F5DCF528F5F5F5F5DCF5F5F5DCDCF5F5F5F5BEF5F5F5F5F5F5F5F5F5F5F5F5F50FF5F5F5F5F50FF5F5F5F5F5F5F5F5F5F5F5F5F5F5F5F5F5F5F5F5F5F5F5F5F5F5F5F5F5F5F5F5F5F5F5F5F5F5F5F5F5F5F5F5F5F5F5F5F5F5F5F5F5F5F5F5F5F5F5F5F5F5F5F5F5F5F5F5F5F5F5F5F5F5F5F5F5F5F5
310
F5F5F5F5F5F5F5F5F5F5F5F5F5F5F5F5F5F5F5F528F5DCF5F5F5F5F5F5F5F5F5F5F5F5F5F5F5F5F5F5F5E2E2F5F5F5F5F5F5F5F5F5F5F5F5F5F5F5F5F5F5F5DCF528F5F5F5DCF5F5F5DCF5DCF5F5F5F5BEF5F5F5F5F5F5F5F5F5F5F5F5F50FF5F5F5F5F50FF5F5F5F5F5F5F5F5F5F5F5F5F5F5F5F5F5F5F5F5F5F5F5F5F5F5
310
F5F5F5F5F5F5F5F5F5F5F5F5F5F5F5F5F5F5F5F5F5F5F5F5F5F5F5F5F5F5F5F5F5F5F5F5F5F5F5F5F5F5F5F5F5F5F5F5F5F5F5F5F5F5F5F5F5F5F5F5F5F5F5F5F5F5F5F5F5F5F5F5F528F5DCF5F5F5F5F5F5F5F5F5F5F5F5F5F5F5F5F5F5F5E2E2F5E2F5F5F5F5F5F5F5F5F5F5F5F5F5F5F5F5F5DCF528F5F5F5F5F5F5DCF5
310
F5DCBEBEF5F5BEF5F5F5F5F5F5F5F5F5F5F5F5F50FF5F52D2D2D2D2D2D2D2DF5F5F5F5F5F5F5F5F5F5F5F5F5F5F5F5F5F5F5F5F5F5F5F5F5F5F5F5F5F5F5F5F5F5F5F5F5F5F5F5F5F5F5F5F5F5F5F5F5F5F5F5F5F5F5F5F5F5F5F5F5F5F5F5F5F5F5F5F5F5F5F5F5F5F5F5F5F5F5F5F5F5F5F5F5F5F5F5F5F5F5F5F5F5F528
310
F5DCF5F5F5F5F5F5F5F5F5F5F5F5F5F5F5F5F5E2F5E2E2F5E2F5F5F5F5F5F5F5F5F5F5F5F5F5F5F5F5F5DCF528F5F5F5F5F5DCF5F5DCDCF5BEF5F5BEF5F5F5F5F5F5F5F5F5F5F5F5F50FF5F52D2D2D2D2D2D2D2DF5F5F5F5F5F5F5F5F5F5F5F5F5F5F5F5F5F5F5F5F5F5F5F5F5F5F5F5F5F5F5F5F5F5F5F5F5F5F5F5F5F5F5
310
F5F5F5F5F5F5F5F5F5F5F5F5F5F5F5F5F5F5F5F5F5F5F5F5F5F5F5F5F5F5F5F5F5F5F5F5F5F5F5F5F5F5F5F5F5F5F5F5F5F5F5F528F5DCF5F5F5F5F5F5F5F5F5F5F5F5F5F5F5F5F5E2F5E2E2F5E2F5F5F5F5F5F5F5F5F5F5F5F5F5F5F5F5F5DCF528F5F5F5F5DCF5F5DCF5DCF5BEF5F5BEBEF5F5F5F5F5F5F5F5F5F5F5F50F
310
F5F5F5F5F50FF5F5F5F5F5F5F5F5F5F5F5F5F5F5F5F5F5F5F5F5F5F5F5F5F5F5F5F5F5F5F5F5F5F5F5F5F5F5F5F5F5F5F5F5F5F5F5F5F5F5F5F5F5F5F5F5F5F5F5F5F5F5F5F5F5F5F5F5F5F5F5F5F5F5F5F5F5F5F5F5F5F5F5F5F5F5F5F5F5F5F5F5F5F5F5F5F5F5F528F5DCF5F5F5F5F5F5F5F5F5F5F5F5F5F5F5F5F5E2F5
310
E2E2F5E2F5F5F5F5F5F5F5F5F5F5F5F5F5F5F5F5F5DCF528F5F5F5DCF5F5DCF5F5DCF5F5BEF5F5BEF5F5F5F5F5F5F5F5F5F5F5F50FF5F5F5F5F50FF5F5F5F5F5F5F5F5F5F5F5F5F5F5F5F5F5F5F5F5F5F5F5F5F5F5F5F5F5F5F5F5F5F5F5F5F5F5F5F5F5F5F5F5F5F5F5F5F5F5F5F5F5F5F5F5F5F5F5F5F5F5F5F5F5F5F5F5
310
F5F5F5F5F5F5F5F5F5F5F5F5F5F5F5F5F5F5F5F5F5F5F5F5F5F5F5F5F5F5F528F5DCF5F5F5F5F5F5F5F5F5F5F5F5F5F5F5F5F5E2F5E2E2F5E2F5F5F5F5F5F5F5F5F5F5F5F5F5F5F5F5F5DCF528F5F5F5F5F5DCF5F5DCDCF5F5BEF5F5F5BEBEF5F5F5F5BEBEF5F5F5F50FF5F5F5F5F50FF5F5F5F5F5F5F5F5F5F5F5F5F5F5F5
310
F5F5F5F5F5F5F5F5F5F5F5F5F5F5F5F5F5F5F5F5F5F5F5F5F5F5F5F5F5F5F5F5F5F5F5F5F5F5F5F5F5F5F5F5F5F5F5F5F5F5F5F5F5F5F5F5F5F5F5F5F5F5F5F5F5F5F5F5F5F5F5F5F5F5F5F5F5F5F5F5F5F5F5F528F5DCF5F5F5F5F5F5F5F5F5F5F5F5F5F5F5F5F5E2F5E2E2F5E2F5F5F5F5F5F5F5F5F5F5F5F5F5F5F5F5F5
310
DCF528F5F5F5F5DCF5F5DCF5DCF5F5F5BEF5F5F5BEBEBEBEBEF5BEF5F5F5F50FF5F5F5F5F50FF5F5F5F5F5F5F5F5F5F5F5F5F5F5F5F5F5F5F5F5F5F5F5F5F5F5F5F5F5F5F5F5F5F5F5F5F5F5F5F5F5F5F5F5F5F5F5F5F5F5F5F5F5F5F5F5F5F5F5F5F5F5F5F5F5F5F5F5F5F5F5F5F5F5F5F5F5F5F5F5F5F5F5F5F5F5F5F5F5
310
F5F5F5F5F5F5F5F5F5F528F5DCF5F5F5F5F5F5F5F5F5F5F5F5F5F5F5F5F5E2F5E2E2F5E2F5F5F5F5F5F5F5F5F5F5F5F5F5F5F5F5F5DCF528F5F5F5DCF5F5DCF5F5DCF5F5F5F5BEF5F5F5F5F5F5F5F5BEBEF5F5F50FF5F5F5F5F50FF5F5F5F5F5F5F5F5F5F5F5F5F5F5F5F5F5F5F5F5F5F5F5F5F5F5F5F5F5F5F5F5F5F5F5F5
310
F5F5F5F5F5F5F5F5F5F5F5F5F5F5F5F5F5F5F5F5F5F5F5F5F5F5F5F5F5F5F5F5F5F5F5F5F5F5F5F5F5F5F5F5F5F5F5F5F5F5F5F5F5F5F5F5F5F5F5F5F5F5F528F5DCF5F5F5F5F5F5F5F5F5F5F5F5F5F5F5F5F5E2F5E2E2F5E2F5F5F5F5F5F5F5F5F5F5F5F5F5F5F5F5F5DCF528F5F5F5F5F5DCF5F5F5DCF5F5F5F5F5BEBEBE
310
F5F5F5F5F5F5F5BEBEF50FF5F5F5F5F50FF5F5F5F5F5F5F5F5F5F5F5F5F5F5F5F5F5F5F5F5F5F5F5F5F5F5F5F5F5F5F5F5F5F5F5F5F5F5F5F5F5F5F5F5F5F5F5F5F5F5F5F5F5F5F5F5F5F5F5F5F5F5F5F5F5F5F5F5F5F5F5F5F5F5F5F5F5F5F5F5F5F5F5F5F5F5F5F5F5F5F5F5F5F5F5F5F5F5F528F5DCF5F5F5F5F5F5F5F5
310
F5F5F5F5F5F5F5F5F5E2F5E2E2F5E2F5F5F5F5F5F5F5F5F5F5F5F5F5F5F5F5F5DCF528F5F5F5F5DCF5F5F5DCDCF5F5F5F5F5F5F5F5BEBEF5F5F5F5F5F5BEF50FF5F5F5F5F50FF5F5F5F5F5F5F5F5F5F5F5F5F5F5F5F5F5F5F5F5F5F5F5F5F5F5F5F5F5F5F5F5F5F5F5F5F5F5F5F5F5F5F5F5F5F5F5F5F5F5F5F5F5F5F5F5F5
310
F5F5F5F5F5F5F5F5F5F5F5F5F5F5F5F5F5F5F5F5F5F5F5F5F5F5F5F5F5F5F5F5F5F5F5F5F5F5F5F5F5F528F5DCF5F5F5F5F5F5F5F5F5F5F5F5F5F5F5F5F5E2F5E2E2F5E2F5F5F5F5F5F5F5F5F5F5F5F5F5F5F5F5F5DCF528F5F5F5DCF5F5F5DCF5DCF5F5F5F5F5F5F5F5F5BEBEF5F5F5F5F5F5BE1BF5F5F5F5F50FF5F5F5F5
310
F5F5F5F5F5F5F5F5F5F5F5F5F5F5F5F5F5F5F5F5F5F5F5F5F5F5F5F5F5F5F5F5F5F5F5F5F5F5F5F5F5F5F5F5F5F5F5F5F5F5F5F5F5F5F5F5F5F5F5F5F5F5F5F5F5F5F5F5F5F5F5F5F5F5F5F5F5F5F5F5F5F5F5F5F5F5F5F5F5F5F5F5F5F5F528F5DCF5F5F5F5F5F5F5F5F5F5F5F5F5F5F5F5F5E2F5E2E2F5E2F5F5F5F5F5F5
310
F5F5F5F5F5F5F5F5F5F5F5DCF528F5F5F5F5F5DCDCF5F5DCF5F5F5F5F5F5F5F5F5F5BEF5F5F5F5F5F5F5BEF5F5F5F5F50F0FF5F5F5F5F5F5F5F5F5F5F5F5F5F5F5F5F5F5F5F5F5F5F5F5F5F5F5F5F5F5F5F5F5F5F5F5F5F5F5F5F5F5F5F5F5F5F5F5F5F5F5F5F5F5F5F5F5F5F5F5F5F5F5F5F5F5F5F5F5F5F5F5F5F5F5F5F5
310
F5F5F5F5F5F5F5F5F5F5F5F5F5F5F5F5F5F5F5F5F528F5DCF5F5F5F5F5F5F5F5F5F5F5F5F5F5F5F5F5E2F5E2E2F5E2F5F5F5F5F5F5F5F5F5F5F5F5F5F5F5F5F5DCF528F5F5F5F5DCF5F5F5DCDCDCDCDCDCDCDCDCDCDCDCDCDCDCDCDCDCDCDCDCDCDCDCDCDCDCDCDCF5F5F5F5F5F5F5F5F5F5F5F5F5F5F5F5F5F5F5F5F5F5F5
310
F5F5F5F5F5F5F5F5F5F5F5F5F5F5F5F5F5F5F5F5F5F5F5F5F5F5F5F5F5F5F5F5F5F5F5F5F5F5F5F5F5F5F5F5F5F5F5F5F5F5F5F5F5F5F5F5F5F5F5F5F5F5F5F5F5F5F5F5F5F5F5F5F5F528F5DCF5F5F5F5F5F5F5F5F5F5F5F5F5F5F5F5F5E2F5E2E2F5E2F5F5F5F5F5F5F5F5F5F5F5F5F5F5F5F5F5DCF528F5F5F5DCF5F5F5
310
DCF5F5DCF5F5DCF5F5F5DCF5F5DCF5F5DCF5F5DCF5F5DCF5F5DCF5F5F5F5F5F5F5F5F5F5F5F5F5F5F5F5F5F5F5F5F5F5F5F5F5F5F5F5F5F5F5F5F5F5F5F5F5F5F5F5F5F5F5F5F5F5F5F5F5F5F5F5F5F5F5F5F5F5F5F5F5F5F5F5F5F5F5F5F5F5F5F5F5F5F5F5F5F5F5F5F5F5F5F5F5F5F5F5F5F5F5F5F5F5F5F5F5F5F5F5F5
310
28F5DCF5F5F5F5F5F5F5F5F5F5F5F5F5F5F5F5F5E2F5E2E2F5E2F5F5F5F5F5F5F5F5F5F5F5F5F5F5F5F5F5DCF528F5F5F5F5F5DCDCF5F5DCF5F5DCF5F5F5DCF5F5DCF5F5DCF5F5DCF5F5DCF5F5DCF5F5F5F5F5F5F5F5F5F5F5F5F5F5F5F5F5F5F5F5F5F5F5F5F5F5F5F5F5F5F5F5F5F5F5F5F5F5F5F5F5F5F5F5F5F5F5F5F5
310
F5F5F5F5F5F5F5F5F5F5F5F5F5F5F5F5F5F5F5F5F5F5F5F5F5F5F5F5F5F5F5F5F5F5F5F5F5F5F5F5F5F5F5F5F5F5F5F5F5F5F5F5F528F5DCF5F5F5F5F5F5F5F5F5F5F5F5F5F5F5F5F5E2F5E2E2F5E2F5F5F5F5F5F5F5F5F5F5F5F5F5F5F5F5F5DCF528F5F5F5F5DCF5F5F5DCF5F5DCF5F5DCDCF5DCDCF5DCDCF5F5DCF5F5DC
310
F5F5DCF5F5F5F5F5F5F5F5F5F5F5F5F5F5F5F5F5F5F5F5F5F5F5F5F5F5F5F5F5F5F5F5F5F5F5F5F5F5F5F5F5F5F5F5F5F5F5F5F5F5F5F5F5F5F5F5F5F5F5F5F5F5F5F5F5F5F5F5F5F5F5F5F5F5F5F5F5F5F5F5F5F5F5F5F5F5F5F5F5F5F5F5F5F5F5F5F5F5F5F5F5F5F528F5DCF5F5F5F5F5F5F5F5F5F5F5F5F5F5F5F5F5E2
310
F5E2E2F5E2F5F5F5F5F5F5F5F5F5F5F5F5F5F5F5F5F5DCF528F5F5F5DCF5F5F5DCF5F5DCF5F5DCF5F5DCF5F5DCF5F5F5DCF5F5DCF5F5DCF5F5F5DCF5F5F5F5F5F5F5F5F5F5F5F5F5F5F5F5F5F5F5F5F5F5F5F5F5F5F5F5F5F5F5F5F5F5F5F5F5F5F5F5F5F5F5F5F5F5F5F5F5F5F5F5F5F5F5F5F5F5F5F5F5F5F5F5F5F5F5F5
310
F5F5F5F5F5F5F5F5F5F5F5F5F5F5F5F5F5F5F5F5F5F5F5F5F5F5F5F5F5F5F5F528F5DCF5F5F5F5F5F5F5F5F5F5F5F5F5F5F5F5F5E2F5E2E2F5F5F5F5F5F5F5F5F5F5F5F5F5F5F5F5F5F5F5DCF528F5F5F5F5F5F5DCF5F5DCF5F5DCF5F5DCF5F5DCF5F5F5DCF5F5DCF5F5DCF5F5DCDCF5F5F5F5F5F5F5F5F5F5F5F5F5F5F5F5
310
F5F5F5F5F5F5F5F5F5F5F5F5F5F5F5F5F5F5F5F5F5F5F5F5F5F5F5F5F5F5F5F5F5F5F5F5F5F5F5F5F5F5F5F5F5F5F5F5F5F5F5F5F5F5F5F5F5F5F5F5F5F5F5F5F5F5F5F5F5F5F5F5F5F5F5F5F5F5F5F5F5F5F5F5F528F5DCF5F5F5F5F5F5F5F5F5F5F5F5F5F5F5F5F5F5F5E2E2F5F5F5F5F5F5F5F5F5F5F5F5F5F5F5F5F5F5
310
F5DCF528F5F5F5F5F5F5F5F5F5F5F5F5F5F5F5F5F5F5F5F5F5F5F5F5F5F5F5F5F5F5F5F5F5F5F5F5F5F5F5F5F5F5F5F5F5F5F5F5F5F5F5F5F5F5F5F5F5F5F5F5F5F5F5F5F5F5F5F5F5F5F5F5F5F5F5F5F5F5F5F5F5F5F5F5F5F5F5F5F5F5F5F5F5F5F5F5F5F5F5F5F5F5F5F5F5F5F5F5F5F5F5F5F5F5F5F5F5F5F5F5F5F5F5
310
F5F5F5F5F5F5F5F5F5F5F528F5DCF5F5F5F5F5F5F5F5F5F5F5F5F5F5F5F5F5F5F5E2E2F5F5F5F5F5F5F5F5F5F5F5F5F5F5F5F5F5F5F5DCF528F5F5F5F5F5F5F5F5F5F5F5F5F5F5F5F5F5F5F5F5F5F5F5F5F5F5F5F5F5F5F5F5F5F5F5F5F5F5F5F5F5F5F5F5F5F5F5F5F5F5F5F5F5F5F5F5F5F5F5F5F5F5F5F5F5F5F5F5F5F5
310
F5F5F5F5F5F5F5F5F5F5F5F5F5F5F5F5F5F5F5F5F5F5F5F5F5F5F5F5F5F5F5F5F5F5F5F5F5F5F5F5F5F5F5F5F5F5F5F5F5F5F5F5F5F5F5F5F5F5F5F5F5F5F5F528F5DCF5F5F5F5F5F5F5F5F5F5F5F5F5F5F5F5F5F5F5E2E2F5F5F5F5F5F5F5F5F5F5F5F5F5F5F5F5F5F5F5DCF528F5F5F5F5F5F5F5F5F5F5F5F5F5F5F5F5F5
310
F5F5F5F5F5F5F5F5F5F5F5F5F5F5F5F5F5F5F5F5F5F5F5F5F5F5F5F5F5F5F5F5F5F5F5F5F5F5F5F5F5F5F5F5F5F5F5F5F5F5F5F5F5F5F5F5F5F5F5F5F5F5F5F5F5F5F5F5F5F5F5F5F5F5F5F5F5F5F5F5F5F5F5F5F5F5F5F5F5F5F5F5F5F5F5F5F5F5F5F5F5F5F5F5F5F5F5F5F5F5F5F5F5F5F5F5F528F5DCF5F5F5F5F5F5F5
310
F5F5F5F5F5F5F5F5F5F5F5F5E2E2F5F5F5F5F5F5F5F5F5F5F5F5F5F5F5F5F5F5F5DCF528F5F5F5F5F5F5F5F5F5F5F5F5F5F5F5F5F5F5F5F5F5F5F5F5F5F5F5F5F5F5F5F5F5F5F5F5F5F5F5F5F5F5F5F5F5F5F5F5F5F5F5F5F5F5F5F5F5F5F5F5F5F5F5F5F5F5F5F5F5F5F5F5F5F5F5F5F5F5F5F5F5F5F5F5F5F5F5F5F5F5F5
310
F5F5F5F5F5F5F5F5F5F5F5F5F5F5F5F5F5F5F5F5F5F5F5F5F5F5F5F5F5F5F5F5F5F5F5F5F5F5F5F5F5F5F528F5DCF5F5F5F5F5F5F5F5F5F5F5F5F5F5F5F5F5F5F5E2E2F5F5F5F5F5F5F5F5F5F5F5F5F5F5F5F5F5F5F5DCF528F5F5F5F5F5F5F5F5F5F5F5F5F5F5F5F5F5F5F5F5F5F5F5F5F5F5F5F5F5F5F5F5F5F5F5F5F5F5
310
F5F5F5F5F5F5F5F5F5F5F5F5F5F5F5F5F5F5F5F5F5F5F5F5F5F5F5F5F5F5F5F5F5F5F5F5F5F5F5F5F5F5F5F5F5F5F5F5F5F5F5F5F5F5F5F5F5F5F5F5F5F5F5F5F5F5F5F5F5F5F5F5F5F5F5F5F5F5F5F5F5F5F5F5F5F5F5F5F5F5F5F5F5F5F5F528F5DCF5F5F5F5F5F5F5F5F5F5F5F5F5F5F5F5F5F5F5E2E2F5F5F5F5F5F5F5
310
F5F5F5F5F5F5F5F5F5F5F5F5DCF528F5F5F5F5F5F5F5F5F5F5F5F5F5F5F5F5F5F5F5F5F5F5F5F5F5F5F5F5F5F5F5F5F5F5F5F5F5F5F5F5F5F5F5F5F5F5F5F5F5F5F5F5F5F5F5F5F5F5F5F5F5F5F5F5F5F5F5F5F5F5F5F5F5F5F5F5F5F5F5F5F5F5F5F5F5F5F5F5F5F5F5F5F5F5F5F5F5F5F5F5F5F5F5F5F5F5F5F5F5F5F5F5
310
F5F5F5F5F5F5F5F5F5F5F5F5F5F5F5F5F5F5F5F5F5F528F5DCF5F5F5F5F5F5F5F5F5F5F5F5F5F5F5F5F5F5F5E2E2F5F5F5F5F5F5F5F5F5F5F5F5F5F5F5F5F5F5F5DCF528F5F5F5F5F5F5F5F5F5F5F5F5F5F5F5F5F5F5F5F5F5F5F5F5F5F5F5F5F5F5F5F5F5F5F5F5F5F5F5F5F5F5F5F5F5F5F5F5F5F5F5F5F5F5F5F5F5F5F5
310
F5F5F5F5F5F5F5F5F5F5F5F5F5F5F5F5F5F5F5F5F5F5F5F5F5F5F5F5F5F5F5F5F5F5F5F5F5F5F5F5F5F5F5F5F5F5F5F5F5F5F5F5F5F5F5F5F5F5F5F5F5F5F5F5F5F5F5F5F5F5F5F5F5F5F528F5DCF5F5F5F5F5F5F5F5F5F5F5F5F5F5F5F5F5F5F5E2E2F5E2F5F5F5F5F5F5F5F5F5F5F5F5F5F5F5F5F5DCF528F5F5F5F5F5F5
310
F5F5F5F5F5F5F5F5F5F5F5F5F5F5F5F5F5F5F5F5F5F5F5F5F5F5F5F5F5F5F5F5F5F5F5F5F5F5F5F5F5F5F5F5F5F5F5F5F5F5F5F5F5F5F5F5F5F5F5F5F5F5F5F5F5F5F5F5F5F5F5F5F5F5F5F5F5F5F5F5F5F5F5F5F5F5F5F5F5F5F5F5F5F5F5F5F5F5F5F5F5F5F5F5F5F5F5F5F5F5F5F5F5F5F5F5F5F5F5F5F5F5F5F5F5F5F5
310
F528F5DCF5F5F5F5F5F5F5F5F5F5F5F5F5F5F5F5F5E2F5E2E2F5E2F5F5F5F5F5F5F5F5F5F5F5F5F5F5F5F5F5DCF528F5F5F5F5F5F5F5F5F5F5F5F5F5F5F5F5F5F5F5F5F5F5F5F5F5F5F5F5F5F5F5F5F5F5F5F5F5F5F5F5F5F5F5F5F5F5F5F5F5F5F5F5F5F5F5F5F5F5F5F5F5F5F5F5F5F5F5F5F5F5F5F5F5F5F5F5F5F5F5F5
310
F5F5F5F5F5F5F5F5F5F5F5F5F5F5F5F5F5F5F5F5F5F5F5F5F5F5F5F5F5F5F5F5F5F5F5F5F5F5F5F5F5F5F5F5F5F5F5F5F5F5F5F5F5F528F5DCF5F5F5F5F5F5F5F5F5F5F5F5F5F5F5F5F5E2F5E2E2F5E2F5F5F5F5F5F5F5F5F5F5F5F5F5F5F5F5F5DCF528F5F5F5F5F5F5F5F5F5F5F5F5F5F5F5F5F5F5F5F5F5F5F5F5F5F5F5
310
F5F5F5F5F5F5F5F5F5F5F5F5F5F5F5F5F5F5F5F5F5F5F5F5F5F5F5F5F5F5F5F5F5F5F5F5F5F5F5F5F5F5F5F5F5F5F5F5F5F5F5F5F5F5F5F5F5F5F5F5F5F5F5F5F5F5F5F5F5F5F5F5F5F5F5F5F5F5F5F5F5F5F5F5F5F5F5F5F5F5F5F5F5F5F5F5F5F5F5F5F5F5F5F5F5F5F528F5DCF5F5F5F5F5F5F5F5F5F5F5F5F5F5F5F5F5
310
E2F5E2E2F5E2F5F5F5F5F5F5F5F5F5F5F5F5F5F5F5F5F5DCF528F5F5F5F5F5F5F5F5F5F5F5F5F5F5F5F5F5F5F5F5F5F5F5F5F5F5F5F5F5F5F5F5F5F5F5F5F5F5F5F5F5F5F5F5F5F5F5F5F5F5F5F5F5F5F5F5F5F5F5F5F5F5F5F5F5F5F5F5F5F5F5F5F5F5F5F5F5F5F5F5F5F5F5F5F5F5F5F5F5F5F5F5F5F5F5F5F5F5F5F5F5
310
F5F5F5F5F5F5F5F5F5F5F5F5F5F5F5F5F5F5F5F5F5F5F5F5F5F5F5F5F5F5F5F5F528F5DCF5F5F5F5F5F5F5F5F5F5F5F5F5F5F5F5F5E2F5E2E2F5E2F5F5F5F5F5F5F5F5F5F5F5F5F5F5F5F5F5DCF528F5F5F5F5F5F5F5F5F5F5F5F5F5F5F5F5F5F5F5F5F5F5F5F5F5F5F5F5F5F5F5F5F5F5F5F5F5F5F5F5F5F5F5F5F5F5F5F5
310
F5F5F5F5F5F5F5F5F5F5F5F5F5F5F5F5F5F5F5F5F5F5F5F5F5F5F5F5F5F5F5F5F5F5F5F5F5F5F5F5F5F5F5F5F5F5F5F5F5F5F5F5F5F5F5F5F5F5F5F5F5F5F5F5F5F5F5F5F5F5F5F5F5F5F5F5F5F5F5F5F5F5F5F5F5F528F5DCF5F5F5F5F5F5F5F5F5F5F5F5F5F5F5F5F5E2F5E2E2F5E2F5F5F5F5F5F5F5F5F5F5F5F5F5F5F5
310
F5F5DCF528F5F5F5F5F5F5F5F5F5F5F5F5F5F5F5F5F5F5F5F5F5F5F5F5F5F5F5F5F5F5F5F5F5F5F5F5F5F5F5F5F5F5F5F5F5F5F5F5F5F5F5F5F5F5F5F5F5F5F5F5F5F5F5F5F5F5F5F5F5F5F5F5F5F5F5F5F5F5F5F5F5F5F5F5F5F5F5F5F5F5F5F5F5F5F5F5F5F5F5F5F5F5F5F5F5F5F5F5F5F5F5F5F5F5F5F5F5F5F5F5F5F5
310
F5F5F5F5F5F5F5F5F5F5F5F528F5DCF5F5F5F5F5F5F5F5F5F5F5F5F5F5F5F5F5E2F5E2E2F5E2F5F5F5F5F5F5F5F5F5F5F5F5F5F5F5F5F5DCF528F5F5F5F5F5F5F5F5F5F5F5F5F5F5F5F5F5F5F5F5F5F5F5F5F5F5F5F5F5F5F5F5F5F5F5F5F5F5F5F5F5F5F5F5F5F5F5F5F5F5F5F5F5F5F5F5F5F5F5F5F5F5F5F5F5F5F5F5F5
310
F5F5F5F5F5F5F5F5F5F5F5F5F5F5F5F5F5F5F5F5F5F5F5F5F5F5F5F5F5F5F5F5F5F5F5F5F5F5F5F5F5F5F5F5F5F5F5F5F5F5F5F5F5F5F5F5F5F5F5F5F5F5F5F5F528F5DCF5F5F5F5F5F5F5F5F5F5F5F5F5F5F5F5F5E2F5E2E2F5E2F5F5F5F5F5F5F5F5F5F5F5F5F5F5F5F5F5DCF528F5F5F5F5F5F5F5F5F5F5F5F5F5F5F5F5
310
F5F5F5F5F5F5F5F5F5F5F5F5F5F5F5F5F5F5F5F5F5F5F5F5F5F5F5F5F5F5F5F5F5F5F5F5F5F5F5F5F5F5F5F5F5F5F5F5F5F5F5F5F5F5F5F5F5F5F5F5F5F5F5F5F5F5F5F5F5F5F5F5F5F5F5F5F5F5F5F5F5F5F5F5F5F5F5F5F5F5F5F5F5F5F5F5F5F5F5F5F5F5F5F5F5F5F5F5F5F5F5F5F5F5F5F5F5F528F5DCF5F5F5F5F5F5
310
F5F5F5F5F5F5F5F5F5F5F5E2F5E2E2F5E2F5F5F5F5F5F5F5F5F5F5F5F5F5F5F5F5F5DCF528282828282828282828282828282828282828282828282828282828282828282828282828282828282828282828282828282828282828282828282828282828282828282828282828282828282828282828282828282828282828
310
282828282828282828282828282828282828282828282828282828282828282828282828282828282828282828F5DCF5F5F5F5F5F5F5F5F5F5F5F5F5F5F5F5F5E2F5E2E2F5E2F5F5F5F5F5F5F5F5F5F5F5F5F5F5F5F5F5DCF528F5F5F5F5F5F5F5F5F5F5F5F5F5F5F5F5F5F5F5F5F5F5F5F5F5F5F5F5F5F5F5F5F5F5F5F5F5
310
F5F5F5F5F5F5F5F5F5F5F5F5F5F5F5F5F5F5F5F5F5F5F5F5F5F5F5F5F528F5F5F5F5F5F5F5F5F5F5F5F5F5F5F5F5F5F5F5F5F5F5F5F5F5F5F5F5F5F5F5F5F5F5F5F5F5F5F5F5F5F5F5F5F5F5F5F5F5F5F5F5F5F5F5F5F5F5F5F5F5F5F5F5F5F5F528F5DCF5F5F5F5F5F5F5F5F5F5F5F5F5F5F5F5F5E2F5E2E2F5E2F5F5F5F5
310
F5F5F5F5F5F5F5F5F5F5F5F5F5DCF528F5F5F5F5F5F5F5F5F5F5F5F5F52D2D2D2D2D2D2D2D2D2D2D2D2D2D2D2D2D2D2D2D2D2D2D2D2D2D2D2D2D2D2D2D2D2D2D2D2D2DF5F5F5F5F5F5F5F5F5F5F5F5F5F5F528F5F5F52D2D2D2DF52D2D2D2D2D2DF5F5F5F5F5F5F5F5F5F5F5F5F5F5F5F5F5F5F5F5F5F5F5F5F5F5F5F5F5F5
310
F5F5F5F5F5F5F5F5F5F5F5F5F5F5F5F5F5F5F5F5F5F5F528F5DCF5F5F5F5F5F5F5F5F5F5F5F5F5F5F5F5F5E2F5E2E2F5E2F5F5F5F5F5F5F5F5F5F5F5F5F5F5F5F5F5DCF528F5F5F5F5F5F5F5F5F5F5F5F5F52D2D2D2D2D2D2D2D2D2D2D2D2D2D2D2D2D2D2D2D2D2D2D2D2D2D2D2D2D2D2D2D2D2D2D2D2D2DF5F5F5F5F5F5F5
310
F5F5F5F5F5F5F5F528F5F5F52D2D2D2DF52D2D2D2DF52DF5F5F5F5F5F5F5F5F5F5F5F5F5F5F5F5F5F5F5F5F5F5F5F5F5F5F5F5F5F5F5F5F5F5F5F5F5F5F5F5F5F5F5F5F5F5F5F5F5F5F5F5F528F5DCF5F5F5F5F5F5F5F5F5F5F5F5F5F5F5F5F5E2F5E2E2F5E2F5F5F5F5F5F5F5F5F5F5F5F5F5F5F5F5F5DCF528F5F5F5F5F5
310
F5F5F5F5F5F5F5F5F5F5F5F5F5F5F5F5F5F5F5F5F5F5F5F5F5F5F5F5F5F5F5F5F5F5F5F5F5F5F5F5F5F5F5F5F5F5F5F5F5F5F5F5F5F5F5F5F5F5F5F5F528F5F5F5F5F5F5F5F5F5F5F5F5F5F5F5F5F5F5F5F5F5F5F5F5F5F5F5F5F5F5F5F5F5F5F5F5F5F5F5F5F5F5F5F5F5F5F5F5F5F5F5F5F5F5F5F5F5F5F5F5F5F5F5F5F5
310
F5F528F5DCF5F5F5F5F5F5F5F5F5F5F5F5F5F5F5F5F5E2F5E2E2F5E2F5F5F5F5F5F5F5F5F5F5F5F5F5F5F5F5F5DCF52828282828282828282828282828282828282828282828282828282D2D2D2D2D2D2D2D2D2D2D2D2D28282828282828282828282828282828282828282828282828282828282828282828282828282828
310
2828282828282828282828282828282828282828282828282828282828282828282828282828282828282828282828282828282828282828F5DCF5F5F5F5F5F5F5F5F5F5F5F5F5F5F5F5F5E2F5E2E2F5E2F5F5F5F5F5F5F5F5F5F5F5F5F5F5F5F5F5DCF528F5F5F5F5F5F5F5F5F5F5F5F5F5F5F5F5F5F5F5F5F5F5F5F5F5F5
310
2D2D2D2D2D2D2D2D2D2D2D2D2DF5F5F5F5F5F5F5F5F5F5F5F5F5F5F5F5F5F5F5F5F5F5F5F5F5F5F528F5F5F52D2D2D2D2D2D2D2D2D2D2DF5F52D2D2D2D2D2D2D2D2D2DF5F5F5F5F5F5F5F5F5F5F5F5F5F5F5F5F5F5F5F5F5F5F5F5F5F5F5F5F5F5F5F5F5F5F5F5F5F5F5F5F528F5DCF5F5F5F5F5F5F5F5F5F5F5F5F5F5F5F5
310
F5E2F5E2E2F5E2F5F5F5F5F5F5F5F5F5F5F5F5F5F5F5F5F5DCF528F5F5F5F5F5F5F5F5F5F5F5F5F5F5F5F5F5F5F5F5F5F5F5F5F5F52D2D2D2D2D2D2D2D2D2D2D2D2DF5F5F5F5F5F5F5F5F5F5F5F5F5F5F5F5F5F5F5F5F5F5F5F5F5F5F528F5F5F52D2D2D2D2D2D2D2D2D2D2DF52D2D2D2D2D2D2D2D2D2D2DF5F5F5F5F5F5F5
310
F5F5F5F5F5F5F5F5F5F5F5F5F5F5F5F5F5F5F5F5F5F5F5F5F5F5F5F5F5F5F5F5F5F528F5DCF5F5F5F5F5F5F5F5F5F5F5F5F5F5F5F5F5E2F5E2E2F5F5F5F5F5F5F5F5F5F5F5F5F5F5F5F5F5F5F5DCF528F5F5F5F5F5F5F5F5F5F5F5F5F5F5F5F5F5F5F5F5F5F5F5F5F5F5F5F5F5F5F5F5F5F5F5F5F5F5F5F5F5F5F5F5F5F5F5
310
F5F5F5F5F5F5F5F5F5F5F5F5F5F5F5F5F5F5F528F5F5F5F5F5F5F5F5F5F5F5F5F5F5F5F5F5F5F5F5F5F5F5F5F5F5F5F5F5F5F5F5F5F5F5F5F5F5F5F5F5F5F5F5F5F5F5F5F5F5F5F5F5F5F5F5F5F5F5F5F5F5F5F5F5F5F528F5DCF5F5F5F5F5F5F5F5F5F5F5F5F5F5F5F5F5F5F5E2E2F5F5F5F5F5F5F5F5F5F5F5F5F5F5F5F5
310
F5F5F5DCF52828282828282828282828282828282828282828282828282828282828282828282828282828282828282828282828282828282828282828282828282828282828282828282828282828282828282828282828282828282828282828282828282828282828282828282828282828282828282828282828282828
310
2828282828282828282828282828F5DCF5F5F5F5F5F5F5F5F5F5F5F5F5F5F5F5F5F5F5E2E2F5F5F5F5F5F5F5F5F5F5F5F5F5F5F5F5F5F5F5DCF5F5F5F5F5F5F5F5F5F5F5F5F5F5F5F5F5F5F5F5F5F5F5F5F5F5F5F5F5F5F5F5F5F5F5F5F5F5F5F5F5F5F5F5F5F5F5F5F5F5F5F5F5F5F5F5F5F5F5F5F5F5F5F5F5F5F5F5F5F5
310
F5F5F5F5F5F5F5F5F5F5F5F5F5F5F5F5F5F5F5F5F5F5F5F5F5F5F5F5F5F5F5F5F5F5F5F5F5F5F5F5F5F5F5F5F5F5F5F5F5F5F5F5F5F5F5F5F5F5F5F5F5F5F5F5F5F5F5F5DCF5F5F5F5F5F5F5F5F5F5F5F5F5F5F5F5F5F5F5E2E2F5F5F5F5F5F5F5F5F5F5F5F5F5F5F5F5F5F5F5DCDCDCDCDCDCDCDCDCDCDCDCDCDCDCDCDCDC
310
DCDCDCDCDCDCDCDCDCDCDCDCDCDCDCDCDCDCDCDCDCDCDCDCDCDCDCDCDCDCDCDCDCDCDCDCDCDCDCDCDCDCDCDCDCDCDCDCDCDCDCDCDCDCDCDCDCDCDCDCDCDCDCDCDCDCDCDCDCDCDCDCDCDCDCDCDCDCDCDCDCDCDCDCDCDCDCDCDCDCDCDCDCDCDCDCDCDCDCDCDCDCDCDCDCDCDCDCDCDCDCDCDCDCDCDCDCDCDCDCDCDCF5F5F5F5F5
310
F5F5F5F5F5F5F5F5F5F5F5F5F5F5E2E2F5F5F5F5F5F5F5F5F5F5F5F5F5F5F5F5F5F5F5DCDCDCDCDCDCDCDCDCDCDCDCDCDCDCDCDCDCDCDCDCDCDCDCDCDCDCDCDCDCDCDCDCDCDCDCDCDCDCDCDCDCDCDCDCDCDCDCDCDCDCDCDCDCDCDCDCDCDCDCDCDCDCDCDCDCDCDCDCDCDCDCDCDCDCDCDCDCDCDCDCDCDCDCDCDCDCDCDCDCDCDC
310
DCDCDCDCDCDCDCDCDCDCDCDCDCDCDCDCDCDCDCDCDCDCDCDCDCDCDCDCDCDCDCDCDCDCDCDCDCDCDCDCDCDCDCDCDCDCDCDCF5F5F5F5F5F5F5F5F5F5F5F5F5F5F5F5F5F5F5E2E2F5F5F5F5F5F5F5F5F5F5F5F5F5F5F5F5F5F5F5F5F5F5F5F5F5F5F5F5F5F5F5F5F5F5F5F5F5F5F5F5F5F5F5F5F5F5F5F5F5F5F5F5F5F5F5F5F5F5
310
F5F5F5F5F5F5F5F5F5F5F5F5F5F5F5F5F5F5F5F5F5F5F5F5F5F5F5F5F5F5F5F5F5F5F5F5F5F5F5F5F5F5F5F5F5F5F5F5F5F5F5F5F5F5F5F5F5F5F5F5F5F5F5F5F5F5F5F5F5F5F5F5F5F5F5F5F5F5F5F5F5F5F5F5F5F5F5F5F5F5F5F5F5F5F5F5F5F5F5F5F5F5F5F5F5F5F5F5F5F5F5F5F5F5F5F5F5F5F5F5E2E2F5F5F5F5F5
310
F5F5F5F5F5F5F5F5F5F5F5F5F5F5F5F5F5F5F5F5F5F5F5F5F5F5F5F5F5F5F5F5F5F5F5F5F5F5F5F5F5F5F5F5F5F5F5F5F5F5F5F5F5F5F5F5F5F5F5F5F5F5F5F5F5F5F5F5F5F5F5F5F5F5F5F5F5F5F5F5F5F5F5F5F5F5F5F5F5F5F5F5F5F5F5F5F5F5F5F5F5F5F5F5F5F5F5F5F5F5F5F5F5F5F5F5F5F5F5F5F5F5F5F5F5F5F5
310
F5F5F5F5F5F5F5F5F5F5F5F5F5F5F5F5F5F5F5F5F5F5F5F5F5F5F5F5F5F5F5F5F5F5F5F5F5F5F5F5F5F5F5F5F5F5E2E2F5F5F5F5F5F5F5F5F5F5F5F5F5F5F5F5F5F5F5F5F5F5F5F5F5F5F5F5F5F5F5F5F5F5F5F5F5F5F5F5F5F5F5F5F5F5F5F5F5F5F5F5F5F5F5F5F5F5F5F5F5F5F5F5F5F5F5F5F5F5F5F5F5F5F5F5F5F5F5
310
F5F5F5F5F5F5F5F5F5F5F5F5F5F5F5F5F5F5F5F5F5F5F5F5F5F5F5F5F5F5F5F5F5F5F5F5F5F5F5F5F5F5F5F5F5F5F5F5F5F5F5F5F5F5F5F5F5F5F5F5F5F5F5F5F5F5F5F5F5F5F5F5F5F5F5F5F5F5F5F5F5F5F5F5F5F5F5F5F5F5F5F5F5F5F5F5F5F5F5E2E2F5F5F5F5F5F5F5F5F5F5F5F5F5F5F5F5F5F5F5F5F5F5F5F5F5F5
310
F5F5F5F5F5F5F5F5F5F5F5F5F5F5F5F5F5F5F5F5F5F5F5F5F5F5F5F5F5F5F5F5F5F5F5F5F5F5F5F5F5F5F5F5F5F5F5F5F5F5F5F5F5F5F5F5F5F5F5F5F5F5F5F5F5F5F5F5F5F5F5F5F5F5F5F5F5F5F5F5F5F5F5F5F5F5F5F5F5F5F5F5F5F5F5F5F5F5F5F5F5F5F5F5F5F5F5F5F5F5F5F5F5F5F5F5F5F5F5F5F5F5F5F5F5F5F5
310
F5F5F5F5F5F5F5F5F5F5F5F5F5F5F5F5F5F5F5F5F5F5F5F5F5E2E2F5E2F5F5F5F5F5F5F5F5F5F5F5F5F5F5F5F5F5F5F5F5F5F5F5F5F5F5F5F5F5F5F5F5F5F5F5F5F5F5F5F5F5F5F5F5F5F5F5F5F5F5F5F5F5F5F5F5F5F5F5F5F5F5F5F5F5F5F5F5F5F5F5F5F5F5F5F5F5F5F5F5F5F5F5F5F5F5F5F5F5F5F5F5F5F5F5F5F5F5
310
F5F5F5F5F5F5F5F5F5F5F5F5F5F5F5F5F5F5F5F5F5F5F5F5F5F5F5F5F5F5F5F5F5F5F5F5F5F5F5F5F5F5F5F5F5F5F5F5F5F5F5F5F5F5F5F5F5F5F5F5F5F5F5F5F5F5F5F5F5F5F5F5F5F5F5F5E2F5E2E2F5E2F5F5F5F5F5F5F5F5F5F5F5F5F5F5F5F5F5F5F5F5F5F5F5F5F5F5F5F5F5F5F5F5F5F5F5F5F5F5F5F5F5F5F5F5F5
310
F5F5F5F5F5F5F5F5F5F5F5F5F5F5F5F5F5F5F5F5F5F5F5F5F5F5F5F5F5F5F5F5F5F5F5F5F5F5F5F5F5F5F5F5F5F5F5F5F5F5F5F5F5F5F5F5F5F5F5F5F5F5F5F5F5F5F5F5F5F5F5F5F5F5F5F5F5F5F5F5F5F5F5F5F5F5F5F5F5F5F5F5F5F5F5F5F5F5F5F5F5F5F5F5F5F5F5F5F5F5F5F5F5F5F5F5F5F5F5F5F5F5F5F5F5F5F5
310
F5F5E2F5E2E2F5E2F5F5F5F5F5F5F5F5F5F5F5F5F5F5F5F5F5F5F5F5F5F5F5F5F5F5F5F5F5F5F5F5F5F5F5F5F5F5F5F5F5F5F5F5F5F5F5F5F5F5F5F5F5F5F5F5F5F5F5F5F5F5F5F5F5F5F5F5F5F5F5F5F5F5F5F5F5F5F5F5F5F5F5F5F5F5F5F5F5F5F5F5F5F5F5F5F5F5F5F5F5F5F5F5F5F5F5F5F5F5F5F5F5F5F5F5F5F5F5
310
F5F5F5F5F5F5F5F5F5F5F5F5F5F5F5F5F5F5F5F5F5F5F5F5F5F5F5F5F5F5F5F5F5F5F5F5F5F5F5F5F5F5F5F5F5F5F5F5F5F5F5F5F5F5F5E2F5E2E2F5E2F5F5F5F5F5F5F5F5F5F5F5F5F5F5F5F5F5F5F5F5F5F5F5F5F5F5F5F5F5F5F5F5F5F5F5F5F5F5F5F5F5F5F5F5F5F5F5F5F5F5F5F5F5F5F5F5F5F5F5F5F5F5F5F5F5F5
310
F5F5F5F5F5F5F5F5F5F5F5F5F5F5F5F5F5F5F5F5F5F5F5F5F5F5F5F5F5F5F5F5F5F5F5F5F5F5F5F5F5F5F5F5F5F5F5F5F5F5F5F5F5F5F5F5F5F5F5F5F5F5F5F5F5F5F5F5F5F5F5F5F5F5F5F5F5F5F5F5F5F5F5F5F5F5F5F5F5F5F5F5F5F5F5F5F5F5F5F5F5F5F5F5F5F5F5F5E2F5E2E2F5E2F5F5F5F5F5F5F5F5F5F5F5F5F5
310
F5F5F5F5F5F5F5F5F5F5F5F5F5F5F5F5F5F5F5F5F5F5F5F5F5F5F5F5F5F5F5F5F5F5F5F5F5F5F5F5F5F5F5F5F5F5F5F5F5F5F5F5F5F5F5F5F5F5F5F5F5F5F5F5F5F5F5F5F5F5F5F5F5F5F5F5F5F5F5F5F5F5F5F5F5F5F5F5F5F5F5F5F5F5F5F5F5F5F5F5F5F5F5F5F5F5F5F5F5F5F5F5F5F5F5F5F5F5F5F5F5F5F5F5F5F5F5
310
F5F5F5F5F5F5F5F5F5F5F5F5F5F5F5F5F5F5F5F5F5F5F5F5F5F5F5F5F5F5F5F5F5F5E2F5E2E2F5E2F5F5F5F5F5F5F5F5F5F5F5F5F5F5F5F5F5F5F5F5F5F5F5F5F5F5F5F5F5F5F5F5F5F5F5F5F5F5F5F5F5F5F5F5F5F5F5F5F5F5F5F5F5F5F5F5F5F5F5F5F5F5F5F5F5F5F5F5F5F5F5F5F5F5F5F5F5F5F5F5F5F5F5F5F5F5F5
310
F5F5F5F5F5F5F5F5F5F5F5F5F5F5F5F5F5F5F5F5F5F5F5F5F5F5F5F5F5F5F5F5F5F5F5F5F5F5F5F5F5F5F5F5F5F5F5F5F5F5F5F5F5F5F5F5F5F5F5F5F5F5F5F5F5F5F5F5F5F5F5F5F5F5F5F5F5F5F5F5F5F5F5F5F5F5F5E2F5E2E2F5E2F5F5F5F5F5F5F5F5F5F5F5F5F5F5F5F5F5F5F5F5F5F5F5F5F5F5F5F5F5F5F5F5F5F5
310
F5F5F5F5F5F5F5F5F5F5F5F5F5F5F5F5F5F5F5F5F5F5F5F5F5F5F5F5F5F5F5F5F5F5F5F5F5F5F5F5F5F5F5F5F5F5F5F5F5F5F5F5F5F5F5F5F5F5F5F5F5F5F5F5F5F5F5F5F5F5F5F5F5F5F5F5F5F5F5F5F5F5F5F5F5F5F5F5F5F5F5F5F5F5F5F5F5F5F5F5F5F5F5F5F5F5F5F5F5F5F5F5F5F5F5F5F5F5F5F5F5F5F5F5F5F5F5
310
F5F5F5F5F5F5F5F5F5F5F5F5F5E2F5E2E2F5E2E2E2E2E2E2E2E2E2F5F5F5F5F5F5F5F5F5E2E2E2E2E2E2E2E2E2E2E2E2E2E2E2E2F5F5F5F5F5F5F5F5F5E2E2E2E2E2E2E2E2E2E2E2E2E2E2E2E2F5F5F5F5F5F5F5F5F5E2E2E2E2E2E2E2E2E2E2E2E2E2E2E2E2F5F5F5F5F5F5F5F5F5E2E2E2E2E2E2E2E2E2E2E2E2E2E2E2E2
310
F5F5F5F5F5F5F5F5F5E2E2E2E2E2E2E2E2E2E2E2E2E2E2E2E2F5F5F5F5F5F5F5F5F5E2E2E2E2E2E2E2E2E2E2E2E2E2E2E2E2F5F5F5F5F5F5F5F5F5E2E2E2E2E2E2E2E2F5E2E2F5F5F5F5F5F5F5F5F5F5F5F5F5F5F5F5F5F5F5F5F5F5F5F5F5F5F5F5F5F5F5F5F5F5F5F5F5F5F5F5F5F5F5F5F5F5F5F5F5F5F5F5F5F5F5F5F5
310
F5F5F5F5F5F5F5F5F5F5F5F5F5F5F5F5F5F5F5F5F5F5F5F5F5F5F5F5F5F5F5F5F5F5F5F5F5F5F5F5F5F5F5F5F5F5F5F5F5F5F5F5F5F5F5F5F5F5F5F5F5F5F5F5F5F5F5F5F5F5F5F5F5F5F5F5F5F5F5F5F5F5F5F5F5F5F5F5F5F5F5F5F5F5F5F5F5F5F5F5F5F5F5F5F5F5F5F5F5F5F5F5F5F5F5F5F5F5F5F5F5E2E2E2E2E2E2
310
E2E2E2E2E2E2E2E2E2E2E2E2E2E2E2E2E2E2E2E2E2E2E2E2E2E2E2E2E2E2E2E2E2E2E2E2E2E2E2E2E2E2E2E2E2E2E2E2E2E2E2E2E2E2E2E2E2E2E2E2E2E2E2E2E2E2E2E2E2E2E2E2E2E2E2E2E2E2E2E2E2E2E2E2E2E2E2E2E2E2E2E2E2E2E2E2E2E2E2E2E2E2E2E2E2E2E2E2E2E2E2E2E2E2E2E2E2E2E2E2E2E2E2E2E2E2E2
310
E2E2E2E2E2E2E2E2E2E2E2E2E2E2E2E2E2E2E2E2E2E2E2E2E2E2E2E2E2E2E2E2E2E2E2E2E2E2E2E2E2E2E2E2E2E2E2E2
  0
XRECORD
  5
FD4
102
{ACAD_REACTORS
330
FD3
102
}
330
FD3
100
AcDbXrecord
280
     1
102
MATERIAL
148
0.0
149
0.0
149
0.0
 93
        0
 94
       63
282
     0
 72
     1
 77
     1
171
     1
175
     1
179
     1
273
     0
  0
XRECORD
  5
FD2
102
{ACAD_REACTORS
330
FD1
102
}
330
FD1
100
AcDbXrecord
280
     1
102
MATERIAL
148
0.0
149
0.0
149
0.0
 93
        0
 94
       63
282
     0
 72
     1
 77
     1
171
     1
175
     1
179
     1
273
     0
  0
XRECORD
  5
FD0
102
{ACAD_REACTORS
330
FCF
102
}
330
FCF
100
AcDbXrecord
280
     1
102
MATERIAL
148
0.0
149
0.0
149
0.0
 93
        0
 94
       63
282
     0
 72
     1
 77
     1
171
     1
175
     1
179
     1
273
     0
  0
XRECORD
  5
FD6
102
{ACAD_REACTORS
330
FD5
102
}
330
FD5
100
AcDbXrecord
280
     1
102
ACAD_ROUNDTRIP_PRE2007_TABLESTYLE
 90
        4
 91
        0
  1

 92
        4
 93
        0
  2

 94
        4
 95
        0
  3

  0
ENDSEC
  0
EOF
