  0
SECTION
  2
HEADER
  9
$ACADVER
  1
AC1018
  9
$ACADMAINTVER
 70
    76
  9
$DWGCODEPAGE
  3
ANSI_1252
  9
$LASTSAVEDBY
  1
simone
  9
$INSBASE
 10
0.0
 20
0.0
 30
0.0
  9
$EXTMIN
 10
0.0149999999999999
 20
0.015
 30
0.0
  9
$EXTMAX
 10
0.4050000000000001
 20
0.282
 30
0.4817307591438295
  9
$LIMMIN
 10
0.0
 20
0.0
  9
$LIMMAX
 10
1.0
 20
0.5
  9
$ORTHOMODE
 70
     0
  9
$REGENMODE
 70
     1
  9
$FILLMODE
 70
     1
  9
$QTEXTMODE
 70
     0
  9
$MIRRTEXT
 70
     0
  9
$LTSCALE
 40
1.0
  9
$ATTMODE
 70
     1
  9
$TEXTSIZE
 40
0.005
  9
$TRACEWID
 40
1.0
  9
$TEXTSTYLE
  7
style1
  9
$CLAYER
  8
Dimensione
  9
$CELTYPE
  6
ByLayer
  9
$CECOLOR
 62
     2
  9
$CELTSCALE
 40
1.0
  9
$DISPSILH
 70
     0
  9
$DIMSCALE
 40
0.001
  9
$DIMASZ
 40
1.5
  9
$DIMEXO
 40
0.0625
  9
$DIMDLI
 40
0.38
  9
$DIMRND
 40
0.0
  9
$DIMDLE
 40
0.0
  9
$DIMEXE
 40
0.18
  9
$DIMTP
 40
0.0
  9
$DIMTM
 40
0.0
  9
$DIMTXT
 40
3.0
  9
$DIMCEN
 40
0.0
  9
$DIMTSZ
 40
0.0
  9
$DIMTOL
 70
     0
  9
$DIMLIM
 70
     0
  9
$DIMTIH
 70
     1
  9
$DIMTOH
 70
     1
  9
$DIMSE1
 70
     0
  9
$DIMSE2
 70
     0
  9
$DIMTAD
 70
     0
  9
$DIMZIN
 70
     0
  9
$DIMBLK
  1
ArchTick
  9
$DIMASO
 70
     1
  9
$DIMSHO
 70
     1
  9
$DIMPOST
  1

  9
$DIMAPOST
  1

  9
$DIMALT
 70
     0
  9
$DIMALTD
 70
     2
  9
$DIMALTF
 40
25.4
  9
$DIMLFAC
 40
1.0
  9
$DIMTOFL
 70
     0
  9
$DIMTVP
 40
0.0
  9
$DIMTIX
 70
     0
  9
$DIMSOXD
 70
     0
  9
$DIMSAH
 70
     0
  9
$DIMBLK1
  1

  9
$DIMBLK2
  1

  9
$DIMSTYLE
  2
Bovelacci
  9
$DIMCLRD
 70
     5
  9
$DIMCLRE
 70
     5
  9
$DIMCLRT
 70
     4
  9
$DIMTFAC
 40
1.0
  9
$DIMGAP
 40
2.0
  9
$DIMJUST
 70
     0
  9
$DIMSD1
 70
     0
  9
$DIMSD2
 70
     0
  9
$DIMTOLJ
 70
     1
  9
$DIMTZIN
 70
     0
  9
$DIMALTZ
 70
     0
  9
$DIMALTTZ
 70
     0
  9
$DIMUPT
 70
     0
  9
$DIMDEC
 70
     2
  9
$DIMTDEC
 70
     2
  9
$DIMALTU
 70
     2
  9
$DIMALTTD
 70
     2
  9
$DIMTXSTY
  7
ROMANS
  9
$DIMAUNIT
 70
     0
  9
$DIMADEC
 70
     0
  9
$DIMALTRND
 40
0.0
  9
$DIMAZIN
 70
     0
  9
$DIMDSEP
 70
    46
  9
$DIMATFIT
 70
     3
  9
$DIMFRAC
 70
     0
  9
$DIMLDRBLK
  1

  9
$DIMLUNIT
 70
     2
  9
$DIMLWD
 70
    -2
  9
$DIMLWE
 70
    -2
  9
$DIMTMOVE
 70
     2
  9
$LUNITS
 70
     2
  9
$LUPREC
 70
     2
  9
$SKETCHINC
 40
1.0
  9
$FILLETRAD
 40
0.0
  9
$AUNITS
 70
     0
  9
$AUPREC
 70
     0
  9
$MENU
  1
.
  9
$ELEVATION
 40
0.0
  9
$PELEVATION
 40
0.0
  9
$THICKNESS
 40
0.0
  9
$LIMCHECK
 70
     0
  9
$CHAMFERA
 40
0.0
  9
$CHAMFERB
 40
0.0
  9
$CHAMFERC
 40
0.0
  9
$CHAMFERD
 40
0.0
  9
$SKPOLY
 70
     0
  9
$TDCREATE
 40
2454297.625402373
  9
$TDUCREATE
 40
2454297.542069039
  9
$TDUPDATE
 40
2454371.783052662
  9
$TDUUPDATE
 40
2454371.699719329
  9
$TDINDWG
 40
0.1931678704
  9
$TDUSRTIMER
 40
0.1931673148
  9
$USRTIMER
 70
     1
  9
$ANGBASE
 50
0.0
  9
$ANGDIR
 70
     0
  9
$PDMODE
 70
     0
  9
$PDSIZE
 40
0.0
  9
$PLINEWID
 40
0.0
  9
$SPLFRAME
 70
     0
  9
$SPLINETYPE
 70
     6
  9
$SPLINESEGS
 70
     8
  9
$HANDSEED
  5
10D0
  9
$SURFTAB1
 70
     6
  9
$SURFTAB2
 70
     6
  9
$SURFTYPE
 70
     6
  9
$SURFU
 70
     6
  9
$SURFV
 70
     6
  9
$UCSBASE
  2

  9
$UCSNAME
  2

  9
$UCSORG
 10
0.0
 20
0.0
 30
0.0
  9
$UCSXDIR
 10
1.0
 20
0.0
 30
0.0
  9
$UCSYDIR
 10
0.0
 20
1.0
 30
0.0
  9
$UCSORTHOREF
  2

  9
$UCSORTHOVIEW
 70
     0
  9
$UCSORGTOP
 10
0.0
 20
0.0
 30
0.0
  9
$UCSORGBOTTOM
 10
0.0
 20
0.0
 30
0.0
  9
$UCSORGLEFT
 10
0.0
 20
0.0
 30
0.0
  9
$UCSORGRIGHT
 10
0.0
 20
0.0
 30
0.0
  9
$UCSORGFRONT
 10
0.0
 20
0.0
 30
0.0
  9
$UCSORGBACK
 10
0.0
 20
0.0
 30
0.0
  9
$PUCSBASE
  2

  9
$PUCSNAME
  2

  9
$PUCSORG
 10
0.0
 20
0.0
 30
0.0
  9
$PUCSXDIR
 10
1.0
 20
0.0
 30
0.0
  9
$PUCSYDIR
 10
0.0
 20
1.0
 30
0.0
  9
$PUCSORTHOREF
  2

  9
$PUCSORTHOVIEW
 70
     0
  9
$PUCSORGTOP
 10
0.0
 20
0.0
 30
0.0
  9
$PUCSORGBOTTOM
 10
0.0
 20
0.0
 30
0.0
  9
$PUCSORGLEFT
 10
0.0
 20
0.0
 30
0.0
  9
$PUCSORGRIGHT
 10
0.0
 20
0.0
 30
0.0
  9
$PUCSORGFRONT
 10
0.0
 20
0.0
 30
0.0
  9
$PUCSORGBACK
 10
0.0
 20
0.0
 30
0.0
  9
$USERI1
 70
     0
  9
$USERI2
 70
     0
  9
$USERI3
 70
     0
  9
$USERI4
 70
     0
  9
$USERI5
 70
     0
  9
$USERR1
 40
0.0
  9
$USERR2
 40
0.0
  9
$USERR3
 40
0.0
  9
$USERR4
 40
0.0
  9
$USERR5
 40
0.0
  9
$WORLDVIEW
 70
     1
  9
$SHADEDGE
 70
     3
  9
$SHADEDIF
 70
    70
  9
$TILEMODE
 70
     1
  9
$MAXACTVP
 70
    64
  9
$PINSBASE
 10
0.0
 20
0.0
 30
0.0
  9
$PLIMCHECK
 70
     0
  9
$PEXTMIN
 10
29.06606628894805
 20
20.36233246326446
 30
0.0
  9
$PEXTMAX
 10
261.5945966005325
 20
183.2609921693802
 30
0.0
  9
$PLIMMIN
 10
-3.17498779296875
 20
-3.174999952316281
  9
$PLIMMAX
 10
293.8356628417969
 20
206.7983276844024
  9
$UNITMODE
 70
     0
  9
$VISRETAIN
 70
     1
  9
$PLINEGEN
 70
     0
  9
$PSLTSCALE
 70
     1
  9
$TREEDEPTH
 70
  3020
  9
$CMLSTYLE
  2
Standard
  9
$CMLJUST
 70
     0
  9
$CMLSCALE
 40
20.0
  9
$PROXYGRAPHICS
 70
     1
  9
$MEASUREMENT
 70
     1
  9
$CELWEIGHT
370
    -1
  9
$ENDCAPS
280
     0
  9
$JOINSTYLE
280
     0
  9
$LWDISPLAY
290
     0
  9
$INSUNITS
 70
     4
  9
$HYPERLINKBASE
  1

  9
$STYLESHEET
  1

  9
$XEDIT
290
     1
  9
$CEPSNTYPE
380
     0
  9
$PSTYLEMODE
290
     1
  9
$FINGERPRINTGUID
  2
{4F38C4E7-9F37-4C76-96D9-79C94F9B03D9}
  9
$VERSIONGUID
  2
{D07668F0-C822-4ADD-B9DA-C100C8E78AC4}
  9
$EXTNAMES
290
     1
  9
$PSVPSCALE
 40
0.0
  9
$OLESTARTUP
290
     0
  9
$SORTENTS
280
   127
  9
$INDEXCTL
280
     0
  9
$HIDETEXT
280
     1
  9
$XCLIPFRAME
290
     0
  9
$HALOGAP
280
     0
  9
$OBSCOLOR
 70
   257
  9
$OBSLTYPE
280
     0
  9
$INTERSECTIONDISPLAY
280
     0
  9
$INTERSECTIONCOLOR
 70
   257
  9
$DIMASSOC
280
     2
  9
$PROJECTNAME
  1

  0
ENDSEC
  0
SECTION
  2
CLASSES
  0
CLASS
  1
ACDBDICTIONARYWDFLT
  2
AcDbDictionaryWithDefault
  3
ObjectDBX Classes
 90
        0
 91
        1
280
     0
281
     0
  0
CLASS
  1
TABLESTYLE
  2
AcDbTableStyle
  3
ObjectDBX Classes
 90
     2047
 91
        1
280
     0
281
     0
  0
CLASS
  1
SORTENTSTABLE
  2
AcDbSortentsTable
  3
ObjectDBX Classes
 90
        0
 91
        2
280
     0
281
     0
  0
CLASS
  1
DICTIONARYVAR
  2
AcDbDictionaryVar
  3
ObjectDBX Classes
 90
        0
 91
        6
280
     0
281
     0
  0
CLASS
  1
DIMASSOC
  2
AcDbDimAssoc
  3
"AcDbDimAssoc|Product Desc:     AcDim ARX App For Dimension|Company:          Autodesk, Inc.|WEB Address:      www.autodesk.com"
 90
        0
 91
        0
280
     0
281
     0
  0
CLASS
  1
ACDBPLACEHOLDER
  2
AcDbPlaceHolder
  3
ObjectDBX Classes
 90
        0
 91
        1
280
     0
281
     0
  0
CLASS
  1
LAYOUT
  2
AcDbLayout
  3
ObjectDBX Classes
 90
        0
 91
        3
280
     0
281
     0
  0
CLASS
  1
MATERIAL
  2
AcDbMaterial
  3
ObjectDBX Classes
 90
        0
 91
        3
280
     0
281
     0
  0
CLASS
  1
VISUALSTYLE
  2
AcDbVisualStyle
  3
ObjectDBX Classes
 90
     4095
 91
       16
280
     0
281
     0
  0
ENDSEC
  0
SECTION
  2
TABLES
  0
TABLE
  2
VPORT
  5
96
330
0
100
AcDbSymbolTable
 70
     8
  0
VPORT
  5
10CF
330
96
100
AcDbSymbolTableRecord
100
AcDbViewportTableRecord
  2
*Active
 70
     0
 10
0.0
 20
0.0
 11
1.0
 21
1.0
 12
0.2366517859291486
 22
0.1428323656323987
 13
0.0
 23
0.0
 14
10.0
 24
10.0
 15
10.0
 25
10.0
 16
0.0
 26
0.0
 36
1.0
 17
0.0
 27
0.0
 37
0.0
 40
0.2756972514593107
 41
1.302486187845303
 42
50.0
 43
0.0
 44
0.0
 50
0.0
 51
0.0
 71
     0
 72
  1000
 73
     1
 74
     3
 75
     0
 76
     0
 77
     0
 78
     0
281
     0
 65
     1
110
0.0
120
0.0
130
0.0
111
1.0
121
0.0
131
0.0
112
0.0
122
1.0
132
0.0
 79
     0
146
0.0
  0
ENDTAB
  0
TABLE
  2
LTYPE
  5
91
330
0
100
AcDbSymbolTable
 70
     4
  0
LTYPE
  5
92
330
91
100
AcDbSymbolTableRecord
100
AcDbLinetypeTableRecord
  2
ByBlock
 70
     0
  3

 72
    65
 73
     0
 40
0.0
  0
LTYPE
  5
93
330
91
100
AcDbSymbolTableRecord
100
AcDbLinetypeTableRecord
  2
ByLayer
 70
     0
  3

 72
    65
 73
     0
 40
0.0
  0
LTYPE
  5
C
330
91
100
AcDbSymbolTableRecord
100
AcDbLinetypeTableRecord
  2
Continuous
 70
     0
  3
Solid line
 72
    65
 73
     0
 40
0.0
  0
LTYPE
  5
105
330
91
100
AcDbSymbolTableRecord
100
AcDbLinetypeTableRecord
  2
ACAD_ISO10W100
 70
     0
  3
ISO dash dot __ . __ . __ . __ . __ . __ . __ .
 72
    65
 73
     4
 40
18.0
 49
12.0
 74
     0
 49
-3.0
 74
     0
 49
0.0
 74
     0
 49
-3.0
 74
     0
  0
LTYPE
  5
190
330
91
100
AcDbSymbolTableRecord
100
AcDbLinetypeTableRecord
  2
RAYITAX4
 70
     0
  3
RAYITAX4
 72
    65
 73
     2
 40
18.0
 49
12.0
 74
     0
 49
-6.0
 74
     0
  0
ENDTAB
  0
TABLE
  2
LAYER
  5
8A
102
{ACAD_XDICTIONARY
360
8B
102
}
330
0
100
AcDbSymbolTable
 70
    13
  0
LAYER
  5
6
330
8A
100
AcDbSymbolTableRecord
100
AcDbLayerTableRecord
  2
0
 70
     0
 62
     7
  6
Continuous
370
    -3
390
7
  0
LAYER
  5
3F
330
8A
100
AcDbSymbolTableRecord
100
AcDbLayerTableRecord
  2
Defpoints
 70
     0
 62
     7
  6
Continuous
290
     0
370
    -3
390
7
  0
LAYER
  5
2E
330
8A
100
AcDbSymbolTableRecord
100
AcDbLayerTableRecord
  2
Dimensione
 70
     0
 62
   150
  6
Continuous
370
    -3
390
7
1001
AcAecLayerStandard
1000

1000

  0
LAYER
  5
2A
330
8A
100
AcDbSymbolTableRecord
100
AcDbLayerTableRecord
  2
Profilo
 70
     0
 62
     1
  6
Continuous
370
    -3
390
7
1001
AcAecLayerStandard
1000

1000

  0
LAYER
  5
54
330
8A
100
AcDbSymbolTableRecord
100
AcDbLayerTableRecord
  2
Sezione
 70
     0
 62
     2
  6
Continuous
370
    -3
390
7
1001
AcAecLayerStandard
1000

1000

  0
LAYER
  5
E
330
8A
100
AcDbSymbolTableRecord
100
AcDbLayerTableRecord
  2
Table
 70
     0
 62
     3
  6
Continuous
370
    -3
390
7
1001
AcAecLayerStandard
1000

1000

  0
LAYER
  5
19
330
8A
100
AcDbSymbolTableRecord
100
AcDbLayerTableRecord
  2
Text
 70
     0
 62
     4
  6
Continuous
370
    -3
390
7
1001
AcAecLayerStandard
1000

1000

  0
LAYER
  5
5C
330
8A
100
AcDbSymbolTableRecord
100
AcDbLayerTableRecord
  2
Vista
 70
     0
 62
     2
  6
Continuous
370
    -3
390
7
1001
AcAecLayerStandard
1000

1000

  0
LAYER
  5
256
330
8A
100
AcDbSymbolTableRecord
100
AcDbLayerTableRecord
  2
CORTE
 70
     0
 62
     1
  6
Continuous
370
    -3
390
7
  0
LAYER
  5
586
330
8A
100
AcDbSymbolTableRecord
100
AcDbLayerTableRecord
  2
TRAMA
 70
     0
 62
     4
  6
Continuous
370
    -3
390
7
  0
LAYER
  5
6A9
330
8A
100
AcDbSymbolTableRecord
100
AcDbLayerTableRecord
  2
Eurostyl
 70
     0
 62
   233
420
 14702479
  6
Continuous
370
    -3
390
7
  0
LAYER
  5
7C5
330
8A
100
AcDbSymbolTableRecord
100
AcDbLayerTableRecord
  2
Bovelacci
 70
     0
 62
     9
  6
Continuous
370
    -3
390
7
1001
AcAecLayerStandard
1000

1000

  0
LAYER
  5
A01
330
8A
100
AcDbSymbolTableRecord
100
AcDbLayerTableRecord
  2
Brisckstyl
 70
     0
 62
    81
420
 10085529
  6
Continuous
370
    -3
390
7
  0
ENDTAB
  0
TABLE
  2
STYLE
  5
8F
330
0
100
AcDbSymbolTable
 70
     4
  0
STYLE
  5
1A
330
8F
100
AcDbSymbolTableRecord
100
AcDbTextStyleTableRecord
  2
Standard
 70
     0
 40
0.0
 41
1.0
 50
0.0
 71
     0
 42
2.5
  3
txt
  4

  0
STYLE
  5
20
330
8F
100
AcDbSymbolTableRecord
100
AcDbTextStyleTableRecord
  2
ROMANS
 70
     0
 40
0.0
 41
1.0
 50
0.0
 71
     0
 42
2.5
  3
romans
  4

  0
STYLE
  5
28
330
8F
100
AcDbSymbolTableRecord
100
AcDbTextStyleTableRecord
  2
Arial
 70
     0
 40
0.0
 41
1.0
 50
0.0
 71
     0
 42
0.25
  3
ARIAL.TTF
  4

1001
ACAD
1000
Arial
1071
       34
  0
STYLE
  5
26
330
8F
100
AcDbSymbolTableRecord
100
AcDbTextStyleTableRecord
  2
style1
 70
     0
 40
0.0
 41
1.0
 50
0.0
 71
     0
 42
0.005
  3
TIMES.TTF
  4

1001
ACAD
1000
Times New Roman
1071
       18
  0
ENDTAB
  0
TABLE
  2
VIEW
  5
94
330
0
100
AcDbSymbolTable
 70
     0
  0
ENDTAB
  0
TABLE
  2
UCS
  5
95
330
0
100
AcDbSymbolTable
 70
     0
  0
ENDTAB
  0
TABLE
  2
APPID
  5
98
330
0
100
AcDbSymbolTable
 70
     9
  0
APPID
  5
1B
330
98
100
AcDbSymbolTableRecord
100
AcDbRegAppTableRecord
  2
ACAD
 70
     0
  0
APPID
  5
34
330
98
100
AcDbSymbolTableRecord
100
AcDbRegAppTableRecord
  2
ACAD_DSTYLE_DIMJOGGED_JOGANGLE_SYMBOL
 70
     0
  0
APPID
  5
F
330
98
100
AcDbSymbolTableRecord
100
AcDbRegAppTableRecord
  2
AcAecLayerStandard
 70
     0
  0
APPID
  5
85
330
98
100
AcDbSymbolTableRecord
100
AcDbRegAppTableRecord
  2
ACAD_PSEXT
 70
     0
  0
APPID
  5
BA
330
98
100
AcDbSymbolTableRecord
100
AcDbRegAppTableRecord
  2
ACAD_DSTYLE_DIMEXT_LENGTH
 70
     0
  0
APPID
  5
101
330
98
100
AcDbSymbolTableRecord
100
AcDbRegAppTableRecord
  2
ACAD_EXEMPT_FROM_CAD_STANDARDS
 70
     0
  0
APPID
  5
102
330
98
100
AcDbSymbolTableRecord
100
AcDbRegAppTableRecord
  2
ACAD_DSTYLE_DIM_LINETYPE
 70
     0
  0
APPID
  5
103
330
98
100
AcDbSymbolTableRecord
100
AcDbRegAppTableRecord
  2
ACAD_DSTYLE_DIM_EXT1_LINETYPE
 70
     0
  0
APPID
  5
104
330
98
100
AcDbSymbolTableRecord
100
AcDbRegAppTableRecord
  2
ACAD_DSTYLE_DIM_EXT2_LINETYPE
 70
     0
  0
ENDTAB
  0
TABLE
  2
DIMSTYLE
  5
99
330
0
100
AcDbSymbolTable
 70
     8
100
AcDbDimStyleTable
 71
     2
340
2F
340
9A
  0
DIMSTYLE
105
9A
330
99
100
AcDbSymbolTableRecord
100
AcDbDimStyleTableRecord
  2
ISO-25
 70
     0
 41
2.5
 42
0.625
 43
3.75
 44
1.25
 73
     0
 74
     0
 77
     1
 78
     8
140
2.5
141
2.5
143
0.03937007874016
147
0.625
171
     3
172
     1
271
     2
272
     2
274
     3
278
    44
283
     0
284
     8
340
1A
  0
DIMSTYLE
105
2F
102
{ACAD_REACTORS
330
8D6
330
8D7
102
}
330
99
100
AcDbSymbolTableRecord
100
AcDbDimStyleTableRecord
  2
Bovelacci
 70
     0
 40
0.001
 41
1.5
140
3.0
141
0.0
147
2.0
176
     5
177
     5
178
     4
271
     2
272
     2
279
     2
340
20
342
30
1001
ACAD_DSTYLE_DIMJOGGED_JOGANGLE_SYMBOL
1070
   384
1040
0.7853981633974483
1001
ACAD_DSTYLE_DIMEXT_LENGTH
1070
   378
1040
0.18
  0
DIMSTYLE
105
194
330
99
100
AcDbSymbolTableRecord
100
AcDbDimStyleTableRecord
  2
STANDARD
 70
     0
340
1A
  0
DIMSTYLE
105
7C6
330
99
100
AcDbSymbolTableRecord
100
AcDbDimStyleTableRecord
  2
Dim 1-100
 70
     0
 40
0.1
 41
1.5
 42
0.0
 43
5.0
 44
1.25
 45
0.005
 46
1.25
 73
     0
 74
     0
 77
     1
 78
     9
140
2.0
141
2.5
147
1.0
172
     1
174
     1
179
     2
279
     2
289
     2
340
20
342
30
  0
DIMSTYLE
105
7C7
330
99
100
AcDbSymbolTableRecord
100
AcDbDimStyleTableRecord
  2
Dim 1-50
 70
     0
 40
0.05
 41
1.5
 42
0.0
 43
5.0
 44
1.25
 45
0.005
 46
1.25
 73
     0
 74
     0
 77
     1
 78
     9
140
2.0
141
2.5
147
1.0
172
     1
174
     1
179
     2
279
     2
289
     2
340
20
342
30
  0
DIMSTYLE
105
7C8
330
99
100
AcDbSymbolTableRecord
100
AcDbDimStyleTableRecord
  2
Dim 1-200
 70
     0
 40
0.2
 41
1.5
 42
0.0
 43
5.0
 44
1.25
 45
0.005
 46
1.25
 73
     0
 74
     0
 77
     1
 78
     9
140
2.0
141
2.5
147
1.0
172
     1
174
     1
179
     2
271
     2
272
     2
279
     2
289
     2
340
20
342
30
  0
DIMSTYLE
105
7C9
330
99
100
AcDbSymbolTableRecord
100
AcDbDimStyleTableRecord
  2
AEC Scale - Italiano
 70
     0
 41
1.0
 42
10.0
 43
10.0
 44
10.0
 73
     0
 74
     0
 75
     1
 76
     1
 77
     1
140
10.0
141
1.0
147
10.0
173
     1
271
     0
272
     0
279
     2
340
1A
343
7C0
344
7BA
  0
ENDTAB
  0
TABLE
  2
BLOCK_RECORD
  5
1
330
0
100
AcDbSymbolTable
 70
    19
  0
BLOCK_RECORD
  5
2
102
{ACAD_XDICTIONARY
360
3
102
}
330
1
100
AcDbSymbolTableRecord
100
AcDbBlockTableRecord
  2
*Model_Space
340
77
  0
BLOCK_RECORD
  5
79
330
1
100
AcDbSymbolTableRecord
100
AcDbBlockTableRecord
  2
*Paper_Space
340
82
  0
BLOCK_RECORD
  5
86
330
1
100
AcDbSymbolTableRecord
100
AcDbBlockTableRecord
  2
*Paper_Space0
340
89
  0
BLOCK_RECORD
  5
30
330
1
100
AcDbSymbolTableRecord
100
AcDbBlockTableRecord
  2
_ArchTick
340
0
310
2800000020000000200000000100080000000000000400000000000000000000000000000000000000000000000080000080000000808000800000008000800080800000C0C0C000C0DCC000F0CAA6000020400000206000002080000020A0000020C0000020E00000400000004020000040400000406000004080000040A0
310
000040C0000040E00000600000006020000060400000606000006080000060A0000060C0000060E00000800000008020000080400000806000008080000080A0000080C0000080E00000A0000000A0200000A0400000A0600000A0800000A0A00000A0C00000A0E00000C0000000C0200000C0400000C0600000C0800000C0
310
A00000C0C00000C0E00000E0000000E0200000E0400000E0600000E0800000E0A00000E0C00000E0E00040000000400020004000400040006000400080004000A0004000C0004000E00040200000402020004020400040206000402080004020A0004020C0004020E000404000004040200040404000404060004040800040
310
40A0004040C0004040E00040600000406020004060400040606000406080004060A0004060C0004060E00040800000408020004080400040806000408080004080A0004080C0004080E00040A0000040A0200040A0400040A0600040A0800040A0A00040A0C00040A0E00040C0000040C0200040C0400040C0600040C08000
310
40C0A00040C0C00040C0E00040E0000040E0200040E0400040E0600040E0800040E0A00040E0C00040E0E00080000000800020008000400080006000800080008000A0008000C0008000E00080200000802020008020400080206000802080008020A0008020C0008020E00080400000804020008040400080406000804080
310
008040A0008040C0008040E00080600000806020008060400080606000806080008060A0008060C0008060E00080800000808020008080400080806000808080008080A0008080C0008080E00080A0000080A0200080A0400080A0600080A0800080A0A00080A0C00080A0E00080C0000080C0200080C0400080C0600080C0
310
800080C0A00080C0C00080C0E00080E0000080E0200080E0400080E0600080E0800080E0A00080E0C00080E0E000C0000000C0002000C0004000C0006000C0008000C000A000C000C000C000E000C0200000C0202000C0204000C0206000C0208000C020A000C020C000C020E000C0400000C0402000C0404000C0406000C0
310
408000C040A000C040C000C040E000C0600000C0602000C0604000C0606000C0608000C060A000C060C000C060E000C0800000C0802000C0804000C0806000C0808000C080A000C080C000C080E000C0A00000C0A02000C0A04000C0A06000C0A08000C0A0A000C0A0C000C0A0E000C0C00000C0C02000C0C04000C0C06000
310
C0C08000C0C0A000F0FBFF00A4A0A000808080000000FF0000FF000000FFFF00FF000000FF00FF00FFFF0000FFFFFF00000000FF000000000000000000000000000000000000000000000000000000000000FF00FF00000000000000000000000000000000000000000000000000000000FF000000FF000000000000000000
310
0000000000000000000000000000000000FF0000000000FF0000000000000000000000000000000000000000000000000000FF0000000000FF0000000000000000000000000000000000000000000000000000FF0000000000FF0000000000000000000000000000000000000000000000000000FF0000000000FF00000000
310
00000000000000000000000000000000000000000000FF0000000000FF0000000000000000000000000000000000000000000000000000FF0000000000FF0000000000000000000000000000000000000000000000000000FF0000000000FF0000000000000000000000000000000000000000000000000000FF0000000000
310
FF0000000000000000000000000000000000000000000000000000FF0000000000FF0000000000000000000000000000000000000000000000000000FF0000000000FF0000000000000000000000000000000000000000000000000000FF0000000000FF0000000000000000000000000000000000000000000000000000FF
310
0000000000FF0000000000000000000000000000000000000000000000000000FF0000000000FF0000000000000000000000000000000000000000000000000000FF0000000000FF0000000000000000000000000000000000000000000000000000FF0000000000FF00000000000000000000000000000000000000000000
310
00000000FF0000000000FF0000000000000000000000000000000000000000000000000000FF0000000000FF0000000000000000000000000000000000000000000000000000FF0000000000FF0000000000000000000000000000000000000000000000000000FF0000000000FF0000000000000000000000000000000000
310
000000000000000000FF0000000000FF0000000000000000000000000000000000000000000000000000FF0000000000FF0000000000000000000000000000000000000000000000000000FF0000000000FF0000000000000000000000000000000000000000000000000000FF0000000000FF000000000000000000000000
310
0000000000000000000000000000FF0000000000FF0000000000000000000000000000000000000000000000000000FF0000000000FF0000000000000000000000000000000000000000000000000000FF0000000000FF0000000000000000000000000000000000000000000000000000FF000000FF000000000000000000
310
00000000000000000000000000000000000000FF00FF000000000000000000000000000000000000000000000000000000000000FF000000
102
{BLKREFS
331
890
331
891
331
89A
331
89B
331
8B4
331
8B5
331
8C1
331
8C2
331
C1B
331
C1C
331
C25
331
C26
102
}
  0
BLOCK_RECORD
  5
179
330
1
100
AcDbSymbolTableRecord
100
AcDbBlockTableRecord
  2
DOT
340
0
  0
BLOCK_RECORD
  5
213
330
1
100
AcDbSymbolTableRecord
100
AcDbBlockTableRecord
  2
ELEMENT
340
0
102
{BLKREFS
331
244
102
}
  0
BLOCK_RECORD
  5
235
330
1
100
AcDbSymbolTableRecord
100
AcDbBlockTableRecord
  2
NOM-J
340
0
  0
BLOCK_RECORD
  5
596
330
1
100
AcDbSymbolTableRecord
100
AcDbBlockTableRecord
  2
*X6
340
0
102
{BLKREFS
331
5B3
102
}
  0
BLOCK_RECORD
  5
5AC
102
{ACAD_XDICTIONARY
360
5D2
102
}
330
1
100
AcDbSymbolTableRecord
100
AcDbBlockTableRecord
  2
A$C1C9F3EEC
340
0
1001
ACAD
1000
DesignCenter Data
1002
{
1070
     1
1070
     0
1002
}
  0
BLOCK_RECORD
  5
7BA
330
1
100
AcDbSymbolTableRecord
100
AcDbBlockTableRecord
  2
_Arrivo
340
0
310
2800000020000000200000000100080000000000000400000000000000000000000000000000000000000000000080000080000000808000800000008000800080800000C0C0C000C0DCC000F0CAA6000020400000206000002080000020A0000020C0000020E00000400000004020000040400000406000004080000040A0
310
000040C0000040E00000600000006020000060400000606000006080000060A0000060C0000060E00000800000008020000080400000806000008080000080A0000080C0000080E00000A0000000A0200000A0400000A0600000A0800000A0A00000A0C00000A0E00000C0000000C0200000C0400000C0600000C0800000C0
310
A00000C0C00000C0E00000E0000000E0200000E0400000E0600000E0800000E0A00000E0C00000E0E00040000000400020004000400040006000400080004000A0004000C0004000E00040200000402020004020400040206000402080004020A0004020C0004020E000404000004040200040404000404060004040800040
310
40A0004040C0004040E00040600000406020004060400040606000406080004060A0004060C0004060E00040800000408020004080400040806000408080004080A0004080C0004080E00040A0000040A0200040A0400040A0600040A0800040A0A00040A0C00040A0E00040C0000040C0200040C0400040C0600040C08000
310
40C0A00040C0C00040C0E00040E0000040E0200040E0400040E0600040E0800040E0A00040E0C00040E0E00080000000800020008000400080006000800080008000A0008000C0008000E00080200000802020008020400080206000802080008020A0008020C0008020E00080400000804020008040400080406000804080
310
008040A0008040C0008040E00080600000806020008060400080606000806080008060A0008060C0008060E00080800000808020008080400080806000808080008080A0008080C0008080E00080A0000080A0200080A0400080A0600080A0800080A0A00080A0C00080A0E00080C0000080C0200080C0400080C0600080C0
310
800080C0A00080C0C00080C0E00080E0000080E0200080E0400080E0600080E0800080E0A00080E0C00080E0E000C0000000C0002000C0004000C0006000C0008000C000A000C000C000C000E000C0200000C0202000C0204000C0206000C0208000C020A000C020C000C020E000C0400000C0402000C0404000C0406000C0
310
408000C040A000C040C000C040E000C0600000C0602000C0604000C0606000C0608000C060A000C060C000C060E000C0800000C0802000C0804000C0806000C0808000C080A000C080C000C080E000C0A00000C0A02000C0A04000C0A06000C0A08000C0A0A000C0A0C000C0A0E000C0C00000C0C02000C0C04000C0C06000
310
C0C08000C0C0A000F0FBFF00A4A0A000808080000000FF0000FF000000FFFF00FF000000FF00FF00FFFF0000FFFFFF00000000000000000000000000000000000000000000000000000000000000000000000000000000000000FF0000000000000000000000000000000000000000000000000000000000000000FF000000
310
00000000000000000000000000000000000000000000000000000000FF0000000000000000000000000000000000000000000000000000000000000000FF00000000000000000000000000000000000000000000000000000000000000FF0000000000000000000000000000000000000000000000000000000000000000FF
310
0000000000000000000000000000000000000000000000000000000000000000FF00000000000000000000000000000000000000000000000000000000000000FF0000000000000000000000000000000000000000000000000000000000000000FF0000000000000000000000000000000000000000000000000000000000
310
0000FF0000000000000000000000000000000000000000000000000000000000000000FF00000000000000000000000000000000000000000000000000000000000000FF0000000000000000000000000000000000000000000000000000000000000000FF0000FF0000000000000000000000000000000000000000000000
310
000000000000FFFF000000000000000000000000000000000000000000000000000000000000FFFF00000000000000000000000000000000000000000000000000000000FFFFFFFFFFFF00000000000000000000000000000000000000000000000000000000FFFF0000000000000000000000000000000000000000000000
310
000000000000FF0000FF000000000000000000000000000000000000000000000000000000FF00000000000000000000000000000000000000000000000000000000000000FF000000000000000000000000000000000000000000000000000000000000FF0000000000000000000000000000000000000000000000000000
310
0000000000FF000000000000000000000000000000000000000000000000000000000000FF00000000000000000000000000000000000000000000000000000000000000FF000000000000000000000000000000000000000000000000000000000000FF000000000000000000000000000000000000000000000000000000
310
000000FF00000000000000000000000000000000000000000000000000000000000000FF000000000000000000000000000000000000000000000000000000000000FF00000000000000000000000000000000000000000000000000000000000000FF00000000000000000000000000000000000000000000000000000000
310
0000FF0000000000000000000000000000000000000000000000000000000000000000000000000000000000000000000000000000000000
  0
BLOCK_RECORD
  5
7C0
330
1
100
AcDbSymbolTableRecord
100
AcDbBlockTableRecord
  2
_Partenza
340
0
310
2800000020000000200000000100080000000000000400000000000000000000000000000000000000000000000080000080000000808000800000008000800080800000C0C0C000C0DCC000F0CAA6000020400000206000002080000020A0000020C0000020E00000400000004020000040400000406000004080000040A0
310
000040C0000040E00000600000006020000060400000606000006080000060A0000060C0000060E00000800000008020000080400000806000008080000080A0000080C0000080E00000A0000000A0200000A0400000A0600000A0800000A0A00000A0C00000A0E00000C0000000C0200000C0400000C0600000C0800000C0
310
A00000C0C00000C0E00000E0000000E0200000E0400000E0600000E0800000E0A00000E0C00000E0E00040000000400020004000400040006000400080004000A0004000C0004000E00040200000402020004020400040206000402080004020A0004020C0004020E000404000004040200040404000404060004040800040
310
40A0004040C0004040E00040600000406020004060400040606000406080004060A0004060C0004060E00040800000408020004080400040806000408080004080A0004080C0004080E00040A0000040A0200040A0400040A0600040A0800040A0A00040A0C00040A0E00040C0000040C0200040C0400040C0600040C08000
310
40C0A00040C0C00040C0E00040E0000040E0200040E0400040E0600040E0800040E0A00040E0C00040E0E00080000000800020008000400080006000800080008000A0008000C0008000E00080200000802020008020400080206000802080008020A0008020C0008020E00080400000804020008040400080406000804080
310
008040A0008040C0008040E00080600000806020008060400080606000806080008060A0008060C0008060E00080800000808020008080400080806000808080008080A0008080C0008080E00080A0000080A0200080A0400080A0600080A0800080A0A00080A0C00080A0E00080C0000080C0200080C0400080C0600080C0
310
800080C0A00080C0C00080C0E00080E0000080E0200080E0400080E0600080E0800080E0A00080E0C00080E0E000C0000000C0002000C0004000C0006000C0008000C000A000C000C000C000E000C0200000C0202000C0204000C0206000C0208000C020A000C020C000C020E000C0400000C0402000C0404000C0406000C0
310
408000C040A000C040C000C040E000C0600000C0602000C0604000C0606000C0608000C060A000C060C000C060E000C0800000C0802000C0804000C0806000C0808000C080A000C080C000C080E000C0A00000C0A02000C0A04000C0A06000C0A08000C0A0A000C0A0C000C0A0E000C0C00000C0C02000C0C04000C0C06000
310
C0C08000C0C0A000F0FBFF00A4A0A000808080000000FF0000FF000000FFFF00FF000000FF00FF00FFFF0000FFFFFF0000000000000000000000000000000000000000000000000000000000000000000000000000000000000000000000000000000000000000000000000000000000000000000000000000000000000000
310
000000000000000000000000000000000000000000000000000000000000000000000000000000000000000000000000000000000000000000000000000000000000000000000000000000000000000000000000000000000000000000000000000000000000000000000000000000000000FFFFFFFFFFFFFFFFFFFFFFFFFF
310
FFFFFFFFFFFFFFFFFFFFFFFFFFFFFFFFFF0000000000000000000000000000000000000000000000000000000000000000000000000000000000000000000000000000000000000000000000000000000000000000000000000000000000000000000000000000000000000000000000000000000000000000000000000000
310
00000000000000000000000000000000000000000000000000000000000000000000000000000000000000000000000000000000000000000000000000000000000000000000000000000000000000000000000000000000000000000000000000000000000000000000000000000000000000000000000000000000000000
310
00000000000000000000000000000000000000000000000000000000000000000000000000000000000000000000000000000000000000000000000000000000000000000000000000000000000000000000000000000000000000000000000000000000000000000000000000000000000000000000000000000000000000
310
00000000000000000000000000000000000000000000000000000000000000000000000000000000000000000000000000000000000000000000000000000000000000000000000000000000000000000000000000000000000000000000000000000000000000000000000000000000000000000000000000000000000000
310
000000000000000000000000000000000000000000000000000000000000000000000000000000000000000000000000000000000000000000000000000000000000000000000000000000000000000000000000000000FFFFFFFFFFFFFFFFFFFFFFFFFFFFFFFFFFFFFFFFFFFFFFFFFFFFFFFFFFFF00000000000000000000
310
00000000000000000000000000000000000000000000000000000000000000000000000000000000000000000000000000000000000000000000000000000000000000000000000000000000000000000000000000000000000000000000000000000000000000000000000000000000000000000000000000000000000000
310
0000000000000000000000000000000000000000000000000000000000000000000000000000000000000000000000000000000000000000
  0
BLOCK_RECORD
  5
8D9
330
1
100
AcDbSymbolTableRecord
100
AcDbBlockTableRecord
  2
*D14
340
0
  0
BLOCK_RECORD
  5
8E6
330
1
100
AcDbSymbolTableRecord
100
AcDbBlockTableRecord
  2
*D15
340
0
  0
ENDTAB
  0
ENDSEC
  0
SECTION
  2
BLOCKS
  0
BLOCK
  5
5
330
2
100
AcDbEntity
  8
0
100
AcDbBlockBegin
  2
*Model_Space
 70
     0
 10
0.0
 20
0.0
 30
0.0
  3
*Model_Space
  1

  0
ENDBLK
  5
76
330
2
100
AcDbEntity
  8
0
100
AcDbBlockEnd
  0
BLOCK
  5
7A
330
79
100
AcDbEntity
 67
     1
  8
0
100
AcDbBlockBegin
  2
*Paper_Space
 70
     0
 10
0.0
 20
0.0
 30
0.0
  3
*Paper_Space
  1

  0
ENDBLK
  5
81
330
79
100
AcDbEntity
 67
     1
  8
0
100
AcDbBlockEnd
  0
BLOCK
  5
87
330
86
100
AcDbEntity
 67
     1
  8
0
100
AcDbBlockBegin
  2
*Paper_Space0
 70
     0
 10
0.0
 20
0.0
 30
0.0
  3
*Paper_Space0
  1

  0
ENDBLK
  5
88
330
86
100
AcDbEntity
 67
     1
  8
0
100
AcDbBlockEnd
  0
BLOCK
  5
31
330
30
100
AcDbEntity
  8
0
 62
     1
100
AcDbBlockBegin
  2
_ArchTick
 70
     0
 10
0.0
 20
0.0
 30
0.0
  3
_ArchTick
  1

  0
LWPOLYLINE
  5
32
330
30
100
AcDbEntity
  8
0
  6
ByBlock
 62
     0
100
AcDbPolyline
 90
        2
 70
     0
 43
0.15
 10
-0.5
 20
-0.5
 10
0.5
 20
0.5
  0
ENDBLK
  5
33
330
30
100
AcDbEntity
  8
0
 62
     1
100
AcDbBlockEnd
  0
BLOCK
  5
17A
330
179
100
AcDbEntity
  8
0
100
AcDbBlockBegin
  2
DOT
 70
     0
 10
0.0
 20
0.0
 30
0.0
  3
DOT
  1

  0
LWPOLYLINE
  5
17B
330
179
100
AcDbEntity
  8
0
  6
ByBlock
 62
     0
100
AcDbPolyline
 90
        2
 70
     1
 43
0.5
 10
-0.25
 20
0.0
 42
1.0
 10
0.25
 20
0.0
 42
1.0
  0
LINE
  5
17C
330
179
100
AcDbEntity
  8
0
  6
ByBlock
 62
     0
100
AcDbLine
 10
-0.5
 20
0.0
 30
0.0
 11
-1.0
 21
0.0
 31
0.0
  0
ENDBLK
  5
17D
330
179
100
AcDbEntity
  8
0
100
AcDbBlockEnd
  0
BLOCK
  5
214
330
213
100
AcDbEntity
  8
0
100
AcDbBlockBegin
  2
ELEMENT
 70
     0
 10
0.0
 20
0.0
 30
0.0
  3
ELEMENT
  1

  0
LINE
  5
215
330
213
100
AcDbEntity
  8
CORTE
 62
     1
100
AcDbLine
 10
0.0287752548522349
 20
0.037775254852221
 30
0.0
 11
0.0062928932188697
 21
0.015292893218799
 31
0.0
  0
ARC
  5
216
330
213
100
AcDbEntity
  8
CORTE
 62
     1
100
AcDbCircle
 10
0.0148333333333994
 20
0.0291666666666402
 30
0.0
 40
0.0191847740553366
100
AcDbArc
 50
270.4730994291238
 51
359.5269005707907
  0
LINE
  5
217
330
213
100
AcDbEntity
  8
CORTE
100
AcDbLine
 10
0.0130000000000337
 20
-0.0000000000000568
 30
0.0
 11
0.0099999999999909
 21
0.0000000000000284
 31
0.0
  0
LINE
  5
218
330
213
100
AcDbEntity
  8
CORTE
100
AcDbLine
 10
-0.0009999999999764
 20
0.0010000000000048
 30
0.0
 11
-0.0009999999999764
 21
0.0140000000000384
 31
0.0
  0
ARC
  5
219
330
213
100
AcDbEntity
  8
CORTE
100
AcDbCircle
 10
0.0
 20
0.0010000000000048
 30
0.0
 40
0.001
100
AcDbArc
 50
180.0
 51
269.9999999991858
  0
LINE
  5
21A
330
213
100
AcDbEntity
  8
CORTE
100
AcDbLine
 10
0.0040000000000191
 20
-0.0039999999999623
 30
0.0
 11
0.0040000000000191
 21
-0.0010000000000332
 31
0.0
  0
LINE
  5
21B
330
213
100
AcDbEntity
  8
CORTE
100
AcDbLine
 10
0.0090000000000146
 20
-0.0039999999999907
 30
0.0
 11
0.0090000000000146
 21
-0.0009999999999764
 31
0.0
  0
ARC
  5
21C
330
213
100
AcDbEntity
  8
CORTE
100
AcDbCircle
 10
0.0049999999999955
 20
-0.0039999999999623
 30
0.0
 40
0.001
100
AcDbArc
 50
180.0
 51
269.9999999996743
  0
LINE
  5
21D
330
213
100
AcDbEntity
  8
CORTE
100
AcDbLine
 10
0.0080000000000382
 20
-0.0049999999999955
 30
0.0
 11
0.0049999999999955
 21
-0.004999999999967
 31
0.0
  0
ARC
  5
21E
330
213
100
AcDbEntity
  8
CORTE
100
AcDbCircle
 10
0.0080000000000382
 20
-0.0039999999999907
 30
0.0
 40
0.001
100
AcDbArc
 50
269.9999999995929
 51
0.000000000000007
  0
LINE
  5
21F
330
213
100
AcDbEntity
  8
CORTE
100
AcDbLine
 10
0.0030000000000427
 20
-0.0000000000000284
 30
0.0
 11
0.0
 21
0.0
 31
0.0
  0
ARC
  5
220
330
213
100
AcDbEntity
  8
CORTE
100
AcDbCircle
 10
0.0030000000000427
 20
-0.0010000000000332
 30
0.0
 40
0.001
100
AcDbArc
 50
0.000000000000007
 51
89.99999999967434
  0
ARC
  5
221
330
213
100
AcDbEntity
  8
CORTE
100
AcDbCircle
 10
0.0099999999999909
 20
-0.0009999999999764
 30
0.0
 40
0.001
100
AcDbArc
 50
89.99999999967434
 51
180.0
  0
ARC
  5
222
330
213
100
AcDbEntity
  8
CORTE
100
AcDbCircle
 10
0.0
 20
0.0140000000000384
 30
0.0
 40
0.001
100
AcDbArc
 50
89.99999999975274
 51
180.0
  0
LINE
  5
223
330
213
100
AcDbEntity
  8
CORTE
100
AcDbLine
 10
0.0055857864376776
 20
0.0149999999999864
 30
0.0
 11
0.0
 21
0.0150000000000432
 31
0.0
  0
ARC
  5
224
330
213
100
AcDbEntity
  8
CORTE
 62
     1
100
AcDbCircle
 10
0.0055857864376776
 20
0.0159999999999911
 30
0.0
 40
0.001
100
AcDbArc
 50
269.9999999997674
 51
315.0000000000357
  0
LINE
  5
225
330
213
100
AcDbEntity
  8
CORTE
100
AcDbLine
 10
0.01400000000001
 20
0.0009999999999479
 30
0.0
 11
0.01400000000001
 21
0.0089825806863075
 31
0.0
  0
ARC
  5
226
330
213
100
AcDbEntity
  8
CORTE
100
AcDbCircle
 10
0.0130000000000337
 20
0.0009999999999479
 30
0.0
 40
0.001
100
AcDbArc
 50
269.9999999991858
 51
0.000000000000007
  0
ARC
  5
227
330
213
100
AcDbEntity
  8
CORTE
 62
     1
100
AcDbCircle
 10
0.0149999999999864
 20
0.0089825806862791
 30
0.0
 40
0.001
100
AcDbArc
 50
90.47309942941524
 51
179.9999999983715
  0
LINE
  5
228
330
213
100
AcDbEntity
  8
CORTE
100
AcDbLine
 10
0.0440000000000964
 20
0.0339999999999918
 30
0.0
 11
0.0440000000000396
 21
0.0310000000000059
 31
0.0
  0
ARC
  5
229
330
213
100
AcDbEntity
  8
CORTE
100
AcDbCircle
 10
0.0430000000000632
 20
0.0310000000000059
 30
0.0
 40
0.001
100
AcDbArc
 50
270.0
 51
0.000000000000007
  0
ARC
  5
22A
330
213
100
AcDbEntity
  8
CORTE
 62
     1
100
AcDbCircle
 10
0.0350174193137605
 20
0.0290000000000248
 30
0.0
 40
0.001
100
AcDbArc
 50
90.00000000325689
 51
179.5269005705982
  0
LINE
  5
22B
330
213
100
AcDbEntity
  8
CORTE
100
AcDbLine
 10
0.0430000000000632
 20
0.0300000000000011
 30
0.0
 11
0.0350174193137036
 21
0.0300000000000296
 31
0.0
  0
LINE
  5
22C
330
213
100
AcDbEntity
  8
CORTE
100
AcDbLine
 10
0.047999999999945
 20
0.0400000000000205
 30
0.0
 11
0.0300000000000296
 21
0.0400000000000205
 31
0.0
  0
ARC
  5
22D
330
213
100
AcDbEntity
  8
CORTE
 62
     1
100
AcDbCircle
 10
0.0300000000000296
 20
0.0390000000000157
 30
0.0
 40
0.001
100
AcDbArc
 50
90.0
 51
195.0000055997392
  0
ARC
  5
22E
330
213
100
AcDbEntity
  8
CORTE
 62
     1
100
AcDbCircle
 10
0.0280681480710428
 20
0.0384823616334131
 30
0.0
 40
0.001
100
AcDbArc
 50
315.0
 51
15.00000559812761
  0
LINE
  5
22F
330
213
100
AcDbEntity
  8
CORTE
100
AcDbLine
 10
0.0489999999998645
 20
0.0360000000000582
 30
0.0
 11
0.0489999999999213
 21
0.0389999999999873
 31
0.0
  0
LINE
  5
230
330
213
100
AcDbEntity
  8
CORTE
100
AcDbLine
 10
0.0480000000000018
 20
0.0350000000000534
 30
0.0
 11
0.0450000000000728
 21
0.0349999999999966
 31
0.0
  0
ARC
  5
231
330
213
100
AcDbEntity
  8
CORTE
100
AcDbCircle
 10
0.0480000000000018
 20
0.0360000000000582
 30
0.0
 40
0.001
100
AcDbArc
 50
270.0000000004071
 51
0.000000000000007
  0
ARC
  5
232
330
213
100
AcDbEntity
  8
CORTE
100
AcDbCircle
 10
0.0450000000000728
 20
0.0339999999999918
 30
0.0
 40
0.001
100
AcDbArc
 50
90.0
 51
180.0
  0
ARC
  5
233
330
213
100
AcDbEntity
  8
CORTE
100
AcDbCircle
 10
0.047999999999945
 20
0.0390000000000157
 30
0.0
 40
0.001
100
AcDbArc
 50
359.9999999991858
 51
90.0
  0
ENDBLK
  5
234
330
213
100
AcDbEntity
  8
0
100
AcDbBlockEnd
  0
BLOCK
  5
236
330
235
100
AcDbEntity
  8
0
 62
     4
100
AcDbBlockBegin
  2
NOM-J
 70
     0
 10
0.0
 20
0.0
 30
0.0
  3
NOM-J
  1

  0
LINE
  5
237
330
235
100
AcDbEntity
  8
Vista
 62
     4
100
AcDbLine
 10
0.0211489998446837
 20
0.0224999999999795
 30
0.0
 11
0.093805067538824
 21
0.0379594292031982
 31
0.0
  0
LINE
  5
238
330
235
100
AcDbEntity
  8
Vista
 62
     4
100
AcDbLine
 10
0.0197074998707194
 20
0.0224999999999795
 30
0.0
 11
0.0923635675646324
 21
0.0379594292032266
 31
0.0
  0
LINE
  5
239
330
235
100
AcDbEntity
  8
Vista
 62
     4
100
AcDbLine
 10
0.0182659998964141
 20
0.0224999999999795
 30
0.0
 11
0.0909220675904408
 21
0.0379594292031982
 31
0.0
  0
LINE
  5
23A
330
235
100
AcDbEntity
  8
Vista
 62
     4
100
AcDbLine
 10
0.0168244999223362
 20
0.0224999999999795
 30
0.0
 11
0.0894805676163628
 21
0.0379594292032266
 31
0.0
  0
LINE
  5
23B
330
235
100
AcDbEntity
  8
Vista
 62
     4
100
AcDbLine
 10
0.0153829999481445
 20
0.0224999999999795
 30
0.0
 11
0.0880390676422849
 21
0.0379594292032266
 31
0.0
  0
LINE
  5
23C
330
235
100
AcDbEntity
  8
Vista
 62
     4
100
AcDbLine
 10
0.0139414999740666
 20
0.0224999999999795
 30
0.0
 11
0.0865975676682069
 21
0.0379594292032266
 31
0.0
  0
LINE
  5
23D
330
235
100
AcDbEntity
  8
Vista
 62
     2
100
AcDbLine
 10
0.0125000000000455
 20
0.022500000000008
 30
0.0
 11
0.0851560676940153
 21
0.0379594292032266
 31
0.0
  0
LINE
  5
23E
330
235
100
AcDbEntity
  8
Vista
 62
     2
100
AcDbLine
 10
0.0218535533905424
 20
0.0223535533905874
 30
0.0
 11
0.0945096210847396
 21
0.0378129825938061
 31
0.0
  0
LINE
  5
23F
330
235
100
AcDbEntity
  8
Vista
 62
     2
100
AcDbLine
 10
0.02150000000006
 20
0.0200000000000387
 30
0.0
 11
0.094359627334427
 21
0.0355027417029987
 31
0.0
  0
LINE
  5
240
330
235
100
AcDbEntity
  8
Vista
 62
     2
100
AcDbLine
 10
0.0190000000000055
 20
0.0175000000000125
 30
0.0
 11
0.0918596273343724
 21
0.0330027417029726
 31
0.0
  0
LINE
  5
241
330
235
100
AcDbEntity
  8
Vista
 62
     2
100
AcDbLine
 10
0.0075428343679391
 20
0.0078574386832884
 30
0.0
 11
0.0801989020703786
 21
0.0233168678888376
 31
0.0
  0
LINE
  5
242
330
235
100
AcDbEntity
  8
Vista
 62
     2
100
AcDbLine
 10
0.0040000000000191
 20
0.0024999999999693
 30
0.0
 11
0.0746560676942068
 21
0.0175338782567849
 31
0.0
  0
LINE
  5
243
330
235
100
AcDbEntity
  8
Vista
 62
     3
100
AcDbLine
 10
0.0018535533906174
 20
0.0001464466094205
 30
0.0
 11
0.074509621085781
 21
0.0156058758136055
 31
0.0
  0
INSERT
  5
244
330
235
100
AcDbEntity
  8
CORTE
 62
     4
100
AcDbBlockReference
  2
ELEMENT
 10
-0.0024999999999977
 20
0.0024999999999977
 30
0.0
 41
0.5
 42
0.5
 43
0.5
  0
LINE
  5
245
330
235
100
AcDbEntity
  8
Vista
 62
     2
100
AcDbLine
 10
-0.0024999999999977
 20
0.0100000000000193
 30
0.0
 11
0.0013108568762163
 21
0.0108108568761622
 31
0.0
  0
ARC
  5
246
330
235
100
AcDbEntity
  8
CORTE
 62
     3
100
AcDbCircle
 10
0.0775727343608992
 20
0.0325427625365364
 30
0.0
 40
0.0095923870276683
100
AcDbArc
 50
278.1349003175446
 51
356.7599311023579
  0
LINE
  5
247
330
235
100
AcDbEntity
  8
CORTE
 62
     3
100
AcDbLine
 10
0.0771560676942045
 20
0.0184594292032045
 30
0.0
 11
0.0771560676942045
 21
0.0224507195463559
 31
0.0
  0
ARC
  5
248
330
235
100
AcDbEntity
  8
CORTE
 62
     3
100
AcDbCircle
 10
0.0751560676941949
 20
0.0174594292032282
 30
0.0
 40
0.0005
100
AcDbArc
 50
89.99999999967434
 51
180.0
  0
LINE
  5
249
330
235
100
AcDbEntity
  8
Vista
 62
     3
100
AcDbLine
 10
0.074509621085781
 20
0.0156058758135771
 30
0.0
 11
0.0746560676941499
 21
0.0156370360599851
 31
0.0
  0
ARC
  5
24A
330
235
100
AcDbEntity
  8
CORTE
100
AcDbCircle
 10
0.0741560676942186
 20
0.0159594292032068
 30
0.0
 40
0.0005
100
AcDbArc
 50
315.0000001496929
 51
0.000000000000007
  0
LINE
  5
24B
330
235
100
AcDbEntity
  8
CORTE
 62
     3
100
AcDbLine
 10
0.0746560676942068
 20
0.0159594292032068
 30
0.0
 11
0.0746560676942068
 21
0.0174594292032282
 31
0.0
  0
ARC
  5
24C
330
235
100
AcDbEntity
  8
CORTE
 62
     3
100
AcDbCircle
 10
0.0766560676942163
 20
0.0184594292032045
 30
0.0
 40
0.0005
100
AcDbArc
 50
269.9999999991858
 51
0.000000000000007
  0
LINE
  5
24D
330
235
100
AcDbEntity
  8
CORTE
 62
     3
100
AcDbLine
 10
0.0766560676942163
 20
0.017959429203188
 30
0.0
 11
0.0751560676941949
 21
0.0179594292032164
 31
0.0
  0
ARC
  5
24E
330
235
100
AcDbEntity
  8
CORTE
 62
     3
100
AcDbCircle
 10
0.0776560676941927
 20
0.0224507195463559
 30
0.0
 40
0.0005
100
AcDbArc
 50
152.521182623883
 51
179.9999999983715
  0
LINE
  5
24F
330
235
100
AcDbEntity
  8
CORTE
 62
     3
100
AcDbLine
 10
0.0946560676941317
 20
0.0359594292032455
 30
0.0
 11
0.0946560676941317
 21
0.03745942920321
 31
0.0
  0
ARC
  5
250
330
235
100
AcDbEntity
  8
CORTE
 62
     3
100
AcDbCircle
 10
0.0916560676942027
 20
0.0334594292032193
 30
0.0
 40
0.0005
100
AcDbArc
 50
270.0
 51
0.000000000000007
  0
ARC
  5
251
330
235
100
AcDbEntity
  8
CORTE
 62
     3
100
AcDbCircle
 10
0.0941560676942004
 20
0.0359594292032455
 30
0.0
 40
0.0005
100
AcDbArc
 50
294.0240004981589
 51
0.000000000000007
  0
LINE
  5
252
330
235
100
AcDbEntity
  8
CORTE
 62
     3
100
AcDbLine
 10
0.0921560676942477
 20
0.0349594292032123
 30
0.0
 11
0.0921560676941908
 21
0.0334594292032193
 31
0.0
  0
LINE
  5
253
330
235
100
AcDbEntity
  8
CORTE
 62
     3
100
AcDbLine
 10
0.0941560676941436
 20
0.0379594292032266
 30
0.0
 11
0.0851560676942427
 21
0.0379594292032266
 31
0.0
  0
ARC
  5
254
330
235
100
AcDbEntity
  8
CORTE
 62
     3
100
AcDbCircle
 10
0.0941560676941436
 20
0.03745942920321
 30
0.0
 40
0.0005
100
AcDbArc
 50
359.9999999991858
 51
90.0
  0
ENDBLK
  5
255
330
235
100
AcDbEntity
  8
0
 62
     4
100
AcDbBlockEnd
  0
BLOCK
  5
597
330
596
100
AcDbEntity
  8
0
100
AcDbBlockBegin
  2
*X6
 70
     1
 10
0.0
 20
0.0
 30
0.0
  3
*X6
  1

  0
LINE
  5
598
330
596
100
AcDbEntity
  8
0
 62
     0
100
AcDbLine
 10
499.0560343185974
 20
154.3414784901555
 30
0.0
 11
514.0172713003884
 21
169.3027154719466
 31
0.0
  0
LINE
  5
599
330
596
100
AcDbEntity
  8
0
 62
     0
100
AcDbLine
 10
560.0770215144616
 20
215.3624656860198
 30
0.0
 11
573.1920623135073
 21
228.4775064850654
 31
0.0
  0
LINE
  5
59A
330
596
100
AcDbEntity
  8
0
 62
     0
100
AcDbLine
 10
499.0560343185974
 20
163.1803132549873
 30
0.0
 11
514.0172713003884
 21
178.1415502367784
 31
0.0
  0
LINE
  5
59B
330
596
100
AcDbEntity
  8
0
 62
     0
100
AcDbLine
 10
551.2381867496298
 20
215.3624656860198
 30
0.0
 11
564.3532275486754
 21
228.4775064850654
 31
0.0
  0
LINE
  5
59C
330
596
100
AcDbEntity
  8
0
 62
     0
100
AcDbLine
 10
499.0560343185974
 20
172.0191480198192
 30
0.0
 11
514.0172713003884
 21
186.9803850016102
 31
0.0
  0
LINE
  5
59D
330
596
100
AcDbEntity
  8
0
 62
     0
100
AcDbLine
 10
542.3993519847979
 20
215.3624656860198
 30
0.0
 11
555.5143927838436
 21
228.4775064850654
 31
0.0
  0
LINE
  5
59E
330
596
100
AcDbEntity
  8
0
 62
     0
100
AcDbLine
 10
499.0560343185974
 20
180.857982784651
 30
0.0
 11
514.0172713003884
 21
195.8192197664421
 31
0.0
  0
LINE
  5
59F
330
596
100
AcDbEntity
  8
0
 62
     0
100
AcDbLine
 10
533.560517219966
 20
215.3624656860198
 30
0.0
 11
546.6755580190117
 21
228.4775064850654
 31
0.0
  0
LINE
  5
5A0
330
596
100
AcDbEntity
  8
0
 62
     0
100
AcDbLine
 10
499.0560343185973
 20
189.6968175494828
 30
0.0
 11
514.0172713003884
 21
204.6580545312739
 31
0.0
  0
LINE
  5
5A1
330
596
100
AcDbEntity
  8
0
 62
     0
100
AcDbLine
 10
524.7216824551343
 20
215.3624656860198
 30
0.0
 11
537.8367232541799
 21
228.4775064850654
 31
0.0
  0
LINE
  5
5A2
330
596
100
AcDbEntity
  8
0
 62
     0
100
AcDbLine
 10
499.0560343185973
 20
198.5356523143146
 30
0.0
 11
514.0172713003884
 21
213.4968892961057
 31
0.0
  0
LINE
  5
5A3
330
596
100
AcDbEntity
  8
0
 62
     0
100
AcDbLine
 10
515.8828476903024
 20
215.3624656860198
 30
0.0
 11
528.997888489348
 21
228.4775064850654
 31
0.0
  0
LINE
  5
5A4
330
596
100
AcDbEntity
  8
0
 62
     0
100
AcDbLine
 10
499.0560343185973
 20
207.3744870791465
 30
0.0
 11
520.1590537245161
 21
228.4775064850654
 31
0.0
  0
LINE
  5
5A5
330
596
100
AcDbEntity
  8
0
 62
     0
100
AcDbLine
 10
499.0560343185972
 20
216.2133218439783
 30
0.0
 11
511.3202189596844
 21
228.4775064850654
 31
0.0
  0
LINE
  5
5A6
330
596
100
AcDbEntity
  8
0
 62
     0
100
AcDbLine
 10
499.0560343185972
 20
225.0521566088102
 30
0.0
 11
502.4813841948525
 21
228.4775064850654
 31
0.0
  0
LINE
  5
5A7
330
596
100
AcDbEntity
  8
0
 62
     0
100
AcDbLine
 10
504.5086516347331
 20
150.9552610414594
 30
0.0
 11
514.0172713003884
 21
160.4638807071147
 31
0.0
  0
LINE
  5
5A8
330
596
100
AcDbEntity
  8
0
 62
     0
100
AcDbLine
 10
568.9158562792934
 20
215.3624656860198
 30
0.0
 11
579.2304771484778
 21
225.6770865552042
 31
0.0
  0
LINE
  5
5A9
330
596
100
AcDbEntity
  8
0
 62
     0
100
AcDbLine
 10
513.347486399565
 20
150.9552610414594
 30
0.0
 11
514.0172713003885
 21
151.6250459422829
 31
0.0
  0
LINE
  5
5AA
330
596
100
AcDbEntity
  8
0
 62
     0
100
AcDbLine
 10
577.7546910441254
 20
215.3624656860198
 30
0.0
 11
579.2304771484778
 21
216.8382517903724
 31
0.0
  0
ENDBLK
  5
5AB
330
596
100
AcDbEntity
  8
0
100
AcDbBlockEnd
  0
BLOCK
  5
5D3
330
5AC
100
AcDbEntity
  8
0
 62
     6
100
AcDbBlockBegin
  2
A$C1C9F3EEC
 70
     0
 10
0.0
 20
0.0
 30
0.0
  3
A$C1C9F3EEC
  1

  0
LINE
  5
5AD
330
5AC
100
AcDbEntity
  8
Vista
 62
     3
100
AcDbLine
 10
0.0196068623215524
 20
0.0787619219394458
 30
0.0
 11
0.1056238433153567
 21
0.0967164430202559
 31
0.0
  0
LINE
  5
5AE
330
5AC
100
AcDbEntity
  8
CORTE
  6
RAYITAX4
 62
     4
100
AcDbLine
 10
0.1517020450441464
 20
0.0756520689192257
 30
0.0
 11
0.1517020450441464
 21
0.011244864274687
 31
0.0
  0
LINE
  5
5AF
330
5AC
100
AcDbEntity
  8
Vista
 62
     2
100
AcDbLine
 10
0.0241055703547772
 20
0.0230054015098347
 30
0.0
 11
0.0345155766555081
 21
0.0230054015098347
 31
0.0
  0
LINE
  5
5B0
330
5AC
100
AcDbEntity
  8
Vista
 62
     3
100
AcDbLine
 10
0.0000017752661279
 20
0.0000000002126228
 30
0.0
 11
0.0345155766555081
 21
0.0000000002126228
 31
0.0
  0
LINE
  5
5B1
330
5AC
100
AcDbEntity
  8
CORTE
  6
RAYITAX4
 62
     4
100
AcDbLine
 10
0.1517020450441464
 20
0.0756520689192257
 30
0.0
 11
0.2169152508922139
 21
0.0756520689192257
 31
0.0
  0
LWPOLYLINE
  5
5B2
330
5AC
100
AcDbEntity
  8
CORTE
  6
Continuous
 62
     1
100
AcDbPolyline
 90
       38
 70
     0
 43
0.0
 10
0.1520020450441279
 20
0.0319180457172763
 42
-0.1269190528420512
 10
0.1521918087064478
 20
0.032803497508155
 42
0.2216312430956652
 10
0.1522149558865635
 20
0.0336481977927861
 42
-0.2274376776951353
 10
0.1521841966562647
 20
0.035416428365437
 42
0.2344400929137516
 10
0.1521869031972756
 20
0.0363053285201716
 42
-0.2344400929134625
 10
0.1521918087064478
 20
0.0379164283654348
 42
0.2344400929137645
 10
0.1521945152475155
 20
0.0388053285201693
 42
-0.2336365896782632
 10
0.1521969586232785
 20
0.0404114847871711
 42
0.3243877161353797
 10
0.1520020450441279
 20
0.0415692042022897
 10
0.1520020450441279
 20
0.0473520689192242
 10
0.1570020450441234
 20
0.0473520689192242
 42
-0.4142135623730921
 10
0.1800020450441479
 20
0.0703520689192487
 10
0.1800020450441479
 20
0.0753520689192442
 10
0.1861977589102821
 20
0.0753520689192442
 42
-0.0929451671886208
 10
0.1868401313855656
 20
0.0751685687153554
 42
0.221631243095725
 10
0.1876848316702535
 20
0.0751454215352681
 42
-0.2274376776951456
 10
0.189453062242876
 20
0.0751761807655669
 42
0.2344400929138444
 10
0.1903419623976106
 20
0.0751734742245276
 42
-0.2344400929135572
 10
0.1919530622428738
 20
0.0751685687153554
 42
0.2344400929138582
 10
0.1928419623976083
 20
0.0751658621743161
 42
-0.2336365896783468
 10
0.1944481186645817
 20
0.0751634187985246
 42
0.3219525189165422
 10
0.1955996288002097
 20
0.0753520689192442
 10
0.2020020450441393
 20
0.0753520689192442
 10
0.2020020450441393
 20
0.0733520689192346
 42
-0.4142135623730925
 10
0.2000020450441298
 20
0.0713520689192251
 42
0.2421479202089855
 10
0.1930020450441248
 20
0.0683520689192392
 42
-0.3919333676785505
 10
0.1911552227513198
 20
0.0663579433991117
 42
0.3838491983935153
 10
0.1870016500529346
 20
0.0619976283081485
 42
-0.5403359567149323
 10
0.1855771150323448
 20
0.0611205059525446
 42
0.702111041334004
 10
0.1662336080108275
 20
0.0417769989310557
 42
-0.5494491874160148
 10
0.1653283818042723
 20
0.0403520689192476
 10
0.1654827857425403
 20
0.0403520689192476
 42
0.3918366946533119
 10
0.1609961191052207
 20
0.0361982227653925
 42
-0.3918366946533133
 10
0.159002045044133
 20
0.0343520689192474
 42
0.2951488119622578
 10
0.156002045044147
 20
0.0273520689192424
 42
-0.4142135623730951
 10
0.1540020450441375
 20
0.0253520689192328
 10
0.1520020450441279
 20
0.0253520689192328
 10
0.1520020450441279
 20
0.0320679622971909
  0
INSERT
  5
5B3
330
5AC
100
AcDbEntity
  8
TRAMA
100
AcDbBlockReference
  2
*X6
 10
-0.3623152262562144
 20
-0.1397103967667874
 30
0.0
 41
0.0009999999999764
 42
0.0010000000000048
 43
0.001
1001
ACAD
1000
HATCH
1002
{
1070
    16
1000
ANSI31
1040
50.0
1040
0.0
1002
}
  0
LINE
  5
5B4
330
5AC
100
AcDbEntity
  8
Vista
 62
     3
100
AcDbLine
 10
0.025001775266162
 20
0.0250000002126285
 30
0.0
 11
0.0345155766555649
 21
0.0250000002126285
 31
0.0
  0
LWPOLYLINE
  5
5B5
330
5AC
100
AcDbEntity
  8
CORTE
  6
Continuous
 62
     1
100
AcDbPolyline
 90
       38
 70
     0
 43
0.0
 10
0.0000017752661279
 20
0.0032829886116588
 42
-0.1269190528420512
 10
0.0000966570972878
 20
0.0037257145070839
 42
0.2216312430956652
 10
0.0001082306873172
 20
0.0041480646493994
 42
-0.2274376776951353
 10
0.0000928510721678
 20
0.0050321799357391
 42
0.2344400929137516
 10
0.0000942043427017
 20
0.0054766300131064
 42
-0.2344400929134625
 10
0.0000966570972878
 20
0.006282179935738
 42
0.2344400929137645
 10
0.0000980103678216
 20
0.0067266300131053
 42
-0.2336365896782632
 10
0.0000992320557316
 20
0.0075297081465919
 42
0.3243877161353797
 10
0.0000017752661279
 20
0.0081085678541513
 10
0.0000017752661279
 20
0.0110000002126185
 10
0.0025017752661256
 20
0.0110000002126185
 42
-0.4142135623730921
 10
0.0140017752661379
 20
0.0225000002126308
 10
0.0140017752661379
 20
0.0250000002126285
 10
0.0170996321992334
 20
0.0250000002126285
 42
-0.0929451671886208
 10
0.0174208184368467
 20
0.0249082501106841
 42
0.221631243095725
 10
0.0178431685791907
 20
0.0248966765206546
 42
-0.2274376776951456
 10
0.0187272838655304
 20
0.0249120561358041
 42
0.2344400929138444
 10
0.0191717339428692
 20
0.0249107028652702
 42
-0.2344400929135572
 10
0.0199772838655008
 20
0.0249082501106841
 42
0.2344400929138582
 10
0.0204217339428965
 20
0.0249068968401787
 42
-0.2336365896783468
 10
0.0212248120763547
 20
0.0249056751522687
 42
0.3219525189165422
 10
0.0218005671441688
 20
0.0250000002126285
 10
0.025001775266162
 20
0.0250000002126285
 10
0.025001775266162
 20
0.0240000002126237
 42
-0.4142135623730925
 10
0.0240017752661288
 20
0.023000000212619
 42
0.2421479202089855
 10
0.0205017752661547
 20
0.021500000212626
 42
-0.3919333676785505
 10
0.0195783641196954
 20
0.0205029374525623
 42
0.3838491983935153
 10
0.0175015777705312
 20
0.0183227799070949
 42
-0.5403359567149323
 10
0.0167893102602079
 20
0.0178842187292787
 42
0.702111041334004
 10
0.0071175567495061
 20
0.0082124652185485
 42
-0.5494491874160148
 10
0.0066649436462285
 20
0.007500000212616
 10
0.0067421456153625
 20
0.007500000212616
 42
0.3918366946533119
 10
0.0044988122966743
 20
0.0054230771357027
 42
-0.3918366946533133
 10
0.0035017752661588
 20
0.0045000002126301
 42
0.2951488119622578
 10
0.0020017752661374
 20
0.0010000002126276
 42
-0.4142135623730951
 10
0.0010017752661611
 20
0.0000000002126228
 10
0.0000017752661279
 20
0.0000000002126228
 10
0.0000017752661279
 20
0.0033579469015876
  0
LINE
  5
5B6
330
5AC
100
AcDbEntity
  8
Vista
 62
     2
100
AcDbLine
 10
0.0199217803638021
 20
0.0205924784674778
 30
0.0
 11
0.0345155766554513
 21
0.0205924784674778
 31
0.0
  0
LINE
  5
5B7
330
5AC
100
AcDbEntity
  8
Vista
 62
     2
100
AcDbLine
 10
0.0169943518952778
 20
0.0178368869420353
 30
0.0
 11
0.0345155766555081
 21
0.0178368869420353
 31
0.0
  0
LINE
  5
5B8
330
5AC
100
AcDbEntity
  8
Vista
 62
     2
100
AcDbLine
 10
0.0070184833090252
 20
0.0076464330948056
 30
0.0
 11
0.0345155766555081
 21
0.0076464330948056
 31
0.0
  0
LINE
  5
5B9
330
5AC
100
AcDbEntity
  8
Vista
 62
     2
100
AcDbLine
 10
0.0037113658238468
 20
0.0045222109724818
 30
0.0
 11
0.0345155766555081
 21
0.0045222109724818
 31
0.0
  0
LWPOLYLINE
  5
5BA
330
5AC
100
AcDbEntity
  8
CORTE
  6
Continuous
 62
     1
100
AcDbPolyline
 90
       38
 70
     0
 43
0.0
 10
0.0056068623215992
 20
0.057044910338476
 42
-0.1269190528420512
 10
0.0057017441527591
 20
0.0574876362339012
 42
0.2216312430956652
 10
0.0057133177427886
 20
0.0579099863762167
 42
-0.2274376776951353
 10
0.0056979381276392
 20
0.0587941016625564
 42
0.2344400929137516
 10
0.005699291398173
 20
0.0592385517399237
 42
-0.2344400929134625
 10
0.0057017441527591
 20
0.0600441016625553
 42
0.2344400929137645
 10
0.0057030974232362
 20
0.0604885517399225
 42
-0.2336365896782632
 10
0.0057043191111461
 20
0.0612916298734092
 42
0.3243877161353797
 10
0.0056068623215992
 20
0.0618704895809685
 10
0.0056068623215992
 20
0.0647619219394642
 10
0.008106862321597
 20
0.0647619219394642
 42
-0.4142135623730921
 10
0.0196068623215524
 20
0.076261921939448
 10
0.0196068623215524
 20
0.0787619219394458
 10
0.0227047192546479
 20
0.0787619219394458
 42
-0.0929451671886208
 10
0.0230259054923181
 20
0.0786701718375014
 42
0.221631243095725
 10
0.0234482556346052
 20
0.0786585982474719
 42
-0.2274376776951456
 10
0.0243323709209449
 20
0.0786739778626213
 42
0.2344400929138444
 10
0.0247768209982837
 20
0.0786726245920875
 42
-0.2344400929135572
 10
0.0255823709209722
 20
0.0786701718375014
 42
0.2344400929138582
 10
0.026026820998311
 20
0.0786688185669959
 42
-0.2336365896783468
 10
0.0268298991318261
 20
0.078667596879086
 42
0.3219525189165422
 10
0.0274056541996402
 20
0.0787619219394458
 10
0.0306068623215765
 20
0.0787619219394458
 10
0.0306068623215765
 20
0.077761921939441
 42
-0.4142135623730925
 10
0.0296068623216002
 20
0.0767619219394646
 42
0.2421479202089855
 10
0.0261068623215692
 20
0.0752619219394433
 42
-0.3919333676785505
 10
0.0251834511751667
 20
0.0742648591793795
 42
0.3838491983935153
 10
0.0231066648259457
 20
0.0720847016339121
 42
-0.5403359567149323
 10
0.0223943973156793
 20
0.071646140456096
 42
0.702111041334004
 10
0.0127226438049206
 20
0.0619743869453657
 42
-0.5494491874160148
 10
0.012270030701643
 20
0.0612619219394617
 10
0.012347232670777
 20
0.0612619219394617
 42
0.3918366946533119
 10
0.0101038993520888
 20
0.0591849988625199
 42
-0.3918366946533133
 10
0.0091068623215733
 20
0.0582619219394474
 42
0.2951488119622578
 10
0.0076068623215519
 20
0.0547619219394449
 42
-0.4142135623730951
 10
0.0066068623215756
 20
0.0537619219394401
 10
0.0056068623215992
 20
0.0537619219394401
 10
0.0056068623215992
 20
0.0571198686284333
  0
LINE
  5
5BB
330
5AC
100
AcDbEntity
  8
Vista
 62
     2
100
AcDbLine
 10
0.0306068623215765
 20
0.0787619219394458
 30
0.0
 11
0.1166238433153808
 21
0.0967164430202559
 31
0.0
  0
LINE
  5
5BC
330
5AC
100
AcDbEntity
  8
Vista
 62
     2
100
AcDbLine
 10
0.0298269295339537
 20
0.0767864372281224
 30
0.0
 11
0.1133373403362725
 21
0.0942177561827293
 31
0.0
  0
LINE
  5
5BD
330
5AC
100
AcDbEntity
  8
Vista
 62
     2
100
AcDbLine
 10
0.0254778539116956
 20
0.0743332857135499
 30
0.0
 11
0.1106892215549919
 21
0.0921196492780325
 31
0.0
  0
LINE
  5
5BE
330
5AC
100
AcDbEntity
  8
Vista
 62
     2
100
AcDbLine
 10
0.0226768231327697
 20
0.0716036722681963
 30
0.0
 11
0.0997508625500245
 21
0.0876915127098244
 31
0.0
  0
LINE
  5
5BF
330
5AC
100
AcDbEntity
  8
Vista
 62
     2
100
AcDbLine
 10
0.012347232670777
 20
0.0612619219394617
 30
0.0
 11
0.0974641340947074
 21
0.0790285673540154
 31
0.0
  0
LINE
  5
5C0
330
5AC
100
AcDbEntity
  8
Vista
 62
     2
100
AcDbLine
 10
0.0094594986497327
 20
0.0583261614893047
 30
0.0
 11
0.0951038536986175
 21
0.0762029035047931
 31
0.0
  0
LINE
  5
5C1
330
5AC
100
AcDbEntity
  8
Vista
 62
     3
100
AcDbLine
 10
0.0069406396792147
 20
0.0538192700018101
 30
0.0
 11
0.092957620673019
 21
0.0717737910825918
 31
0.0
  0
LINE
  5
5C2
330
5AC
100
AcDbEntity
  8
Vista
 62
     2
100
AcDbLine
 10
0.0056068623215992
 20
0.0647619219394642
 30
0.0
 11
0.008118821530843
 21
0.0652862489276345
 31
0.0
  0
LINE
  5
5C3
330
5AC
100
AcDbEntity
  8
Vista
  6
RAYITAX4
 62
     4
100
AcDbLine
 10
0.0237572535283448
 20
0.0787560526776758
 30
0.0
 11
0.1091624070498938
 21
0.0965828656115377
 31
0.0
  0
LINE
  5
5C4
330
5AC
100
AcDbEntity
  8
Vista
  6
RAYITAX4
 62
     4
100
AcDbLine
 10
0.0250140362484217
 20
0.0787510333686612
 30
0.0
 11
0.1104652406239097
 21
0.096587458602528
 31
0.0
  0
LINE
  5
5C5
330
5AC
100
AcDbEntity
  8
Vista
  6
RAYITAX4
 62
     4
100
AcDbLine
 10
0.026273614608499
 20
0.078748926621671
 30
0.0
 11
0.1117159407259578
 21
0.0965834986764378
 31
0.0
  0
LINE
  5
5C6
330
5AC
100
AcDbEntity
  8
Vista
  6
RAYITAX4
 62
     4
100
AcDbLine
 10
0.027404470543047
 20
0.0787607423880559
 30
0.0
 11
0.1128880948846813
 21
0.0966039347155743
 31
0.0
  0
LINE
  5
5C7
330
5AC
100
AcDbEntity
  8
Vista
  6
RAYITAX4
 62
     4
100
AcDbLine
 10
0.0227221598170218
 20
0.078760126843207
 30
0.0
 11
0.1087391408107692
 21
0.0967146479239887
 31
0.0
  0
LWPOLYLINE
  5
5C8
330
5AC
100
AcDbEntity
  8
Vista
  6
Continuous
 62
     3
100
AcDbPolyline
 90
       33
 70
     0
 43
0.0
 10
0.1056238433153567
 20
0.0967164430202559
 10
0.1087217002484522
 20
0.0967164430202559
 42
-0.0929451671886203
 10
0.1090428864860655
 20
0.0966246929183115
 42
0.063569936622605
 10
0.1091624070498938
 20
0.0965828656115377
 10
0.1097742345221491
 20
0.0967105737584575
 42
-0.1450652350143928
 10
0.1103493519147491
 20
0.096628498943403
 42
0.0617045726817252
 10
0.1104652406239097
 20
0.096587458602528
 10
0.111031017242226
 20
0.0967055544494713
 42
-0.1625483001189057
 10
0.1115993519147196
 20
0.0966246929183115
 42
0.0620643544343953
 10
0.1117159407259578
 20
0.0965834986764378
 10
0.1122905956023033
 20
0.0967034477024527
 42
-0.1590138223224606
 10
0.1128468801255735
 20
0.0966221179598961
 42
0.0225352410549016
 10
0.1128880948846813
 20
0.0966039347155743
 10
0.1134271025620137
 20
0.0967164430202559
 10
0.1166238433153808
 20
0.0967164430202559
 10
0.1166238433153808
 20
0.0957164430202511
 42
-0.3506213337439964
 10
0.1158439105277011
 20
0.0947409583089041
 10
0.1133373403362725
 20
0.0942177561827293
 42
0.0953646595759351
 10
0.1121238433153735
 20
0.0932164430202534
 42
-0.3067959991324811
 10
0.111494834905443
 20
0.0922878067943316
 10
0.1106892215549919
 20
0.0921196492780325
 42
0.3186790315342552
 10
0.10912364581975
 20
0.0900392227146938
 42
-0.365682095151676
 10
0.1086938041265739
 20
0.089558193348978
 10
0.0997508625500245
 20
0.0876915127098244
 42
0.292120969200669
 10
0.0987396247987249
 20
0.0799289080261474
 42
-0.4601170799342209
 10
0.0984274653818034
 20
0.0792365755781646
 10
0.0983642136645813
 20
0.0792164430202433
 10
0.0974641340947074
 20
0.0790285673540154
 42
0.2773615948729962
 10
0.0961208803458931
 20
0.07713951994333
 42
-0.2911876226853214
 10
0.095476479643537
 20
0.0762806825700864
 10
0.0951038536986175
 20
0.0762029035047931
 42
0.2932784056026614
 10
0.0936238433153562
 20
0.0727164430202549
 42
-0.3177076054000657
 10
0.092957620673019
 20
0.0717737910825918
  0
LINE
  5
5C9
330
5AC
100
AcDbEntity
  8
Vista
 62
     6
100
AcDbLine
 10
0.1144913285671691
 20
0.0250000002126285
 30
0.0
 11
0.1144913285671691
 21
0.0000000002126228
 31
0.0
  0
LINE
  5
5CA
330
5AC
100
AcDbEntity
  8
Vista
 62
     6
100
AcDbLine
 10
0.0407548200457768
 20
0.0250000002126285
 30
0.0
 11
0.0407548200457768
 21
0.0000000002126228
 31
0.0
  0
LINE
  5
5CB
330
5AC
100
AcDbEntity
  8
Vista
 62
     2
100
AcDbLine
 10
0.0407548200457768
 20
0.0045222109724818
 30
0.0
 11
0.1144913285671691
 21
0.0045222109724818
 31
0.0
  0
LINE
  5
5CC
330
5AC
100
AcDbEntity
  8
Vista
 62
     2
100
AcDbLine
 10
0.04075482004572
 20
0.0076464330948056
 30
0.0
 11
0.1144913285671691
 21
0.0076464330948056
 31
0.0
  0
LINE
  5
5CD
330
5AC
100
AcDbEntity
  8
Vista
 62
     3
100
AcDbLine
 10
0.04075482004572
 20
0.0000000002126228
 30
0.0
 11
0.1144913285671691
 21
0.0000000002126228
 31
0.0
  0
LINE
  5
5CE
330
5AC
100
AcDbEntity
  8
Vista
 62
     2
100
AcDbLine
 10
0.04075482004572
 20
0.0178368869420353
 30
0.0
 11
0.1144913285671691
 21
0.0178368869420353
 31
0.0
  0
LINE
  5
5CF
330
5AC
100
AcDbEntity
  8
Vista
 62
     2
100
AcDbLine
 10
0.04075482004572
 20
0.0205924784674778
 30
0.0
 11
0.1144913285671691
 21
0.0205924784674778
 31
0.0
  0
LINE
  5
5D0
330
5AC
100
AcDbEntity
  8
Vista
 62
     2
100
AcDbLine
 10
0.0407548200457768
 20
0.0230054015098347
 30
0.0
 11
0.1144913285671691
 21
0.0230054015098347
 31
0.0
  0
LINE
  5
5D1
330
5AC
100
AcDbEntity
  8
Vista
 62
     3
100
AcDbLine
 10
0.0407548200457768
 20
0.0250000002126285
 30
0.0
 11
0.1144913285671691
 21
0.0250000002126285
 31
0.0
  0
ENDBLK
  5
5D4
330
5AC
100
AcDbEntity
  8
0
 62
     6
100
AcDbBlockEnd
  0
BLOCK
  5
7BB
330
7BA
100
AcDbEntity
  8
0
100
AcDbBlockBegin
  2
_Arrivo
 70
     0
 10
0.0
 20
0.0
 30
0.0
  3
_Arrivo
  1

  0
LINE
  5
7BC
330
7BA
100
AcDbEntity
  8
0
  6
ByBlock
 62
     0
370
    -2
100
AcDbLine
 10
0.025
 20
-0.0433012701891858
 30
0.0
 11
-0.15
 21
0.2598076211353328
 31
0.0
  0
LINE
  5
7BD
330
7BA
100
AcDbEntity
  8
0
  6
ByBlock
 62
     0
370
    -2
100
AcDbLine
 10
0.025
 20
0.0433012701892585
 30
0.0
 11
-0.15
 21
-0.2598076211353328
 31
0.0
  0
LINE
  5
7BE
330
7BA
100
AcDbEntity
  8
0
  6
ByBlock
 62
     0
370
    -2
100
AcDbLine
 10
-0.05
 20
0.0
 30
0.0
 11
0.05
 21
0.0
 31
0.0
  0
ENDBLK
  5
7BF
330
7BA
100
AcDbEntity
  8
0
100
AcDbBlockEnd
  0
BLOCK
  5
7C1
330
7C0
100
AcDbEntity
  8
0
100
AcDbBlockBegin
  2
_Partenza
 70
     0
 10
0.0
 20
0.0
 30
0.0
  3
_Partenza
  1

  0
LINE
  5
7C2
330
7C0
100
AcDbEntity
  8
0
  6
ByBlock
 62
     0
370
    -2
100
AcDbLine
 10
-0.05
 20
0.05
 30
0.0
 11
0.1
 21
0.05
 31
0.0
  0
LINE
  5
7C3
330
7C0
100
AcDbEntity
  8
0
  6
ByBlock
 62
     0
370
    -2
100
AcDbLine
 10
-0.05
 20
-0.05
 30
0.0
 11
0.1
 21
-0.05
 31
0.0
  0
ENDBLK
  5
7C4
330
7C0
100
AcDbEntity
  8
0
100
AcDbBlockEnd
  0
BLOCK
  5
8E4
330
8D9
100
AcDbEntity
  8
0
 62
     2
100
AcDbBlockBegin
  2
*D14
 70
     1
 10
0.0
 20
0.0
 30
0.0
  3
*D14
  1

  0
LINE
  5
C17
330
8D9
100
AcDbEntity
  8
Dimensione
 62
     5
370
    -2
100
AcDbLine
 10
0.1111698347284262
 20
0.1268632126155279
 30
0.0
 11
0.1426552131786509
 21
0.1268632126155279
 31
0.0
  0
LINE
  5
C18
330
8D9
100
AcDbEntity
  8
Dimensione
 62
     5
370
    -2
100
AcDbLine
 10
0.1081052023126557
 20
0.1968447876277349
 30
0.0
 11
0.142655213178651
 21
0.1968447876277349
 31
0.0
  0
LINE
  5
C19
330
8D9
100
AcDbEntity
  8
Dimensione
 62
     5
370
    -2
100
AcDbLine
 10
0.142475213178651
 20
0.1268632126155279
 30
0.0
 11
0.142475213178651
 21
0.1583540001216314
 31
0.0
  0
LINE
  5
C1A
330
8D9
100
AcDbEntity
  8
Dimensione
 62
     5
370
    -2
100
AcDbLine
 10
0.142475213178651
 20
0.1968447876277349
 30
0.0
 11
0.142475213178651
 21
0.1653540001216314
 31
0.0
  0
INSERT
  5
C1B
330
8D9
100
AcDbEntity
  8
Dimensione
 62
     5
370
    -2
100
AcDbBlockReference
  2
_ArchTick
 10
0.142475213178651
 20
0.1268632126155279
 30
0.0
 41
0.0015
 42
0.0015
 43
0.0015
 50
270.0
  0
INSERT
  5
C1C
330
8D9
100
AcDbEntity
  8
Dimensione
 62
     5
370
    -2
100
AcDbBlockReference
  2
_ArchTick
 10
0.142475213178651
 20
0.1968447876277349
 30
0.0
 41
0.0015
 42
0.0015
 43
0.0015
 50
90.0
  0
MTEXT
  5
C1D
330
8D9
100
AcDbEntity
  8
Dimensione
 62
     4
100
AcDbMText
 10
0.1424752131786509
 20
0.1618540001216314
 30
0.0
 40
0.003
 41
0.0
 71
     5
 72
     1
  1
\A1;70 mm
  7
ROMANS
 73
     1
 44
1.0
  0
POINT
  5
C1E
330
8D9
100
AcDbEntity
  8
Defpoints
 62
     0
100
AcDbPoint
 10
0.1111073347284262
 20
0.1268632126155279
 30
0.4817307591438295
  0
POINT
  5
C1F
330
8D9
100
AcDbEntity
  8
Defpoints
 62
     0
100
AcDbPoint
 10
0.1080427023126557
 20
0.1968447876277349
 30
0.4817307591438295
  0
POINT
  5
C20
330
8D9
100
AcDbEntity
  8
Defpoints
 62
     0
100
AcDbPoint
 10
0.142475213178651
 20
0.1968447876277349
 30
0.0
  0
ENDBLK
  5
8E5
330
8D9
100
AcDbEntity
  8
0
 62
     2
100
AcDbBlockEnd
  0
BLOCK
  5
8F1
330
8E6
100
AcDbEntity
  8
0
 62
     2
100
AcDbBlockBegin
  2
*D15
 70
     1
 10
0.0
 20
0.0
 30
0.0
  3
*D15
  1

  0
LINE
  5
C21
330
8E6
100
AcDbEntity
  8
Dimensione
 62
     5
370
    -2
100
AcDbLine
 10
0.1042628141595795
 20
0.1268007126155279
 30
0.0
 11
0.1042628141595795
 21
0.1130086974320959
 31
0.0
  0
LINE
  5
C22
330
8E6
100
AcDbEntity
  8
Dimensione
 62
     5
370
    -2
100
AcDbLine
 10
0.1172170492364838
 20
0.1382555332484625
 30
0.0
 11
0.1172170492364838
 21
0.1130086974320959
 31
0.0
  0
LINE
  5
C23
330
8E6
100
AcDbEntity
  8
Dimensione
 62
     5
370
    -2
100
AcDbLine
 10
0.1042628141595795
 20
0.1131886974320959
 30
0.0
 11
0.1172170492364838
 21
0.1131886974320959
 31
0.0
  0
MTEXT
  5
C24
330
8E6
100
AcDbEntity
  8
Dimensione
 62
     4
100
AcDbMText
 10
0.1107399316980316
 20
0.1060086974320959
 30
0.0
 40
0.003
 41
0.0
 71
     5
 72
     1
  1
\A1;14 mm
  7
ROMANS
 73
     1
 44
1.0
  0
INSERT
  5
C25
330
8E6
100
AcDbEntity
  8
Dimensione
 62
     5
370
    -2
100
AcDbBlockReference
  2
_ArchTick
 10
0.1042628141595795
 20
0.1131886974320959
 30
0.0
 41
0.0015
 42
0.0015
 43
0.0015
 50
180.0
  0
INSERT
  5
C26
330
8E6
100
AcDbEntity
  8
Dimensione
 62
     5
370
    -2
100
AcDbBlockReference
  2
_ArchTick
 10
0.1172170492364838
 20
0.1131886974320959
 30
0.0
 41
0.0015
 42
0.0015
 43
0.0015
  0
POINT
  5
C27
330
8E6
100
AcDbEntity
  8
Defpoints
 62
     0
100
AcDbPoint
 10
0.1042628141595795
 20
0.1268632126155279
 30
0.4817307591438295
  0
POINT
  5
C28
330
8E6
100
AcDbEntity
  8
Defpoints
 62
     0
100
AcDbPoint
 10
0.1172170492364838
 20
0.1383180332484625
 30
0.4817307591438295
  0
POINT
  5
C29
330
8E6
100
AcDbEntity
  8
Defpoints
 62
     0
100
AcDbPoint
 10
0.1172170492364838
 20
0.1131886974320959
 30
0.0
  0
ENDBLK
  5
8F2
330
8E6
100
AcDbEntity
  8
0
 62
     2
100
AcDbBlockEnd
  0
ENDSEC
  0
SECTION
  2
ENTITIES
  0
LINE
  5
D
330
2
100
AcDbEntity
  8
Table
100
AcDbLine
 10
0.02
 20
0.02
 30
0.0
 11
0.4
 21
0.02
 31
0.0
  0
LINE
  5
10
330
2
100
AcDbEntity
  8
Table
100
AcDbLine
 10
0.4
 20
0.02
 30
0.0
 11
0.4
 21
0.2769999999999999
 31
0.0
  0
LINE
  5
11
330
2
100
AcDbEntity
  8
Table
100
AcDbLine
 10
0.4
 20
0.2769999999999999
 30
0.0
 11
0.02
 21
0.277
 31
0.0
  0
LINE
  5
12
330
2
100
AcDbEntity
  8
Table
100
AcDbLine
 10
0.02
 20
0.277
 30
0.0
 11
0.02
 21
0.02
 31
0.0
  0
LINE
  5
13
330
2
100
AcDbEntity
  8
Table
 62
     2
100
AcDbLine
 10
0.015
 20
0.015
 30
0.0
 11
0.4050000000000001
 21
0.015
 31
0.0
  0
LINE
  5
14
330
2
100
AcDbEntity
  8
Table
 62
     2
100
AcDbLine
 10
0.4050000000000001
 20
0.015
 30
0.0
 11
0.4050000000000001
 21
0.2819999999999998
 31
0.0
  0
LINE
  5
15
330
2
100
AcDbEntity
  8
Table
 62
     2
100
AcDbLine
 10
0.4050000000000001
 20
0.2819999999999998
 30
0.0
 11
0.0149999999999999
 21
0.282
 31
0.0
  0
LINE
  5
16
330
2
100
AcDbEntity
  8
Table
 62
     2
100
AcDbLine
 10
0.0149999999999999
 20
0.282
 30
0.0
 11
0.015
 21
0.015
 31
0.0
  0
LINE
  5
17
330
2
100
AcDbEntity
  8
Table
100
AcDbLine
 10
0.21
 20
0.2769999999999999
 30
0.0
 11
0.21
 21
0.2532994226089223
 31
0.0
  0
LINE
  5
1D
330
2
100
AcDbEntity
  8
Table
100
AcDbLine
 10
0.02
 20
0.0528099428524846
 30
0.0
 11
0.4
 21
0.0528099428524846
 31
0.0
  0
MTEXT
  5
1E
330
2
100
AcDbEntity
  8
Text
100
AcDbMText
 10
0.1133313047219695
 20
0.2610796890771976
 30
0.0
 40
0.003
 41
0.1680344738345431
 71
     2
 72
     5
  1
{\fTimes New Roman|b0|i0|c0|p18;Le cornici estruse per pareti e soffitti \fTimes New Roman|b0|i1|c0|p18;      Extruded panel mouldings}
 73
     1
 44
1.0
1001
ACAD
1000
ACAD_MTEXT_DEFINED_HEIGHT_BEGIN
1070
    46
1040
0.0141952763113409
1000
ACAD_MTEXT_DEFINED_HEIGHT_END
  0
TEXT
  5
1F
330
2
100
AcDbEntity
  8
Text
100
AcDbText
 10
0.2180556919891047
 20
0.269976982173197
 30
0.0
 40
0.003
  1
Cornice - Moulding : H 70 x 14 mm
  7
ROMANS
100
AcDbText
  0
TEXT
  5
21
330
2
100
AcDbEntity
  8
Text
100
AcDbText
 10
0.2184542410678115
 20
0.2576348370183962
 30
0.0
 40
0.003
  1
File : I 770
  7
ROMANS
100
AcDbText
  0
LINE
  5
22
330
2
100
AcDbEntity
  8
Table
100
AcDbLine
 10
0.4
 20
0.2654452889427402
 30
0.0
 11
0.02
 21
0.2654452889427403
 31
0.0
  0
LINE
  5
23
330
2
100
AcDbEntity
  8
Table
100
AcDbLine
 10
0.4
 20
0.2532994226089223
 30
0.0
 11
0.02
 21
0.2532994226089225
 31
0.0
  0
LINE
  5
24
330
2
100
AcDbEntity
  8
Table
100
AcDbLine
 10
0.21
 20
0.0528099428524846
 30
0.0
 11
0.21
 21
0.02
 31
0.0
  0
TEXT
  5
25
330
2
100
AcDbEntity
  8
Text
100
AcDbText
 10
0.0964227676712103
 20
0.2687784133392506
 30
0.0
 40
0.005
  1
ITALSTYL
  7
style1
 72
     1
 11
0.1140561490699125
 21
0.2687784133392506
 31
0.0
100
AcDbText
  0
TEXT
  5
27
330
2
100
AcDbEntity
  8
Text
100
AcDbText
 10
0.2749390669818674
 20
0.0773304520434606
 30
0.0
 40
0.005
  1
scala 1:2
  7
Arial
100
AcDbText
  0
MTEXT
  5
10F
330
2
100
AcDbEntity
  8
Text
100
AcDbMText
 10
0.305
 20
0.0471738284815141
 30
0.0
 40
0.005
 41
0.1900000000000001
 71
     2
 72
     5
  3
\pt0.09;{\fTimes New Roman|b0|i0|c238|p18;\H1.6x;\C4;Bovelacci\P\H0.4375x;\T0.95;via del Commercio, 5  47100 Forli - Italy  \fTimes New Roman|b0|i0|c0|p18;\P\fTimes New Roman|b0|i0|c238|p18;tel.+39-0543721386  fax +39-0543721127\fTimes New Roman|b0|i
  1
0|c0|p18; \fTimes New Roman|b0|i0|c238|p18;www.bovelacci.it\fTimes New Roman|b0|i0|c0|p18; \fTimes New Roman|b0|i0|c238|p18;e-mail: bovelacci@bovelacci\fTimes New Roman|b0|i0|c0|p18;.it}
 73
     1
 44
1.0
1001
ACAD
1000
ACAD_MTEXT_DEFINED_HEIGHT_BEGIN
1070
    46
1040
0.0271738284815141
1000
ACAD_MTEXT_DEFINED_HEIGHT_END
  0
MTEXT
  5
110
330
2
100
AcDbEntity
  8
Text
100
AcDbMText
 10
0.0219676065851835
 20
0.0500313976452307
 30
0.0
 40
0.002
 41
0.1863544980601608
 71
     1
 72
     5
  3
{\fArial|b0|i0|c0|p34;\H1.25x;Le caratteristiche tecniche indicate vengono fornite a titolo indicativo e potranno essere modificate senza preavviso. Non devono quindi essere considerate a scopo di specifica.\P\fArial|b0|i1|c0|p34;The given values are
  3
 indicative and can be changed without notice. They cannot be considered like a state.\PThis lealfet and designs embodied within are protected by copyright law and international treaties. Unauthorized repro- duction of the leaflet or any portion of i
  1
t or reproduction of any of the designs embodied therein may result in severe civil penalties and will be prosecuted to the maximum.\PAll right reserved, Bovelacci Forlì Italy.}
 73
     1
 44
1.0
  0
TEXT
  5
1CA
330
2
100
AcDbEntity
  8
Text
100
AcDbText
 10
0.0953734613435677
 20
0.0682079209632771
 30
0.0
 40
0.005
  1
scala 1:1
  7
Arial
100
AcDbText
  0
LINE
  5
5FB
330
2
100
AcDbEntity
  8
Vista
 62
     3
100
AcDbLine
 10
0.2469927756926666
 20
0.2086545311399782
 30
0.0
 11
0.3408272910697605
 21
0.2284544997428102
 31
0.0
  0
LINE
  5
613
330
2
100
AcDbEntity
  8
Vista
 62
     6
100
AcDbLine
 10
0.3313957381831869
 20
0.1502269188995342
 30
0.0
 11
0.3313957381831869
 21
0.1152361313934307
 31
0.0
  0
LINE
  5
614
330
2
100
AcDbEntity
  8
Vista
 62
     6
100
AcDbLine
 10
0.2724065313660731
 20
0.1502269188995342
 30
0.0
 11
0.2724065313660731
 21
0.1152361313934307
 31
0.0
  0
LINE
  5
61B
330
2
100
AcDbEntity
  8
Vista
 62
     3
100
AcDbLine
 10
0.2724065313660731
 20
0.1502269188995342
 30
0.0
 11
0.3313957381831869
 21
0.1502269188995342
 31
0.0
  0
LINE
  5
77F
330
2
100
AcDbEntity
  8
Dimensione
 62
     3
100
AcDbLine
 10
0.2335814094004607
 20
0.1502269188995342
 30
0.0
 11
0.2634316125694094
 21
0.1502269188995342
 31
0.0
  0
LINE
  5
821
330
2
100
AcDbEntity
  8
Dimensione
 62
     3
100
AcDbLine
 10
0.2724065313660731
 20
0.1152361313934307
 30
0.0
 11
0.3313957381831869
 21
0.1152361313934307
 31
0.0
  0
HATCH
  5
8D4
330
2
100
AcDbEntity
  8
Sezione
100
AcDbHatch
 10
0.0
 20
0.0
 30
0.0
210
0.0
220
0.0
230
1.0
  2
ANSI31
 70
     0
 71
     0
 91
        1
 92
        7
 72
     0
 73
     1
 93
        4
 10
0.1030002068080774
 20
0.2174229079964363
 10
0.0699495537560336
 20
0.2174229079964363
 10
0.0699495537560336
 20
0.104658343761301
 10
0.1030002068080774
 20
0.104658343761301
 97
        0
 75
     0
 76
     1
 52
0.0
 41
0.002
 77
     0
 78
     1
 53
45.0
 43
0.0106172782886928
 44
-0.0098532857896742
 45
-0.0044901280605346
 46
0.0044901280605346
 79
     0
 47
0.0003176462656032
 98
        1
 10
0.0852036803639193
 20
0.1345172056992255
1001
ACAD
1010
0.0
1020
0.0
1030
0.0
  0
LINE
  5
8D5
330
2
100
AcDbEntity
  8
Sezione
100
AcDbLine
 10
0.1030002068080774
 20
0.1030700633254044
 30
0.0
 11
0.1030002068080774
 21
0.2212346401283157
 31
0.0
  0
DIMENSION
  5
8D6
330
2
100
AcDbEntity
  8
Dimensione
 62
     6
100
AcDbDimension
  2
*D14
 10
0.142475213178651
 20
0.1968447876277349
 30
0.0
 11
0.1424752131786509
 21
0.1618540001216314
 31
0.0
 70
    32
  1
70 mm
 71
     5
 42
0.069981575012207
  3
Bovelacci
100
AcDbAlignedDimension
 13
0.1111073347284262
 23
0.1268632126155279
 33
0.4817307591438295
 14
0.1080427023126557
 24
0.1968447876277349
 34
0.4817307591438295
 50
90.0
100
AcDbRotatedDimension
  0
DIMENSION
  5
8D7
330
2
100
AcDbEntity
  8
Dimensione
 62
     6
100
AcDbDimension
  2
*D15
 10
0.1172170492364838
 20
0.1131886974320959
 30
0.0
 11
0.1107399316980316
 21
0.1060086974320959
 31
0.0
 70
    32
  1
14 mm
 71
     5
 42
0.0129542350769043
  3
Bovelacci
100
AcDbAlignedDimension
 13
0.1042628141595795
 23
0.1268632126155279
 33
0.4817307591438295
 14
0.1172170492364838
 24
0.1383180332484625
 34
0.4817307591438295
100
AcDbRotatedDimension
  0
LINE
  5
967
330
2
100
AcDbEntity
  8
Dimensione
 62
     3
100
AcDbLine
 10
0.235113725608346
 20
0.1152361313934307
 30
0.0
 11
0.2634316125694094
 21
0.1152361313934307
 31
0.0
  0
LINE
  5
9F3
330
2
100
AcDbEntity
  8
Dimensione
 62
     2
100
AcDbLine
 10
0.2505685775420323
 20
0.2044657551237429
 30
0.0
 11
0.3444030929191261
 21
0.2242657237265749
 31
0.0
  0
LINE
  5
9F4
330
2
100
AcDbEntity
  8
Dimensione
 62
     2
100
AcDbLine
 10
0.2492403476378575
 20
0.2086545311399782
 30
0.0
 11
0.3430748630149513
 21
0.2284544997428102
 31
0.0
  0
LINE
  5
9F5
330
2
100
AcDbEntity
  8
Dimensione
 62
     3
100
AcDbLine
 10
0.2507726638457428
 20
0.1736637436338747
 30
0.0
 11
0.3446071792228366
 21
0.1934637122367067
 31
0.0
  0
LINE
  5
9F6
330
2
100
AcDbEntity
  8
Dimensione
 62
     2
100
AcDbLine
 10
0.2505685775420323
 20
0.2063556992002814
 30
0.0
 11
0.3443708637856948
 21
0.2262114483280722
 31
0.0
  0
POLYLINE
  5
B05
330
2
100
AcDbEntity
  8
Brisckstyl
 62
     1
100
AcDb2dPolyline
 66
     1
 10
0.0
 20
0.0
 30
0.4817307591438295
 70
     1
  0
VERTEX
  5
B06
330
B05
100
AcDbEntity
  8
Brisckstyl
 62
     1
100
AcDbVertex
100
AcDb2dVertex
 10
0.1080427023126557
 20
0.1968447876277349
 30
0.4817307591438295
  0
VERTEX
  5
B07
330
B05
100
AcDbEntity
  8
Brisckstyl
 62
     1
100
AcDbVertex
100
AcDb2dVertex
 10
0.1035475584222739
 20
0.1968447876277349
 30
0.4817307591438295
  0
VERTEX
  5
B08
330
B05
100
AcDbEntity
  8
Brisckstyl
 62
     1
100
AcDbVertex
100
AcDb2dVertex
 10
0.1035475584222739
 20
0.1858112526240728
 30
0.4817307591438295
  0
VERTEX
  5
B09
330
B05
100
AcDbEntity
  8
Brisckstyl
 62
     1
100
AcDbVertex
100
AcDb2dVertex
 10
0.1056842657281821
 20
0.1836702537837408
 30
0.4817307591438295
  0
VERTEX
  5
B0A
330
B05
100
AcDbEntity
  8
Brisckstyl
 62
     1
100
AcDbVertex
100
AcDb2dVertex
 10
0.1066641660882904
 20
0.1826092911067388
 30
0.4817307591438295
  0
VERTEX
  5
B0B
330
B05
100
AcDbEntity
  8
Brisckstyl
 62
     1
100
AcDbVertex
100
AcDb2dVertex
 10
0.1075382085992768
 20
0.1815583420100591
 30
0.4817307591438295
  0
VERTEX
  5
B0C
330
B05
100
AcDbEntity
  8
Brisckstyl
 62
     1
100
AcDbVertex
100
AcDb2dVertex
 10
0.1079244466974213
 20
0.1810385895076177
 30
0.4817307591438295
  0
VERTEX
  5
B0D
330
B05
100
AcDbEntity
  8
Brisckstyl
 62
     1
100
AcDbVertex
100
AcDb2dVertex
 10
0.1082711073114341
 20
0.1805221748652838
 30
0.4817307591438295
  0
VERTEX
  5
B0E
330
B05
100
AcDbEntity
  8
Brisckstyl
 62
     1
100
AcDbVertex
100
AcDb2dVertex
 10
0.1085734220697357
 20
0.1800105285945318
 30
0.4817307591438295
  0
VERTEX
  5
B0F
330
B05
100
AcDbEntity
  8
Brisckstyl
 62
     1
100
AcDbVertex
100
AcDb2dVertex
 10
0.1087069364740317
 20
0.1797568512263677
 30
0.4817307591438295
  0
VERTEX
  5
B10
330
B05
100
AcDbEntity
  8
Brisckstyl
 62
     1
100
AcDbVertex
100
AcDb2dVertex
 10
0.1088270994378989
 20
0.1795041275325201
 30
0.4817307591438295
  0
VERTEX
  5
B11
330
B05
100
AcDbEntity
  8
Brisckstyl
 62
     1
100
AcDbVertex
100
AcDb2dVertex
 10
0.1089348646356528
 20
0.179252834350147
 30
0.4817307591438295
  0
VERTEX
  5
B12
330
B05
100
AcDbEntity
  8
Brisckstyl
 62
     1
100
AcDbVertex
100
AcDb2dVertex
 10
0.1090283247186615
 20
0.1790029716792495
 30
0.4817307591438295
  0
VERTEX
  5
B13
330
B05
100
AcDbEntity
  8
Brisckstyl
 62
     1
100
AcDbVertex
100
AcDb2dVertex
 10
0.1091074796869232
 20
0.1787545395198248
 30
0.4817307591438295
  0
VERTEX
  5
B14
330
B05
100
AcDbEntity
  8
Brisckstyl
 62
     1
100
AcDbVertex
100
AcDb2dVertex
 10
0.1091713758661216
 20
0.1785075378718756
 30
0.4817307591438295
  0
VERTEX
  5
B15
330
B05
100
AcDbEntity
  8
Brisckstyl
 62
     1
100
AcDbVertex
100
AcDb2dVertex
 10
0.1092204900934165
 20
0.1782619667354009
 30
0.4817307591438295
  0
VERTEX
  5
B16
330
B05
100
AcDbEntity
  8
Brisckstyl
 62
     1
100
AcDbVertex
100
AcDb2dVertex
 10
0.1092533918573325
 20
0.1780183029475591
 30
0.4817307591438295
  0
VERTEX
  5
B17
330
B05
100
AcDbEntity
  8
Brisckstyl
 62
     1
100
AcDbVertex
100
AcDb2dVertex
 10
0.1092696043207114
 20
0.177776069671192
 30
0.4817307591438295
  0
VERTEX
  5
B18
330
B05
100
AcDbEntity
  8
Brisckstyl
 62
     1
100
AcDbVertex
100
AcDb2dVertex
 10
0.1092710348321869
 20
0.1776559067073248
 30
0.4817307591438295
  0
VERTEX
  5
B19
330
B05
100
AcDbEntity
  8
Brisckstyl
 62
     1
100
AcDbVertex
100
AcDb2dVertex
 10
0.109268650646395
 20
0.1775357437434576
 30
0.4817307591438295
  0
VERTEX
  5
B1A
330
B05
100
AcDbEntity
  8
Brisckstyl
 62
     1
100
AcDbVertex
100
AcDb2dVertex
 10
0.1091251226617768
 20
0.1752755356135748
 30
0.4817307591438295
  0
VERTEX
  5
B1B
330
B05
100
AcDbEntity
  8
Brisckstyl
 62
     1
100
AcDbVertex
100
AcDb2dVertex
 10
0.1089920850946372
 20
0.173994274169483
 30
0.4817307591438295
  0
VERTEX
  5
B1C
330
B05
100
AcDbEntity
  8
Brisckstyl
 62
     1
100
AcDbVertex
100
AcDb2dVertex
 10
0.1088089796258872
 20
0.1727087211909682
 30
0.4817307591438295
  0
VERTEX
  5
B1D
330
B05
100
AcDbEntity
  8
Brisckstyl
 62
     1
100
AcDbVertex
100
AcDb2dVertex
 10
0.1085681768609955
 20
0.1714899254146002
 30
0.4817307591438295
  0
VERTEX
  5
B1E
330
B05
100
AcDbEntity
  8
Brisckstyl
 62
     1
100
AcDbVertex
100
AcDb2dVertex
 10
0.1084241720392182
 20
0.1709282112422369
 30
0.4817307591438295
  0
VERTEX
  5
B1F
330
B05
100
AcDbEntity
  8
Brisckstyl
 62
     1
100
AcDbVertex
100
AcDb2dVertex
 10
0.1082630010797455
 20
0.1704098892512701
 30
0.4817307591438295
  0
VERTEX
  5
B20
330
B05
100
AcDbEntity
  8
Brisckstyl
 62
     1
100
AcDbVertex
100
AcDb2dVertex
 10
0.1081757398797943
 20
0.1701700401606939
 30
0.4817307591438295
  0
VERTEX
  5
B21
330
B05
100
AcDbEntity
  8
Brisckstyl
 62
     1
100
AcDbVertex
100
AcDb2dVertex
 10
0.1080837103082629
 20
0.1699444961848638
 30
0.4817307591438295
  0
VERTEX
  5
B22
330
B05
100
AcDbEntity
  8
Brisckstyl
 62
     1
100
AcDbVertex
100
AcDb2dVertex
 10
0.1079873892023032
 20
0.1697346878352545
 30
0.4817307591438295
  0
VERTEX
  5
B23
330
B05
100
AcDbEntity
  8
Brisckstyl
 62
     1
100
AcDbVertex
100
AcDb2dVertex
 10
0.1078858228876068
 20
0.169541091949024
 30
0.4817307591438295
  0
VERTEX
  5
B24
330
B05
100
AcDbEntity
  8
Brisckstyl
 62
     1
100
AcDbVertex
100
AcDb2dVertex
 10
0.1077794882013267
 20
0.169365139037647
 30
0.4817307591438295
  0
VERTEX
  5
B25
330
B05
100
AcDbEntity
  8
Brisckstyl
 62
     1
100
AcDbVertex
100
AcDb2dVertex
 10
0.1077246519281342
 20
0.1692840767207525
 30
0.4817307591438295
  0
VERTEX
  5
B26
330
B05
100
AcDbEntity
  8
Brisckstyl
 62
     1
100
AcDbVertex
100
AcDb2dVertex
 10
0.1076679083063071
 20
0.16920778277544
 30
0.4817307591438295
  0
VERTEX
  5
B27
330
B05
100
AcDbEntity
  8
Brisckstyl
 62
     1
100
AcDbVertex
100
AcDb2dVertex
 10
0.1076106878473227
 20
0.1691367340388677
 30
0.4817307591438295
  0
VERTEX
  5
B28
330
B05
100
AcDbEntity
  8
Brisckstyl
 62
     1
100
AcDbVertex
100
AcDb2dVertex
 10
0.1075515600397064
 20
0.1690704536738775
 30
0.4817307591438295
  0
VERTEX
  5
B29
330
B05
100
AcDbEntity
  8
Brisckstyl
 62
     1
100
AcDbVertex
100
AcDb2dVertex
 10
0.107491478557772
 20
0.1690094185176275
 30
0.4817307591438295
  0
VERTEX
  5
B2A
330
B05
100
AcDbEntity
  8
Brisckstyl
 62
     1
100
AcDbVertex
100
AcDb2dVertex
 10
0.1074299665643638
 20
0.1689541054072759
 30
0.4817307591438295
  0
VERTEX
  5
B2B
330
B05
100
AcDbEntity
  8
Brisckstyl
 62
     1
100
AcDbVertex
100
AcDb2dVertex
 10
0.1071705671503013
 20
0.1687190246882818
 30
0.4817307591438295
  0
VERTEX
  5
B2C
330
B05
100
AcDbEntity
  8
Brisckstyl
 62
     1
100
AcDbVertex
100
AcDb2dVertex
 10
0.1068949552728607
 20
0.1684391212764175
 30
0.4817307591438295
  0
VERTEX
  5
B2D
330
B05
100
AcDbEntity
  8
Brisckstyl
 62
     1
100
AcDbVertex
100
AcDb2dVertex
 10
0.1066074224664643
 20
0.1681186867061041
 30
0.4817307591438295
  0
VERTEX
  5
B2E
330
B05
100
AcDbEntity
  8
Brisckstyl
 62
     1
100
AcDbVertex
100
AcDb2dVertex
 10
0.1063122602655365
 20
0.1677634430232427
 30
0.4817307591438295
  0
VERTEX
  5
B2F
330
B05
100
AcDbEntity
  8
Brisckstyl
 62
     1
100
AcDbVertex
100
AcDb2dVertex
 10
0.1057200285150482
 20
0.1669680786433599
 30
0.4817307591438295
  0
VERTEX
  5
B30
330
B05
100
AcDbEntity
  8
Brisckstyl
 62
     1
100
AcDbVertex
100
AcDb2dVertex
 10
0.1051564069940513
 20
0.1660935592952163
 30
0.4817307591438295
  0
VERTEX
  5
B31
330
B05
100
AcDbEntity
  8
Brisckstyl
 62
     1
100
AcDbVertex
100
AcDb2dVertex
 10
0.104897484417147
 20
0.165639610320606
 30
0.4817307591438295
  0
VERTEX
  5
B32
330
B05
100
AcDbEntity
  8
Brisckstyl
 62
     1
100
AcDbVertex
100
AcDb2dVertex
 10
0.1046600195123618
 20
0.1651808929744146
 30
0.4817307591438295
  0
VERTEX
  5
B33
330
B05
100
AcDbEntity
  8
Brisckstyl
 62
     1
100
AcDbVertex
100
AcDb2dVertex
 10
0.1044492574884369
 20
0.1647231293025396
 30
0.4817307591438295
  0
VERTEX
  5
B34
330
B05
100
AcDbEntity
  8
Brisckstyl
 62
     1
100
AcDbVertex
100
AcDb2dVertex
 10
0.1042690130426379
 20
0.1642706108394049
 30
0.4817307591438295
  0
VERTEX
  5
B35
330
B05
100
AcDbEntity
  8
Brisckstyl
 62
     1
100
AcDbVertex
100
AcDb2dVertex
 10
0.1041922422601654
 20
0.1640484047236822
 30
0.4817307591438295
  0
VERTEX
  5
B36
330
B05
100
AcDbEntity
  8
Brisckstyl
 62
     1
100
AcDbVertex
100
AcDb2dVertex
 10
0.1041250082208579
 20
0.1638290596309088
 30
0.4817307591438295
  0
VERTEX
  5
B37
330
B05
100
AcDbEntity
  8
Brisckstyl
 62
     1
100
AcDbVertex
100
AcDb2dVertex
 10
0.1040677877618744
 20
0.1636140060725591
 30
0.4817307591438295
  0
VERTEX
  5
B38
330
B05
100
AcDbEntity
  8
Brisckstyl
 62
     1
100
AcDbVertex
100
AcDb2dVertex
 10
0.1040215345575278
 20
0.1634037208857925
 30
0.4817307591438295
  0
VERTEX
  5
B39
330
B05
100
AcDbEntity
  8
Brisckstyl
 62
     1
100
AcDbVertex
100
AcDb2dVertex
 10
0.103986725444979
 20
0.163198204070606
 30
0.4817307591438295
  0
VERTEX
  5
B3A
330
B05
100
AcDbEntity
  8
Brisckstyl
 62
     1
100
AcDbVertex
100
AcDb2dVertex
 10
0.1039638372613879
 20
0.1629988861384771
 30
0.4817307591438295
  0
VERTEX
  5
B3B
330
B05
100
AcDbEntity
  8
Brisckstyl
 62
     1
100
AcDbVertex
100
AcDb2dVertex
 10
0.1039533468439057
 20
0.1628057670894049
 30
0.4817307591438295
  0
VERTEX
  5
B3C
330
B05
100
AcDbEntity
  8
Brisckstyl
 62
     1
100
AcDbVertex
100
AcDb2dVertex
 10
0.1039533468439057
 20
0.162712307006397
 30
0.4817307591438295
  0
VERTEX
  5
B3D
330
B05
100
AcDbEntity
  8
Brisckstyl
 62
     1
100
AcDbVertex
100
AcDb2dVertex
 10
0.103956207866854
 20
0.1626202774348638
 30
0.4817307591438295
  0
VERTEX
  5
B3E
330
B05
100
AcDbEntity
  8
Brisckstyl
 62
     1
100
AcDbVertex
100
AcDb2dVertex
 10
0.1039848180963471
 20
0.1622459602656744
 30
0.4817307591438295
  0
VERTEX
  5
B3F
330
B05
100
AcDbEntity
  8
Brisckstyl
 62
     1
100
AcDbVertex
100
AcDb2dVertex
 10
0.1040310713006919
 20
0.1618544769587896
 30
0.4817307591438295
  0
VERTEX
  5
B40
330
B05
100
AcDbEntity
  8
Brisckstyl
 62
     1
100
AcDbVertex
100
AcDb2dVertex
 10
0.1041717382623618
 20
0.1610367012324721
 30
0.4817307591438295
  0
VERTEX
  5
B41
330
B05
100
AcDbEntity
  8
Brisckstyl
 62
     1
100
AcDbVertex
100
AcDb2dVertex
 10
0.1043672414972251
 20
0.1601993751826675
 30
0.4817307591438295
  0
VERTEX
  5
B42
330
B05
100
AcDbEntity
  8
Brisckstyl
 62
     1
100
AcDbVertex
100
AcDb2dVertex
 10
0.1046075674249604
 20
0.159376354247608
 30
0.4817307591438295
  0
VERTEX
  5
B43
330
B05
100
AcDbEntity
  8
Brisckstyl
 62
     1
100
AcDbVertex
100
AcDb2dVertex
 10
0.1048807951166107
 20
0.1586014938655279
 30
0.4817307591438295
  0
VERTEX
  5
B44
330
B05
100
AcDbEntity
  8
Brisckstyl
 62
     1
100
AcDbVertex
100
AcDb2dVertex
 10
0.1050271841241782
 20
0.1582424354854009
 30
0.4817307591438295
  0
VERTEX
  5
B45
330
B05
100
AcDbEntity
  8
Brisckstyl
 62
     1
100
AcDbVertex
100
AcDb2dVertex
 10
0.1051773878290122
 20
0.1579076958003432
 30
0.4817307591438295
  0
VERTEX
  5
B46
330
B05
100
AcDbEntity
  8
Brisckstyl
 62
     1
100
AcDbVertex
100
AcDb2dVertex
 10
0.1053304525567963
 20
0.1576020431819341
 30
0.4817307591438295
  0
VERTEX
  5
B47
330
B05
100
AcDbEntity
  8
Brisckstyl
 62
     1
100
AcDbVertex
100
AcDb2dVertex
 10
0.1054854246332114
 20
0.157329292327442
 30
0.4817307591438295
  0
VERTEX
  5
B48
330
B05
100
AcDbEntity
  8
Brisckstyl
 62
     1
100
AcDbVertex
100
AcDb2dVertex
 10
0.1055631490899994
 20
0.1572062683406256
 30
0.4817307591438295
  0
VERTEX
  5
B49
330
B05
100
AcDbEntity
  8
Brisckstyl
 62
     1
100
AcDbVertex
100
AcDb2dVertex
 10
0.1056408735467865
 20
0.1570932579341323
 30
0.4817307591438295
  0
VERTEX
  5
B4A
330
B05
100
AcDbEntity
  8
Brisckstyl
 62
     1
100
AcDbVertex
100
AcDb2dVertex
 10
0.1057181211664154
 20
0.1569907379451177
 30
0.4817307591438295
  0
VERTEX
  5
B4B
330
B05
100
AcDbEntity
  8
Brisckstyl
 62
     1
100
AcDbVertex
100
AcDb2dVertex
 10
0.1057953687860443
 20
0.1568991852107427
 30
0.4817307591438295
  0
VERTEX
  5
B4C
330
B05
100
AcDbEntity
  8
Brisckstyl
 62
     1
100
AcDbVertex
100
AcDb2dVertex
 10
0.1058721395685142
 20
0.1568157387080572
 30
0.4817307591438295
  0
VERTEX
  5
B4D
330
B05
100
AcDbEntity
  8
Brisckstyl
 62
     1
100
AcDbVertex
100
AcDb2dVertex
 10
0.1059503408624604
 20
0.1567375374141119
 30
0.4817307591438295
  0
VERTEX
  5
B4E
330
B05
100
AcDbEntity
  8
Brisckstyl
 62
     1
100
AcDbVertex
100
AcDb2dVertex
 10
0.1061062666131919
 20
0.1565954399409682
 30
0.4817307591438295
  0
VERTEX
  5
B4F
330
B05
100
AcDbEntity
  8
Brisckstyl
 62
     1
100
AcDbVertex
100
AcDb2dVertex
 10
0.1064066740228607
 20
0.1563484382930181
 30
0.4817307591438295
  0
VERTEX
  5
B50
330
B05
100
AcDbEntity
  8
Brisckstyl
 62
     1
100
AcDbVertex
100
AcDb2dVertex
 10
0.1065430494501068
 20
0.1562335205378912
 30
0.4817307591438295
  0
VERTEX
  5
B51
330
B05
100
AcDbEntity
  8
Brisckstyl
 62
     1
100
AcDbVertex
100
AcDb2dVertex
 10
0.106606468792147
 20
0.1561758232417495
 30
0.4817307591438295
  0
VERTEX
  5
B52
330
B05
100
AcDbEntity
  8
Brisckstyl
 62
     1
100
AcDbVertex
100
AcDb2dVertex
 10
0.1066660734369232
 20
0.1561176491084478
 30
0.4817307591438295
  0
VERTEX
  5
B53
330
B05
100
AcDbEntity
  8
Brisckstyl
 62
     1
100
AcDbVertex
100
AcDb2dVertex
 10
0.1067209097101166
 20
0.1560580444636724
 30
0.4817307591438295
  0
VERTEX
  5
B54
330
B05
100
AcDbEntity
  8
Brisckstyl
 62
     1
100
AcDbVertex
100
AcDb2dVertex
 10
0.106770977611727
 20
0.1559965324702642
 30
0.4817307591438295
  0
VERTEX
  5
B55
330
B05
100
AcDbEntity
  8
Brisckstyl
 62
     1
100
AcDbVertex
100
AcDb2dVertex
 10
0.106794342632479
 20
0.1559645843806646
 30
0.4817307591438295
  0
VERTEX
  5
B56
330
B05
100
AcDbEntity
  8
Brisckstyl
 62
     1
100
AcDbVertex
100
AcDb2dVertex
 10
0.1068158003045981
 20
0.1559321594539068
 30
0.4817307591438295
  0
VERTEX
  5
B57
330
B05
100
AcDbEntity
  8
Brisckstyl
 62
     1
100
AcDbVertex
100
AcDb2dVertex
 10
0.1068363043024018
 20
0.1558987808528326
 30
0.4817307591438295
  0
VERTEX
  5
B58
330
B05
100
AcDbEntity
  8
Brisckstyl
 62
     1
100
AcDbVertex
100
AcDb2dVertex
 10
0.1068549009515717
 20
0.155864448577442
 30
0.4817307591438295
  0
VERTEX
  5
B59
330
B05
100
AcDbEntity
  8
Brisckstyl
 62
     1
100
AcDbVertex
100
AcDb2dVertex
 10
0.106872067089267
 20
0.1558291626277349
 30
0.4817307591438295
  0
VERTEX
  5
B5A
330
B05
100
AcDbEntity
  8
Brisckstyl
 62
     1
100
AcDbVertex
100
AcDb2dVertex
 10
0.1068878027154868
 20
0.1557929230037124
 30
0.4817307591438295
  0
VERTEX
  5
B5B
330
B05
100
AcDbEntity
  8
Brisckstyl
 62
     1
100
AcDbVertex
100
AcDb2dVertex
 10
0.1069016309930756
 20
0.1557557297053725
 30
0.4817307591438295
  0
VERTEX
  5
B5C
330
B05
100
AcDbEntity
  8
Brisckstyl
 62
     1
100
AcDbVertex
100
AcDb2dVertex
 10
0.1069135519220307
 20
0.1557171058955572
 30
0.4817307591438295
  0
VERTEX
  5
B5D
330
B05
100
AcDbEntity
  8
Brisckstyl
 62
     1
100
AcDbVertex
100
AcDb2dVertex
 10
0.1069240423395129
 20
0.1556770515742681
 30
0.4817307591438295
  0
VERTEX
  5
B5E
330
B05
100
AcDbEntity
  8
Brisckstyl
 62
     1
100
AcDbVertex
100
AcDb2dVertex
 10
0.1069321485712006
 20
0.1556360435786627
 30
0.4817307591438295
  0
VERTEX
  5
B5F
330
B05
100
AcDbEntity
  8
Brisckstyl
 62
     1
100
AcDbVertex
100
AcDb2dVertex
 10
0.1069388242914154
 20
0.1555931282344244
 30
0.4817307591438295
  0
VERTEX
  5
B60
330
B05
100
AcDbEntity
  8
Brisckstyl
 62
     1
100
AcDbVertex
100
AcDb2dVertex
 10
0.1069431158258393
 20
0.1555492592158697
 30
0.4817307591438295
  0
VERTEX
  5
B61
330
B05
100
AcDbEntity
  8
Brisckstyl
 62
     1
100
AcDbVertex
100
AcDb2dVertex
 10
0.1069459768487876
 20
0.1555034828486822
 30
0.4817307591438295
  0
VERTEX
  5
B62
330
B05
100
AcDbEntity
  8
Brisckstyl
 62
     1
100
AcDbVertex
100
AcDb2dVertex
 10
0.1069459768487876
 20
0.1554557991328619
 30
0.4817307591438295
  0
VERTEX
  5
B63
330
B05
100
AcDbEntity
  8
Brisckstyl
 62
     1
100
AcDbVertex
100
AcDb2dVertex
 10
0.106944546337313
 20
0.155406684905567
 30
0.4817307591438295
  0
VERTEX
  5
B64
330
B05
100
AcDbEntity
  8
Brisckstyl
 62
     1
100
AcDbVertex
100
AcDb2dVertex
 10
0.1069402548028892
 20
0.1553556633296392
 30
0.4817307591438295
  0
VERTEX
  5
B65
330
B05
100
AcDbEntity
  8
Brisckstyl
 62
     1
100
AcDbVertex
100
AcDb2dVertex
 10
0.1069340559198325
 20
0.1553027344050787
 30
0.4817307591438295
  0
VERTEX
  5
B66
330
B05
100
AcDbEntity
  8
Brisckstyl
 62
     1
100
AcDbVertex
100
AcDb2dVertex
 10
0.1069254728509857
 20
0.1552478981318862
 30
0.4817307591438295
  0
VERTEX
  5
B67
330
B05
100
AcDbEntity
  8
Brisckstyl
 62
     1
100
AcDbVertex
100
AcDb2dVertex
 10
0.1069011541559165
 20
0.155132026702442
 30
0.4817307591438295
  0
VERTEX
  5
B68
330
B05
100
AcDbEntity
  8
Brisckstyl
 62
     1
100
AcDbVertex
100
AcDb2dVertex
 10
0.1068668218805268
 20
0.1550070953669927
 30
0.4817307591438295
  0
VERTEX
  5
B69
330
B05
100
AcDbEntity
  8
Brisckstyl
 62
     1
100
AcDbVertex
100
AcDb2dVertex
 10
0.1068219991876557
 20
0.1548726272883795
 30
0.4817307591438295
  0
VERTEX
  5
B6A
330
B05
100
AcDbEntity
  8
Brisckstyl
 62
     1
100
AcDbVertex
100
AcDb2dVertex
 10
0.106766209240145
 20
0.1547286224666021
 30
0.4817307591438295
  0
VERTEX
  5
B6B
330
B05
100
AcDbEntity
  8
Brisckstyl
 62
     1
100
AcDbVertex
100
AcDb2dVertex
 10
0.1066984983636802
 20
0.1545736503901861
 30
0.4817307591438295
  0
VERTEX
  5
B6C
330
B05
100
AcDbEntity
  8
Brisckstyl
 62
     1
100
AcDbVertex
100
AcDb2dVertex
 10
0.1065277906610443
 20
0.1542288971248061
 30
0.4817307591438295
  0
VERTEX
  5
B6D
330
B05
100
AcDbEntity
  8
Brisckstyl
 62
     1
100
AcDbVertex
100
AcDb2dVertex
 10
0.1063055845453217
 20
0.1538340759578131
 30
0.4817307591438295
  0
VERTEX
  5
B6E
330
B05
100
AcDbEntity
  8
Brisckstyl
 62
     1
100
AcDbVertex
100
AcDb2dVertex
 10
0.1054997297479575
 20
0.1524836731257818
 30
0.4817307591438295
  0
VERTEX
  5
B6F
330
B05
100
AcDbEntity
  8
Brisckstyl
 62
     1
100
AcDbVertex
100
AcDb2dVertex
 10
0.1052160116388267
 20
0.1519844246211431
 30
0.4817307591438295
  0
VERTEX
  5
B70
330
B05
100
AcDbEntity
  8
Brisckstyl
 62
     1
100
AcDbVertex
100
AcDb2dVertex
 10
0.1049904676629966
 20
0.151535720855274
 30
0.4817307591438295
  0
VERTEX
  5
B71
330
B05
100
AcDbEntity
  8
Brisckstyl
 62
     1
100
AcDbVertex
100
AcDb2dVertex
 10
0.1048951002313568
 20
0.1513139915767095
 30
0.4817307591438295
  0
VERTEX
  5
B72
330
B05
100
AcDbEntity
  8
Brisckstyl
 62
     1
100
AcDbVertex
100
AcDb2dVertex
 10
0.104808315868563
 20
0.1510865402522475
 30
0.4817307591438295
  0
VERTEX
  5
B73
330
B05
100
AcDbEntity
  8
Brisckstyl
 62
     1
100
AcDbVertex
100
AcDb2dVertex
 10
0.1047286840631431
 20
0.1508462143245132
 30
0.4817307591438295
  0
VERTEX
  5
B74
330
B05
100
AcDbEntity
  8
Brisckstyl
 62
     1
100
AcDbVertex
100
AcDb2dVertex
 10
0.1046538206293052
 20
0.150587291747608
 30
0.4817307591438295
  0
VERTEX
  5
B75
330
B05
100
AcDbEntity
  8
Brisckstyl
 62
     1
100
AcDbVertex
100
AcDb2dVertex
 10
0.1045112463190033
 20
0.1499874306025893
 30
0.4817307591438295
  0
VERTEX
  5
B76
330
B05
100
AcDbEntity
  8
Brisckstyl
 62
     1
100
AcDbVertex
100
AcDb2dVertex
 10
0.1043648573114341
 20
0.1492368889155776
 30
0.4817307591438295
  0
VERTEX
  5
B77
330
B05
100
AcDbEntity
  8
Brisckstyl
 62
     1
100
AcDbVertex
100
AcDb2dVertex
 10
0.1043019148065513
 20
0.1488320541682632
 30
0.4817307591438295
  0
VERTEX
  5
B78
330
B05
100
AcDbEntity
  8
Brisckstyl
 62
     1
100
AcDbVertex
100
AcDb2dVertex
 10
0.1042642446710532
 20
0.148458213836231
 30
0.4817307591438295
  0
VERTEX
  5
B79
330
B05
100
AcDbEntity
  8
Brisckstyl
 62
     1
100
AcDbVertex
100
AcDb2dVertex
 10
0.1042513700677817
 20
0.1481139374080093
 30
0.4817307591438295
  0
VERTEX
  5
B7A
330
B05
100
AcDbEntity
  8
Brisckstyl
 62
     1
100
AcDbVertex
100
AcDb2dVertex
 10
0.1042528005792563
 20
0.1479522896113775
 30
0.4817307591438295
  0
VERTEX
  5
B7B
330
B05
100
AcDbEntity
  8
Brisckstyl
 62
     1
100
AcDbVertex
100
AcDb2dVertex
 10
0.1042604299737876
 20
0.1477968406978042
 30
0.4817307591438295
  0
VERTEX
  5
B7C
330
B05
100
AcDbEntity
  8
Brisckstyl
 62
     1
100
AcDbVertex
100
AcDb2dVertex
 10
0.1042728277399018
 20
0.1476480675044439
 30
0.4817307591438295
  0
VERTEX
  5
B7D
330
B05
100
AcDbEntity
  8
Brisckstyl
 62
     1
100
AcDbVertex
100
AcDb2dVertex
 10
0.1042899938775971
 20
0.147505016356983
 30
0.4817307591438295
  0
VERTEX
  5
B7E
330
B05
100
AcDbEntity
  8
Brisckstyl
 62
     1
100
AcDbVertex
100
AcDb2dVertex
 10
0.1043124052240317
 20
0.1473681640925787
 30
0.4817307591438295
  0
VERTEX
  5
B7F
330
B05
100
AcDbEntity
  8
Brisckstyl
 62
     1
100
AcDbVertex
100
AcDb2dVertex
 10
0.1043386312677329
 20
0.1472360801997573
 30
0.4817307591438295
  0
VERTEX
  5
B80
330
B05
100
AcDbEntity
  8
Brisckstyl
 62
     1
100
AcDbVertex
100
AcDb2dVertex
 10
0.104369625683017
 20
0.1471097183528326
 30
0.4817307591438295
  0
VERTEX
  5
B81
330
B05
100
AcDbEntity
  8
Brisckstyl
 62
     1
100
AcDbVertex
100
AcDb2dVertex
 10
0.1044049116327231
 20
0.146988601714649
 30
0.4817307591438295
  0
VERTEX
  5
B82
330
B05
100
AcDbEntity
  8
Brisckstyl
 62
     1
100
AcDbVertex
100
AcDb2dVertex
 10
0.1044435354425376
 20
0.1468717766108892
 30
0.4817307591438295
  0
VERTEX
  5
B83
330
B05
100
AcDbEntity
  8
Brisckstyl
 62
     1
100
AcDbVertex
100
AcDb2dVertex
 10
0.1044859739496177
 20
0.1467592430415542
 30
0.4817307591438295
  0
VERTEX
  5
B84
330
B05
100
AcDbEntity
  8
Brisckstyl
 62
     1
100
AcDbVertex
100
AcDb2dVertex
 10
0.1045322271539643
 20
0.1466514778437994
 30
0.4817307591438295
  0
VERTEX
  5
B85
330
B05
100
AcDbEntity
  8
Brisckstyl
 62
     1
100
AcDbVertex
100
AcDb2dVertex
 10
0.1045813413812592
 20
0.1465470505061529
 30
0.4817307591438295
  0
VERTEX
  5
B86
330
B05
100
AcDbEntity
  8
Brisckstyl
 62
     1
100
AcDbVertex
100
AcDb2dVertex
 10
0.1046333166315033
 20
0.146446437865772
 30
0.4817307591438295
  0
VERTEX
  5
B87
330
B05
100
AcDbEntity
  8
Brisckstyl
 62
     1
100
AcDbVertex
100
AcDb2dVertex
 10
0.104688629741854
 20
0.1463496399226568
 30
0.4817307591438295
  0
VERTEX
  5
B88
330
B05
100
AcDbEntity
  8
Brisckstyl
 62
     1
100
AcDbVertex
100
AcDb2dVertex
 10
0.104805931682772
 20
0.146164627105274
 30
0.4817307591438295
  0
VERTEX
  5
B89
330
B05
100
AcDbEntity
  8
Brisckstyl
 62
     1
100
AcDbVertex
100
AcDb2dVertex
 10
0.1049322935296967
 20
0.1459901047053725
 30
0.4817307591438295
  0
VERTEX
  5
B8A
330
B05
100
AcDbEntity
  8
Brisckstyl
 62
     1
100
AcDbVertex
100
AcDb2dVertex
 10
0.1050653310968354
 20
0.1458236885371588
 30
0.4817307591438295
  0
VERTEX
  5
B8B
330
B05
100
AcDbEntity
  8
Brisckstyl
 62
     1
100
AcDbVertex
100
AcDb2dVertex
 10
0.1052036138727143
 20
0.1456639480891607
 30
0.4817307591438295
  0
VERTEX
  5
B8C
330
B05
100
AcDbEntity
  8
Brisckstyl
 62
     1
100
AcDbVertex
100
AcDb2dVertex
 10
0.1054882856561615
 20
0.1453544807734869
 30
0.4817307591438295
  0
VERTEX
  5
B8D
330
B05
100
AcDbEntity
  8
Brisckstyl
 62
     1
100
AcDbVertex
100
AcDb2dVertex
 10
0.1052841993524506
 20
0.1398379516902349
 30
0.4817307591438295
  0
VERTEX
  5
B8E
330
B05
100
AcDbEntity
  8
Brisckstyl
 62
     1
100
AcDbVertex
100
AcDb2dVertex
 10
0.1042628141595795
 20
0.1374880981746099
 30
0.4817307591438295
  0
VERTEX
  5
B8F
330
B05
100
AcDbEntity
  8
Brisckstyl
 62
     1
100
AcDbVertex
100
AcDb2dVertex
 10
0.1042628141595795
 20
0.1268632126155279
 30
0.4817307591438295
  0
VERTEX
  5
B90
330
B05
100
AcDbEntity
  8
Brisckstyl
 62
     1
100
AcDbVertex
100
AcDb2dVertex
 10
0.1111073347284262
 20
0.1268632126155279
 30
0.4817307591438295
  0
VERTEX
  5
B91
330
B05
100
AcDbEntity
  8
Brisckstyl
 62
     1
100
AcDbVertex
100
AcDb2dVertex
 10
0.1111073347284262
 20
0.1309497070613287
 30
0.4817307591438295
  0
VERTEX
  5
B92
330
B05
100
AcDbEntity
  8
Brisckstyl
 62
     1
100
AcDbVertex
100
AcDb2dVertex
 10
0.112876877422518
 20
0.1316897583308599
 30
0.4817307591438295
  0
VERTEX
  5
B93
330
B05
100
AcDbEntity
  8
Brisckstyl
 62
     1
100
AcDbVertex
100
AcDb2dVertex
 10
0.1137032362176841
 20
0.1320821953120611
 30
0.4817307591438295
  0
VERTEX
  5
B94
330
B05
100
AcDbEntity
  8
Brisckstyl
 62
     1
100
AcDbVertex
100
AcDb2dVertex
 10
0.1140918585016205
 20
0.1322877121272475
 30
0.4817307591438295
  0
VERTEX
  5
B95
330
B05
100
AcDbEntity
  8
Brisckstyl
 62
     1
100
AcDbVertex
100
AcDb2dVertex
 10
0.1144594999505942
 20
0.1325013351741225
 30
0.4817307591438295
  0
VERTEX
  5
B96
330
B05
100
AcDbEntity
  8
Brisckstyl
 62
     1
100
AcDbVertex
100
AcDb2dVertex
 10
0.1148042532159751
 20
0.1327240181270025
 30
0.4817307591438295
  0
VERTEX
  5
B97
330
B05
100
AcDbEntity
  8
Brisckstyl
 62
     1
100
AcDbVertex
100
AcDb2dVertex
 10
0.1151227804376556
 20
0.1329567146602056
 30
0.4817307591438295
  0
VERTEX
  5
B98
330
B05
100
AcDbEntity
  8
Brisckstyl
 62
     1
100
AcDbVertex
100
AcDb2dVertex
 10
0.1152710767938568
 20
0.1330768776240728
 30
0.4817307591438295
  0
VERTEX
  5
B99
330
B05
100
AcDbEntity
  8
Brisckstyl
 62
     1
100
AcDbVertex
100
AcDb2dVertex
 10
0.1154117437555267
 20
0.1332003784480474
 30
0.4817307591438295
  0
VERTEX
  5
B9A
330
B05
100
AcDbEntity
  8
Brisckstyl
 62
     1
100
AcDbVertex
100
AcDb2dVertex
 10
0.1155443044855063
 20
0.1333267402949722
 30
0.4817307591438295
  0
VERTEX
  5
B9B
330
B05
100
AcDbEntity
  8
Brisckstyl
 62
     1
100
AcDbVertex
100
AcDb2dVertex
 10
0.1156687589837982
 20
0.1334564400020025
 30
0.4817307591438295
  0
VERTEX
  5
B9C
330
B05
100
AcDbEntity
  8
Brisckstyl
 62
     1
100
AcDbVertex
100
AcDb2dVertex
 10
0.1157846304132416
 20
0.1335899544062994
 30
0.4817307591438295
  0
VERTEX
  5
B9D
330
B05
100
AcDbEntity
  8
Brisckstyl
 62
     1
100
AcDbVertex
100
AcDb2dVertex
 10
0.11589096509952
 20
0.1337263298335464
 30
0.4817307591438295
  0
VERTEX
  5
B9E
330
B05
100
AcDbEntity
  8
Brisckstyl
 62
     1
100
AcDbVertex
100
AcDb2dVertex
 10
0.1159877630426379
 20
0.1338665199580572
 30
0.4817307591438295
  0
VERTEX
  5
B9F
330
B05
100
AcDbEntity
  8
Brisckstyl
 62
     1
100
AcDbVertex
100
AcDb2dVertex
 10
0.1160750242425864
 20
0.1340105247798345
 30
0.4817307591438295
  0
VERTEX
  5
BA0
330
B05
100
AcDbEntity
  8
Brisckstyl
 62
     1
100
AcDbVertex
100
AcDb2dVertex
 10
0.1161517950250571
 20
0.1341588211360357
 30
0.4817307591438295
  0
VERTEX
  5
BA1
330
B05
100
AcDbEntity
  8
Brisckstyl
 62
     1
100
AcDbVertex
100
AcDb2dVertex
 10
0.1162180753900482
 20
0.1343109321895025
 30
0.4817307591438295
  0
VERTEX
  5
BA2
330
B05
100
AcDbEntity
  8
Brisckstyl
 62
     1
100
AcDbVertex
100
AcDb2dVertex
 10
0.1162471624566977
 20
0.1343881798091323
 30
0.4817307591438295
  0
VERTEX
  5
BA3
330
B05
100
AcDbEntity
  8
Brisckstyl
 62
     1
100
AcDbVertex
100
AcDb2dVertex
 10
0.1162738653375571
 20
0.1344668579402349
 30
0.4817307591438295
  0
VERTEX
  5
BA4
330
B05
100
AcDbEntity
  8
Brisckstyl
 62
     1
100
AcDbVertex
100
AcDb2dVertex
 10
0.1162972303583091
 20
0.1345464897456549
 30
0.4817307591438295
  0
VERTEX
  5
BA5
330
B05
100
AcDbEntity
  8
Brisckstyl
 62
     1
100
AcDbVertex
100
AcDb2dVertex
 10
0.1163177343561118
 20
0.1346275520625494
 30
0.4817307591438295
  0
VERTEX
  5
BA6
330
B05
100
AcDbEntity
  8
Brisckstyl
 62
     1
100
AcDbVertex
100
AcDb2dVertex
 10
0.1170072408868744
 20
0.1370026779475592
 30
0.4817307591438295
  0
VERTEX
  5
BA7
330
B05
100
AcDbEntity
  8
Brisckstyl
 62
     1
100
AcDbVertex
100
AcDb2dVertex
 10
0.1170801969720795
 20
0.137340278655567
 30
0.4817307591438295
  0
VERTEX
  5
BA8
330
B05
100
AcDbEntity
  8
Brisckstyl
 62
     1
100
AcDbVertex
100
AcDb2dVertex
 10
0.1171440931512778
 20
0.1377045822444342
 30
0.4817307591438295
  0
VERTEX
  5
BA9
330
B05
100
AcDbEntity
  8
Brisckstyl
 62
     1
100
AcDbVertex
100
AcDb2dVertex
 10
0.1171970220758392
 20
0.1381008339229009
 30
0.4817307591438295
  0
VERTEX
  5
BAA
330
B05
100
AcDbEntity
  8
Brisckstyl
 62
     1
100
AcDbVertex
100
AcDb2dVertex
 10
0.1172370763971283
 20
0.138535232574024
 30
0.4817307591438295
  0
VERTEX
  5
BAB
330
B05
100
AcDbEntity
  8
Brisckstyl
 62
     1
100
AcDbVertex
100
AcDb2dVertex
 10
0.1172633024408295
 20
0.1390125465693862
 30
0.4817307591438295
  0
VERTEX
  5
BAC
330
B05
100
AcDbEntity
  8
Brisckstyl
 62
     1
100
AcDbVertex
100
AcDb2dVertex
 10
0.1172733160211517
 20
0.1395384979548843
 30
0.4817307591438295
  0
VERTEX
  5
BAD
330
B05
100
AcDbEntity
  8
Brisckstyl
 62
     1
100
AcDbVertex
100
AcDb2dVertex
 10
0.1172375532342865
 20
0.1407572937312506
 30
0.4817307591438295
  0
VERTEX
  5
BAE
330
B05
100
AcDbEntity
  8
Brisckstyl
 62
     1
100
AcDbVertex
100
AcDb2dVertex
 10
0.1171288343622162
 20
0.1420180511775396
 30
0.4817307591438295
  0
VERTEX
  5
BAF
330
B05
100
AcDbEntity
  8
Brisckstyl
 62
     1
100
AcDbVertex
100
AcDb2dVertex
 10
0.1169628950311615
 20
0.1431247902217291
 30
0.4817307591438295
  0
VERTEX
  5
BB0
330
B05
100
AcDbEntity
  8
Brisckstyl
 62
     1
100
AcDbVertex
100
AcDb2dVertex
 10
0.1168613287164643
 20
0.1436226082148931
 30
0.4817307591438295
  0
VERTEX
  5
BB1
330
B05
100
AcDbEntity
  8
Brisckstyl
 62
     1
100
AcDbVertex
100
AcDb2dVertex
 10
0.1167487951471283
 20
0.1440851402583502
 30
0.4817307591438295
  0
VERTEX
  5
BB2
330
B05
100
AcDbEntity
  8
Brisckstyl
 62
     1
100
AcDbVertex
100
AcDb2dVertex
 10
0.1166267248346283
 20
0.1445128631892593
 30
0.4817307591438295
  0
VERTEX
  5
BB3
330
B05
100
AcDbEntity
  8
Brisckstyl
 62
     1
100
AcDbVertex
100
AcDb2dVertex
 10
0.116496548290438
 20
0.1449076843562506
 30
0.4817307591438295
  0
VERTEX
  5
BB4
330
B05
100
AcDbEntity
  8
Brisckstyl
 62
     1
100
AcDbVertex
100
AcDb2dVertex
 10
0.1163592191888764
 20
0.1452700805964849
 30
0.4817307591438295
  0
VERTEX
  5
BB5
330
B05
100
AcDbEntity
  8
Brisckstyl
 62
     1
100
AcDbVertex
100
AcDb2dVertex
 10
0.1162156912042563
 20
0.1456010055842779
 30
0.4817307591438295
  0
VERTEX
  5
BB6
330
B05
100
AcDbEntity
  8
Brisckstyl
 62
     1
100
AcDbVertex
100
AcDb2dVertex
 10
0.1160673948480552
 20
0.1459018898311041
 30
0.4817307591438295
  0
VERTEX
  5
BB7
330
B05
100
AcDbEntity
  8
Brisckstyl
 62
     1
100
AcDbVertex
100
AcDb2dVertex
 10
0.1159152837945893
 20
0.1461736870112799
 30
0.4817307591438295
  0
VERTEX
  5
BB8
330
B05
100
AcDbEntity
  8
Brisckstyl
 62
     1
100
AcDbVertex
100
AcDb2dVertex
 10
0.1157612653924888
 20
0.1464168739619643
 30
0.4817307591438295
  0
VERTEX
  5
BB9
330
B05
100
AcDbEntity
  8
Brisckstyl
 62
     1
100
AcDbVertex
100
AcDb2dVertex
 10
0.1156058164789154
 20
0.1466333580317877
 30
0.4817307591438295
  0
VERTEX
  5
BBA
330
B05
100
AcDbEntity
  8
Brisckstyl
 62
     1
100
AcDbVertex
100
AcDb2dVertex
 10
0.1154503675653412
 20
0.1468240928950689
 30
0.4817307591438295
  0
VERTEX
  5
BBB
330
B05
100
AcDbEntity
  8
Brisckstyl
 62
     1
100
AcDbVertex
100
AcDb2dVertex
 10
0.1152958723260825
 20
0.1469890785518072
 30
0.4817307591438295
  0
VERTEX
  5
BBC
330
B05
100
AcDbEntity
  8
Brisckstyl
 62
     1
100
AcDbVertex
100
AcDb2dVertex
 10
0.1149759145929282
 20
0.1472909164729498
 30
0.4817307591438295
  0
VERTEX
  5
BBD
330
B05
100
AcDbEntity
  8
Brisckstyl
 62
     1
100
AcDbVertex
100
AcDb2dVertex
 10
0.1146306844903892
 20
0.1475846481624029
 30
0.4817307591438295
  0
VERTEX
  5
BBE
330
B05
100
AcDbEntity
  8
Brisckstyl
 62
     1
100
AcDbVertex
100
AcDb2dVertex
 10
0.1138787122919028
 20
0.1481511307063482
 30
0.4817307591438295
  0
VERTEX
  5
BBF
330
B05
100
AcDbEntity
  8
Brisckstyl
 62
     1
100
AcDbVertex
100
AcDb2dVertex
 10
0.1122312399103119
 20
0.1492368889155776
 30
0.4817307591438295
  0
VERTEX
  5
BC0
330
B05
100
AcDbEntity
  8
Brisckstyl
 62
     1
100
AcDbVertex
100
AcDb2dVertex
 10
0.115193829174227
 20
0.1526081276240728
 30
0.4817307591438295
  0
VERTEX
  5
BC1
330
B05
100
AcDbEntity
  8
Brisckstyl
 62
     1
100
AcDbVertex
100
AcDb2dVertex
 10
0.1153015943719818
 20
0.1527201843562506
 30
0.4817307591438295
  0
VERTEX
  5
BC2
330
B05
100
AcDbEntity
  8
Brisckstyl
 62
     1
100
AcDbVertex
100
AcDb2dVertex
 10
0.1153941007806732
 20
0.1528265190425299
 30
0.4817307591438295
  0
VERTEX
  5
BC3
330
B05
100
AcDbEntity
  8
Brisckstyl
 62
     1
100
AcDbVertex
100
AcDb2dVertex
 10
0.1154732557489341
 20
0.1529276085200689
 30
0.4817307591438295
  0
VERTEX
  5
BC4
330
B05
100
AcDbEntity
  8
Brisckstyl
 62
     1
100
AcDbVertex
100
AcDb2dVertex
 10
0.1155395361139252
 20
0.1530239296260259
 30
0.4817307591438295
  0
VERTEX
  5
BC5
330
B05
100
AcDbEntity
  8
Brisckstyl
 62
     1
100
AcDbVertex
100
AcDb2dVertex
 10
0.1155943723871177
 20
0.1531159591975591
 30
0.4817307591438295
  0
VERTEX
  5
BC6
330
B05
100
AcDbEntity
  8
Brisckstyl
 62
     1
100
AcDbVertex
100
AcDb2dVertex
 10
0.1156177374078705
 20
0.153160305053272
 30
0.4817307591438295
  0
VERTEX
  5
BC7
330
B05
100
AcDbEntity
  8
Brisckstyl
 62
     1
100
AcDbVertex
100
AcDb2dVertex
 10
0.1156387182428314
 20
0.1532036972346694
 30
0.4817307591438295
  0
VERTEX
  5
BC8
330
B05
100
AcDbEntity
  8
Brisckstyl
 62
     1
100
AcDbVertex
100
AcDb2dVertex
 10
0.1156568380548432
 20
0.1532461357417495
 30
0.4817307591438295
  0
VERTEX
  5
BC9
330
B05
100
AcDbEntity
  8
Brisckstyl
 62
     1
100
AcDbVertex
100
AcDb2dVertex
 10
0.1156730505182221
 20
0.1532876205745132
 30
0.4817307591438295
  0
VERTEX
  5
BCA
330
B05
100
AcDbEntity
  8
Brisckstyl
 62
     1
100
AcDbVertex
100
AcDb2dVertex
 10
0.1156868787958091
 20
0.1533281517329595
 30
0.4817307591438295
  0
VERTEX
  5
BCB
330
B05
100
AcDbEntity
  8
Brisckstyl
 62
     1
100
AcDbVertex
100
AcDb2dVertex
 10
0.1156983228876068
 20
0.1533682060542495
 30
0.4817307591438295
  0
VERTEX
  5
BCC
330
B05
100
AcDbEntity
  8
Brisckstyl
 62
     1
100
AcDbVertex
100
AcDb2dVertex
 10
0.1157083364679282
 20
0.1534073067012221
 30
0.4817307591438295
  0
VERTEX
  5
BCD
330
B05
100
AcDbEntity
  8
Brisckstyl
 62
     1
100
AcDbVertex
100
AcDb2dVertex
 10
0.1157164426996177
 20
0.1534454536738775
 30
0.4817307591438295
  0
VERTEX
  5
BCE
330
B05
100
AcDbEntity
  8
Brisckstyl
 62
     1
100
AcDbVertex
100
AcDb2dVertex
 10
0.1157226415826752
 20
0.1534836006465338
 30
0.4817307591438295
  0
VERTEX
  5
BCF
330
B05
100
AcDbEntity
  8
Brisckstyl
 62
     1
100
AcDbVertex
100
AcDb2dVertex
 10
0.1157274099542563
 20
0.1535207939448745
 30
0.4817307591438295
  0
VERTEX
  5
BD0
330
B05
100
AcDbEntity
  8
Brisckstyl
 62
     1
100
AcDbVertex
100
AcDb2dVertex
 10
0.1157307478143638
 20
0.153557033568897
 30
0.4817307591438295
  0
VERTEX
  5
BD1
330
B05
100
AcDbEntity
  8
Brisckstyl
 62
     1
100
AcDbVertex
100
AcDb2dVertex
 10
0.1157326551629966
 20
0.1535932731929214
 30
0.4817307591438295
  0
VERTEX
  5
BD2
330
B05
100
AcDbEntity
  8
Brisckstyl
 62
     1
100
AcDbVertex
100
AcDb2dVertex
 10
0.1157326551629966
 20
0.1536643219294927
 30
0.4817307591438295
  0
VERTEX
  5
BD3
330
B05
100
AcDbEntity
  8
Brisckstyl
 62
     1
100
AcDbVertex
100
AcDb2dVertex
 10
0.1157293173028892
 20
0.1537334633174322
 30
0.4817307591438295
  0
VERTEX
  5
BD4
330
B05
100
AcDbEntity
  8
Brisckstyl
 62
     1
100
AcDbVertex
100
AcDb2dVertex
 10
0.1157226415826752
 20
0.1538016510310561
 30
0.4817307591438295
  0
VERTEX
  5
BD5
330
B05
100
AcDbEntity
  8
Brisckstyl
 62
     1
100
AcDbVertex
100
AcDb2dVertex
 10
0.1157049986078217
 20
0.1539361191096694
 30
0.4817307591438295
  0
VERTEX
  5
BD6
330
B05
100
AcDbEntity
  8
Brisckstyl
 62
     1
100
AcDbVertex
100
AcDb2dVertex
 10
0.1146478506280854
 20
0.1552731705012701
 30
0.4817307591438295
  0
VERTEX
  5
BD7
330
B05
100
AcDbEntity
  8
Brisckstyl
 62
     1
100
AcDbVertex
100
AcDb2dVertex
 10
0.1136870237543052
 20
0.1565863800349624
 30
0.4817307591438295
  0
VERTEX
  5
BD8
330
B05
100
AcDbEntity
  8
Brisckstyl
 62
     1
100
AcDbVertex
100
AcDb2dVertex
 10
0.1132726522638267
 20
0.1572262955012701
 30
0.4817307591438295
  0
VERTEX
  5
BD9
330
B05
100
AcDbEntity
  8
Brisckstyl
 62
     1
100
AcDbVertex
100
AcDb2dVertex
 10
0.1129174085809662
 20
0.1578514290156744
 30
0.4817307591438295
  0
VERTEX
  5
BDA
330
B05
100
AcDbEntity
  8
Brisckstyl
 62
     1
100
AcDbVertex
100
AcDb2dVertex
 10
0.1127662512018158
 20
0.1581570816340826
 30
0.4817307591438295
  0
VERTEX
  5
BDB
330
B05
100
AcDbEntity
  8
Brisckstyl
 62
     1
100
AcDbVertex
100
AcDb2dVertex
 10
0.1126346441461518
 20
0.158458442718067
 30
0.4817307591438295
  0
VERTEX
  5
BDC
330
B05
100
AcDbEntity
  8
Brisckstyl
 62
     1
100
AcDbVertex
100
AcDb2dVertex
 10
0.1125240179254477
 20
0.1587540817561529
 30
0.4817307591438295
  0
VERTEX
  5
BDD
330
B05
100
AcDbEntity
  8
Brisckstyl
 62
     1
100
AcDbVertex
100
AcDb2dVertex
 10
0.1124358030511802
 20
0.1590444755854995
 30
0.4817307591438295
  0
VERTEX
  5
BDE
330
B05
100
AcDbEntity
  8
Brisckstyl
 62
     1
100
AcDbVertex
100
AcDb2dVertex
 10
0.1123661848260825
 20
0.1593324852290542
 30
0.4817307591438295
  0
VERTEX
  5
BDF
330
B05
100
AcDbEntity
  8
Brisckstyl
 62
     1
100
AcDbVertex
100
AcDb2dVertex
 10
0.1123099180414154
 20
0.1596214485469244
 30
0.4817307591438295
  0
VERTEX
  5
BE0
330
B05
100
AcDbEntity
  8
Brisckstyl
 62
     1
100
AcDbVertex
100
AcDb2dVertex
 10
0.1122665258600181
 20
0.1599113655391119
 30
0.4817307591438295
  0
VERTEX
  5
BE1
330
B05
100
AcDbEntity
  8
Brisckstyl
 62
     1
100
AcDbVertex
100
AcDb2dVertex
 10
0.1122345777704193
 20
0.160202713042774
 30
0.4817307591438295
  0
VERTEX
  5
BE2
330
B05
100
AcDbEntity
  8
Brisckstyl
 62
     1
100
AcDbVertex
100
AcDb2dVertex
 10
0.1122021528436615
 20
0.160787315398731
 30
0.4817307591438295
  0
VERTEX
  5
BE3
330
B05
100
AcDbEntity
  8
Brisckstyl
 62
     1
100
AcDbVertex
100
AcDb2dVertex
 10
0.1122054907037681
 20
0.1613752556147964
 30
0.4817307591438295
  0
VERTEX
  5
BE4
330
B05
100
AcDbEntity
  8
Brisckstyl
 62
     1
100
AcDbVertex
100
AcDb2dVertex
 10
0.1122379156305268
 20
0.1619651031794927
 30
0.4817307591438295
  0
VERTEX
  5
BE5
330
B05
100
AcDbEntity
  8
Brisckstyl
 62
     1
100
AcDbVertex
100
AcDb2dVertex
 10
0.1122917982294028
 20
0.1625568580928228
 30
0.4817307591438295
  0
VERTEX
  5
BE6
330
B05
100
AcDbEntity
  8
Brisckstyl
 62
     1
100
AcDbVertex
100
AcDb2dVertex
 10
0.1124358030511802
 20
0.1637437057795913
 30
0.4817307591438295
  0
VERTEX
  5
BE7
330
B05
100
AcDbEntity
  8
Brisckstyl
 62
     1
100
AcDbVertex
100
AcDb2dVertex
 10
0.1150855871393158
 20
0.1670896721187026
 30
0.4817307591438295
  0
VERTEX
  5
BE8
330
B05
100
AcDbEntity
  8
Brisckstyl
 62
     1
100
AcDbVertex
100
AcDb2dVertex
 10
0.1160631033136313
 20
0.1684276771846197
 30
0.4817307591438295
  0
VERTEX
  5
BE9
330
B05
100
AcDbEntity
  8
Brisckstyl
 62
     1
100
AcDbVertex
100
AcDb2dVertex
 10
0.1164045187189057
 20
0.1689536285701177
 30
0.4817307591438295
  0
VERTEX
  5
BEA
330
B05
100
AcDbEntity
  8
Brisckstyl
 62
     1
100
AcDbVertex
100
AcDb2dVertex
 10
0.1165308805658295
 20
0.1691739273372076
 30
0.4817307591438295
  0
VERTEX
  5
BEB
330
B05
100
AcDbEntity
  8
Brisckstyl
 62
     1
100
AcDbVertex
100
AcDb2dVertex
 10
0.1165819021417563
 20
0.1692726326289556
 30
0.4817307591438295
  0
VERTEX
  5
BEC
330
B05
100
AcDbEntity
  8
Brisckstyl
 62
     1
100
AcDbVertex
100
AcDb2dVertex
 10
0.1166243406488364
 20
0.169362754851856
 30
0.4817307591438295
  0
VERTEX
  5
BED
330
B05
100
AcDbEntity
  8
Brisckstyl
 62
     1
100
AcDbVertex
100
AcDb2dVertex
 10
0.1167063566400482
 20
0.169566841155567
 30
0.4817307591438295
  0
VERTEX
  5
BEE
330
B05
100
AcDbEntity
  8
Brisckstyl
 62
     1
100
AcDbVertex
100
AcDb2dVertex
 10
0.1167974325372642
 20
0.1698310089412124
 30
0.4817307591438295
  0
VERTEX
  5
BEF
330
B05
100
AcDbEntity
  8
Brisckstyl
 62
     1
100
AcDbVertex
100
AcDb2dVertex
 10
0.1169948431207629
 20
0.1705219459834478
 30
0.4817307591438295
  0
VERTEX
  5
BF0
330
B05
100
AcDbEntity
  8
Brisckstyl
 62
     1
100
AcDbVertex
100
AcDb2dVertex
 10
0.1171917768670981
 20
0.1713993263545425
 30
0.4817307591438295
  0
VERTEX
  5
BF1
330
B05
100
AcDbEntity
  8
Brisckstyl
 62
     1
100
AcDbVertex
100
AcDb2dVertex
 10
0.1173648687555268
 20
0.1724278641047857
 30
0.4817307591438295
  0
VERTEX
  5
BF2
330
B05
100
AcDbEntity
  8
Brisckstyl
 62
     1
100
AcDbVertex
100
AcDb2dVertex
 10
0.1174902769281342
 20
0.1735708427729995
 30
0.4817307591438295
  0
VERTEX
  5
BF3
330
B05
100
AcDbEntity
  8
Brisckstyl
 62
     1
100
AcDbVertex
100
AcDb2dVertex
 10
0.1175274702264731
 20
0.1741745186152838
 30
0.4817307591438295
  0
VERTEX
  5
BF4
330
B05
100
AcDbEntity
  8
Brisckstyl
 62
     1
100
AcDbVertex
100
AcDb2dVertex
 10
0.117543682689852
 20
0.1747934532466323
 30
0.4817307591438295
  0
VERTEX
  5
BF5
330
B05
100
AcDbEntity
  8
Brisckstyl
 62
     1
100
AcDbVertex
100
AcDb2dVertex
 10
0.1175360532953217
 20
0.1754228782954595
 30
0.4817307591438295
  0
VERTEX
  5
BF6
330
B05
100
AcDbEntity
  8
Brisckstyl
 62
     1
100
AcDbVertex
100
AcDb2dVertex
 10
0.117501244182772
 20
0.1760589790645025
 30
0.4817307591438295
  0
VERTEX
  5
BF7
330
B05
100
AcDbEntity
  8
Brisckstyl
 62
     1
100
AcDbVertex
100
AcDb2dVertex
 10
0.1174368711664154
 20
0.1766965103450201
 30
0.4817307591438295
  0
VERTEX
  5
BF8
330
B05
100
AcDbEntity
  8
Brisckstyl
 62
     1
100
AcDbVertex
100
AcDb2dVertex
 10
0.117339596386142
 20
0.1773316574397475
 30
0.4817307591438295
  0
VERTEX
  5
BF9
330
B05
100
AcDbEntity
  8
Brisckstyl
 62
     1
100
AcDbVertex
100
AcDb2dVertex
 10
0.1172017904474213
 20
0.177971096068897
 30
0.4817307591438295
  0
VERTEX
  5
BFA
330
B05
100
AcDbEntity
  8
Brisckstyl
 62
     1
100
AcDbVertex
100
AcDb2dVertex
 10
0.1170229765130942
 20
0.1786200714412124
 30
0.4817307591438295
  0
VERTEX
  5
BFB
330
B05
100
AcDbEntity
  8
Brisckstyl
 62
     1
100
AcDbVertex
100
AcDb2dVertex
 10
0.1168098303033783
 20
0.1792719078364752
 30
0.4817307591438295
  0
VERTEX
  5
BFC
330
B05
100
AcDbEntity
  8
Brisckstyl
 62
     1
100
AcDbVertex
100
AcDb2dVertex
 10
0.1165699812128013
 20
0.1799189758601568
 30
0.4817307591438295
  0
VERTEX
  5
BFD
330
B05
100
AcDbEntity
  8
Brisckstyl
 62
     1
100
AcDbVertex
100
AcDb2dVertex
 10
0.1160354467584564
 20
0.181173057586231
 30
0.4817307591438295
  0
VERTEX
  5
BFE
330
B05
100
AcDbEntity
  8
Brisckstyl
 62
     1
100
AcDbVertex
100
AcDb2dVertex
 10
0.1154746862604096
 20
0.1823246193232925
 30
0.4817307591438295
  0
VERTEX
  5
BFF
330
B05
100
AcDbEntity
  8
Brisckstyl
 62
     1
100
AcDbVertex
100
AcDb2dVertex
 10
0.1144947859003013
 20
0.1840984535518072
 30
0.4817307591438295
  0
VERTEX
  5
C00
330
B05
100
AcDbEntity
  8
Brisckstyl
 62
     1
100
AcDbVertex
100
AcDb2dVertex
 10
0.1140704008295014
 20
0.1847893905940444
 30
0.4817307591438295
  0
VERTEX
  5
C01
330
B05
100
AcDbEntity
  8
Brisckstyl
 62
     1
100
AcDbVertex
100
AcDb2dVertex
 10
0.1106991621210053
 20
0.1884672355952642
 30
0.4817307591438295
  0
VERTEX
  5
C02
330
B05
100
AcDbEntity
  8
Brisckstyl
 62
     1
100
AcDbVertex
100
AcDb2dVertex
 10
0.1106991621210053
 20
0.1922471237483413
 30
0.4817307591438295
  0
SEQEND
  5
C03
330
B05
100
AcDbEntity
  8
Brisckstyl
 62
     1
  0
POLYLINE
  5
C2B
330
2
100
AcDbEntity
  8
Brisckstyl
 62
     1
100
AcDb2dPolyline
 66
     1
 10
0.0
 20
0.0
 30
0.0
 70
     1
  0
VERTEX
  5
C2C
330
C2B
100
AcDbEntity
  8
Brisckstyl
 62
     1
100
AcDbVertex
100
AcDb2dVertex
 10
0.2492403476378575
 20
0.2086545311399782
 30
0.0
  0
VERTEX
  5
C2D
330
C2B
100
AcDbEntity
  8
Brisckstyl
 62
     1
100
AcDbVertex
100
AcDb2dVertex
 10
0.2469927756926666
 20
0.2086545311399782
 30
0.0
  0
VERTEX
  5
C2E
330
C2B
100
AcDbEntity
  8
Brisckstyl
 62
     1
100
AcDbVertex
100
AcDb2dVertex
 10
0.2469927756926666
 20
0.2031377636381472
 30
0.0
  0
VERTEX
  5
C2F
330
C2B
100
AcDbEntity
  8
Brisckstyl
 62
     1
100
AcDbVertex
100
AcDb2dVertex
 10
0.2480611293456207
 20
0.2020672642179812
 30
0.0
  0
VERTEX
  5
C30
330
C2B
100
AcDbEntity
  8
Brisckstyl
 62
     1
100
AcDbVertex
100
AcDb2dVertex
 10
0.2485510795256749
 20
0.2015367828794802
 30
0.0
  0
VERTEX
  5
C31
330
C2B
100
AcDbEntity
  8
Brisckstyl
 62
     1
100
AcDbVertex
100
AcDb2dVertex
 10
0.2489881007811681
 20
0.2010113083311404
 30
0.0
  0
VERTEX
  5
C32
330
C2B
100
AcDbEntity
  8
Brisckstyl
 62
     1
100
AcDbVertex
100
AcDb2dVertex
 10
0.2491812198302403
 20
0.2007514320799197
 30
0.0
  0
VERTEX
  5
C33
330
C2B
100
AcDbEntity
  8
Brisckstyl
 62
     1
100
AcDbVertex
100
AcDb2dVertex
 10
0.2493545501372467
 20
0.2004932247587527
 30
0.0
  0
VERTEX
  5
C34
330
C2B
100
AcDbEntity
  8
Brisckstyl
 62
     1
100
AcDbVertex
100
AcDb2dVertex
 10
0.2495057075163976
 20
0.2002374016233767
 30
0.0
  0
VERTEX
  5
C35
330
C2B
100
AcDbEntity
  8
Brisckstyl
 62
     1
100
AcDbVertex
100
AcDb2dVertex
 10
0.2495724647185455
 20
0.2001105629392947
 30
0.0
  0
VERTEX
  5
C36
330
C2B
100
AcDbEntity
  8
Brisckstyl
 62
     1
100
AcDbVertex
100
AcDb2dVertex
 10
0.2496325462004791
 20
0.1999842010923708
 30
0.0
  0
VERTEX
  5
C37
330
C2B
100
AcDbEntity
  8
Brisckstyl
 62
     1
100
AcDbVertex
100
AcDb2dVertex
 10
0.2496864287993561
 20
0.1998585545011843
 30
0.0
  0
VERTEX
  5
C38
330
C2B
100
AcDbEntity
  8
Brisckstyl
 62
     1
100
AcDbVertex
100
AcDb2dVertex
 10
0.2497331588408604
 20
0.1997336231657355
 30
0.0
  0
VERTEX
  5
C39
330
C2B
100
AcDbEntity
  8
Brisckstyl
 62
     1
100
AcDbVertex
100
AcDb2dVertex
 10
0.2497727363249913
 20
0.1996094070860231
 30
0.0
  0
VERTEX
  5
C3A
330
C2B
100
AcDbEntity
  8
Brisckstyl
 62
     1
100
AcDbVertex
100
AcDb2dVertex
 10
0.2498046844145905
 20
0.1994859062620485
 30
0.0
  0
VERTEX
  5
C3B
330
C2B
100
AcDbEntity
  8
Brisckstyl
 62
     1
100
AcDbVertex
100
AcDb2dVertex
 10
0.2498292415282379
 20
0.1993631206938112
 30
0.0
  0
VERTEX
  5
C3C
330
C2B
100
AcDbEntity
  8
Brisckstyl
 62
     1
100
AcDbVertex
100
AcDb2dVertex
 10
0.2498456924101959
 20
0.1992412887998903
 30
0.0
  0
VERTEX
  5
C3D
330
C2B
100
AcDbEntity
  8
Brisckstyl
 62
     1
100
AcDbVertex
100
AcDb2dVertex
 10
0.2498537986418854
 20
0.1991201721617067
 30
0.0
  0
VERTEX
  5
C3E
330
C2B
100
AcDbEntity
  8
Brisckstyl
 62
     1
100
AcDbVertex
100
AcDb2dVertex
 10
0.2498545138976231
 20
0.1990600906797731
 30
0.0
  0
VERTEX
  5
C3F
330
C2B
100
AcDbEntity
  8
Brisckstyl
 62
     1
100
AcDbVertex
100
AcDb2dVertex
 10
0.2498533218047272
 20
0.1990000091978395
 30
0.0
  0
VERTEX
  5
C40
330
C2B
100
AcDbEntity
  8
Brisckstyl
 62
     1
100
AcDbVertex
100
AcDb2dVertex
 10
0.2497815578124181
 20
0.1978699051328981
 30
0.0
  0
VERTEX
  5
C41
330
C2B
100
AcDbEntity
  8
Brisckstyl
 62
     1
100
AcDbVertex
100
AcDb2dVertex
 10
0.2497150390288483
 20
0.1972292744108522
 30
0.0
  0
VERTEX
  5
C42
330
C2B
100
AcDbEntity
  8
Brisckstyl
 62
     1
100
AcDbVertex
100
AcDb2dVertex
 10
0.2496234862944733
 20
0.1965864979215949
 30
0.0
  0
VERTEX
  5
C43
330
C2B
100
AcDbEntity
  8
Brisckstyl
 62
     1
100
AcDbVertex
100
AcDb2dVertex
 10
0.2495030849120274
 20
0.1959771000334108
 30
0.0
  0
VERTEX
  5
C44
330
C2B
100
AcDbEntity
  8
Brisckstyl
 62
     1
100
AcDbVertex
100
AcDb2dVertex
 10
0.2494310825011388
 20
0.1956962429472292
 30
0.0
  0
VERTEX
  5
C45
330
C2B
100
AcDbEntity
  8
Brisckstyl
 62
     1
100
AcDbVertex
100
AcDb2dVertex
 10
0.2493504970214024
 20
0.1954370819517458
 30
0.0
  0
VERTEX
  5
C46
330
C2B
100
AcDbEntity
  8
Brisckstyl
 62
     1
100
AcDbVertex
100
AcDb2dVertex
 10
0.2493068664214268
 20
0.1953171574064577
 30
0.0
  0
VERTEX
  5
C47
330
C2B
100
AcDbEntity
  8
Brisckstyl
 62
     1
100
AcDbVertex
100
AcDb2dVertex
 10
0.2492608516356611
 20
0.1952043854185427
 30
0.0
  0
VERTEX
  5
C48
330
C2B
100
AcDbEntity
  8
Brisckstyl
 62
     1
100
AcDbVertex
100
AcDb2dVertex
 10
0.2492126910826813
 20
0.195099481243738
 30
0.0
  0
VERTEX
  5
C49
330
C2B
100
AcDbEntity
  8
Brisckstyl
 62
     1
100
AcDbVertex
100
AcDb2dVertex
 10
0.2491619079253331
 20
0.1950026833006227
 30
0.0
  0
VERTEX
  5
C4A
330
C2B
100
AcDbEntity
  8
Brisckstyl
 62
     1
100
AcDbVertex
100
AcDb2dVertex
 10
0.249108740582193
 20
0.1949147068449343
 30
0.0
  0
VERTEX
  5
C4B
330
C2B
100
AcDbEntity
  8
Brisckstyl
 62
     1
100
AcDbVertex
100
AcDb2dVertex
 10
0.2490813224455968
 20
0.194874175686487
 30
0.0
  0
VERTEX
  5
C4C
330
C2B
100
AcDbEntity
  8
Brisckstyl
 62
     1
100
AcDbVertex
100
AcDb2dVertex
 10
0.2490529506346832
 20
0.1948360287138308
 30
0.0
  0
VERTEX
  5
C4D
330
C2B
100
AcDbEntity
  8
Brisckstyl
 62
     1
100
AcDbVertex
100
AcDb2dVertex
 10
0.2490243404051911
 20
0.1948005043455446
 30
0.0
  0
VERTEX
  5
C4E
330
C2B
100
AcDbEntity
  8
Brisckstyl
 62
     1
100
AcDbVertex
100
AcDb2dVertex
 10
0.2489947765013829
 20
0.1947673641630495
 30
0.0
  0
VERTEX
  5
C4F
330
C2B
100
AcDbEntity
  8
Brisckstyl
 62
     1
100
AcDbVertex
100
AcDb2dVertex
 10
0.2489647357604157
 20
0.1947368465849245
 30
0.0
  0
VERTEX
  5
C50
330
C2B
100
AcDbEntity
  8
Brisckstyl
 62
     1
100
AcDbVertex
100
AcDb2dVertex
 10
0.2489339797637116
 20
0.1947091900297487
 30
0.0
  0
VERTEX
  5
C51
330
C2B
100
AcDbEntity
  8
Brisckstyl
 62
     1
100
AcDbVertex
100
AcDb2dVertex
 10
0.2488042800566803
 20
0.1945916496702517
 30
0.0
  0
VERTEX
  5
C52
330
C2B
100
AcDbEntity
  8
Brisckstyl
 62
     1
100
AcDbVertex
100
AcDb2dVertex
 10
0.2486664741179601
 20
0.1944516979643195
 30
0.0
  0
VERTEX
  5
C53
330
C2B
100
AcDbEntity
  8
Brisckstyl
 62
     1
100
AcDbVertex
100
AcDb2dVertex
 10
0.2485227077147618
 20
0.1942914806791628
 30
0.0
  0
VERTEX
  5
C54
330
C2B
100
AcDbEntity
  8
Brisckstyl
 62
     1
100
AcDbVertex
100
AcDb2dVertex
 10
0.2483751266142979
 20
0.1941138588377321
 30
0.0
  0
VERTEX
  5
C55
330
C2B
100
AcDbEntity
  8
Brisckstyl
 62
     1
100
AcDbVertex
100
AcDb2dVertex
 10
0.2480790107390538
 20
0.1937161766477907
 30
0.0
  0
VERTEX
  5
C56
330
C2B
100
AcDbEntity
  8
Brisckstyl
 62
     1
100
AcDbVertex
100
AcDb2dVertex
 10
0.2477971999785553
 20
0.1932789169737189
 30
0.0
  0
VERTEX
  5
C57
330
C2B
100
AcDbEntity
  8
Brisckstyl
 62
     1
100
AcDbVertex
100
AcDb2dVertex
 10
0.2476677386901032
 20
0.1930519424864138
 30
0.0
  0
VERTEX
  5
C58
330
C2B
100
AcDbEntity
  8
Brisckstyl
 62
     1
100
AcDbVertex
100
AcDb2dVertex
 10
0.2475490062377106
 20
0.1928225838133181
 30
0.0
  0
VERTEX
  5
C59
330
C2B
100
AcDbEntity
  8
Brisckstyl
 62
     1
100
AcDbVertex
100
AcDb2dVertex
 10
0.2474436252257481
 20
0.1925937019773806
 30
0.0
  0
VERTEX
  5
C5A
330
C2B
100
AcDbEntity
  8
Brisckstyl
 62
     1
100
AcDbVertex
100
AcDb2dVertex
 10
0.2473535030028486
 20
0.1923674427458132
 30
0.0
  0
VERTEX
  5
C5B
330
C2B
100
AcDbEntity
  8
Brisckstyl
 62
     1
100
AcDbVertex
100
AcDb2dVertex
 10
0.2473151176116124
 20
0.1922563396879519
 30
0.0
  0
VERTEX
  5
C5C
330
C2B
100
AcDbEntity
  8
Brisckstyl
 62
     1
100
AcDbVertex
100
AcDb2dVertex
 10
0.2472815005919586
 20
0.1921466671415651
 30
0.0
  0
VERTEX
  5
C5D
330
C2B
100
AcDbEntity
  8
Brisckstyl
 62
     1
100
AcDbVertex
100
AcDb2dVertex
 10
0.2472528903624669
 20
0.1920391403623903
 30
0.0
  0
VERTEX
  5
C5E
330
C2B
100
AcDbEntity
  8
Brisckstyl
 62
     1
100
AcDbVertex
100
AcDb2dVertex
 10
0.2472297637602936
 20
0.191933997769007
 30
0.0
  0
VERTEX
  5
C5F
330
C2B
100
AcDbEntity
  8
Brisckstyl
 62
     1
100
AcDbVertex
100
AcDb2dVertex
 10
0.2472123592040192
 20
0.1918312393614138
 30
0.0
  0
VERTEX
  5
C60
330
C2B
100
AcDbEntity
  8
Brisckstyl
 62
     1
100
AcDbVertex
100
AcDb2dVertex
 10
0.2472009151122236
 20
0.1917315803953493
 30
0.0
  0
VERTEX
  5
C61
330
C2B
100
AcDbEntity
  8
Brisckstyl
 62
     1
100
AcDbVertex
100
AcDb2dVertex
 10
0.2471956699034825
 20
0.1916350208708132
 30
0.0
  0
VERTEX
  5
C62
330
C2B
100
AcDbEntity
  8
Brisckstyl
 62
     1
100
AcDbVertex
100
AcDb2dVertex
 10
0.2471956699034825
 20
0.1915882908293093
 30
0.0
  0
VERTEX
  5
C63
330
C2B
100
AcDbEntity
  8
Brisckstyl
 62
     1
100
AcDbVertex
100
AcDb2dVertex
 10
0.2471971004149567
 20
0.1915422760435427
 30
0.0
  0
VERTEX
  5
C64
330
C2B
100
AcDbEntity
  8
Brisckstyl
 62
     1
100
AcDbVertex
100
AcDb2dVertex
 10
0.2472114055297032
 20
0.1913551174589479
 30
0.0
  0
VERTEX
  5
C65
330
C2B
100
AcDbEntity
  8
Brisckstyl
 62
     1
100
AcDbVertex
100
AcDb2dVertex
 10
0.2472345321318756
 20
0.1911593758055056
 30
0.0
  0
VERTEX
  5
C66
330
C2B
100
AcDbEntity
  8
Brisckstyl
 62
     1
100
AcDbVertex
100
AcDb2dVertex
 10
0.2473048656127106
 20
0.1907504879423468
 30
0.0
  0
VERTEX
  5
C67
330
C2B
100
AcDbEntity
  8
Brisckstyl
 62
     1
100
AcDbVertex
100
AcDb2dVertex
 10
0.2474026172301422
 20
0.1903318249174445
 30
0.0
  0
VERTEX
  5
C68
330
C2B
100
AcDbEntity
  8
Brisckstyl
 62
     1
100
AcDbVertex
100
AcDb2dVertex
 10
0.2475227801940099
 20
0.1899203144499147
 30
0.0
  0
VERTEX
  5
C69
330
C2B
100
AcDbEntity
  8
Brisckstyl
 62
     1
100
AcDbVertex
100
AcDb2dVertex
 10
0.2476593940398351
 20
0.1895328842588747
 30
0.0
  0
VERTEX
  5
C6A
330
C2B
100
AcDbEntity
  8
Brisckstyl
 62
     1
100
AcDbVertex
100
AcDb2dVertex
 10
0.2477325885436188
 20
0.1893533550688112
 30
0.0
  0
VERTEX
  5
C6B
330
C2B
100
AcDbEntity
  8
Brisckstyl
 62
     1
100
AcDbVertex
100
AcDb2dVertex
 10
0.2478076903960358
 20
0.1891859852262824
 30
0.0
  0
VERTEX
  5
C6C
330
C2B
100
AcDbEntity
  8
Brisckstyl
 62
     1
100
AcDbVertex
100
AcDb2dVertex
 10
0.2478842227599278
 20
0.1890331589170778
 30
0.0
  0
VERTEX
  5
C6D
330
C2B
100
AcDbEntity
  8
Brisckstyl
 62
     1
100
AcDbVertex
100
AcDb2dVertex
 10
0.2479617087981354
 20
0.1888967834898317
 30
0.0
  0
VERTEX
  5
C6E
330
C2B
100
AcDbEntity
  8
Brisckstyl
 62
     1
100
AcDbVertex
100
AcDb2dVertex
 10
0.2480005710265294
 20
0.1888352714964235
 30
0.0
  0
VERTEX
  5
C6F
330
C2B
100
AcDbEntity
  8
Brisckstyl
 62
     1
100
AcDbVertex
100
AcDb2dVertex
 10
0.2480394332549229
 20
0.1887787662931769
 30
0.0
  0
VERTEX
  5
C70
330
C2B
100
AcDbEntity
  8
Brisckstyl
 62
     1
100
AcDbVertex
100
AcDb2dVertex
 10
0.2480780570647374
 20
0.1887275062986696
 30
0.0
  0
VERTEX
  5
C71
330
C2B
100
AcDbEntity
  8
Brisckstyl
 62
     1
100
AcDbVertex
100
AcDb2dVertex
 10
0.2481166808745518
 20
0.1886817299314821
 30
0.0
  0
VERTEX
  5
C72
330
C2B
100
AcDbEntity
  8
Brisckstyl
 62
     1
100
AcDbVertex
100
AcDb2dVertex
 10
0.2481550662657868
 20
0.1886400066801394
 30
0.0
  0
VERTEX
  5
C73
330
C2B
100
AcDbEntity
  8
Brisckstyl
 62
     1
100
AcDbVertex
100
AcDb2dVertex
 10
0.2481941669127599
 20
0.1886009060331667
 30
0.0
  0
VERTEX
  5
C74
330
C2B
100
AcDbEntity
  8
Brisckstyl
 62
     1
100
AcDbVertex
100
AcDb2dVertex
 10
0.2482721297881256
 20
0.1885298572965949
 30
0.0
  0
VERTEX
  5
C75
330
C2B
100
AcDbEntity
  8
Brisckstyl
 62
     1
100
AcDbVertex
100
AcDb2dVertex
 10
0.2484223334929601
 20
0.1884063564726198
 30
0.0
  0
VERTEX
  5
C76
330
C2B
100
AcDbEntity
  8
Brisckstyl
 62
     1
100
AcDbVertex
100
AcDb2dVertex
 10
0.2484905212065831
 20
0.1883488975950563
 30
0.0
  0
VERTEX
  5
C77
330
C2B
100
AcDbEntity
  8
Brisckstyl
 62
     1
100
AcDbVertex
100
AcDb2dVertex
 10
0.2485222308776032
 20
0.1883200489469855
 30
0.0
  0
VERTEX
  5
C78
330
C2B
100
AcDbEntity
  8
Brisckstyl
 62
     1
100
AcDbVertex
100
AcDb2dVertex
 10
0.2485520331999913
 20
0.1882909618803347
 30
0.0
  0
VERTEX
  5
C79
330
C2B
100
AcDbEntity
  8
Brisckstyl
 62
     1
100
AcDbVertex
100
AcDb2dVertex
 10
0.248579451336588
 20
0.188261159557947
 30
0.0
  0
VERTEX
  5
C7A
330
C2B
100
AcDbEntity
  8
Brisckstyl
 62
     1
100
AcDbVertex
100
AcDb2dVertex
 10
0.2486044852873932
 20
0.1882304035612429
 30
0.0
  0
VERTEX
  5
C7B
330
C2B
100
AcDbEntity
  8
Brisckstyl
 62
     1
100
AcDbVertex
100
AcDb2dVertex
 10
0.2486161677977692
 20
0.1882144295164431
 30
0.0
  0
VERTEX
  5
C7C
330
C2B
100
AcDbEntity
  8
Brisckstyl
 62
     1
100
AcDbVertex
100
AcDb2dVertex
 10
0.2486268966338287
 20
0.1881982170530642
 30
0.0
  0
VERTEX
  5
C7D
330
C2B
100
AcDbEntity
  8
Brisckstyl
 62
     1
100
AcDbVertex
100
AcDb2dVertex
 10
0.2486371486327306
 20
0.188181527752527
 30
0.0
  0
VERTEX
  5
C7E
330
C2B
100
AcDbEntity
  8
Brisckstyl
 62
     1
100
AcDbVertex
100
AcDb2dVertex
 10
0.2486464469573155
 20
0.1881643616148317
 30
0.0
  0
VERTEX
  5
C7F
330
C2B
100
AcDbEntity
  8
Brisckstyl
 62
     1
100
AcDbVertex
100
AcDb2dVertex
 10
0.2486550300261632
 20
0.1881467186399782
 30
0.0
  0
VERTEX
  5
C80
330
C2B
100
AcDbEntity
  8
Brisckstyl
 62
     1
100
AcDbVertex
100
AcDb2dVertex
 10
0.2486628978392731
 20
0.1881285988279669
 30
0.0
  0
VERTEX
  5
C81
330
C2B
100
AcDbEntity
  8
Brisckstyl
 62
     1
100
AcDbVertex
100
AcDb2dVertex
 10
0.2486698119780675
 20
0.188110002178797
 30
0.0
  0
VERTEX
  5
C82
330
C2B
100
AcDbEntity
  8
Brisckstyl
 62
     1
100
AcDbVertex
100
AcDb2dVertex
 10
0.248675772442545
 20
0.1880906902738894
 30
0.0
  0
VERTEX
  5
C83
330
C2B
100
AcDbEntity
  8
Brisckstyl
 62
     1
100
AcDbVertex
100
AcDb2dVertex
 10
0.2486810176512861
 20
0.1880706631132448
 30
0.0
  0
VERTEX
  5
C84
330
C2B
100
AcDbEntity
  8
Brisckstyl
 62
     1
100
AcDbVertex
100
AcDb2dVertex
 10
0.24868507076713
 20
0.1880501591154421
 30
0.0
  0
VERTEX
  5
C85
330
C2B
100
AcDbEntity
  8
Brisckstyl
 62
     1
100
AcDbVertex
100
AcDb2dVertex
 10
0.2486884086272374
 20
0.1880287014433229
 30
0.0
  0
VERTEX
  5
C86
330
C2B
100
AcDbEntity
  8
Brisckstyl
 62
     1
100
AcDbVertex
100
AcDb2dVertex
 10
0.2486905543944493
 20
0.1880067669340456
 30
0.0
  0
VERTEX
  5
C87
330
C2B
100
AcDbEntity
  8
Brisckstyl
 62
     1
100
AcDbVertex
100
AcDb2dVertex
 10
0.2486919849059235
 20
0.1879838787504519
 30
0.0
  0
VERTEX
  5
C88
330
C2B
100
AcDbEntity
  8
Brisckstyl
 62
     1
100
AcDbVertex
100
AcDb2dVertex
 10
0.2486919849059235
 20
0.1879600368925417
 30
0.0
  0
VERTEX
  5
C89
330
C2B
100
AcDbEntity
  8
Brisckstyl
 62
     1
100
AcDbVertex
100
AcDb2dVertex
 10
0.2486912696501862
 20
0.1879354797788942
 30
0.0
  0
VERTEX
  5
C8A
330
C2B
100
AcDbEntity
  8
Brisckstyl
 62
     1
100
AcDbVertex
100
AcDb2dVertex
 10
0.2486891238829743
 20
0.1879099689909304
 30
0.0
  0
VERTEX
  5
C8B
330
C2B
100
AcDbEntity
  8
Brisckstyl
 62
     1
100
AcDbVertex
100
AcDb2dVertex
 10
0.2486860244414459
 20
0.1878835045286501
 30
0.0
  0
VERTEX
  5
C8C
330
C2B
100
AcDbEntity
  8
Brisckstyl
 62
     1
100
AcDbVertex
100
AcDb2dVertex
 10
0.2486817329070226
 20
0.1878560863920539
 30
0.0
  0
VERTEX
  5
C8D
330
C2B
100
AcDbEntity
  8
Brisckstyl
 62
     1
100
AcDbVertex
100
AcDb2dVertex
 10
0.2486695735594879
 20
0.1877981506773317
 30
0.0
  0
VERTEX
  5
C8E
330
C2B
100
AcDbEntity
  8
Brisckstyl
 62
     1
100
AcDbVertex
100
AcDb2dVertex
 10
0.2486524074217931
 20
0.1877356850096071
 30
0.0
  0
VERTEX
  5
C8F
330
C2B
100
AcDbEntity
  8
Brisckstyl
 62
     1
100
AcDbVertex
100
AcDb2dVertex
 10
0.2486299960753575
 20
0.1876684509703005
 30
0.0
  0
VERTEX
  5
C90
330
C2B
100
AcDbEntity
  8
Brisckstyl
 62
     1
100
AcDbVertex
100
AcDb2dVertex
 10
0.2486021011016022
 20
0.1875964485594118
 30
0.0
  0
VERTEX
  5
C91
330
C2B
100
AcDbEntity
  8
Brisckstyl
 62
     1
100
AcDbVertex
100
AcDb2dVertex
 10
0.2485682456633698
 20
0.1875189625212038
 30
0.0
  0
VERTEX
  5
C92
330
C2B
100
AcDbEntity
  8
Brisckstyl
 62
     1
100
AcDbVertex
100
AcDb2dVertex
 10
0.2484828918120518
 20
0.1873465858885138
 30
0.0
  0
VERTEX
  5
C93
330
C2B
100
AcDbEntity
  8
Brisckstyl
 62
     1
100
AcDbVertex
100
AcDb2dVertex
 10
0.2483717887541905
 20
0.1871491753050173
 30
0.0
  0
VERTEX
  5
C94
330
C2B
100
AcDbEntity
  8
Brisckstyl
 62
     1
100
AcDbVertex
100
AcDb2dVertex
 10
0.2479688613555084
 20
0.1864739738890017
 30
0.0
  0
VERTEX
  5
C95
330
C2B
100
AcDbEntity
  8
Brisckstyl
 62
     1
100
AcDbVertex
100
AcDb2dVertex
 10
0.247827002300943
 20
0.1862243496366823
 30
0.0
  0
VERTEX
  5
C96
330
C2B
100
AcDbEntity
  8
Brisckstyl
 62
     1
100
AcDbVertex
100
AcDb2dVertex
 10
0.247714230313028
 20
0.1859999977537477
 30
0.0
  0
VERTEX
  5
C97
330
C2B
100
AcDbEntity
  8
Brisckstyl
 62
     1
100
AcDbVertex
100
AcDb2dVertex
 10
0.2476665465972081
 20
0.1858891331144655
 30
0.0
  0
VERTEX
  5
C98
330
C2B
100
AcDbEntity
  8
Brisckstyl
 62
     1
100
AcDbVertex
100
AcDb2dVertex
 10
0.2476231544158112
 20
0.1857754074522345
 30
0.0
  0
VERTEX
  5
C99
330
C2B
100
AcDbEntity
  8
Brisckstyl
 62
     1
100
AcDbVertex
100
AcDb2dVertex
 10
0.2475833385131012
 20
0.1856552444883673
 30
0.0
  0
VERTEX
  5
C9A
330
C2B
100
AcDbEntity
  8
Brisckstyl
 62
     1
100
AcDbVertex
100
AcDb2dVertex
 10
0.2475459067961823
 20
0.1855257831999147
 30
0.0
  0
VERTEX
  5
C9B
330
C2B
100
AcDbEntity
  8
Brisckstyl
 62
     1
100
AcDbVertex
100
AcDb2dVertex
 10
0.2474746196410313
 20
0.1852258526274054
 30
0.0
  0
VERTEX
  5
C9C
330
C2B
100
AcDbEntity
  8
Brisckstyl
 62
     1
100
AcDbVertex
100
AcDb2dVertex
 10
0.2474014251372467
 20
0.1848505817838996
 30
0.0
  0
VERTEX
  5
C9D
330
C2B
100
AcDbEntity
  8
Brisckstyl
 62
     1
100
AcDbVertex
100
AcDb2dVertex
 10
0.2473699538848053
 20
0.1846481644102423
 30
0.0
  0
VERTEX
  5
C9E
330
C2B
100
AcDbEntity
  8
Brisckstyl
 62
     1
100
AcDbVertex
100
AcDb2dVertex
 10
0.2473511188170563
 20
0.1844612442442263
 30
0.0
  0
VERTEX
  5
C9F
330
C2B
100
AcDbEntity
  8
Brisckstyl
 62
     1
100
AcDbVertex
100
AcDb2dVertex
 10
0.2473446815154205
 20
0.1842891060301154
 30
0.0
  0
VERTEX
  5
CA0
330
C2B
100
AcDbEntity
  8
Brisckstyl
 62
     1
100
AcDbVertex
100
AcDb2dVertex
 10
0.2473453967711578
 20
0.1842082821317995
 30
0.0
  0
VERTEX
  5
CA1
330
C2B
100
AcDbEntity
  8
Brisckstyl
 62
     1
100
AcDbVertex
100
AcDb2dVertex
 10
0.2473492114684235
 20
0.1841305576750128
 30
0.0
  0
VERTEX
  5
CA2
330
C2B
100
AcDbEntity
  8
Brisckstyl
 62
     1
100
AcDbVertex
100
AcDb2dVertex
 10
0.2473554103514806
 20
0.1840561710783327
 30
0.0
  0
VERTEX
  5
CA3
330
C2B
100
AcDbEntity
  8
Brisckstyl
 62
     1
100
AcDbVertex
100
AcDb2dVertex
 10
0.2473639934203282
 20
0.1839846455046022
 30
0.0
  0
VERTEX
  5
CA4
330
C2B
100
AcDbEntity
  8
Brisckstyl
 62
     1
100
AcDbVertex
100
AcDb2dVertex
 10
0.2473751990935455
 20
0.1839162193724001
 30
0.0
  0
VERTEX
  5
CA5
330
C2B
100
AcDbEntity
  8
Brisckstyl
 62
     1
100
AcDbVertex
100
AcDb2dVertex
 10
0.2473883121153961
 20
0.1838501774259894
 30
0.0
  0
VERTEX
  5
CA6
330
C2B
100
AcDbEntity
  8
Brisckstyl
 62
     1
100
AcDbVertex
100
AcDb2dVertex
 10
0.2474038093230382
 20
0.183786996502527
 30
0.0
  0
VERTEX
  5
CA7
330
C2B
100
AcDbEntity
  8
Brisckstyl
 62
     1
100
AcDbVertex
100
AcDb2dVertex
 10
0.2474214522978912
 20
0.1837264381834352
 30
0.0
  0
VERTEX
  5
CA8
330
C2B
100
AcDbEntity
  8
Brisckstyl
 62
     1
100
AcDbVertex
100
AcDb2dVertex
 10
0.2474407642027985
 20
0.1836680256315554
 30
0.0
  0
VERTEX
  5
CA9
330
C2B
100
AcDbEntity
  8
Brisckstyl
 62
     1
100
AcDbVertex
100
AcDb2dVertex
 10
0.2474619834563385
 20
0.1836117588468878
 30
0.0
  0
VERTEX
  5
CAA
330
C2B
100
AcDbEntity
  8
Brisckstyl
 62
     1
100
AcDbVertex
100
AcDb2dVertex
 10
0.2474851100585118
 20
0.1835578762480104
 30
0.0
  0
VERTEX
  5
CAB
330
C2B
100
AcDbEntity
  8
Brisckstyl
 62
     1
100
AcDbVertex
100
AcDb2dVertex
 10
0.2475096671721593
 20
0.1835056625791872
 30
0.0
  0
VERTEX
  5
CAC
330
C2B
100
AcDbEntity
  8
Brisckstyl
 62
     1
100
AcDbVertex
100
AcDb2dVertex
 10
0.2475356547972813
 20
0.1834553562589968
 30
0.0
  0
VERTEX
  5
CAD
330
C2B
100
AcDbEntity
  8
Brisckstyl
 62
     1
100
AcDbVertex
100
AcDb2dVertex
 10
0.2475633113524567
 20
0.1834069572874392
 30
0.0
  0
VERTEX
  5
CAE
330
C2B
100
AcDbEntity
  8
Brisckstyl
 62
     1
100
AcDbVertex
100
AcDb2dVertex
 10
0.2476219623229157
 20
0.1833144508787477
 30
0.0
  0
VERTEX
  5
CAF
330
C2B
100
AcDbEntity
  8
Brisckstyl
 62
     1
100
AcDbVertex
100
AcDb2dVertex
 10
0.247685143246378
 20
0.183227189678797
 30
0.0
  0
VERTEX
  5
CB0
330
C2B
100
AcDbEntity
  8
Brisckstyl
 62
     1
100
AcDbVertex
100
AcDb2dVertex
 10
0.2477516620299474
 20
0.1831439815946901
 30
0.0
  0
VERTEX
  5
CB1
330
C2B
100
AcDbEntity
  8
Brisckstyl
 62
     1
100
AcDbVertex
100
AcDb2dVertex
 10
0.2478208034178868
 20
0.1830641113706911
 30
0.0
  0
VERTEX
  5
CB2
330
C2B
100
AcDbEntity
  8
Brisckstyl
 62
     1
100
AcDbVertex
100
AcDb2dVertex
 10
0.2479631393096104
 20
0.1829093777128542
 30
0.0
  0
VERTEX
  5
CB3
330
C2B
100
AcDbEntity
  8
Brisckstyl
 62
     1
100
AcDbVertex
100
AcDb2dVertex
 10
0.2478610961577549
 20
0.1801511131712282
 30
0.0
  0
VERTEX
  5
CB4
330
C2B
100
AcDbEntity
  8
Brisckstyl
 62
     1
100
AcDbVertex
100
AcDb2dVertex
 10
0.2473504035613194
 20
0.1789761864134157
 30
0.0
  0
VERTEX
  5
CB5
330
C2B
100
AcDbEntity
  8
Brisckstyl
 62
     1
100
AcDbVertex
100
AcDb2dVertex
 10
0.2473504035613194
 20
0.1736637436338747
 30
0.0
  0
VERTEX
  5
CB6
330
C2B
100
AcDbEntity
  8
Brisckstyl
 62
     1
100
AcDbVertex
100
AcDb2dVertex
 10
0.2507726638457428
 20
0.1736637436338747
 30
0.0
  0
VERTEX
  5
CB7
330
C2B
100
AcDbEntity
  8
Brisckstyl
 62
     1
100
AcDbVertex
100
AcDb2dVertex
 10
0.2507726638457428
 20
0.1757069908567751
 30
0.0
  0
VERTEX
  5
CB8
330
C2B
100
AcDbEntity
  8
Brisckstyl
 62
     1
100
AcDbVertex
100
AcDb2dVertex
 10
0.2516574351927887
 20
0.1760770164915407
 30
0.0
  0
VERTEX
  5
CB9
330
C2B
100
AcDbEntity
  8
Brisckstyl
 62
     1
100
AcDbVertex
100
AcDb2dVertex
 10
0.2520706145903717
 20
0.1762732349821413
 30
0.0
  0
VERTEX
  5
CBA
330
C2B
100
AcDbEntity
  8
Brisckstyl
 62
     1
100
AcDbVertex
100
AcDb2dVertex
 10
0.2522649257323399
 20
0.1763759933897345
 30
0.0
  0
VERTEX
  5
CBB
330
C2B
100
AcDbEntity
  8
Brisckstyl
 62
     1
100
AcDbVertex
100
AcDb2dVertex
 10
0.2524487464568268
 20
0.176482804913172
 30
0.0
  0
VERTEX
  5
CBC
330
C2B
100
AcDbEntity
  8
Brisckstyl
 62
     1
100
AcDbVertex
100
AcDb2dVertex
 10
0.2526211230895172
 20
0.176594146389612
 30
0.0
  0
VERTEX
  5
CBD
330
C2B
100
AcDbEntity
  8
Brisckstyl
 62
     1
100
AcDbVertex
100
AcDb2dVertex
 10
0.2527803867003575
 20
0.1767104946562136
 30
0.0
  0
VERTEX
  5
CBE
330
C2B
100
AcDbEntity
  8
Brisckstyl
 62
     1
100
AcDbVertex
100
AcDb2dVertex
 10
0.2528545348784581
 20
0.1767705761381472
 30
0.0
  0
VERTEX
  5
CBF
330
C2B
100
AcDbEntity
  8
Brisckstyl
 62
     1
100
AcDbVertex
100
AcDb2dVertex
 10
0.2529248683592931
 20
0.1768323265501345
 30
0.0
  0
VERTEX
  5
CC0
330
C2B
100
AcDbEntity
  8
Brisckstyl
 62
     1
100
AcDbVertex
100
AcDb2dVertex
 10
0.2529911487242828
 20
0.1768955074735968
 30
0.0
  0
VERTEX
  5
CC1
330
C2B
100
AcDbEntity
  8
Brisckstyl
 62
     1
100
AcDbVertex
100
AcDb2dVertex
 10
0.2530533759734288
 20
0.176960357327112
 30
0.0
  0
VERTEX
  5
CC2
330
C2B
100
AcDbEntity
  8
Brisckstyl
 62
     1
100
AcDbVertex
100
AcDb2dVertex
 10
0.2531113116881505
 20
0.1770271145292604
 30
0.0
  0
VERTEX
  5
CC3
330
C2B
100
AcDbEntity
  8
Brisckstyl
 62
     1
100
AcDbVertex
100
AcDb2dVertex
 10
0.2531644790312897
 20
0.1770953022428839
 30
0.0
  0
VERTEX
  5
CC4
330
C2B
100
AcDbEntity
  8
Brisckstyl
 62
     1
100
AcDbVertex
100
AcDb2dVertex
 10
0.2532128780028486
 20
0.1771653973051394
 30
0.0
  0
VERTEX
  5
CC5
330
C2B
100
AcDbEntity
  8
Brisckstyl
 62
     1
100
AcDbVertex
100
AcDb2dVertex
 10
0.2532565086028229
 20
0.177237399716028
 30
0.0
  0
VERTEX
  5
CC6
330
C2B
100
AcDbEntity
  8
Brisckstyl
 62
     1
100
AcDbVertex
100
AcDb2dVertex
 10
0.2532948939940582
 20
0.1773115478941286
 30
0.0
  0
VERTEX
  5
CC7
330
C2B
100
AcDbEntity
  8
Brisckstyl
 62
     1
100
AcDbVertex
100
AcDb2dVertex
 10
0.2533280341765538
 20
0.177387603420862
 30
0.0
  0
VERTEX
  5
CC8
330
C2B
100
AcDbEntity
  8
Brisckstyl
 62
     1
100
AcDbVertex
100
AcDb2dVertex
 10
0.2533425777098786
 20
0.1774262272306769
 30
0.0
  0
VERTEX
  5
CC9
330
C2B
100
AcDbEntity
  8
Brisckstyl
 62
     1
100
AcDbVertex
100
AcDb2dVertex
 10
0.2533559291503082
 20
0.1774655662962282
 30
0.0
  0
VERTEX
  5
CCA
330
C2B
100
AcDbEntity
  8
Brisckstyl
 62
     1
100
AcDbVertex
100
AcDb2dVertex
 10
0.2533676116606842
 20
0.1775053821989382
 30
0.0
  0
VERTEX
  5
CCB
330
C2B
100
AcDbEntity
  8
Brisckstyl
 62
     1
100
AcDbVertex
100
AcDb2dVertex
 10
0.2533778636595856
 20
0.1775459133573854
 30
0.0
  0
VERTEX
  5
CCC
330
C2B
100
AcDbEntity
  8
Brisckstyl
 62
     1
100
AcDbVertex
100
AcDb2dVertex
 10
0.2537226169249669
 20
0.1787334762998903
 30
0.0
  0
VERTEX
  5
CCD
330
C2B
100
AcDbEntity
  8
Brisckstyl
 62
     1
100
AcDbVertex
100
AcDb2dVertex
 10
0.2537590949675694
 20
0.1789022766538942
 30
0.0
  0
VERTEX
  5
CCE
330
C2B
100
AcDbEntity
  8
Brisckstyl
 62
     1
100
AcDbVertex
100
AcDb2dVertex
 10
0.2537910430571686
 20
0.1790844284483278
 30
0.0
  0
VERTEX
  5
CCF
330
C2B
100
AcDbEntity
  8
Brisckstyl
 62
     1
100
AcDbVertex
100
AcDb2dVertex
 10
0.2538175075194493
 20
0.1792825542875612
 30
0.0
  0
VERTEX
  5
CD0
330
C2B
100
AcDbEntity
  8
Brisckstyl
 62
     1
100
AcDbVertex
100
AcDb2dVertex
 10
0.2538375346800938
 20
0.1794997536131227
 30
0.0
  0
VERTEX
  5
CD1
330
C2B
100
AcDbEntity
  8
Brisckstyl
 62
     1
100
AcDbVertex
100
AcDb2dVertex
 10
0.2538506477019444
 20
0.1797384106108039
 30
0.0
  0
VERTEX
  5
CD2
330
C2B
100
AcDbEntity
  8
Brisckstyl
 62
     1
100
AcDbVertex
100
AcDb2dVertex
 10
0.2538556544921056
 20
0.1800013863035529
 30
0.0
  0
VERTEX
  5
CD3
330
C2B
100
AcDbEntity
  8
Brisckstyl
 62
     1
100
AcDbVertex
100
AcDb2dVertex
 10
0.2538377730986729
 20
0.180610784191736
 30
0.0
  0
VERTEX
  5
CD4
330
C2B
100
AcDbEntity
  8
Brisckstyl
 62
     1
100
AcDbVertex
100
AcDb2dVertex
 10
0.2537834136626378
 20
0.1812411629148806
 30
0.0
  0
VERTEX
  5
CD5
330
C2B
100
AcDbEntity
  8
Brisckstyl
 62
     1
100
AcDbVertex
100
AcDb2dVertex
 10
0.2537004439971104
 20
0.1817945324369753
 30
0.0
  0
VERTEX
  5
CD6
330
C2B
100
AcDbEntity
  8
Brisckstyl
 62
     1
100
AcDbVertex
100
AcDb2dVertex
 10
0.2536496608397618
 20
0.1820434414335573
 30
0.0
  0
VERTEX
  5
CD7
330
C2B
100
AcDbEntity
  8
Brisckstyl
 62
     1
100
AcDbVertex
100
AcDb2dVertex
 10
0.2535933940550938
 20
0.1822747074552858
 30
0.0
  0
VERTEX
  5
CD8
330
C2B
100
AcDbEntity
  8
Brisckstyl
 62
     1
100
AcDbVertex
100
AcDb2dVertex
 10
0.2535323588988438
 20
0.1824885689207404
 30
0.0
  0
VERTEX
  5
CD9
330
C2B
100
AcDbEntity
  8
Brisckstyl
 62
     1
100
AcDbVertex
100
AcDb2dVertex
 10
0.2534672706267487
 20
0.182685979504236
 30
0.0
  0
VERTEX
  5
CDA
330
C2B
100
AcDbEntity
  8
Brisckstyl
 62
     1
100
AcDbVertex
100
AcDb2dVertex
 10
0.2533986060759679
 20
0.1828671776243532
 30
0.0
  0
VERTEX
  5
CDB
330
C2B
100
AcDbEntity
  8
Brisckstyl
 62
     1
100
AcDbVertex
100
AcDb2dVertex
 10
0.2533268420836578
 20
0.1830326401182497
 30
0.0
  0
VERTEX
  5
CDC
330
C2B
100
AcDbEntity
  8
Brisckstyl
 62
     1
100
AcDbVertex
100
AcDb2dVertex
 10
0.2532526939055573
 20
0.1831830822416628
 30
0.0
  0
VERTEX
  5
CDD
330
C2B
100
AcDbEntity
  8
Brisckstyl
 62
     1
100
AcDbVertex
100
AcDb2dVertex
 10
0.2531766383788243
 20
0.1833189808317507
 30
0.0
  0
VERTEX
  5
CDE
330
C2B
100
AcDbEntity
  8
Brisckstyl
 62
     1
100
AcDbVertex
100
AcDb2dVertex
 10
0.2530996291777741
 20
0.1834405743070929
 30
0.0
  0
VERTEX
  5
CDF
330
C2B
100
AcDbEntity
  8
Brisckstyl
 62
     1
100
AcDbVertex
100
AcDb2dVertex
 10
0.2530219047209874
 20
0.1835488163420046
 30
0.0
  0
VERTEX
  5
CE0
330
C2B
100
AcDbEntity
  8
Brisckstyl
 62
     1
100
AcDbVertex
100
AcDb2dVertex
 10
0.2529441802642003
 20
0.1836441837736452
 30
0.0
  0
VERTEX
  5
CE1
330
C2B
100
AcDbEntity
  8
Brisckstyl
 62
     1
100
AcDbVertex
100
AcDb2dVertex
 10
0.2528669326445709
 20
0.1837266766020144
 30
0.0
  0
VERTEX
  5
CE2
330
C2B
100
AcDbEntity
  8
Brisckstyl
 62
     1
100
AcDbVertex
100
AcDb2dVertex
 10
0.2527069537779938
 20
0.1838775955625856
 30
0.0
  0
VERTEX
  5
CE3
330
C2B
100
AcDbEntity
  8
Brisckstyl
 62
     1
100
AcDbVertex
100
AcDb2dVertex
 10
0.2525343387267243
 20
0.1840244614073122
 30
0.0
  0
VERTEX
  5
CE4
330
C2B
100
AcDbEntity
  8
Brisckstyl
 62
     1
100
AcDbVertex
100
AcDb2dVertex
 10
0.2521583526274811
 20
0.1843077026792849
 30
0.0
  0
VERTEX
  5
CE5
330
C2B
100
AcDbEntity
  8
Brisckstyl
 62
     1
100
AcDbVertex
100
AcDb2dVertex
 10
0.2513346164366856
 20
0.1848505817838996
 30
0.0
  0
VERTEX
  5
CE6
330
C2B
100
AcDbEntity
  8
Brisckstyl
 62
     1
100
AcDbVertex
100
AcDb2dVertex
 10
0.2528159110686432
 20
0.1865362011381472
 30
0.0
  0
VERTEX
  5
CE7
330
C2B
100
AcDbEntity
  8
Brisckstyl
 62
     1
100
AcDbVertex
100
AcDb2dVertex
 10
0.2528697936675206
 20
0.186592229504236
 30
0.0
  0
VERTEX
  5
CE8
330
C2B
100
AcDbEntity
  8
Brisckstyl
 62
     1
100
AcDbVertex
100
AcDb2dVertex
 10
0.2529160468718663
 20
0.1866453968473757
 30
0.0
  0
VERTEX
  5
CE9
330
C2B
100
AcDbEntity
  8
Brisckstyl
 62
     1
100
AcDbVertex
100
AcDb2dVertex
 10
0.2529556243559967
 20
0.1866959415861452
 30
0.0
  0
VERTEX
  5
CEA
330
C2B
100
AcDbEntity
  8
Brisckstyl
 62
     1
100
AcDbVertex
100
AcDb2dVertex
 10
0.2529887645384923
 20
0.1867441021391237
 30
0.0
  0
VERTEX
  5
CEB
330
C2B
100
AcDbEntity
  8
Brisckstyl
 62
     1
100
AcDbVertex
100
AcDb2dVertex
 10
0.2530161826750885
 20
0.1867901169248903
 30
0.0
  0
VERTEX
  5
CEC
330
C2B
100
AcDbEntity
  8
Brisckstyl
 62
     1
100
AcDbVertex
100
AcDb2dVertex
 10
0.2530278651854649
 20
0.1868122898527468
 30
0.0
  0
VERTEX
  5
CED
330
C2B
100
AcDbEntity
  8
Brisckstyl
 62
     1
100
AcDbVertex
100
AcDb2dVertex
 10
0.2530383556029454
 20
0.1868339859434455
 30
0.0
  0
VERTEX
  5
CEE
330
C2B
100
AcDbEntity
  8
Brisckstyl
 62
     1
100
AcDbVertex
100
AcDb2dVertex
 10
0.2530474155089513
 20
0.1868552051969855
 30
0.0
  0
VERTEX
  5
CEF
330
C2B
100
AcDbEntity
  8
Brisckstyl
 62
     1
100
AcDbVertex
100
AcDb2dVertex
 10
0.2530555217406407
 20
0.1868759476133673
 30
0.0
  0
VERTEX
  5
CF0
330
C2B
100
AcDbEntity
  8
Brisckstyl
 62
     1
100
AcDbVertex
100
AcDb2dVertex
 10
0.2530624358794342
 20
0.1868962131925905
 30
0.0
  0
VERTEX
  5
CF1
330
C2B
100
AcDbEntity
  8
Brisckstyl
 62
     1
100
AcDbVertex
100
AcDb2dVertex
 10
0.2530681579253331
 20
0.1869162403532355
 30
0.0
  0
VERTEX
  5
CF2
330
C2B
100
AcDbEntity
  8
Brisckstyl
 62
     1
100
AcDbVertex
100
AcDb2dVertex
 10
0.2530731647154938
 20
0.1869357906767218
 30
0.0
  0
VERTEX
  5
CF3
330
C2B
100
AcDbEntity
  8
Brisckstyl
 62
     1
100
AcDbVertex
100
AcDb2dVertex
 10
0.2530772178313385
 20
0.1869548641630495
 30
0.0
  0
VERTEX
  5
CF4
330
C2B
100
AcDbEntity
  8
Brisckstyl
 62
     1
100
AcDbVertex
100
AcDb2dVertex
 10
0.2530803172728673
 20
0.1869739376493776
 30
0.0
  0
VERTEX
  5
CF5
330
C2B
100
AcDbEntity
  8
Brisckstyl
 62
     1
100
AcDbVertex
100
AcDb2dVertex
 10
0.2530827014586578
 20
0.186992534298548
 30
0.0
  0
VERTEX
  5
CF6
330
C2B
100
AcDbEntity
  8
Brisckstyl
 62
     1
100
AcDbVertex
100
AcDb2dVertex
 10
0.2530843703887116
 20
0.1870106541105593
 30
0.0
  0
VERTEX
  5
CF7
330
C2B
100
AcDbEntity
  8
Brisckstyl
 62
     1
100
AcDbVertex
100
AcDb2dVertex
 10
0.253085324063028
 20
0.1870287739225714
 30
0.0
  0
VERTEX
  5
CF8
330
C2B
100
AcDbEntity
  8
Brisckstyl
 62
     1
100
AcDbVertex
100
AcDb2dVertex
 10
0.253085324063028
 20
0.1870642982908571
 30
0.0
  0
VERTEX
  5
CF9
330
C2B
100
AcDbEntity
  8
Brisckstyl
 62
     1
100
AcDbVertex
100
AcDb2dVertex
 10
0.2530836551329743
 20
0.1870988689848269
 30
0.0
  0
VERTEX
  5
CFA
330
C2B
100
AcDbEntity
  8
Brisckstyl
 62
     1
100
AcDbVertex
100
AcDb2dVertex
 10
0.2530803172728673
 20
0.1871329628416388
 30
0.0
  0
VERTEX
  5
CFB
330
C2B
100
AcDbEntity
  8
Brisckstyl
 62
     1
100
AcDbVertex
100
AcDb2dVertex
 10
0.2530714957854405
 20
0.1872001968809455
 30
0.0
  0
VERTEX
  5
CFC
330
C2B
100
AcDbEntity
  8
Brisckstyl
 62
     1
100
AcDbVertex
100
AcDb2dVertex
 10
0.2525429217955724
 20
0.1878687225767458
 30
0.0
  0
VERTEX
  5
CFD
330
C2B
100
AcDbEntity
  8
Brisckstyl
 62
     1
100
AcDbVertex
100
AcDb2dVertex
 10
0.2520625083586823
 20
0.1885253273435919
 30
0.0
  0
VERTEX
  5
CFE
330
C2B
100
AcDbEntity
  8
Brisckstyl
 62
     1
100
AcDbVertex
100
AcDb2dVertex
 10
0.251855322613443
 20
0.1888452850767458
 30
0.0
  0
VERTEX
  5
CFF
330
C2B
100
AcDbEntity
  8
Brisckstyl
 62
     1
100
AcDbVertex
100
AcDb2dVertex
 10
0.2516777007720128
 20
0.1891578518339479
 30
0.0
  0
VERTEX
  5
D00
330
C2B
100
AcDbEntity
  8
Brisckstyl
 62
     1
100
AcDbVertex
100
AcDb2dVertex
 10
0.2516021220824376
 20
0.189310678143152
 30
0.0
  0
VERTEX
  5
D01
330
C2B
100
AcDbEntity
  8
Brisckstyl
 62
     1
100
AcDbVertex
100
AcDb2dVertex
 10
0.2515363185546056
 20
0.1894613586851442
 30
0.0
  0
VERTEX
  5
D02
330
C2B
100
AcDbEntity
  8
Brisckstyl
 62
     1
100
AcDbVertex
100
AcDb2dVertex
 10
0.2514810054442536
 20
0.1896091782041872
 30
0.0
  0
VERTEX
  5
D03
330
C2B
100
AcDbEntity
  8
Brisckstyl
 62
     1
100
AcDbVertex
100
AcDb2dVertex
 10
0.2514368980071198
 20
0.1897543751188605
 30
0.0
  0
VERTEX
  5
D04
330
C2B
100
AcDbEntity
  8
Brisckstyl
 62
     1
100
AcDbVertex
100
AcDb2dVertex
 10
0.2514020888945709
 20
0.1898983799406378
 30
0.0
  0
VERTEX
  5
D05
330
C2B
100
AcDbEntity
  8
Brisckstyl
 62
     1
100
AcDbVertex
100
AcDb2dVertex
 10
0.2513739555022374
 20
0.1900428615995729
 30
0.0
  0
VERTEX
  5
D06
330
C2B
100
AcDbEntity
  8
Brisckstyl
 62
     1
100
AcDbVertex
100
AcDb2dVertex
 10
0.2513522594115387
 20
0.1901878200956667
 30
0.0
  0
VERTEX
  5
D07
330
C2B
100
AcDbEntity
  8
Brisckstyl
 62
     1
100
AcDbVertex
100
AcDb2dVertex
 10
0.2513362853667393
 20
0.1903334938474977
 30
0.0
  0
VERTEX
  5
D08
330
C2B
100
AcDbEntity
  8
Brisckstyl
 62
     1
100
AcDbVertex
100
AcDb2dVertex
 10
0.2513200729033604
 20
0.1906257950254763
 30
0.0
  0
VERTEX
  5
D09
330
C2B
100
AcDbEntity
  8
Brisckstyl
 62
     1
100
AcDbVertex
100
AcDb2dVertex
 10
0.2513217418334137
 20
0.1909197651335089
 30
0.0
  0
VERTEX
  5
D0A
330
C2B
100
AcDbEntity
  8
Brisckstyl
 62
     1
100
AcDbVertex
100
AcDb2dVertex
 10
0.2513379542967931
 20
0.1912146889158571
 30
0.0
  0
VERTEX
  5
D0B
330
C2B
100
AcDbEntity
  8
Brisckstyl
 62
     1
100
AcDbVertex
100
AcDb2dVertex
 10
0.2513648955962311
 20
0.1915105663725222
 30
0.0
  0
VERTEX
  5
D0C
330
C2B
100
AcDbEntity
  8
Brisckstyl
 62
     1
100
AcDbVertex
100
AcDb2dVertex
 10
0.2514368980071198
 20
0.1921039902159064
 30
0.0
  0
VERTEX
  5
D0D
330
C2B
100
AcDbEntity
  8
Brisckstyl
 62
     1
100
AcDbVertex
100
AcDb2dVertex
 10
0.2527617900511876
 20
0.1937769733854621
 30
0.0
  0
VERTEX
  5
D0E
330
C2B
100
AcDbEntity
  8
Brisckstyl
 62
     1
100
AcDbVertex
100
AcDb2dVertex
 10
0.2532505481383453
 20
0.1944459759184206
 30
0.0
  0
VERTEX
  5
D0F
330
C2B
100
AcDbEntity
  8
Brisckstyl
 62
     1
100
AcDbVertex
100
AcDb2dVertex
 10
0.2534212558409825
 20
0.1947089516111696
 30
0.0
  0
VERTEX
  5
D10
330
C2B
100
AcDbEntity
  8
Brisckstyl
 62
     1
100
AcDbVertex
100
AcDb2dVertex
 10
0.2534844367644444
 20
0.1948191009947145
 30
0.0
  0
VERTEX
  5
D11
330
C2B
100
AcDbEntity
  8
Brisckstyl
 62
     1
100
AcDbVertex
100
AcDb2dVertex
 10
0.2535099475524078
 20
0.1948684536405886
 30
0.0
  0
VERTEX
  5
D12
330
C2B
100
AcDbEntity
  8
Brisckstyl
 62
     1
100
AcDbVertex
100
AcDb2dVertex
 10
0.2535311668059479
 20
0.1949135147520388
 30
0.0
  0
VERTEX
  5
D13
330
C2B
100
AcDbEntity
  8
Brisckstyl
 62
     1
100
AcDbVertex
100
AcDb2dVertex
 10
0.2535721748015538
 20
0.1950155579038942
 30
0.0
  0
VERTEX
  5
D14
330
C2B
100
AcDbEntity
  8
Brisckstyl
 62
     1
100
AcDbVertex
100
AcDb2dVertex
 10
0.2536177127501618
 20
0.1951476417967169
 30
0.0
  0
VERTEX
  5
D15
330
C2B
100
AcDbEntity
  8
Brisckstyl
 62
     1
100
AcDbVertex
100
AcDb2dVertex
 10
0.2537164180419111
 20
0.1954931103178347
 30
0.0
  0
VERTEX
  5
D16
330
C2B
100
AcDbEntity
  8
Brisckstyl
 62
     1
100
AcDbVertex
100
AcDb2dVertex
 10
0.2538148849150787
 20
0.195931800503382
 30
0.0
  0
VERTEX
  5
D17
330
C2B
100
AcDbEntity
  8
Brisckstyl
 62
     1
100
AcDbVertex
100
AcDb2dVertex
 10
0.2539014308592931
 20
0.1964460693785036
 30
0.0
  0
VERTEX
  5
D18
330
C2B
100
AcDbEntity
  8
Brisckstyl
 62
     1
100
AcDbVertex
100
AcDb2dVertex
 10
0.2539641349455968
 20
0.1970175587126105
 30
0.0
  0
VERTEX
  5
D19
330
C2B
100
AcDbEntity
  8
Brisckstyl
 62
     1
100
AcDbVertex
100
AcDb2dVertex
 10
0.2539827315947662
 20
0.1973193966337526
 30
0.0
  0
VERTEX
  5
D1A
330
C2B
100
AcDbEntity
  8
Brisckstyl
 62
     1
100
AcDbVertex
100
AcDb2dVertex
 10
0.2539908378264557
 20
0.1976288639494269
 30
0.0
  0
VERTEX
  5
D1B
330
C2B
100
AcDbEntity
  8
Brisckstyl
 62
     1
100
AcDbVertex
100
AcDb2dVertex
 10
0.2539870231291905
 20
0.1979435764738405
 30
0.0
  0
VERTEX
  5
D1C
330
C2B
100
AcDbEntity
  8
Brisckstyl
 62
     1
100
AcDbVertex
100
AcDb2dVertex
 10
0.2539696185729157
 20
0.198261626858362
 30
0.0
  0
VERTEX
  5
D1D
330
C2B
100
AcDbEntity
  8
Brisckstyl
 62
     1
100
AcDbVertex
100
AcDb2dVertex
 10
0.2539374320647374
 20
0.1985803924986208
 30
0.0
  0
VERTEX
  5
D1E
330
C2B
100
AcDbEntity
  8
Brisckstyl
 62
     1
100
AcDbVertex
100
AcDb2dVertex
 10
0.2538887946746007
 20
0.1988979660459845
 30
0.0
  0
VERTEX
  5
D1F
330
C2B
100
AcDbEntity
  8
Brisckstyl
 62
     1
100
AcDbVertex
100
AcDb2dVertex
 10
0.2538198917052403
 20
0.1992176853605593
 30
0.0
  0
VERTEX
  5
D20
330
C2B
100
AcDbEntity
  8
Brisckstyl
 62
     1
100
AcDbVertex
100
AcDb2dVertex
 10
0.2537304847380768
 20
0.1995421730467169
 30
0.0
  0
VERTEX
  5
D21
330
C2B
100
AcDbEntity
  8
Brisckstyl
 62
     1
100
AcDbVertex
100
AcDb2dVertex
 10
0.2536239116332188
 20
0.1998680912443483
 30
0.0
  0
VERTEX
  5
D22
330
C2B
100
AcDbEntity
  8
Brisckstyl
 62
     1
100
AcDbVertex
100
AcDb2dVertex
 10
0.2535039870879303
 20
0.2001916252561892
 30
0.0
  0
VERTEX
  5
D23
330
C2B
100
AcDbEntity
  8
Brisckstyl
 62
     1
100
AcDbVertex
100
AcDb2dVertex
 10
0.2532367198607579
 20
0.2008186661192263
 30
0.0
  0
VERTEX
  5
D24
330
C2B
100
AcDbEntity
  8
Brisckstyl
 62
     1
100
AcDbVertex
100
AcDb2dVertex
 10
0.2529563396117345
 20
0.201394446987757
 30
0.0
  0
VERTEX
  5
D25
330
C2B
100
AcDbEntity
  8
Brisckstyl
 62
     1
100
AcDbVertex
100
AcDb2dVertex
 10
0.2524663894316803
 20
0.2022813641020144
 30
0.0
  0
VERTEX
  5
D26
330
C2B
100
AcDbEntity
  8
Brisckstyl
 62
     1
100
AcDbVertex
100
AcDb2dVertex
 10
0.2522541968962804
 20
0.202626832623133
 30
0.0
  0
VERTEX
  5
D27
330
C2B
100
AcDbEntity
  8
Brisckstyl
 62
     1
100
AcDbVertex
100
AcDb2dVertex
 10
0.2505685775420323
 20
0.2044657551237429
 30
0.0
  0
VERTEX
  5
D28
330
C2B
100
AcDbEntity
  8
Brisckstyl
 62
     1
100
AcDbVertex
100
AcDb2dVertex
 10
0.2505685775420323
 20
0.2063556992002814
 30
0.0
  0
SEQEND
  5
D29
330
C2B
100
AcDbEntity
  8
Brisckstyl
 62
     1
  0
LINE
  5
E2C
330
2
100
AcDbEntity
  8
Dimensione
 62
     2
100
AcDbLine
 10
0.2530714957854405
 20
0.1872001968809455
 30
0.0
 11
0.3469060111625343
 21
0.2070001654837775
 31
0.0
  0
LINE
  5
E2D
330
2
100
AcDbEntity
  8
Dimensione
 62
     2
100
AcDbLine
 10
0.2513346164366856
 20
0.1848505817838996
 30
0.0
 11
0.3451691318137795
 21
0.2046505503867316
 31
0.0
  0
LINE
  5
E2E
330
2
100
AcDbEntity
  8
Dimensione
 62
     2
100
AcDbLine
 10
0.2520706145903717
 20
0.1762732349821413
 30
0.0
 11
0.3459051299674655
 21
0.1960732035849733
 31
0.0
  0
POLYLINE
  5
EBC
330
2
100
AcDbEntity
  8
Brisckstyl
 62
     1
100
AcDb2dPolyline
 66
     1
 10
0.0
 20
0.0
 30
0.0
  0
VERTEX
  5
EBD
330
EBC
100
AcDbEntity
  8
Brisckstyl
 62
     1
100
AcDbVertex
100
AcDb2dVertex
 10
0.3446071792228366
 20
0.1934637122367067
 30
0.0
  0
VERTEX
  5
EBE
330
EBC
100
AcDbEntity
  8
Brisckstyl
 62
     1
100
AcDbVertex
100
AcDb2dVertex
 10
0.3446071792228366
 20
0.1955069594596071
 30
0.0
  0
VERTEX
  5
EBF
330
EBC
100
AcDbEntity
  8
Brisckstyl
 62
     1
100
AcDbVertex
100
AcDb2dVertex
 10
0.3454919505698825
 20
0.1958769850943727
 30
0.0
  0
VERTEX
  5
EC0
330
EBC
100
AcDbEntity
  8
Brisckstyl
 62
     1
100
AcDbVertex
100
AcDb2dVertex
 10
0.3459051299674655
 20
0.1960732035849733
 30
0.0
  0
VERTEX
  5
EC1
330
EBC
100
AcDbEntity
  8
Brisckstyl
 62
     1
100
AcDbVertex
100
AcDb2dVertex
 10
0.3460994411094338
 20
0.1961759619925665
 30
0.0
  0
VERTEX
  5
EC2
330
EBC
100
AcDbEntity
  8
Brisckstyl
 62
     1
100
AcDbVertex
100
AcDb2dVertex
 10
0.3462832618339206
 20
0.196282773516004
 30
0.0
  0
VERTEX
  5
EC3
330
EBC
100
AcDbEntity
  8
Brisckstyl
 62
     1
100
AcDbVertex
100
AcDb2dVertex
 10
0.346455638466611
 20
0.196394114992444
 30
0.0
  0
VERTEX
  5
EC4
330
EBC
100
AcDbEntity
  8
Brisckstyl
 62
     1
100
AcDbVertex
100
AcDb2dVertex
 10
0.3466149020774513
 20
0.1965104632590456
 30
0.0
  0
VERTEX
  5
EC5
330
EBC
100
AcDbEntity
  8
Brisckstyl
 62
     1
100
AcDbVertex
100
AcDb2dVertex
 10
0.3466890502555519
 20
0.1965705447409792
 30
0.0
  0
VERTEX
  5
EC6
330
EBC
100
AcDbEntity
  8
Brisckstyl
 62
     1
100
AcDbVertex
100
AcDb2dVertex
 10
0.3467593837363869
 20
0.1966322951529665
 30
0.0
  0
VERTEX
  5
EC7
330
EBC
100
AcDbEntity
  8
Brisckstyl
 62
     1
100
AcDbVertex
100
AcDb2dVertex
 10
0.3468256641013767
 20
0.1966954760764288
 30
0.0
  0
VERTEX
  5
EC8
330
EBC
100
AcDbEntity
  8
Brisckstyl
 62
     1
100
AcDbVertex
100
AcDb2dVertex
 10
0.3468878913505226
 20
0.196760325929944
 30
0.0
  0
VERTEX
  5
EC9
330
EBC
100
AcDbEntity
  8
Brisckstyl
 62
     1
100
AcDbVertex
100
AcDb2dVertex
 10
0.3469458270652443
 20
0.1968270831320925
 30
0.0
  0
VERTEX
  5
ECA
330
EBC
100
AcDbEntity
  8
Brisckstyl
 62
     1
100
AcDbVertex
100
AcDb2dVertex
 10
0.3469989944083835
 20
0.1968952708457159
 30
0.0
  0
VERTEX
  5
ECB
330
EBC
100
AcDbEntity
  8
Brisckstyl
 62
     1
100
AcDbVertex
100
AcDb2dVertex
 10
0.3470473933799425
 20
0.1969653659079714
 30
0.0
  0
VERTEX
  5
ECC
330
EBC
100
AcDbEntity
  8
Brisckstyl
 62
     1
100
AcDbVertex
100
AcDb2dVertex
 10
0.3470910239799167
 20
0.19703736831886
 30
0.0
  0
VERTEX
  5
ECD
330
EBC
100
AcDbEntity
  8
Brisckstyl
 62
     1
100
AcDbVertex
100
AcDb2dVertex
 10
0.3471294093711521
 20
0.1971115164969606
 30
0.0
  0
VERTEX
  5
ECE
330
EBC
100
AcDbEntity
  8
Brisckstyl
 62
     1
100
AcDbVertex
100
AcDb2dVertex
 10
0.3471625495536476
 20
0.197187572023694
 30
0.0
  0
VERTEX
  5
ECF
330
EBC
100
AcDbEntity
  8
Brisckstyl
 62
     1
100
AcDbVertex
100
AcDb2dVertex
 10
0.3471770930869724
 20
0.1972261958335089
 30
0.0
  0
VERTEX
  5
ED0
330
EBC
100
AcDbEntity
  8
Brisckstyl
 62
     1
100
AcDbVertex
100
AcDb2dVertex
 10
0.3471904445274021
 20
0.1972655348990602
 30
0.0
  0
VERTEX
  5
ED1
330
EBC
100
AcDbEntity
  8
Brisckstyl
 62
     1
100
AcDbVertex
100
AcDb2dVertex
 10
0.347202127037778
 20
0.1973053508017702
 30
0.0
  0
VERTEX
  5
ED2
330
EBC
100
AcDbEntity
  8
Brisckstyl
 62
     1
100
AcDbVertex
100
AcDb2dVertex
 10
0.3472123790366794
 20
0.1973458819602175
 30
0.0
  0
VERTEX
  5
ED3
330
EBC
100
AcDbEntity
  8
Brisckstyl
 62
     1
100
AcDbVertex
100
AcDb2dVertex
 10
0.3475571323020607
 20
0.1985334449027223
 30
0.0
  0
VERTEX
  5
ED4
330
EBC
100
AcDbEntity
  8
Brisckstyl
 62
     1
100
AcDbVertex
100
AcDb2dVertex
 10
0.3475936103446632
 20
0.1987022452567262
 30
0.0
  0
VERTEX
  5
ED5
330
EBC
100
AcDbEntity
  8
Brisckstyl
 62
     1
100
AcDbVertex
100
AcDb2dVertex
 10
0.3476255584342624
 20
0.1988843970511598
 30
0.0
  0
VERTEX
  5
ED6
330
EBC
100
AcDbEntity
  8
Brisckstyl
 62
     1
100
AcDbVertex
100
AcDb2dVertex
 10
0.3476520228965431
 20
0.1990825228903932
 30
0.0
  0
VERTEX
  5
ED7
330
EBC
100
AcDbEntity
  8
Brisckstyl
 62
     1
100
AcDbVertex
100
AcDb2dVertex
 10
0.3476720500571877
 20
0.1992997222159548
 30
0.0
  0
VERTEX
  5
ED8
330
EBC
100
AcDbEntity
  8
Brisckstyl
 62
     1
100
AcDbVertex
100
AcDb2dVertex
 10
0.3476851630790382
 20
0.1995383792136358
 30
0.0
  0
VERTEX
  5
ED9
330
EBC
100
AcDbEntity
  8
Brisckstyl
 62
     1
100
AcDbVertex
100
AcDb2dVertex
 10
0.3476901698691994
 20
0.1998013549063849
 30
0.0
  0
VERTEX
  5
EDA
330
EBC
100
AcDbEntity
  8
Brisckstyl
 62
     1
100
AcDbVertex
100
AcDb2dVertex
 10
0.3476722884757668
 20
0.200410752794568
 30
0.0
  0
VERTEX
  5
EDB
330
EBC
100
AcDbEntity
  8
Brisckstyl
 62
     1
100
AcDbVertex
100
AcDb2dVertex
 10
0.3476179290397316
 20
0.2010411315177126
 30
0.0
  0
VERTEX
  5
EDC
330
EBC
100
AcDbEntity
  8
Brisckstyl
 62
     1
100
AcDbVertex
100
AcDb2dVertex
 10
0.3475349593742043
 20
0.2015945010398073
 30
0.0
  0
VERTEX
  5
EDD
330
EBC
100
AcDbEntity
  8
Brisckstyl
 62
     1
100
AcDbVertex
100
AcDb2dVertex
 10
0.3474841762168556
 20
0.2018434100363893
 30
0.0
  0
VERTEX
  5
EDE
330
EBC
100
AcDbEntity
  8
Brisckstyl
 62
     1
100
AcDbVertex
100
AcDb2dVertex
 10
0.3474279094321877
 20
0.2020746760581178
 30
0.0
  0
VERTEX
  5
EDF
330
EBC
100
AcDbEntity
  8
Brisckstyl
 62
     1
100
AcDbVertex
100
AcDb2dVertex
 10
0.3473668742759377
 20
0.2022885375235724
 30
0.0
  0
VERTEX
  5
EE0
330
EBC
100
AcDbEntity
  8
Brisckstyl
 62
     1
100
AcDbVertex
100
AcDb2dVertex
 10
0.3473017860038425
 20
0.202485948107068
 30
0.0
  0
VERTEX
  5
EE1
330
EBC
100
AcDbEntity
  8
Brisckstyl
 62
     1
100
AcDbVertex
100
AcDb2dVertex
 10
0.3472331214530617
 20
0.2026671462271852
 30
0.0
  0
VERTEX
  5
EE2
330
EBC
100
AcDbEntity
  8
Brisckstyl
 62
     1
100
AcDbVertex
100
AcDb2dVertex
 10
0.3471613574607517
 20
0.2028326087210817
 30
0.0
  0
VERTEX
  5
EE3
330
EBC
100
AcDbEntity
  8
Brisckstyl
 62
     1
100
AcDbVertex
100
AcDb2dVertex
 10
0.3470872092826511
 20
0.2029830508444948
 30
0.0
  0
VERTEX
  5
EE4
330
EBC
100
AcDbEntity
  8
Brisckstyl
 62
     1
100
AcDbVertex
100
AcDb2dVertex
 10
0.3470111537559181
 20
0.2031189494345827
 30
0.0
  0
VERTEX
  5
EE5
330
EBC
100
AcDbEntity
  8
Brisckstyl
 62
     1
100
AcDbVertex
100
AcDb2dVertex
 10
0.3469341445548679
 20
0.2032405429099249
 30
0.0
  0
VERTEX
  5
EE6
330
EBC
100
AcDbEntity
  8
Brisckstyl
 62
     1
100
AcDbVertex
100
AcDb2dVertex
 10
0.3468564200980812
 20
0.2033487849448366
 30
0.0
  0
VERTEX
  5
EE7
330
EBC
100
AcDbEntity
  8
Brisckstyl
 62
     1
100
AcDbVertex
100
AcDb2dVertex
 10
0.3467786956412941
 20
0.2034441523764772
 30
0.0
  0
VERTEX
  5
EE8
330
EBC
100
AcDbEntity
  8
Brisckstyl
 62
     1
100
AcDbVertex
100
AcDb2dVertex
 10
0.3467014480216648
 20
0.2035266452048464
 30
0.0
  0
VERTEX
  5
EE9
330
EBC
100
AcDbEntity
  8
Brisckstyl
 62
     1
100
AcDbVertex
100
AcDb2dVertex
 10
0.3465414691550876
 20
0.2036775641654176
 30
0.0
  0
VERTEX
  5
EEA
330
EBC
100
AcDbEntity
  8
Brisckstyl
 62
     1
100
AcDbVertex
100
AcDb2dVertex
 10
0.3463688541038181
 20
0.2038244300101442
 30
0.0
  0
VERTEX
  5
EEB
330
EBC
100
AcDbEntity
  8
Brisckstyl
 62
     1
100
AcDbVertex
100
AcDb2dVertex
 10
0.3459928680045749
 20
0.2041076712821169
 30
0.0
  0
VERTEX
  5
EEC
330
EBC
100
AcDbEntity
  8
Brisckstyl
 62
     1
100
AcDbVertex
100
AcDb2dVertex
 10
0.3451691318137795
 20
0.2046505503867316
 30
0.0
  0
VERTEX
  5
EED
330
EBC
100
AcDbEntity
  8
Brisckstyl
 62
     1
100
AcDbVertex
100
AcDb2dVertex
 10
0.346650426445737
 20
0.2063361697409792
 30
0.0
  0
VERTEX
  5
EEE
330
EBC
100
AcDbEntity
  8
Brisckstyl
 62
     1
100
AcDbVertex
100
AcDb2dVertex
 10
0.3467043090446144
 20
0.206392198107068
 30
0.0
  0
VERTEX
  5
EEF
330
EBC
100
AcDbEntity
  8
Brisckstyl
 62
     1
100
AcDbVertex
100
AcDb2dVertex
 10
0.3467505622489601
 20
0.2064453654502077
 30
0.0
  0
VERTEX
  5
EF0
330
EBC
100
AcDbEntity
  8
Brisckstyl
 62
     1
100
AcDbVertex
100
AcDb2dVertex
 10
0.3467901397330905
 20
0.2064959101889772
 30
0.0
  0
VERTEX
  5
EF1
330
EBC
100
AcDbEntity
  8
Brisckstyl
 62
     1
100
AcDbVertex
100
AcDb2dVertex
 10
0.3468232799155861
 20
0.2065440707419557
 30
0.0
  0
VERTEX
  5
EF2
330
EBC
100
AcDbEntity
  8
Brisckstyl
 62
     1
100
AcDbVertex
100
AcDb2dVertex
 10
0.3468506980521823
 20
0.2065900855277223
 30
0.0
  0
VERTEX
  5
EF3
330
EBC
100
AcDbEntity
  8
Brisckstyl
 62
     1
100
AcDbVertex
100
AcDb2dVertex
 10
0.3468623805625588
 20
0.2066122584555788
 30
0.0
  0
VERTEX
  5
EF4
330
EBC
100
AcDbEntity
  8
Brisckstyl
 62
     1
100
AcDbVertex
100
AcDb2dVertex
 10
0.3468728709800392
 20
0.2066339545462775
 30
0.0
  0
VERTEX
  5
EF5
330
EBC
100
AcDbEntity
  8
Brisckstyl
 62
     1
100
AcDbVertex
100
AcDb2dVertex
 10
0.3468819308860451
 20
0.2066551737998175
 30
0.0
  0
VERTEX
  5
EF6
330
EBC
100
AcDbEntity
  8
Brisckstyl
 62
     1
100
AcDbVertex
100
AcDb2dVertex
 10
0.3468900371177345
 20
0.2066759162161993
 30
0.0
  0
VERTEX
  5
EF7
330
EBC
100
AcDbEntity
  8
Brisckstyl
 62
     1
100
AcDbVertex
100
AcDb2dVertex
 10
0.346896951256528
 20
0.2066961817954225
 30
0.0
  0
VERTEX
  5
EF8
330
EBC
100
AcDbEntity
  8
Brisckstyl
 62
     1
100
AcDbVertex
100
AcDb2dVertex
 10
0.3469026733024269
 20
0.2067162089560675
 30
0.0
  0
VERTEX
  5
EF9
330
EBC
100
AcDbEntity
  8
Brisckstyl
 62
     1
100
AcDbVertex
100
AcDb2dVertex
 10
0.3469076800925876
 20
0.2067357592795538
 30
0.0
  0
VERTEX
  5
EFA
330
EBC
100
AcDbEntity
  8
Brisckstyl
 62
     1
100
AcDbVertex
100
AcDb2dVertex
 10
0.3469117332084323
 20
0.2067548327658815
 30
0.0
  0
VERTEX
  5
EFB
330
EBC
100
AcDbEntity
  8
Brisckstyl
 62
     1
100
AcDbVertex
100
AcDb2dVertex
 10
0.3469148326499611
 20
0.2067739062522096
 30
0.0
  0
VERTEX
  5
EFC
330
EBC
100
AcDbEntity
  8
Brisckstyl
 62
     1
100
AcDbVertex
100
AcDb2dVertex
 10
0.3469172168357517
 20
0.20679250290138
 30
0.0
  0
VERTEX
  5
EFD
330
EBC
100
AcDbEntity
  8
Brisckstyl
 62
     1
100
AcDbVertex
100
AcDb2dVertex
 10
0.3469188857658054
 20
0.2068106227133913
 30
0.0
  0
VERTEX
  5
EFE
330
EBC
100
AcDbEntity
  8
Brisckstyl
 62
     1
100
AcDbVertex
100
AcDb2dVertex
 10
0.3469198394401218
 20
0.2068287425254034
 30
0.0
  0
VERTEX
  5
EFF
330
EBC
100
AcDbEntity
  8
Brisckstyl
 62
     1
100
AcDbVertex
100
AcDb2dVertex
 10
0.3469198394401218
 20
0.2068642668936891
 30
0.0
  0
VERTEX
  5
F00
330
EBC
100
AcDbEntity
  8
Brisckstyl
 62
     1
100
AcDbVertex
100
AcDb2dVertex
 10
0.3469181705100681
 20
0.2068988375876589
 30
0.0
  0
VERTEX
  5
F01
330
EBC
100
AcDbEntity
  8
Brisckstyl
 62
     1
100
AcDbVertex
100
AcDb2dVertex
 10
0.3469148326499611
 20
0.2069329314444708
 30
0.0
  0
VERTEX
  5
F02
330
EBC
100
AcDbEntity
  8
Brisckstyl
 62
     1
100
AcDbVertex
100
AcDb2dVertex
 10
0.3469060111625343
 20
0.2070001654837775
 30
0.0
  0
VERTEX
  5
F03
330
EBC
100
AcDbEntity
  8
Brisckstyl
 62
     1
100
AcDbVertex
100
AcDb2dVertex
 10
0.3463774371726662
 20
0.2076686911795778
 30
0.0
  0
VERTEX
  5
F04
330
EBC
100
AcDbEntity
  8
Brisckstyl
 62
     1
100
AcDbVertex
100
AcDb2dVertex
 10
0.3458970237357761
 20
0.2083252959464239
 30
0.0
  0
VERTEX
  5
F05
330
EBC
100
AcDbEntity
  8
Brisckstyl
 62
     1
100
AcDbVertex
100
AcDb2dVertex
 10
0.3456898379905368
 20
0.2086452536795778
 30
0.0
  0
VERTEX
  5
F06
330
EBC
100
AcDbEntity
  8
Brisckstyl
 62
     1
100
AcDbVertex
100
AcDb2dVertex
 10
0.3455122161491066
 20
0.2089578204367799
 30
0.0
  0
VERTEX
  5
F07
330
EBC
100
AcDbEntity
  8
Brisckstyl
 62
     1
100
AcDbVertex
100
AcDb2dVertex
 10
0.3454366374595314
 20
0.209110646745984
 30
0.0
  0
VERTEX
  5
F08
330
EBC
100
AcDbEntity
  8
Brisckstyl
 62
     1
100
AcDbVertex
100
AcDb2dVertex
 10
0.3453708339316994
 20
0.2092613272879762
 30
0.0
  0
VERTEX
  5
F09
330
EBC
100
AcDbEntity
  8
Brisckstyl
 62
     1
100
AcDbVertex
100
AcDb2dVertex
 10
0.3453155208213474
 20
0.2094091468070192
 30
0.0
  0
VERTEX
  5
F0A
330
EBC
100
AcDbEntity
  8
Brisckstyl
 62
     1
100
AcDbVertex
100
AcDb2dVertex
 10
0.3452714133842136
 20
0.2095543437216925
 30
0.0
  0
VERTEX
  5
F0B
330
EBC
100
AcDbEntity
  8
Brisckstyl
 62
     1
100
AcDbVertex
100
AcDb2dVertex
 10
0.3452366042716648
 20
0.2096983485434698
 30
0.0
  0
VERTEX
  5
F0C
330
EBC
100
AcDbEntity
  8
Brisckstyl
 62
     1
100
AcDbVertex
100
AcDb2dVertex
 10
0.3452084708793312
 20
0.2098428302024049
 30
0.0
  0
VERTEX
  5
F0D
330
EBC
100
AcDbEntity
  8
Brisckstyl
 62
     1
100
AcDbVertex
100
AcDb2dVertex
 10
0.3451867747886325
 20
0.2099877886984987
 30
0.0
  0
VERTEX
  5
F0E
330
EBC
100
AcDbEntity
  8
Brisckstyl
 62
     1
100
AcDbVertex
100
AcDb2dVertex
 10
0.3451708007438332
 20
0.2101334624503297
 30
0.0
  0
VERTEX
  5
F0F
330
EBC
100
AcDbEntity
  8
Brisckstyl
 62
     1
100
AcDbVertex
100
AcDb2dVertex
 10
0.3451545882804543
 20
0.2104257636283083
 30
0.0
  0
VERTEX
  5
F10
330
EBC
100
AcDbEntity
  8
Brisckstyl
 62
     1
100
AcDbVertex
100
AcDb2dVertex
 10
0.3451562572105075
 20
0.2107197337363409
 30
0.0
  0
VERTEX
  5
F11
330
EBC
100
AcDbEntity
  8
Brisckstyl
 62
     1
100
AcDbVertex
100
AcDb2dVertex
 10
0.3451724696738869
 20
0.2110146575186891
 30
0.0
  0
VERTEX
  5
F12
330
EBC
100
AcDbEntity
  8
Brisckstyl
 62
     1
100
AcDbVertex
100
AcDb2dVertex
 10
0.3451994109733249
 20
0.2113105349753542
 30
0.0
  0
VERTEX
  5
F13
330
EBC
100
AcDbEntity
  8
Brisckstyl
 62
     1
100
AcDbVertex
100
AcDb2dVertex
 10
0.3452714133842136
 20
0.2119039588187384
 30
0.0
  0
VERTEX
  5
F14
330
EBC
100
AcDbEntity
  8
Brisckstyl
 62
     1
100
AcDbVertex
100
AcDb2dVertex
 10
0.3465963054282814
 20
0.2135769419882941
 30
0.0
  0
VERTEX
  5
F15
330
EBC
100
AcDbEntity
  8
Brisckstyl
 62
     1
100
AcDbVertex
100
AcDb2dVertex
 10
0.3470850635154392
 20
0.2142459445212526
 30
0.0
  0
VERTEX
  5
F16
330
EBC
100
AcDbEntity
  8
Brisckstyl
 62
     1
100
AcDbVertex
100
AcDb2dVertex
 10
0.3472557712180763
 20
0.2145089202140016
 30
0.0
  0
VERTEX
  5
F17
330
EBC
100
AcDbEntity
  8
Brisckstyl
 62
     1
100
AcDbVertex
100
AcDb2dVertex
 10
0.3473189521415382
 20
0.2146190695975465
 30
0.0
  0
VERTEX
  5
F18
330
EBC
100
AcDbEntity
  8
Brisckstyl
 62
     1
100
AcDbVertex
100
AcDb2dVertex
 10
0.3473444629295017
 20
0.2146684222434206
 30
0.0
  0
VERTEX
  5
F19
330
EBC
100
AcDbEntity
  8
Brisckstyl
 62
     1
100
AcDbVertex
100
AcDb2dVertex
 10
0.3473656821830417
 20
0.2147134833548708
 30
0.0
  0
VERTEX
  5
F1A
330
EBC
100
AcDbEntity
  8
Brisckstyl
 62
     1
100
AcDbVertex
100
AcDb2dVertex
 10
0.3474066901786476
 20
0.2148155265067262
 30
0.0
  0
VERTEX
  5
F1B
330
EBC
100
AcDbEntity
  8
Brisckstyl
 62
     1
100
AcDbVertex
100
AcDb2dVertex
 10
0.3474522281272556
 20
0.2149476103995489
 30
0.0
  0
VERTEX
  5
F1C
330
EBC
100
AcDbEntity
  8
Brisckstyl
 62
     1
100
AcDbVertex
100
AcDb2dVertex
 10
0.347550933419005
 20
0.2152930789206667
 30
0.0
  0
VERTEX
  5
F1D
330
EBC
100
AcDbEntity
  8
Brisckstyl
 62
     1
100
AcDbVertex
100
AcDb2dVertex
 10
0.3476494002921726
 20
0.215731769106214
 30
0.0
  0
VERTEX
  5
F1E
330
EBC
100
AcDbEntity
  8
Brisckstyl
 62
     1
100
AcDbVertex
100
AcDb2dVertex
 10
0.3477359462363869
 20
0.2162460379813356
 30
0.0
  0
VERTEX
  5
F1F
330
EBC
100
AcDbEntity
  8
Brisckstyl
 62
     1
100
AcDbVertex
100
AcDb2dVertex
 10
0.3477986503226906
 20
0.2168175273154425
 30
0.0
  0
VERTEX
  5
F20
330
EBC
100
AcDbEntity
  8
Brisckstyl
 62
     1
100
AcDbVertex
100
AcDb2dVertex
 10
0.3478172469718601
 20
0.2171193652365846
 30
0.0
  0
VERTEX
  5
F21
330
EBC
100
AcDbEntity
  8
Brisckstyl
 62
     1
100
AcDbVertex
100
AcDb2dVertex
 10
0.3478253532035495
 20
0.2174288325522589
 30
0.0
  0
VERTEX
  5
F22
330
EBC
100
AcDbEntity
  8
Brisckstyl
 62
     1
100
AcDbVertex
100
AcDb2dVertex
 10
0.3478215385062843
 20
0.2177435450766725
 30
0.0
  0
VERTEX
  5
F23
330
EBC
100
AcDbEntity
  8
Brisckstyl
 62
     1
100
AcDbVertex
100
AcDb2dVertex
 10
0.3478041339500095
 20
0.218061595461194
 30
0.0
  0
VERTEX
  5
F24
330
EBC
100
AcDbEntity
  8
Brisckstyl
 62
     1
100
AcDbVertex
100
AcDb2dVertex
 10
0.3477719474418312
 20
0.2183803611014528
 30
0.0
  0
VERTEX
  5
F25
330
EBC
100
AcDbEntity
  8
Brisckstyl
 62
     1
100
AcDbVertex
100
AcDb2dVertex
 10
0.3477233100516945
 20
0.2186979346488165
 30
0.0
  0
VERTEX
  5
F26
330
EBC
100
AcDbEntity
  8
Brisckstyl
 62
     1
100
AcDbVertex
100
AcDb2dVertex
 10
0.3476544070823341
 20
0.2190176539633913
 30
0.0
  0
VERTEX
  5
F27
330
EBC
100
AcDbEntity
  8
Brisckstyl
 62
     1
100
AcDbVertex
100
AcDb2dVertex
 10
0.3475650001151706
 20
0.2193421416495489
 30
0.0
  0
VERTEX
  5
F28
330
EBC
100
AcDbEntity
  8
Brisckstyl
 62
     1
100
AcDbVertex
100
AcDb2dVertex
 10
0.3474584270103127
 20
0.2196680598471803
 30
0.0
  0
VERTEX
  5
F29
330
EBC
100
AcDbEntity
  8
Brisckstyl
 62
     1
100
AcDbVertex
100
AcDb2dVertex
 10
0.3473385024650241
 20
0.2199915938590212
 30
0.0
  0
VERTEX
  5
F2A
330
EBC
100
AcDbEntity
  8
Brisckstyl
 62
     1
100
AcDbVertex
100
AcDb2dVertex
 10
0.3470712352378517
 20
0.2206186347220583
 30
0.0
  0
VERTEX
  5
F2B
330
EBC
100
AcDbEntity
  8
Brisckstyl
 62
     1
100
AcDbVertex
100
AcDb2dVertex
 10
0.3467908549888283
 20
0.221194415590589
 30
0.0
  0
VERTEX
  5
F2C
330
EBC
100
AcDbEntity
  8
Brisckstyl
 62
     1
100
AcDbVertex
100
AcDb2dVertex
 10
0.3463009048087741
 20
0.2220813327048464
 30
0.0
  0
VERTEX
  5
F2D
330
EBC
100
AcDbEntity
  8
Brisckstyl
 62
     1
100
AcDbVertex
100
AcDb2dVertex
 10
0.3460887122733742
 20
0.222426801225965
 30
0.0
  0
VERTEX
  5
F2E
330
EBC
100
AcDbEntity
  8
Brisckstyl
 62
     1
100
AcDbVertex
100
AcDb2dVertex
 10
0.3444030929191261
 20
0.2242657237265749
 30
0.0
  0
VERTEX
  5
F2F
330
EBC
100
AcDbEntity
  8
Brisckstyl
 62
     1
100
AcDbVertex
100
AcDb2dVertex
 10
0.3444030929191261
 20
0.2261556678031134
 30
0.0
  0
VERTEX
  5
F30
330
EBC
100
AcDbEntity
  8
Brisckstyl
 62
     1
100
AcDbVertex
100
AcDb2dVertex
 10
0.3430748630149513
 20
0.2284544997428102
 30
0.0
  0
SEQEND
  5
F31
330
EBC
100
AcDbEntity
  8
Brisckstyl
 62
     1
  0
POLYLINE
  5
F32
330
2
100
AcDbEntity
  8
Brisckstyl
 62
     1
100
AcDb2dPolyline
 66
     1
 10
0.0
 20
0.0
 30
0.0
  0
VERTEX
  5
F33
330
F32
100
AcDbEntity
  8
Brisckstyl
 62
     1
100
AcDbVertex
100
AcDb2dVertex
 10
0.3430748630149513
 20
0.2284544997428102
 30
0.0
  0
VERTEX
  5
F34
330
F32
100
AcDbEntity
  8
Brisckstyl
 62
     1
100
AcDbVertex
100
AcDb2dVertex
 10
0.3408272910697605
 20
0.2284544997428102
 30
0.0
  0
SEQEND
  5
F35
330
F32
100
AcDbEntity
  8
Brisckstyl
 62
     1
  0
POLYLINE
  5
FC2
330
2
100
AcDbEntity
  8
Brisckstyl
 62
     1
100
AcDb2dPolyline
 66
     1
 10
0.0
 20
0.0
 30
0.0
 70
     1
  0
VERTEX
  5
FC3
330
FC2
100
AcDbEntity
  8
Brisckstyl
 62
     1
100
AcDbVertex
100
AcDb2dVertex
 10
0.2335814094004607
 20
0.1502269188995342
 30
0.0
  0
VERTEX
  5
FC4
330
FC2
100
AcDbEntity
  8
Brisckstyl
 62
     1
100
AcDbVertex
100
AcDb2dVertex
 10
0.2313338374552698
 20
0.1502269188995342
 30
0.0
  0
VERTEX
  5
FC5
330
FC2
100
AcDbEntity
  8
Brisckstyl
 62
     1
100
AcDbVertex
100
AcDb2dVertex
 10
0.2313338374552698
 20
0.1447101513977032
 30
0.0
  0
VERTEX
  5
FC6
330
FC2
100
AcDbEntity
  8
Brisckstyl
 62
     1
100
AcDbVertex
100
AcDb2dVertex
 10
0.2324021911082239
 20
0.1436396519775372
 30
0.0
  0
VERTEX
  5
FC7
330
FC2
100
AcDbEntity
  8
Brisckstyl
 62
     1
100
AcDbVertex
100
AcDb2dVertex
 10
0.2328921412882781
 20
0.1431091706390362
 30
0.0
  0
VERTEX
  5
FC8
330
FC2
100
AcDbEntity
  8
Brisckstyl
 62
     1
100
AcDbVertex
100
AcDb2dVertex
 10
0.2333291625437713
 20
0.1425836960906963
 30
0.0
  0
VERTEX
  5
FC9
330
FC2
100
AcDbEntity
  8
Brisckstyl
 62
     1
100
AcDbVertex
100
AcDb2dVertex
 10
0.2335222815928435
 20
0.1423238198394756
 30
0.0
  0
VERTEX
  5
FCA
330
FC2
100
AcDbEntity
  8
Brisckstyl
 62
     1
100
AcDbVertex
100
AcDb2dVertex
 10
0.2336956118998499
 20
0.1420656125183086
 30
0.0
  0
VERTEX
  5
FCB
330
FC2
100
AcDbEntity
  8
Brisckstyl
 62
     1
100
AcDbVertex
100
AcDb2dVertex
 10
0.2338467692790008
 20
0.1418097893829327
 30
0.0
  0
VERTEX
  5
FCC
330
FC2
100
AcDbEntity
  8
Brisckstyl
 62
     1
100
AcDbVertex
100
AcDb2dVertex
 10
0.2339135264811488
 20
0.1416829506988506
 30
0.0
  0
VERTEX
  5
FCD
330
FC2
100
AcDbEntity
  8
Brisckstyl
 62
     1
100
AcDbVertex
100
AcDb2dVertex
 10
0.2339736079630823
 20
0.1415565888519268
 30
0.0
  0
VERTEX
  5
FCE
330
FC2
100
AcDbEntity
  8
Brisckstyl
 62
     1
100
AcDbVertex
100
AcDb2dVertex
 10
0.2340274905619593
 20
0.1414309422607403
 30
0.0
  0
VERTEX
  5
FCF
330
FC2
100
AcDbEntity
  8
Brisckstyl
 62
     1
100
AcDbVertex
100
AcDb2dVertex
 10
0.2340742206034637
 20
0.1413060109252915
 30
0.0
  0
VERTEX
  5
FD0
330
FC2
100
AcDbEntity
  8
Brisckstyl
 62
     1
100
AcDbVertex
100
AcDb2dVertex
 10
0.2341137980875945
 20
0.1411817948455792
 30
0.0
  0
VERTEX
  5
FD1
330
FC2
100
AcDbEntity
  8
Brisckstyl
 62
     1
100
AcDbVertex
100
AcDb2dVertex
 10
0.2341457461771937
 20
0.1410582940216045
 30
0.0
  0
VERTEX
  5
FD2
330
FC2
100
AcDbEntity
  8
Brisckstyl
 62
     1
100
AcDbVertex
100
AcDb2dVertex
 10
0.2341703032908411
 20
0.1409355084533672
 30
0.0
  0
VERTEX
  5
FD3
330
FC2
100
AcDbEntity
  8
Brisckstyl
 62
     1
100
AcDbVertex
100
AcDb2dVertex
 10
0.2341867541727991
 20
0.1408136765594463
 30
0.0
  0
VERTEX
  5
FD4
330
FC2
100
AcDbEntity
  8
Brisckstyl
 62
     1
100
AcDbVertex
100
AcDb2dVertex
 10
0.2341948604044886
 20
0.1406925599212627
 30
0.0
  0
VERTEX
  5
FD5
330
FC2
100
AcDbEntity
  8
Brisckstyl
 62
     1
100
AcDbVertex
100
AcDb2dVertex
 10
0.2341955756602263
 20
0.1406324784393292
 30
0.0
  0
VERTEX
  5
FD6
330
FC2
100
AcDbEntity
  8
Brisckstyl
 62
     1
100
AcDbVertex
100
AcDb2dVertex
 10
0.2341943835673304
 20
0.1405723969573956
 30
0.0
  0
VERTEX
  5
FD7
330
FC2
100
AcDbEntity
  8
Brisckstyl
 62
     1
100
AcDbVertex
100
AcDb2dVertex
 10
0.2341226195750213
 20
0.1394422928924542
 30
0.0
  0
VERTEX
  5
FD8
330
FC2
100
AcDbEntity
  8
Brisckstyl
 62
     1
100
AcDbVertex
100
AcDb2dVertex
 10
0.2340561007914515
 20
0.1388016621704083
 30
0.0
  0
VERTEX
  5
FD9
330
FC2
100
AcDbEntity
  8
Brisckstyl
 62
     1
100
AcDbVertex
100
AcDb2dVertex
 10
0.2339645480570765
 20
0.1381588856811509
 30
0.0
  0
VERTEX
  5
FDA
330
FC2
100
AcDbEntity
  8
Brisckstyl
 62
     1
100
AcDbVertex
100
AcDb2dVertex
 10
0.2338441466746306
 20
0.1375494877929668
 30
0.0
  0
VERTEX
  5
FDB
330
FC2
100
AcDbEntity
  8
Brisckstyl
 62
     1
100
AcDbVertex
100
AcDb2dVertex
 10
0.233772144263742
 20
0.1372686307067852
 30
0.0
  0
VERTEX
  5
FDC
330
FC2
100
AcDbEntity
  8
Brisckstyl
 62
     1
100
AcDbVertex
100
AcDb2dVertex
 10
0.2336915587840056
 20
0.1370094697113018
 30
0.0
  0
VERTEX
  5
FDD
330
FC2
100
AcDbEntity
  8
Brisckstyl
 62
     1
100
AcDbVertex
100
AcDb2dVertex
 10
0.2336479281840301
 20
0.1368895451660137
 30
0.0
  0
VERTEX
  5
FDE
330
FC2
100
AcDbEntity
  8
Brisckstyl
 62
     1
100
AcDbVertex
100
AcDb2dVertex
 10
0.2336019133982643
 20
0.1367767731780987
 30
0.0
  0
VERTEX
  5
FDF
330
FC2
100
AcDbEntity
  8
Brisckstyl
 62
     1
100
AcDbVertex
100
AcDb2dVertex
 10
0.2335537528452845
 20
0.136671869003294
 30
0.0
  0
VERTEX
  5
FE0
330
FC2
100
AcDbEntity
  8
Brisckstyl
 62
     1
100
AcDbVertex
100
AcDb2dVertex
 10
0.2335029696879363
 20
0.1365750710601788
 30
0.0
  0
VERTEX
  5
FE1
330
FC2
100
AcDbEntity
  8
Brisckstyl
 62
     1
100
AcDbVertex
100
AcDb2dVertex
 10
0.2334498023447962
 20
0.1364870946044903
 30
0.0
  0
VERTEX
  5
FE2
330
FC2
100
AcDbEntity
  8
Brisckstyl
 62
     1
100
AcDbVertex
100
AcDb2dVertex
 10
0.2334223842082
 20
0.136446563446043
 30
0.0
  0
VERTEX
  5
FE3
330
FC2
100
AcDbEntity
  8
Brisckstyl
 62
     1
100
AcDbVertex
100
AcDb2dVertex
 10
0.2333940123972864
 20
0.1364084164733868
 30
0.0
  0
VERTEX
  5
FE4
330
FC2
100
AcDbEntity
  8
Brisckstyl
 62
     1
100
AcDbVertex
100
AcDb2dVertex
 10
0.2333654021677943
 20
0.1363728921051006
 30
0.0
  0
VERTEX
  5
FE5
330
FC2
100
AcDbEntity
  8
Brisckstyl
 62
     1
100
AcDbVertex
100
AcDb2dVertex
 10
0.2333358382639861
 20
0.1363397519226055
 30
0.0
  0
VERTEX
  5
FE6
330
FC2
100
AcDbEntity
  8
Brisckstyl
 62
     1
100
AcDbVertex
100
AcDb2dVertex
 10
0.2333057975230189
 20
0.1363092343444805
 30
0.0
  0
VERTEX
  5
FE7
330
FC2
100
AcDbEntity
  8
Brisckstyl
 62
     1
100
AcDbVertex
100
AcDb2dVertex
 10
0.2332750415263148
 20
0.1362815777893047
 30
0.0
  0
VERTEX
  5
FE8
330
FC2
100
AcDbEntity
  8
Brisckstyl
 62
     1
100
AcDbVertex
100
AcDb2dVertex
 10
0.2331453418192835
 20
0.1361640374298077
 30
0.0
  0
VERTEX
  5
FE9
330
FC2
100
AcDbEntity
  8
Brisckstyl
 62
     1
100
AcDbVertex
100
AcDb2dVertex
 10
0.2330075358805633
 20
0.1360240857238755
 30
0.0
  0
VERTEX
  5
FEA
330
FC2
100
AcDbEntity
  8
Brisckstyl
 62
     1
100
AcDbVertex
100
AcDb2dVertex
 10
0.232863769477365
 20
0.1358638684387188
 30
0.0
  0
VERTEX
  5
FEB
330
FC2
100
AcDbEntity
  8
Brisckstyl
 62
     1
100
AcDbVertex
100
AcDb2dVertex
 10
0.2327161883769012
 20
0.1356862465972881
 30
0.0
  0
VERTEX
  5
FEC
330
FC2
100
AcDbEntity
  8
Brisckstyl
 62
     1
100
AcDbVertex
100
AcDb2dVertex
 10
0.232420072501657
 20
0.1352885644073467
 30
0.0
  0
VERTEX
  5
FED
330
FC2
100
AcDbEntity
  8
Brisckstyl
 62
     1
100
AcDbVertex
100
AcDb2dVertex
 10
0.2321382617411585
 20
0.1348513047332749
 30
0.0
  0
VERTEX
  5
FEE
330
FC2
100
AcDbEntity
  8
Brisckstyl
 62
     1
100
AcDbVertex
100
AcDb2dVertex
 10
0.2320088004527064
 20
0.1346243302459698
 30
0.0
  0
VERTEX
  5
FEF
330
FC2
100
AcDbEntity
  8
Brisckstyl
 62
     1
100
AcDbVertex
100
AcDb2dVertex
 10
0.2318900680003138
 20
0.1343949715728741
 30
0.0
  0
VERTEX
  5
FF0
330
FC2
100
AcDbEntity
  8
Brisckstyl
 62
     1
100
AcDbVertex
100
AcDb2dVertex
 10
0.2317846869883513
 20
0.1341660897369366
 30
0.0
  0
VERTEX
  5
FF1
330
FC2
100
AcDbEntity
  8
Brisckstyl
 62
     1
100
AcDbVertex
100
AcDb2dVertex
 10
0.2316945647654518
 20
0.1339398305053692
 30
0.0
  0
VERTEX
  5
FF2
330
FC2
100
AcDbEntity
  8
Brisckstyl
 62
     1
100
AcDbVertex
100
AcDb2dVertex
 10
0.2316561793742156
 20
0.1338287274475079
 30
0.0
  0
VERTEX
  5
FF3
330
FC2
100
AcDbEntity
  8
Brisckstyl
 62
     1
100
AcDbVertex
100
AcDb2dVertex
 10
0.2316225623545618
 20
0.1337190549011211
 30
0.0
  0
VERTEX
  5
FF4
330
FC2
100
AcDbEntity
  8
Brisckstyl
 62
     1
100
AcDbVertex
100
AcDb2dVertex
 10
0.2315939521250701
 20
0.1336115281219463
 30
0.0
  0
VERTEX
  5
FF5
330
FC2
100
AcDbEntity
  8
Brisckstyl
 62
     1
100
AcDbVertex
100
AcDb2dVertex
 10
0.2315708255228968
 20
0.133506385528563
 30
0.0
  0
VERTEX
  5
FF6
330
FC2
100
AcDbEntity
  8
Brisckstyl
 62
     1
100
AcDbVertex
100
AcDb2dVertex
 10
0.2315534209666224
 20
0.1334036271209698
 30
0.0
  0
VERTEX
  5
FF7
330
FC2
100
AcDbEntity
  8
Brisckstyl
 62
     1
100
AcDbVertex
100
AcDb2dVertex
 10
0.2315419768748268
 20
0.1333039681549053
 30
0.0
  0
VERTEX
  5
FF8
330
FC2
100
AcDbEntity
  8
Brisckstyl
 62
     1
100
AcDbVertex
100
AcDb2dVertex
 10
0.2315367316660857
 20
0.1332074086303692
 30
0.0
  0
VERTEX
  5
FF9
330
FC2
100
AcDbEntity
  8
Brisckstyl
 62
     1
100
AcDbVertex
100
AcDb2dVertex
 10
0.2315367316660857
 20
0.1331606785888653
 30
0.0
  0
VERTEX
  5
FFA
330
FC2
100
AcDbEntity
  8
Brisckstyl
 62
     1
100
AcDbVertex
100
AcDb2dVertex
 10
0.2315381621775599
 20
0.1331146638030987
 30
0.0
  0
VERTEX
  5
FFB
330
FC2
100
AcDbEntity
  8
Brisckstyl
 62
     1
100
AcDbVertex
100
AcDb2dVertex
 10
0.2315524672923064
 20
0.132927505218504
 30
0.0
  0
VERTEX
  5
FFC
330
FC2
100
AcDbEntity
  8
Brisckstyl
 62
     1
100
AcDbVertex
100
AcDb2dVertex
 10
0.2315755938944788
 20
0.1327317635650616
 30
0.0
  0
VERTEX
  5
FFD
330
FC2
100
AcDbEntity
  8
Brisckstyl
 62
     1
100
AcDbVertex
100
AcDb2dVertex
 10
0.2316459273753138
 20
0.1323228757019028
 30
0.0
  0
VERTEX
  5
FFE
330
FC2
100
AcDbEntity
  8
Brisckstyl
 62
     1
100
AcDbVertex
100
AcDb2dVertex
 10
0.2317436789927454
 20
0.1319042126770005
 30
0.0
  0
VERTEX
  5
FFF
330
FC2
100
AcDbEntity
  8
Brisckstyl
 62
     1
100
AcDbVertex
100
AcDb2dVertex
 10
0.2318638419566131
 20
0.1314927022094708
 30
0.0
  0
VERTEX
  5
1000
330
FC2
100
AcDbEntity
  8
Brisckstyl
 62
     1
100
AcDbVertex
100
AcDb2dVertex
 10
0.2320004558024383
 20
0.1311052720184307
 30
0.0
  0
VERTEX
  5
1001
330
FC2
100
AcDbEntity
  8
Brisckstyl
 62
     1
100
AcDbVertex
100
AcDb2dVertex
 10
0.232073650306222
 20
0.1309257428283672
 30
0.0
  0
VERTEX
  5
1002
330
FC2
100
AcDbEntity
  8
Brisckstyl
 62
     1
100
AcDbVertex
100
AcDb2dVertex
 10
0.232148752158639
 20
0.1307583729858384
 30
0.0
  0
VERTEX
  5
1003
330
FC2
100
AcDbEntity
  8
Brisckstyl
 62
     1
100
AcDbVertex
100
AcDb2dVertex
 10
0.232225284522531
 20
0.1306055466766338
 30
0.0
  0
VERTEX
  5
1004
330
FC2
100
AcDbEntity
  8
Brisckstyl
 62
     1
100
AcDbVertex
100
AcDb2dVertex
 10
0.2323027705607386
 20
0.1304691712493877
 30
0.0
  0
VERTEX
  5
1005
330
FC2
100
AcDbEntity
  8
Brisckstyl
 62
     1
100
AcDbVertex
100
AcDb2dVertex
 10
0.2323416327891326
 20
0.1304076592559795
 30
0.0
  0
VERTEX
  5
1006
330
FC2
100
AcDbEntity
  8
Brisckstyl
 62
     1
100
AcDbVertex
100
AcDb2dVertex
 10
0.2323804950175262
 20
0.1303511540527329
 30
0.0
  0
VERTEX
  5
1007
330
FC2
100
AcDbEntity
  8
Brisckstyl
 62
     1
100
AcDbVertex
100
AcDb2dVertex
 10
0.2324191188273406
 20
0.1302998940582256
 30
0.0
  0
VERTEX
  5
1008
330
FC2
100
AcDbEntity
  8
Brisckstyl
 62
     1
100
AcDbVertex
100
AcDb2dVertex
 10
0.2324577426371551
 20
0.1302541176910381
 30
0.0
  0
VERTEX
  5
1009
330
FC2
100
AcDbEntity
  8
Brisckstyl
 62
     1
100
AcDbVertex
100
AcDb2dVertex
 10
0.23249612802839
 20
0.1302123944396954
 30
0.0
  0
VERTEX
  5
100A
330
FC2
100
AcDbEntity
  8
Brisckstyl
 62
     1
100
AcDbVertex
100
AcDb2dVertex
 10
0.2325352286753631
 20
0.1301732937927227
 30
0.0
  0
VERTEX
  5
100B
330
FC2
100
AcDbEntity
  8
Brisckstyl
 62
     1
100
AcDbVertex
100
AcDb2dVertex
 10
0.2326131915507288
 20
0.1301022450561509
 30
0.0
  0
VERTEX
  5
100C
330
FC2
100
AcDbEntity
  8
Brisckstyl
 62
     1
100
AcDbVertex
100
AcDb2dVertex
 10
0.2327633952555633
 20
0.1299787442321758
 30
0.0
  0
VERTEX
  5
100D
330
FC2
100
AcDbEntity
  8
Brisckstyl
 62
     1
100
AcDbVertex
100
AcDb2dVertex
 10
0.2328315829691863
 20
0.1299212853546124
 30
0.0
  0
VERTEX
  5
100E
330
FC2
100
AcDbEntity
  8
Brisckstyl
 62
     1
100
AcDbVertex
100
AcDb2dVertex
 10
0.2328632926402064
 20
0.1298924367065415
 30
0.0
  0
VERTEX
  5
100F
330
FC2
100
AcDbEntity
  8
Brisckstyl
 62
     1
100
AcDbVertex
100
AcDb2dVertex
 10
0.2328930949625945
 20
0.1298633496398907
 30
0.0
  0
VERTEX
  5
1010
330
FC2
100
AcDbEntity
  8
Brisckstyl
 62
     1
100
AcDbVertex
100
AcDb2dVertex
 10
0.2329205130991912
 20
0.129833547317503
 30
0.0
  0
VERTEX
  5
1011
330
FC2
100
AcDbEntity
  8
Brisckstyl
 62
     1
100
AcDbVertex
100
AcDb2dVertex
 10
0.2329455470499964
 20
0.1298027913207989
 30
0.0
  0
VERTEX
  5
1012
330
FC2
100
AcDbEntity
  8
Brisckstyl
 62
     1
100
AcDbVertex
100
AcDb2dVertex
 10
0.2329572295603724
 20
0.1297868172759991
 30
0.0
  0
VERTEX
  5
1013
330
FC2
100
AcDbEntity
  8
Brisckstyl
 62
     1
100
AcDbVertex
100
AcDb2dVertex
 10
0.232967958396432
 20
0.1297706048126202
 30
0.0
  0
VERTEX
  5
1014
330
FC2
100
AcDbEntity
  8
Brisckstyl
 62
     1
100
AcDbVertex
100
AcDb2dVertex
 10
0.2329782103953338
 20
0.1297539155120831
 30
0.0
  0
VERTEX
  5
1015
330
FC2
100
AcDbEntity
  8
Brisckstyl
 62
     1
100
AcDbVertex
100
AcDb2dVertex
 10
0.2329875087199187
 20
0.1297367493743877
 30
0.0
  0
VERTEX
  5
1016
330
FC2
100
AcDbEntity
  8
Brisckstyl
 62
     1
100
AcDbVertex
100
AcDb2dVertex
 10
0.2329960917887664
 20
0.1297191063995342
 30
0.0
  0
VERTEX
  5
1017
330
FC2
100
AcDbEntity
  8
Brisckstyl
 62
     1
100
AcDbVertex
100
AcDb2dVertex
 10
0.2330039596018763
 20
0.129700986587523
 30
0.0
  0
VERTEX
  5
1018
330
FC2
100
AcDbEntity
  8
Brisckstyl
 62
     1
100
AcDbVertex
100
AcDb2dVertex
 10
0.2330108737406707
 20
0.129682389938353
 30
0.0
  0
VERTEX
  5
1019
330
FC2
100
AcDbEntity
  8
Brisckstyl
 62
     1
100
AcDbVertex
100
AcDb2dVertex
 10
0.2330168342051482
 20
0.1296630780334454
 30
0.0
  0
VERTEX
  5
101A
330
FC2
100
AcDbEntity
  8
Brisckstyl
 62
     1
100
AcDbVertex
100
AcDb2dVertex
 10
0.2330220794138893
 20
0.1296430508728008
 30
0.0
  0
VERTEX
  5
101B
330
FC2
100
AcDbEntity
  8
Brisckstyl
 62
     1
100
AcDbVertex
100
AcDb2dVertex
 10
0.2330261325297332
 20
0.1296225468749981
 30
0.0
  0
VERTEX
  5
101C
330
FC2
100
AcDbEntity
  8
Brisckstyl
 62
     1
100
AcDbVertex
100
AcDb2dVertex
 10
0.2330294703898406
 20
0.129601089202879
 30
0.0
  0
VERTEX
  5
101D
330
FC2
100
AcDbEntity
  8
Brisckstyl
 62
     1
100
AcDbVertex
100
AcDb2dVertex
 10
0.2330316161570525
 20
0.1295791546936016
 30
0.0
  0
VERTEX
  5
101E
330
FC2
100
AcDbEntity
  8
Brisckstyl
 62
     1
100
AcDbVertex
100
AcDb2dVertex
 10
0.2330330466685267
 20
0.1295562665100079
 30
0.0
  0
VERTEX
  5
101F
330
FC2
100
AcDbEntity
  8
Brisckstyl
 62
     1
100
AcDbVertex
100
AcDb2dVertex
 10
0.2330330466685267
 20
0.1295324246520977
 30
0.0
  0
VERTEX
  5
1020
330
FC2
100
AcDbEntity
  8
Brisckstyl
 62
     1
100
AcDbVertex
100
AcDb2dVertex
 10
0.2330323314127894
 20
0.1295078675384502
 30
0.0
  0
VERTEX
  5
1021
330
FC2
100
AcDbEntity
  8
Brisckstyl
 62
     1
100
AcDbVertex
100
AcDb2dVertex
 10
0.2330301856455775
 20
0.1294823567504864
 30
0.0
  0
VERTEX
  5
1022
330
FC2
100
AcDbEntity
  8
Brisckstyl
 62
     1
100
AcDbVertex
100
AcDb2dVertex
 10
0.2330270862040491
 20
0.1294558922882061
 30
0.0
  0
VERTEX
  5
1023
330
FC2
100
AcDbEntity
  8
Brisckstyl
 62
     1
100
AcDbVertex
100
AcDb2dVertex
 10
0.2330227946696258
 20
0.1294284741516099
 30
0.0
  0
VERTEX
  5
1024
330
FC2
100
AcDbEntity
  8
Brisckstyl
 62
     1
100
AcDbVertex
100
AcDb2dVertex
 10
0.2330106353220911
 20
0.1293705384368877
 30
0.0
  0
VERTEX
  5
1025
330
FC2
100
AcDbEntity
  8
Brisckstyl
 62
     1
100
AcDbVertex
100
AcDb2dVertex
 10
0.2329934691843963
 20
0.1293080727691631
 30
0.0
  0
VERTEX
  5
1026
330
FC2
100
AcDbEntity
  8
Brisckstyl
 62
     1
100
AcDbVertex
100
AcDb2dVertex
 10
0.2329710578379607
 20
0.1292408387298565
 30
0.0
  0
VERTEX
  5
1027
330
FC2
100
AcDbEntity
  8
Brisckstyl
 62
     1
100
AcDbVertex
100
AcDb2dVertex
 10
0.2329431628642054
 20
0.1291688363189678
 30
0.0
  0
VERTEX
  5
1028
330
FC2
100
AcDbEntity
  8
Brisckstyl
 62
     1
100
AcDbVertex
100
AcDb2dVertex
 10
0.232909307425973
 20
0.1290913502807598
 30
0.0
  0
VERTEX
  5
1029
330
FC2
100
AcDbEntity
  8
Brisckstyl
 62
     1
100
AcDbVertex
100
AcDb2dVertex
 10
0.2328239535746551
 20
0.1289189736480698
 30
0.0
  0
VERTEX
  5
102A
330
FC2
100
AcDbEntity
  8
Brisckstyl
 62
     1
100
AcDbVertex
100
AcDb2dVertex
 10
0.2327128505167937
 20
0.1287215630645733
 30
0.0
  0
VERTEX
  5
102B
330
FC2
100
AcDbEntity
  8
Brisckstyl
 62
     1
100
AcDbVertex
100
AcDb2dVertex
 10
0.2323099231181116
 20
0.1280463616485577
 30
0.0
  0
VERTEX
  5
102C
330
FC2
100
AcDbEntity
  8
Brisckstyl
 62
     1
100
AcDbVertex
100
AcDb2dVertex
 10
0.2321680640635462
 20
0.1277967373962383
 30
0.0
  0
VERTEX
  5
102D
330
FC2
100
AcDbEntity
  8
Brisckstyl
 62
     1
100
AcDbVertex
100
AcDb2dVertex
 10
0.2320552920756312
 20
0.1275723855133038
 30
0.0
  0
VERTEX
  5
102E
330
FC2
100
AcDbEntity
  8
Brisckstyl
 62
     1
100
AcDbVertex
100
AcDb2dVertex
 10
0.2320076083598113
 20
0.1274615208740215
 30
0.0
  0
VERTEX
  5
102F
330
FC2
100
AcDbEntity
  8
Brisckstyl
 62
     1
100
AcDbVertex
100
AcDb2dVertex
 10
0.2319642161784144
 20
0.1273477952117905
 30
0.0
  0
VERTEX
  5
1030
330
FC2
100
AcDbEntity
  8
Brisckstyl
 62
     1
100
AcDbVertex
100
AcDb2dVertex
 10
0.2319244002757044
 20
0.1272276322479233
 30
0.0
  0
VERTEX
  5
1031
330
FC2
100
AcDbEntity
  8
Brisckstyl
 62
     1
100
AcDbVertex
100
AcDb2dVertex
 10
0.2318869685587855
 20
0.1270981709594708
 30
0.0
  0
VERTEX
  5
1032
330
FC2
100
AcDbEntity
  8
Brisckstyl
 62
     1
100
AcDbVertex
100
AcDb2dVertex
 10
0.2318156814036345
 20
0.1267982403869614
 30
0.0
  0
VERTEX
  5
1033
330
FC2
100
AcDbEntity
  8
Brisckstyl
 62
     1
100
AcDbVertex
100
AcDb2dVertex
 10
0.2317424868998499
 20
0.1264229695434556
 30
0.0
  0
VERTEX
  5
1034
330
FC2
100
AcDbEntity
  8
Brisckstyl
 62
     1
100
AcDbVertex
100
AcDb2dVertex
 10
0.2317110156474085
 20
0.1262205521697983
 30
0.0
  0
VERTEX
  5
1035
330
FC2
100
AcDbEntity
  8
Brisckstyl
 62
     1
100
AcDbVertex
100
AcDb2dVertex
 10
0.2316921805796595
 20
0.1260336320037823
 30
0.0
  0
VERTEX
  5
1036
330
FC2
100
AcDbEntity
  8
Brisckstyl
 62
     1
100
AcDbVertex
100
AcDb2dVertex
 10
0.2316857432780238
 20
0.1258614937896714
 30
0.0
  0
VERTEX
  5
1037
330
FC2
100
AcDbEntity
  8
Brisckstyl
 62
     1
100
AcDbVertex
100
AcDb2dVertex
 10
0.2316864585337611
 20
0.1257806698913555
 30
0.0
  0
VERTEX
  5
1038
330
FC2
100
AcDbEntity
  8
Brisckstyl
 62
     1
100
AcDbVertex
100
AcDb2dVertex
 10
0.2316902732310267
 20
0.1257029454345689
 30
0.0
  0
VERTEX
  5
1039
330
FC2
100
AcDbEntity
  8
Brisckstyl
 62
     1
100
AcDbVertex
100
AcDb2dVertex
 10
0.2316964721140838
 20
0.1256285588378887
 30
0.0
  0
VERTEX
  5
103A
330
FC2
100
AcDbEntity
  8
Brisckstyl
 62
     1
100
AcDbVertex
100
AcDb2dVertex
 10
0.2317050551829314
 20
0.1255570332641583
 30
0.0
  0
VERTEX
  5
103B
330
FC2
100
AcDbEntity
  8
Brisckstyl
 62
     1
100
AcDbVertex
100
AcDb2dVertex
 10
0.2317162608561488
 20
0.1254886071319561
 30
0.0
  0
VERTEX
  5
103C
330
FC2
100
AcDbEntity
  8
Brisckstyl
 62
     1
100
AcDbVertex
100
AcDb2dVertex
 10
0.2317293738779993
 20
0.1254225651855454
 30
0.0
  0
VERTEX
  5
103D
330
FC2
100
AcDbEntity
  8
Brisckstyl
 62
     1
100
AcDbVertex
100
AcDb2dVertex
 10
0.2317448710856414
 20
0.1253593842620831
 30
0.0
  0
VERTEX
  5
103E
330
FC2
100
AcDbEntity
  8
Brisckstyl
 62
     1
100
AcDbVertex
100
AcDb2dVertex
 10
0.2317625140604945
 20
0.1252988259429913
 30
0.0
  0
VERTEX
  5
103F
330
FC2
100
AcDbEntity
  8
Brisckstyl
 62
     1
100
AcDbVertex
100
AcDb2dVertex
 10
0.2317818259654017
 20
0.1252404133911114
 30
0.0
  0
VERTEX
  5
1040
330
FC2
100
AcDbEntity
  8
Brisckstyl
 62
     1
100
AcDbVertex
100
AcDb2dVertex
 10
0.2318030452189417
 20
0.1251841466064439
 30
0.0
  0
VERTEX
  5
1041
330
FC2
100
AcDbEntity
  8
Brisckstyl
 62
     1
100
AcDbVertex
100
AcDb2dVertex
 10
0.231826171821115
 20
0.1251302640075665
 30
0.0
  0
VERTEX
  5
1042
330
FC2
100
AcDbEntity
  8
Brisckstyl
 62
     1
100
AcDbVertex
100
AcDb2dVertex
 10
0.2318507289347625
 20
0.1250780503387432
 30
0.0
  0
VERTEX
  5
1043
330
FC2
100
AcDbEntity
  8
Brisckstyl
 62
     1
100
AcDbVertex
100
AcDb2dVertex
 10
0.2318767165598845
 20
0.1250277440185528
 30
0.0
  0
VERTEX
  5
1044
330
FC2
100
AcDbEntity
  8
Brisckstyl
 62
     1
100
AcDbVertex
100
AcDb2dVertex
 10
0.2319043731150599
 20
0.1249793450469952
 30
0.0
  0
VERTEX
  5
1045
330
FC2
100
AcDbEntity
  8
Brisckstyl
 62
     1
100
AcDbVertex
100
AcDb2dVertex
 10
0.2319630240855189
 20
0.1248868386383038
 30
0.0
  0
VERTEX
  5
1046
330
FC2
100
AcDbEntity
  8
Brisckstyl
 62
     1
100
AcDbVertex
100
AcDb2dVertex
 10
0.2320262050089812
 20
0.124799577438353
 30
0.0
  0
VERTEX
  5
1047
330
FC2
100
AcDbEntity
  8
Brisckstyl
 62
     1
100
AcDbVertex
100
AcDb2dVertex
 10
0.2320927237925506
 20
0.1247163693542461
 30
0.0
  0
VERTEX
  5
1048
330
FC2
100
AcDbEntity
  8
Brisckstyl
 62
     1
100
AcDbVertex
100
AcDb2dVertex
 10
0.23216186518049
 20
0.1246364991302471
 30
0.0
  0
VERTEX
  5
1049
330
FC2
100
AcDbEntity
  8
Brisckstyl
 62
     1
100
AcDbVertex
100
AcDb2dVertex
 10
0.2323042010722137
 20
0.1244817654724102
 30
0.0
  0
VERTEX
  5
104A
330
FC2
100
AcDbEntity
  8
Brisckstyl
 62
     1
100
AcDbVertex
100
AcDb2dVertex
 10
0.2322021579203581
 20
0.1217235009307842
 30
0.0
  0
VERTEX
  5
104B
330
FC2
100
AcDbEntity
  8
Brisckstyl
 62
     1
100
AcDbVertex
100
AcDb2dVertex
 10
0.2316914653239226
 20
0.1205485741729717
 30
0.0
  0
VERTEX
  5
104C
330
FC2
100
AcDbEntity
  8
Brisckstyl
 62
     1
100
AcDbVertex
100
AcDb2dVertex
 10
0.2316914653239226
 20
0.1152361313934307
 30
0.0
  0
VERTEX
  5
104D
330
FC2
100
AcDbEntity
  8
Brisckstyl
 62
     1
100
AcDbVertex
100
AcDb2dVertex
 10
0.235113725608346
 20
0.1152361313934307
 30
0.0
  0
VERTEX
  5
104E
330
FC2
100
AcDbEntity
  8
Brisckstyl
 62
     1
100
AcDbVertex
100
AcDb2dVertex
 10
0.235113725608346
 20
0.1172793786163311
 30
0.0
  0
VERTEX
  5
104F
330
FC2
100
AcDbEntity
  8
Brisckstyl
 62
     1
100
AcDbVertex
100
AcDb2dVertex
 10
0.2359984969553919
 20
0.1176494042510967
 30
0.0
  0
VERTEX
  5
1050
330
FC2
100
AcDbEntity
  8
Brisckstyl
 62
     1
100
AcDbVertex
100
AcDb2dVertex
 10
0.2364116763529749
 20
0.1178456227416973
 30
0.0
  0
VERTEX
  5
1051
330
FC2
100
AcDbEntity
  8
Brisckstyl
 62
     1
100
AcDbVertex
100
AcDb2dVertex
 10
0.2366059874949431
 20
0.1179483811492905
 30
0.0
  0
VERTEX
  5
1052
330
FC2
100
AcDbEntity
  8
Brisckstyl
 62
     1
100
AcDbVertex
100
AcDb2dVertex
 10
0.23678980821943
 20
0.118055192672728
 30
0.0
  0
VERTEX
  5
1053
330
FC2
100
AcDbEntity
  8
Brisckstyl
 62
     1
100
AcDbVertex
100
AcDb2dVertex
 10
0.2369621848521204
 20
0.118166534149168
 30
0.0
  0
VERTEX
  5
1054
330
FC2
100
AcDbEntity
  8
Brisckstyl
 62
     1
100
AcDbVertex
100
AcDb2dVertex
 10
0.2371214484629607
 20
0.1182828824157696
 30
0.0
  0
VERTEX
  5
1055
330
FC2
100
AcDbEntity
  8
Brisckstyl
 62
     1
100
AcDbVertex
100
AcDb2dVertex
 10
0.2371955966410613
 20
0.1183429638977032
 30
0.0
  0
VERTEX
  5
1056
330
FC2
100
AcDbEntity
  8
Brisckstyl
 62
     1
100
AcDbVertex
100
AcDb2dVertex
 10
0.2372659301218963
 20
0.1184047143096905
 30
0.0
  0
VERTEX
  5
1057
330
FC2
100
AcDbEntity
  8
Brisckstyl
 62
     1
100
AcDbVertex
100
AcDb2dVertex
 10
0.2373322104868861
 20
0.1184678952331528
 30
0.0
  0
VERTEX
  5
1058
330
FC2
100
AcDbEntity
  8
Brisckstyl
 62
     1
100
AcDbVertex
100
AcDb2dVertex
 10
0.237394437736032
 20
0.118532745086668
 30
0.0
  0
VERTEX
  5
1059
330
FC2
100
AcDbEntity
  8
Brisckstyl
 62
     1
100
AcDbVertex
100
AcDb2dVertex
 10
0.2374523734507537
 20
0.1185995022888165
 30
0.0
  0
VERTEX
  5
105A
330
FC2
100
AcDbEntity
  8
Brisckstyl
 62
     1
100
AcDbVertex
100
AcDb2dVertex
 10
0.2375055407938929
 20
0.1186676900024399
 30
0.0
  0
VERTEX
  5
105B
330
FC2
100
AcDbEntity
  8
Brisckstyl
 62
     1
100
AcDbVertex
100
AcDb2dVertex
 10
0.2375539397654518
 20
0.1187377850646954
 30
0.0
  0
VERTEX
  5
105C
330
FC2
100
AcDbEntity
  8
Brisckstyl
 62
     1
100
AcDbVertex
100
AcDb2dVertex
 10
0.2375975703654261
 20
0.118809787475584
 30
0.0
  0
VERTEX
  5
105D
330
FC2
100
AcDbEntity
  8
Brisckstyl
 62
     1
100
AcDbVertex
100
AcDb2dVertex
 10
0.2376359557566614
 20
0.1188839356536846
 30
0.0
  0
VERTEX
  5
105E
330
FC2
100
AcDbEntity
  8
Brisckstyl
 62
     1
100
AcDbVertex
100
AcDb2dVertex
 10
0.237669095939157
 20
0.118959991180418
 30
0.0
  0
VERTEX
  5
105F
330
FC2
100
AcDbEntity
  8
Brisckstyl
 62
     1
100
AcDbVertex
100
AcDb2dVertex
 10
0.2376836394724818
 20
0.1189986149902329
 30
0.0
  0
VERTEX
  5
1060
330
FC2
100
AcDbEntity
  8
Brisckstyl
 62
     1
100
AcDbVertex
100
AcDb2dVertex
 10
0.2376969909129114
 20
0.1190379540557842
 30
0.0
  0
VERTEX
  5
1061
330
FC2
100
AcDbEntity
  8
Brisckstyl
 62
     1
100
AcDbVertex
100
AcDb2dVertex
 10
0.2377086734232874
 20
0.1190777699584942
 30
0.0
  0
VERTEX
  5
1062
330
FC2
100
AcDbEntity
  8
Brisckstyl
 62
     1
100
AcDbVertex
100
AcDb2dVertex
 10
0.2377189254221888
 20
0.1191183011169415
 30
0.0
  0
VERTEX
  5
1063
330
FC2
100
AcDbEntity
  8
Brisckstyl
 62
     1
100
AcDbVertex
100
AcDb2dVertex
 10
0.2380636786875701
 20
0.1203058640594463
 30
0.0
  0
VERTEX
  5
1064
330
FC2
100
AcDbEntity
  8
Brisckstyl
 62
     1
100
AcDbVertex
100
AcDb2dVertex
 10
0.2381001567301726
 20
0.1204746644134502
 30
0.0
  0
VERTEX
  5
1065
330
FC2
100
AcDbEntity
  8
Brisckstyl
 62
     1
100
AcDbVertex
100
AcDb2dVertex
 10
0.2381321048197718
 20
0.1206568162078838
 30
0.0
  0
VERTEX
  5
1066
330
FC2
100
AcDbEntity
  8
Brisckstyl
 62
     1
100
AcDbVertex
100
AcDb2dVertex
 10
0.2381585692820525
 20
0.1208549420471172
 30
0.0
  0
VERTEX
  5
1067
330
FC2
100
AcDbEntity
  8
Brisckstyl
 62
     1
100
AcDbVertex
100
AcDb2dVertex
 10
0.238178596442697
 20
0.1210721413726788
 30
0.0
  0
VERTEX
  5
1068
330
FC2
100
AcDbEntity
  8
Brisckstyl
 62
     1
100
AcDbVertex
100
AcDb2dVertex
 10
0.2381917094645476
 20
0.1213107983703599
 30
0.0
  0
VERTEX
  5
1069
330
FC2
100
AcDbEntity
  8
Brisckstyl
 62
     1
100
AcDbVertex
100
AcDb2dVertex
 10
0.2381967162547088
 20
0.1215737740631089
 30
0.0
  0
VERTEX
  5
106A
330
FC2
100
AcDbEntity
  8
Brisckstyl
 62
     1
100
AcDbVertex
100
AcDb2dVertex
 10
0.2381788348612762
 20
0.122183171951292
 30
0.0
  0
VERTEX
  5
106B
330
FC2
100
AcDbEntity
  8
Brisckstyl
 62
     1
100
AcDbVertex
100
AcDb2dVertex
 10
0.238124475425241
 20
0.1228135506744366
 30
0.0
  0
VERTEX
  5
106C
330
FC2
100
AcDbEntity
  8
Brisckstyl
 62
     1
100
AcDbVertex
100
AcDb2dVertex
 10
0.2380415057597137
 20
0.1233669201965313
 30
0.0
  0
VERTEX
  5
106D
330
FC2
100
AcDbEntity
  8
Brisckstyl
 62
     1
100
AcDbVertex
100
AcDb2dVertex
 10
0.237990722602365
 20
0.1236158291931133
 30
0.0
  0
VERTEX
  5
106E
330
FC2
100
AcDbEntity
  8
Brisckstyl
 62
     1
100
AcDbVertex
100
AcDb2dVertex
 10
0.237934455817697
 20
0.1238470952148418
 30
0.0
  0
VERTEX
  5
106F
330
FC2
100
AcDbEntity
  8
Brisckstyl
 62
     1
100
AcDbVertex
100
AcDb2dVertex
 10
0.237873420661447
 20
0.1240609566802964
 30
0.0
  0
VERTEX
  5
1070
330
FC2
100
AcDbEntity
  8
Brisckstyl
 62
     1
100
AcDbVertex
100
AcDb2dVertex
 10
0.2378083323893519
 20
0.124258367263792
 30
0.0
  0
VERTEX
  5
1071
330
FC2
100
AcDbEntity
  8
Brisckstyl
 62
     1
100
AcDbVertex
100
AcDb2dVertex
 10
0.2377396678385711
 20
0.1244395653839092
 30
0.0
  0
VERTEX
  5
1072
330
FC2
100
AcDbEntity
  8
Brisckstyl
 62
     1
100
AcDbVertex
100
AcDb2dVertex
 10
0.2376679038462611
 20
0.1246050278778057
 30
0.0
  0
VERTEX
  5
1073
330
FC2
100
AcDbEntity
  8
Brisckstyl
 62
     1
100
AcDbVertex
100
AcDb2dVertex
 10
0.2375937556681605
 20
0.1247554700012188
 30
0.0
  0
VERTEX
  5
1074
330
FC2
100
AcDbEntity
  8
Brisckstyl
 62
     1
100
AcDbVertex
100
AcDb2dVertex
 10
0.2375177001414275
 20
0.1248913685913067
 30
0.0
  0
VERTEX
  5
1075
330
FC2
100
AcDbEntity
  8
Brisckstyl
 62
     1
100
AcDbVertex
100
AcDb2dVertex
 10
0.2374406909403773
 20
0.1250129620666489
 30
0.0
  0
VERTEX
  5
1076
330
FC2
100
AcDbEntity
  8
Brisckstyl
 62
     1
100
AcDbVertex
100
AcDb2dVertex
 10
0.2373629664835906
 20
0.1251212041015606
 30
0.0
  0
VERTEX
  5
1077
330
FC2
100
AcDbEntity
  8
Brisckstyl
 62
     1
100
AcDbVertex
100
AcDb2dVertex
 10
0.2372852420268035
 20
0.1252165715332012
 30
0.0
  0
VERTEX
  5
1078
330
FC2
100
AcDbEntity
  8
Brisckstyl
 62
     1
100
AcDbVertex
100
AcDb2dVertex
 10
0.2372079944071741
 20
0.1252990643615704
 30
0.0
  0
VERTEX
  5
1079
330
FC2
100
AcDbEntity
  8
Brisckstyl
 62
     1
100
AcDbVertex
100
AcDb2dVertex
 10
0.237048015540597
 20
0.1254499833221417
 30
0.0
  0
VERTEX
  5
107A
330
FC2
100
AcDbEntity
  8
Brisckstyl
 62
     1
100
AcDbVertex
100
AcDb2dVertex
 10
0.2368754004893275
 20
0.1255968491668682
 30
0.0
  0
VERTEX
  5
107B
330
FC2
100
AcDbEntity
  8
Brisckstyl
 62
     1
100
AcDbVertex
100
AcDb2dVertex
 10
0.2364994143900843
 20
0.1258800904388409
 30
0.0
  0
VERTEX
  5
107C
330
FC2
100
AcDbEntity
  8
Brisckstyl
 62
     1
100
AcDbVertex
100
AcDb2dVertex
 10
0.2356756781992888
 20
0.1264229695434556
 30
0.0
  0
VERTEX
  5
107D
330
FC2
100
AcDbEntity
  8
Brisckstyl
 62
     1
100
AcDbVertex
100
AcDb2dVertex
 10
0.2371569728312464
 20
0.1281085888977032
 30
0.0
  0
VERTEX
  5
107E
330
FC2
100
AcDbEntity
  8
Brisckstyl
 62
     1
100
AcDbVertex
100
AcDb2dVertex
 10
0.2372108554301238
 20
0.128164617263792
 30
0.0
  0
VERTEX
  5
107F
330
FC2
100
AcDbEntity
  8
Brisckstyl
 62
     1
100
AcDbVertex
100
AcDb2dVertex
 10
0.2372571086344695
 20
0.1282177846069317
 30
0.0
  0
VERTEX
  5
1080
330
FC2
100
AcDbEntity
  8
Brisckstyl
 62
     1
100
AcDbVertex
100
AcDb2dVertex
 10
0.2372966861185999
 20
0.1282683293457012
 30
0.0
  0
VERTEX
  5
1081
330
FC2
100
AcDbEntity
  8
Brisckstyl
 62
     1
100
AcDbVertex
100
AcDb2dVertex
 10
0.2373298263010955
 20
0.1283164898986797
 30
0.0
  0
VERTEX
  5
1082
330
FC2
100
AcDbEntity
  8
Brisckstyl
 62
     1
100
AcDbVertex
100
AcDb2dVertex
 10
0.2373572444376917
 20
0.1283625046844463
 30
0.0
  0
VERTEX
  5
1083
330
FC2
100
AcDbEntity
  8
Brisckstyl
 62
     1
100
AcDbVertex
100
AcDb2dVertex
 10
0.2373689269480681
 20
0.1283846776123028
 30
0.0
  0
VERTEX
  5
1084
330
FC2
100
AcDbEntity
  8
Brisckstyl
 62
     1
100
AcDbVertex
100
AcDb2dVertex
 10
0.2373794173655486
 20
0.1284063737030015
 30
0.0
  0
VERTEX
  5
1085
330
FC2
100
AcDbEntity
  8
Brisckstyl
 62
     1
100
AcDbVertex
100
AcDb2dVertex
 10
0.2373884772715545
 20
0.1284275929565415
 30
0.0
  0
VERTEX
  5
1086
330
FC2
100
AcDbEntity
  8
Brisckstyl
 62
     1
100
AcDbVertex
100
AcDb2dVertex
 10
0.2373965835032439
 20
0.1284483353729233
 30
0.0
  0
VERTEX
  5
1087
330
FC2
100
AcDbEntity
  8
Brisckstyl
 62
     1
100
AcDbVertex
100
AcDb2dVertex
 10
0.2374034976420374
 20
0.1284686009521465
 30
0.0
  0
VERTEX
  5
1088
330
FC2
100
AcDbEntity
  8
Brisckstyl
 62
     1
100
AcDbVertex
100
AcDb2dVertex
 10
0.2374092196879363
 20
0.1284886281127915
 30
0.0
  0
VERTEX
  5
1089
330
FC2
100
AcDbEntity
  8
Brisckstyl
 62
     1
100
AcDbVertex
100
AcDb2dVertex
 10
0.237414226478097
 20
0.1285081784362778
 30
0.0
  0
VERTEX
  5
108A
330
FC2
100
AcDbEntity
  8
Brisckstyl
 62
     1
100
AcDbVertex
100
AcDb2dVertex
 10
0.2374182795939417
 20
0.1285272519226055
 30
0.0
  0
VERTEX
  5
108B
330
FC2
100
AcDbEntity
  8
Brisckstyl
 62
     1
100
AcDbVertex
100
AcDb2dVertex
 10
0.2374213790354705
 20
0.1285463254089336
 30
0.0
  0
VERTEX
  5
108C
330
FC2
100
AcDbEntity
  8
Brisckstyl
 62
     1
100
AcDbVertex
100
AcDb2dVertex
 10
0.2374237632212611
 20
0.128564922058104
 30
0.0
  0
VERTEX
  5
108D
330
FC2
100
AcDbEntity
  8
Brisckstyl
 62
     1
100
AcDbVertex
100
AcDb2dVertex
 10
0.2374254321513148
 20
0.1285830418701153
 30
0.0
  0
VERTEX
  5
108E
330
FC2
100
AcDbEntity
  8
Brisckstyl
 62
     1
100
AcDbVertex
100
AcDb2dVertex
 10
0.2374263858256312
 20
0.1286011616821274
 30
0.0
  0
VERTEX
  5
108F
330
FC2
100
AcDbEntity
  8
Brisckstyl
 62
     1
100
AcDbVertex
100
AcDb2dVertex
 10
0.2374263858256312
 20
0.1286366860504131
 30
0.0
  0
VERTEX
  5
1090
330
FC2
100
AcDbEntity
  8
Brisckstyl
 62
     1
100
AcDbVertex
100
AcDb2dVertex
 10
0.2374247168955775
 20
0.1286712567443829
 30
0.0
  0
VERTEX
  5
1091
330
FC2
100
AcDbEntity
  8
Brisckstyl
 62
     1
100
AcDbVertex
100
AcDb2dVertex
 10
0.2374213790354705
 20
0.1287053506011948
 30
0.0
  0
VERTEX
  5
1092
330
FC2
100
AcDbEntity
  8
Brisckstyl
 62
     1
100
AcDbVertex
100
AcDb2dVertex
 10
0.2374125575480437
 20
0.1287725846405015
 30
0.0
  0
VERTEX
  5
1093
330
FC2
100
AcDbEntity
  8
Brisckstyl
 62
     1
100
AcDbVertex
100
AcDb2dVertex
 10
0.2368839835581756
 20
0.1294411103363018
 30
0.0
  0
VERTEX
  5
1094
330
FC2
100
AcDbEntity
  8
Brisckstyl
 62
     1
100
AcDbVertex
100
AcDb2dVertex
 10
0.2364035701212855
 20
0.130097715103148
 30
0.0
  0
VERTEX
  5
1095
330
FC2
100
AcDbEntity
  8
Brisckstyl
 62
     1
100
AcDbVertex
100
AcDb2dVertex
 10
0.2361963843760462
 20
0.1304176728363018
 30
0.0
  0
VERTEX
  5
1096
330
FC2
100
AcDbEntity
  8
Brisckstyl
 62
     1
100
AcDbVertex
100
AcDb2dVertex
 10
0.236018762534616
 20
0.130730239593504
 30
0.0
  0
VERTEX
  5
1097
330
FC2
100
AcDbEntity
  8
Brisckstyl
 62
     1
100
AcDbVertex
100
AcDb2dVertex
 10
0.2359431838450408
 20
0.1308830659027081
 30
0.0
  0
VERTEX
  5
1098
330
FC2
100
AcDbEntity
  8
Brisckstyl
 62
     1
100
AcDbVertex
100
AcDb2dVertex
 10
0.2358773803172088
 20
0.1310337464447002
 30
0.0
  0
VERTEX
  5
1099
330
FC2
100
AcDbEntity
  8
Brisckstyl
 62
     1
100
AcDbVertex
100
AcDb2dVertex
 10
0.2358220672068568
 20
0.1311815659637432
 30
0.0
  0
VERTEX
  5
109A
330
FC2
100
AcDbEntity
  8
Brisckstyl
 62
     1
100
AcDbVertex
100
AcDb2dVertex
 10
0.235777959769723
 20
0.1313267628784165
 30
0.0
  0
VERTEX
  5
109B
330
FC2
100
AcDbEntity
  8
Brisckstyl
 62
     1
100
AcDbVertex
100
AcDb2dVertex
 10
0.2357431506571741
 20
0.1314707677001939
 30
0.0
  0
VERTEX
  5
109C
330
FC2
100
AcDbEntity
  8
Brisckstyl
 62
     1
100
AcDbVertex
100
AcDb2dVertex
 10
0.2357150172648406
 20
0.131615249359129
 30
0.0
  0
VERTEX
  5
109D
330
FC2
100
AcDbEntity
  8
Brisckstyl
 62
     1
100
AcDbVertex
100
AcDb2dVertex
 10
0.2356933211741419
 20
0.1317602078552227
 30
0.0
  0
VERTEX
  5
109E
330
FC2
100
AcDbEntity
  8
Brisckstyl
 62
     1
100
AcDbVertex
100
AcDb2dVertex
 10
0.2356773471293426
 20
0.1319058816070538
 30
0.0
  0
VERTEX
  5
109F
330
FC2
100
AcDbEntity
  8
Brisckstyl
 62
     1
100
AcDbVertex
100
AcDb2dVertex
 10
0.2356611346659637
 20
0.1321981827850323
 30
0.0
  0
VERTEX
  5
10A0
330
FC2
100
AcDbEntity
  8
Brisckstyl
 62
     1
100
AcDbVertex
100
AcDb2dVertex
 10
0.2356628035960169
 20
0.1324921528930649
 30
0.0
  0
VERTEX
  5
10A1
330
FC2
100
AcDbEntity
  8
Brisckstyl
 62
     1
100
AcDbVertex
100
AcDb2dVertex
 10
0.2356790160593963
 20
0.1327870766754131
 30
0.0
  0
VERTEX
  5
10A2
330
FC2
100
AcDbEntity
  8
Brisckstyl
 62
     1
100
AcDbVertex
100
AcDb2dVertex
 10
0.2357059573588343
 20
0.1330829541320782
 30
0.0
  0
VERTEX
  5
10A3
330
FC2
100
AcDbEntity
  8
Brisckstyl
 62
     1
100
AcDbVertex
100
AcDb2dVertex
 10
0.235777959769723
 20
0.1336763779754624
 30
0.0
  0
VERTEX
  5
10A4
330
FC2
100
AcDbEntity
  8
Brisckstyl
 62
     1
100
AcDbVertex
100
AcDb2dVertex
 10
0.2371028518137908
 20
0.1353493611450181
 30
0.0
  0
VERTEX
  5
10A5
330
FC2
100
AcDbEntity
  8
Brisckstyl
 62
     1
100
AcDbVertex
100
AcDb2dVertex
 10
0.2375916099009486
 20
0.1360183636779766
 30
0.0
  0
VERTEX
  5
10A6
330
FC2
100
AcDbEntity
  8
Brisckstyl
 62
     1
100
AcDbVertex
100
AcDb2dVertex
 10
0.2377623176035857
 20
0.1362813393707256
 30
0.0
  0
VERTEX
  5
10A7
330
FC2
100
AcDbEntity
  8
Brisckstyl
 62
     1
100
AcDbVertex
100
AcDb2dVertex
 10
0.2378254985270476
 20
0.1363914887542706
 30
0.0
  0
VERTEX
  5
10A8
330
FC2
100
AcDbEntity
  8
Brisckstyl
 62
     1
100
AcDbVertex
100
AcDb2dVertex
 10
0.2378510093150111
 20
0.1364408414001446
 30
0.0
  0
VERTEX
  5
10A9
330
FC2
100
AcDbEntity
  8
Brisckstyl
 62
     1
100
AcDbVertex
100
AcDb2dVertex
 10
0.2378722285685511
 20
0.1364859025115948
 30
0.0
  0
VERTEX
  5
10AA
330
FC2
100
AcDbEntity
  8
Brisckstyl
 62
     1
100
AcDbVertex
100
AcDb2dVertex
 10
0.237913236564157
 20
0.1365879456634502
 30
0.0
  0
VERTEX
  5
10AB
330
FC2
100
AcDbEntity
  8
Brisckstyl
 62
     1
100
AcDbVertex
100
AcDb2dVertex
 10
0.237958774512765
 20
0.136720029556273
 30
0.0
  0
VERTEX
  5
10AC
330
FC2
100
AcDbEntity
  8
Brisckstyl
 62
     1
100
AcDbVertex
100
AcDb2dVertex
 10
0.2380574798045143
 20
0.1370654980773907
 30
0.0
  0
VERTEX
  5
10AD
330
FC2
100
AcDbEntity
  8
Brisckstyl
 62
     1
100
AcDbVertex
100
AcDb2dVertex
 10
0.238155946677682
 20
0.137504188262938
 30
0.0
  0
VERTEX
  5
10AE
330
FC2
100
AcDbEntity
  8
Brisckstyl
 62
     1
100
AcDbVertex
100
AcDb2dVertex
 10
0.2382424926218963
 20
0.1380184571380596
 30
0.0
  0
VERTEX
  5
10AF
330
FC2
100
AcDbEntity
  8
Brisckstyl
 62
     1
100
AcDbVertex
100
AcDb2dVertex
 10
0.2383051967082
 20
0.1385899464721665
 30
0.0
  0
VERTEX
  5
10B0
330
FC2
100
AcDbEntity
  8
Brisckstyl
 62
     1
100
AcDbVertex
100
AcDb2dVertex
 10
0.2383237933573695
 20
0.1388917843933086
 30
0.0
  0
VERTEX
  5
10B1
330
FC2
100
AcDbEntity
  8
Brisckstyl
 62
     1
100
AcDbVertex
100
AcDb2dVertex
 10
0.2383318995890589
 20
0.1392012517089829
 30
0.0
  0
VERTEX
  5
10B2
330
FC2
100
AcDbEntity
  8
Brisckstyl
 62
     1
100
AcDbVertex
100
AcDb2dVertex
 10
0.2383280848917937
 20
0.1395159642333965
 30
0.0
  0
VERTEX
  5
10B3
330
FC2
100
AcDbEntity
  8
Brisckstyl
 62
     1
100
AcDbVertex
100
AcDb2dVertex
 10
0.2383106803355189
 20
0.139834014617918
 30
0.0
  0
VERTEX
  5
10B4
330
FC2
100
AcDbEntity
  8
Brisckstyl
 62
     1
100
AcDbVertex
100
AcDb2dVertex
 10
0.2382784938273406
 20
0.1401527802581768
 30
0.0
  0
VERTEX
  5
10B5
330
FC2
100
AcDbEntity
  8
Brisckstyl
 62
     1
100
AcDbVertex
100
AcDb2dVertex
 10
0.2382298564372039
 20
0.1404703538055405
 30
0.0
  0
VERTEX
  5
10B6
330
FC2
100
AcDbEntity
  8
Brisckstyl
 62
     1
100
AcDbVertex
100
AcDb2dVertex
 10
0.2381609534678435
 20
0.1407900731201153
 30
0.0
  0
VERTEX
  5
10B7
330
FC2
100
AcDbEntity
  8
Brisckstyl
 62
     1
100
AcDbVertex
100
AcDb2dVertex
 10
0.23807154650068
 20
0.141114560806273
 30
0.0
  0
VERTEX
  5
10B8
330
FC2
100
AcDbEntity
  8
Brisckstyl
 62
     1
100
AcDbVertex
100
AcDb2dVertex
 10
0.237964973395822
 20
0.1414404790039044
 30
0.0
  0
VERTEX
  5
10B9
330
FC2
100
AcDbEntity
  8
Brisckstyl
 62
     1
100
AcDbVertex
100
AcDb2dVertex
 10
0.2378450488505335
 20
0.1417640130157452
 30
0.0
  0
VERTEX
  5
10BA
330
FC2
100
AcDbEntity
  8
Brisckstyl
 62
     1
100
AcDbVertex
100
AcDb2dVertex
 10
0.2375777816233611
 20
0.1423910538787823
 30
0.0
  0
VERTEX
  5
10BB
330
FC2
100
AcDbEntity
  8
Brisckstyl
 62
     1
100
AcDbVertex
100
AcDb2dVertex
 10
0.2372974013743377
 20
0.142966834747313
 30
0.0
  0
VERTEX
  5
10BC
330
FC2
100
AcDbEntity
  8
Brisckstyl
 62
     1
100
AcDbVertex
100
AcDb2dVertex
 10
0.2368074511942835
 20
0.1438537518615704
 30
0.0
  0
VERTEX
  5
10BD
330
FC2
100
AcDbEntity
  8
Brisckstyl
 62
     1
100
AcDbVertex
100
AcDb2dVertex
 10
0.2365952586588836
 20
0.144199220382689
 30
0.0
  0
VERTEX
  5
10BE
330
FC2
100
AcDbEntity
  8
Brisckstyl
 62
     1
100
AcDbVertex
100
AcDb2dVertex
 10
0.2349096393046355
 20
0.1460381428832989
 30
0.0
  0
VERTEX
  5
10BF
330
FC2
100
AcDbEntity
  8
Brisckstyl
 62
     1
100
AcDbVertex
100
AcDb2dVertex
 10
0.2349096393046355
 20
0.1479280869598374
 30
0.0
  0
SEQEND
  5
10C0
330
FC2
100
AcDbEntity
  8
Brisckstyl
 62
     1
  0
LINE
  5
10C2
330
2
100
AcDbEntity
  8
Dimensione
 62
     2
100
AcDbLine
 10
0.2374034976420374
 20
0.1284686009521465
 30
0.0
 11
0.2634316125694094
 21
0.1284686009521465
 31
0.0
  0
LINE
  5
10C4
330
2
100
AcDbEntity
  8
Dimensione
 62
     2
100
AcDbLine
 10
0.2724065313660731
 20
0.1284686009521465
 30
0.0
 11
0.3313957381831869
 21
0.1284686009521465
 31
0.0
  0
LINE
  5
10C5
330
2
100
AcDbEntity
  8
Dimensione
 62
     2
100
AcDbLine
 10
0.2349096393046355
 20
0.1479280869598374
 30
0.0
 11
0.2634316125694094
 21
0.1479280869598374
 31
0.0
  0
LINE
  5
10C7
330
2
100
AcDbEntity
  8
Dimensione
 62
     2
100
AcDbLine
 10
0.2724065313660731
 20
0.1479280869598374
 30
0.0
 11
0.3313957381831869
 21
0.1479280869598374
 31
0.0
  0
LINE
  5
10C8
330
2
100
AcDbEntity
  8
Dimensione
 62
     2
100
AcDbLine
 10
0.2349096393046355
 20
0.1460381428832989
 30
0.0
 11
0.2634316125694094
 21
0.1460381428832989
 31
0.0
  0
LINE
  5
10CA
330
2
100
AcDbEntity
  8
Dimensione
 62
     2
100
AcDbLine
 10
0.2724065313660731
 20
0.1460381428832989
 30
0.0
 11
0.3313957381831869
 21
0.1460381428832989
 31
0.0
  0
LINE
  5
10CB
330
2
100
AcDbEntity
  8
Dimensione
 62
     2
100
AcDbLine
 10
0.2356756781992888
 20
0.1264229695434556
 30
0.0
 11
0.2635582421408503
 21
0.1264229695434556
 31
0.0
  0
LINE
  5
10CD
330
2
100
AcDbEntity
  8
Dimensione
 62
     2
100
AcDbLine
 10
0.2724065313660731
 20
0.1264229695434556
 30
0.0
 11
0.3313957381831869
 21
0.1264229695434556
 31
0.0
  0
VIEWPORT
  5
7B
330
79
100
AcDbEntity
 67
     1
  8
0
100
AcDbViewport
 10
145.330337524414
 20
101.8116638660431
 30
0.0
 40
351.1337450215151
 41
222.1517806396485
 68
     1
 69
     1
 12
145.330337524414
 22
101.8116638660431
 13
0.0
 23
0.0
 14
10.0
 24
10.0
 15
10.0
 25
10.0
 16
0.0
 26
0.0
 36
1.0
 17
0.0
 27
0.0
 37
0.0
 42
50.0
 43
0.0
 44
0.0
 45
222.1517806396485
 50
0.0
 51
0.0
 72
  1000
 90
    32800
  1

281
     0
 71
     1
 74
     0
110
0.0
120
0.0
130
0.0
111
1.0
121
0.0
131
0.0
112
0.0
122
1.0
132
0.0
 79
     0
146
0.0
170
     0
  0
VIEWPORT
  5
80
330
79
100
AcDbEntity
 67
     1
  8
Sezione
100
AcDbViewport
 10
145.3303314447403
 20
101.8116623163223
 30
0.0
 40
232.5285303115845
 41
162.8986597061157
 68
     2
 69
     2
 12
0.2100067158578973
 22
0.1484909068076998
 13
0.0
 23
0.0
 14
10.0
 24
10.0
 15
10.0
 25
10.0
 16
0.0
 26
0.0
 36
1.0
 17
0.0
 27
0.0
 37
0.0
 42
50.0
 43
0.0
 44
0.0
 45
0.2752830087467564
 50
0.0
 51
0.0
 72
  1000
 90
    32864
  1

281
     0
 71
     1
 74
     0
110
0.0
120
0.0
130
0.0
111
1.0
121
0.0
131
0.0
112
0.0
122
1.0
132
0.0
 79
     0
146
0.0
170
     0
  0
ENDSEC
  0
SECTION
  2
OBJECTS
  0
DICTIONARY
  5
9
330
0
100
AcDbDictionary
281
     1
  3
ACAD_2007HEADERVARS_RT
350
14A
  3
ACAD_COLOR
350
A1
  3
ACAD_GROUP
350
9C
  3
ACAD_LAYOUT
350
78
  3
ACAD_MATERIAL
350
B
  3
ACAD_MLINESTYLE
350
9D
  3
ACAD_PLOTSETTINGS
350
9E
  3
ACAD_PLOTSTYLENAME
350
8
  3
ACAD_TABLESTYLE
350
A2
  3
ACAD_VISUALSTYLE
350
7F
  3
AcDbVariableDictionary
350
A9
  3
AEC_CLASSIFICATION_SYSTEM_DEFS
350
8D2
  3
AEC_PROPERTY_SET_DEFS
350
10D
  0
DICTIONARY
  5
8B
330
8A
100
AcDbDictionary
280
     1
281
     1
  3
ACAD_LAYERFILTERS
360
670
  3
ACAD_LAYERSTATES
360
8D
  3
ACLYDICTIONARY
360
66F
  0
DICTIONARY
  5
3
330
2
100
AcDbDictionary
280
     1
281
     1
  3
ACAD_SORTENTS
360
A8
  0
DICTIONARY
  5
5D2
330
5AC
100
AcDbDictionary
280
     1
281
     1
  0
DICTIONARY
  5
14A
102
{ACAD_REACTORS
330
9
102
}
330
9
100
AcDbDictionary
281
     1
  3
DIMFXL
350
14B
  0
DICTIONARY
  5
A1
102
{ACAD_REACTORS
330
9
102
}
330
9
100
AcDbDictionary
281
     1
  0
DICTIONARY
  5
9C
102
{ACAD_REACTORS
330
9
102
}
330
9
100
AcDbDictionary
281
     1
  0
DICTIONARY
  5
78
102
{ACAD_REACTORS
330
9
102
}
330
9
100
AcDbDictionary
281
     1
  3
Layout1
350
82
  3
Layout2
350
89
  3
Model
350
77
  0
DICTIONARY
  5
B
102
{ACAD_REACTORS
330
9
102
}
330
9
100
AcDbDictionary
281
     1
  3
ByBlock
350
A0
  3
ByLayer
350
9F
  3
Global
350
A
  0
DICTIONARY
  5
9D
102
{ACAD_REACTORS
330
9
102
}
330
9
100
AcDbDictionary
281
     1
  3
Standard
350
A3
  0
DICTIONARY
  5
9E
102
{ACAD_REACTORS
330
9
102
}
330
9
100
AcDbDictionary
281
     1
  0
ACDBDICTIONARYWDFLT
  5
8
102
{ACAD_REACTORS
330
9
102
}
330
9
100
AcDbDictionary
281
     1
  3
Normal
350
7
100
AcDbDictionaryWithDefault
340
7
  0
DICTIONARY
  5
A2
102
{ACAD_REACTORS
330
9
102
}
330
9
100
AcDbDictionary
281
     1
  3
Standard
350
A4
  0
DICTIONARY
  5
7F
102
{ACAD_REACTORS
330
9
102
}
330
9
100
AcDbDictionary
281
     1
  3
2dWireframe
350
7E
  3
3D Hidden
350
D8
  3
3dWireframe
350
A6
  3
Basic
350
D7
  3
Brighten
350
DB
  3
ColorChange
350
DF
  3
Conceptual
350
D9
  3
Dim
350
DA
  3
Facepattern
350
DE
  3
Flat
350
D3
  3
FlatWithEdges
350
D4
  3
Gouraud
350
D5
  3
GouraudWithEdges
350
D6
  3
Linepattern
350
DD
  3
Realistic
350
A5
  3
Thicken
350
DC
  0
DICTIONARY
  5
A9
102
{ACAD_REACTORS
330
9
102
}
330
9
100
AcDbDictionary
281
     1
  3
CTABLESTYLE
350
AA
  3
DIMASSOC
350
AE
  3
HIDETEXT
350
AD
  3
INDEXCTL
350
AC
  3
PROJECTNAME
350
16A
  3
SORTENTS
350
AB
  0
DICTIONARY
  5
8D2
102
{ACAD_REACTORS
330
9
102
}
330
9
100
AcDbDictionary
281
     1
  0
DICTIONARY
  5
10D
102
{ACAD_REACTORS
330
9
102
}
330
9
100
AcDbDictionary
281
     1
  0
DICTIONARY
  5
670
102
{ACAD_REACTORS
330
8B
102
}
330
8B
100
AcDbDictionary
281
     1
  0
DICTIONARY
  5
8D
102
{ACAD_REACTORS
330
8B
102
}
330
8B
100
AcDbDictionary
281
     1
  0
DICTIONARY
  5
66F
102
{ACAD_REACTORS
330
8B
102
}
330
8B
100
AcDbDictionary
281
     1
1001
ACAD
1000
<All
  0
SORTENTSTABLE
  5
A8
102
{ACAD_REACTORS
330
3
102
}
330
3
100
AcDbSortentsTable
330
2
331
E2D
  5
F32
331
23
  5
24
331
14
  5
10
331
1F
  5
21
331
8D5
  5
8D5
331
E2C
  5
EBC
331
EBC
  5
E2C
331
22
  5
23
331
13
  5
D
331
1E
  5
1F
331
61B
  5
61B
331
8D4
  5
8D4
331
21
  5
22
331
1CA
  5
1CA
331
12
  5
16
331
1D
  5
1E
331
967
  5
967
331
11
  5
15
331
10
  5
14
331
9F6
  5
A00
331
9F5
  5
9FF
331
5FB
  5
5FB
331
B05
  5
B05
331
9F4
  5
9FE
331
27
  5
27
331
821
  5
821
331
77F
  5
781
331
D
  5
13
331
F32
  5
E2F
331
9F3
  5
9F6
331
614
  5
614
331
110
  5
110
331
17
  5
17
331
8D7
  5
8D7
331
25
  5
25
331
16
  5
12
331
10F
  5
10F
331
613
  5
613
331
E2E
  5
F36
331
C2B
  5
C2B
331
15
  5
11
331
8D6
  5
8D6
331
24
  5
18
  0
XRECORD
  5
14B
102
{ACAD_REACTORS
330
14A
102
}
330
14A
100
AcDbXrecord
280
     1
 40
0.18
  0
LAYOUT
  5
82
102
{ACAD_XDICTIONARY
360
83
102
}
102
{ACAD_REACTORS
330
78
102
}
330
78
100
AcDbPlotSettings
  1

  2
C:\Documents and Settings\All Users\Dati applicazioni\Autodesk\ADT 2006\enu\Plotters\Default Windows System Printer.pc3
  4
A4
  6

 40
3.174999952316281
 41
3.174999952316281
 42
3.175003051757812
 43
3.17498779296875
 44
209.9733276367186
 45
297.0106506347656
 46
0.0
 47
0.0
 48
0.0
 49
0.0
140
0.0
141
0.0
142
1.0
143
1.0
 70
   688
 72
     1
 73
     1
 74
     5
  7

 75
    16
147
1.0
 76
     0
 77
     2
 78
   300
148
0.0
149
0.0
100
AcDbLayout
  1
Layout1
 70
     1
 71
     1
 10
-3.17498779296875
 20
-3.174999952316281
 11
293.8356628417969
 21
206.7983276844024
 12
0.0
 22
0.0
 32
0.0
 14
29.06606628894805
 24
20.36233246326446
 34
0.0
 15
261.5945966005325
 25
183.2609921693802
 35
0.0
146
0.0
 13
0.0
 23
0.0
 33
0.0
 16
1.0
 26
0.0
 36
0.0
 17
0.0
 27
1.0
 37
0.0
 76
     0
330
79
331
7B
1001
ACAD_PSEXT
1000
C:\Documents and Settings\All Users\Dati applicazioni\Autodesk\ADT 2006\enu\Plotters\Default Windows System Printer.pc3
1000
Microsoft Office Document Image Writer Driver
1000
Microsoft Document Imaging Writer Port:
1000

1070
     0
  0
LAYOUT
  5
89
102
{ACAD_REACTORS
330
78
102
}
330
78
100
AcDbPlotSettings
  1

  2
C:\Documents and Settings\All Users\Dati applicazioni\Autodesk\ADT 2006\enu\Plotters\Default Windows System Printer.pc3
  4

  6

 40
0.0
 41
0.0
 42
0.0
 43
0.0
 44
0.0
 45
0.0
 46
0.0
 47
0.0
 48
0.0
 49
0.0
140
0.0
141
0.0
142
1.0
143
1.0
 70
   688
 72
     0
 73
     0
 74
     5
  7

 75
    16
147
1.0
 76
     0
 77
     2
 78
   300
148
0.0
149
0.0
100
AcDbLayout
  1
Layout2
 70
     1
 71
     2
 10
0.0
 20
0.0
 11
12.0
 21
9.0
 12
0.0
 22
0.0
 32
0.0
 14
0.0
 24
0.0
 34
0.0
 15
0.0
 25
0.0
 35
0.0
146
0.0
 13
0.0
 23
0.0
 33
0.0
 16
1.0
 26
0.0
 36
0.0
 17
0.0
 27
1.0
 37
0.0
 76
     0
330
86
  0
LAYOUT
  5
77
102
{ACAD_REACTORS
330
78
102
}
330
78
100
AcDbPlotSettings
  1

  2
C:\Documents and Settings\All Users\Dati applicazioni\Autodesk\ADT 2006\enu\Plotters\Default Windows System Printer.pc3
  4
A4
  6

 40
3.174999952316284
 41
3.174999952316284
 42
3.175003051757812
 43
3.17498779296875
 44
209.9733276367187
 45
297.0106506347656
 46
0.0
 47
0.0
 48
0.0
 49
0.0
140
0.0
141
0.0
142
1.0
143
0.0023165349582978
 70
 11952
 72
     1
 73
     1
 74
     0
  7

 75
     0
147
431.6792183161308
 76
     0
 77
     2
 78
   300
148
0.1167733237855941
149
0.0544011923099674
100
AcDbLayout
  1
Model
 70
     1
 71
     0
 10
0.0
 20
0.0
 11
12.0
 21
9.0
 12
0.0
 22
0.0
 32
0.0
 14
0.0
 24
0.0
 34
0.0
 15
0.0
 25
0.0
 35
0.0
146
0.0
 13
0.0
 23
0.0
 33
0.0
 16
1.0
 26
0.0
 36
0.0
 17
0.0
 27
1.0
 37
0.0
 76
     0
330
2
1001
ACAD_PSEXT
1000
C:\Documents and Settings\All Users\Dati applicazioni\Autodesk\ADT 2006\enu\Plotters\Default Windows System Printer.pc3
1000
Microsoft Office Document Image Writer Driver
1000
Microsoft Document Imaging Writer Port:
1000

1070
     0
  0
MATERIAL
  5
A0
102
{ACAD_XDICTIONARY
360
C7
102
}
102
{ACAD_REACTORS
330
B
102
}
330
B
100
AcDbMaterial
  1
ByBlock
  0
MATERIAL
  5
9F
102
{ACAD_XDICTIONARY
360
C5
102
}
102
{ACAD_REACTORS
330
B
102
}
330
B
100
AcDbMaterial
  1
ByLayer
  0
MATERIAL
  5
A
102
{ACAD_XDICTIONARY
360
B1
102
}
102
{ACAD_REACTORS
330
B
102
}
330
B
100
AcDbMaterial
  1
Global
  0
MLINESTYLE
  5
A3
102
{ACAD_REACTORS
330
9D
102
}
330
9D
100
AcDbMlineStyle
  2
STANDARD
 70
     0
  3

 62
   256
 51
90.0
 52
90.0
 71
     2
 49
0.5
 62
   256
  6
BYLAYER
 49
-0.5
 62
   256
  6
BYLAYER
  0
ACDBPLACEHOLDER
  5
7
102
{ACAD_REACTORS
330
8
102
}
330
8
  0
TABLESTYLE
  5
A4
102
{ACAD_XDICTIONARY
360
155
102
}
102
{ACAD_REACTORS
330
A2
102
}
330
A2
100
AcDbTableStyle
  3
Standard
 70
     0
 71
     0
 40
1.5
 41
1.5
280
     0
281
     0
  7
Standard
140
4.5
170
     2
 62
     0
 63
     7
283
     0
274
    -2
284
     1
 64
     0
275
    -2
285
     1
 65
     0
276
    -2
286
     1
 66
     0
277
    -2
287
     1
 67
     0
278
    -2
288
     1
 68
     0
279
    -2
289
     1
 69
     0
  7
Standard
140
6.0
170
     5
 62
     0
 63
     7
283
     0
274
    -2
284
     1
 64
     0
275
    -2
285
     1
 65
     0
276
    -2
286
     1
 66
     0
277
    -2
287
     1
 67
     0
278
    -2
288
     1
 68
     0
279
    -2
289
     1
 69
     0
  7
Standard
140
4.5
170
     5
 62
     0
 63
     7
283
     0
274
    -2
284
     1
 64
     0
275
    -2
285
     1
 65
     0
276
    -2
286
     1
 66
     0
277
    -2
287
     1
 67
     0
278
    -2
288
     1
 68
     0
279
    -2
289
     1
 69
     0
  0
ACAD_PROXY_OBJECT
  5
7E
102
{ACAD_REACTORS
330
7F
102
}
330
7F
100
AcDbProxyObject
 90
      499
 91
      508
 95
  1310743
 70
     1
100
AcDbVisualStyle
  2
2dWireframe
 70
     4
 71
     0
 72
     2
 73
     0
 90
        0
 40
-0.6
 41
-30.0
 62
     5
 63
     7
 74
     1
 91
        4
 64
     7
 65
   257
 75
     1
175
     1
 42
1.0
 92
        0
 66
   257
 43
1.0
 76
     1
 77
     6
 78
     2
 67
     7
 79
     5
170
     0
171
     0
290
     0
174
     0
 93
        1
 44
0.0
173
     0
291
     0
 45
0.0
1001
ACAD
1000
AcDbSavedByObjectVersion
1070
     0
1000
AcDbSavedByObjectVersion
1070
     0
1000
AcDbSavedByObjectVersion
1070
     0
  0
ACAD_PROXY_OBJECT
  5
D8
102
{ACAD_REACTORS
330
7F
102
}
330
7F
100
AcDbProxyObject
 90
      499
 91
      508
 95
  1310743
 70
     1
100
AcDbVisualStyle
  2
3D Hidden
 70
     6
 71
     1
 72
     2
 73
     2
 90
        0
 40
-0.6
 41
-30.0
 62
     5
 63
     7
 74
     2
 91
        2
 64
     7
 65
   257
 75
     2
175
     1
 42
40.0
 92
        0
 66
   257
 43
1.0
 76
     1
 77
     6
 78
     2
 67
     7
 79
     3
170
     0
171
     0
290
     0
174
     0
 93
        1
 44
0.0
173
     0
291
     0
 45
0.0
1001
ACAD
1000
AcDbSavedByObjectVersion
1070
     0
1000
AcDbSavedByObjectVersion
1070
     0
  0
ACAD_PROXY_OBJECT
  5
A6
102
{ACAD_REACTORS
330
7F
102
}
330
7F
100
AcDbProxyObject
 90
      499
 91
      508
 95
  1310743
 70
     1
100
AcDbVisualStyle
  2
3dWireframe
 70
     5
 71
     0
 72
     2
 73
     0
 90
        0
 40
-0.6
 41
-30.0
 62
     5
 63
     7
 74
     1
 91
        4
 64
     7
 65
   257
 75
     1
175
     1
 42
1.0
 92
        0
 66
   257
 43
1.0
 76
     1
 77
     6
 78
     2
 67
     7
 79
     5
170
     0
171
     0
290
     0
174
     0
 93
        1
 44
0.0
173
     0
291
     0
 45
0.0
1001
ACAD
1000
AcDbSavedByObjectVersion
1070
     0
1000
AcDbSavedByObjectVersion
1070
     0
1000
AcDbSavedByObjectVersion
1070
     0
  0
ACAD_PROXY_OBJECT
  5
D7
102
{ACAD_REACTORS
330
7F
102
}
330
7F
100
AcDbProxyObject
 90
      499
 91
      508
 95
  1310743
 70
     1
100
AcDbVisualStyle
  2
Basic
 70
     7
 71
     1
 72
     0
 73
     1
 90
        0
 40
-0.6
 41
-30.0
 62
     5
 63
     7
 74
     0
 91
        4
 64
     7
 65
   257
 75
     1
175
     1
 42
1.0
 92
        8
 66
     7
 43
1.0
 76
     1
 77
     6
 78
     2
 67
     7
 79
     5
170
     0
171
     0
290
     0
174
     0
 93
        1
 44
0.0
173
     0
291
     1
 45
0.0
1001
ACAD
1000
AcDbSavedByObjectVersion
1070
     0
1000
AcDbSavedByObjectVersion
1070
     0
  0
ACAD_PROXY_OBJECT
  5
DB
102
{ACAD_REACTORS
330
7F
102
}
330
7F
100
AcDbProxyObject
 90
      499
 91
      508
 95
  1310743
 70
     1
100
AcDbVisualStyle
  2
Brighten
 70
    12
 71
     2
 72
     2
 73
     0
 90
        0
 40
-0.6
 41
-30.0
 62
     5
 63
     7
 74
     1
 91
        4
 64
     7
 65
   257
 75
     1
175
     1
 42
1.0
 92
        8
 66
     7
 43
1.0
 76
     1
 77
     6
 78
     2
 67
     7
 79
     5
170
     0
171
     0
290
     0
174
     0
 93
        1
 44
50.0
173
     0
291
     1
 45
0.0
1001
ACAD
1000
AcDbSavedByObjectVersion
1070
     0
1000
AcDbSavedByObjectVersion
1070
     0
  0
ACAD_PROXY_OBJECT
  5
DF
102
{ACAD_REACTORS
330
7F
102
}
330
7F
100
AcDbProxyObject
 90
      499
 91
      508
 95
  1310743
 70
     1
100
AcDbVisualStyle
  2
ColorChange
 70
    16
 71
     2
 72
     2
 73
     3
 90
        0
 40
-0.6
 41
-30.0
 62
     5
 63
     8
 74
     1
 91
        4
 64
     7
 65
   257
 75
     1
175
     1
 42
1.0
 92
        8
 66
     8
 43
1.0
 76
     1
 77
     6
 78
     2
 67
     7
 79
     5
170
     0
171
     0
290
     0
174
     0
 93
        1
 44
0.0
173
     0
291
     1
 45
0.0
1001
ACAD
1000
AcDbSavedByObjectVersion
1070
     0
1000
AcDbSavedByObjectVersion
1070
     0
  0
ACAD_PROXY_OBJECT
  5
D9
102
{ACAD_REACTORS
330
7F
102
}
330
7F
100
AcDbProxyObject
 90
      499
 91
      508
 95
  1310743
 70
     1
100
AcDbVisualStyle
  2
Conceptual
 70
     9
 71
     3
 72
     2
 73
     0
 90
        0
 40
-0.6
 41
-30.0
 62
     5
 63
     7
 74
     2
 91
        2
 64
     7
 65
   257
 75
     1
175
     1
 42
40.0
 92
        8
 66
     7
 43
1.0
 76
     1
 77
     6
 78
     2
 67
     7
 79
     3
170
     0
171
     0
290
     0
174
     0
 93
        1
 44
0.0
173
     0
291
     0
 45
0.0
1001
ACAD
1000
AcDbSavedByObjectVersion
1070
     0
1000
AcDbSavedByObjectVersion
1070
     0
  0
ACAD_PROXY_OBJECT
  5
DA
102
{ACAD_REACTORS
330
7F
102
}
330
7F
100
AcDbProxyObject
 90
      499
 91
      508
 95
  1310743
 70
     1
100
AcDbVisualStyle
  2
Dim
 70
    11
 71
     2
 72
     2
 73
     0
 90
        0
 40
-0.6
 41
-30.0
 62
     5
 63
     7
 74
     1
 91
        4
 64
     7
 65
   257
 75
     1
175
     1
 42
1.0
 92
        8
 66
     7
 43
1.0
 76
     1
 77
     6
 78
     2
 67
     7
 79
     5
170
     0
171
     0
290
     0
174
     0
 93
        1
 44
-50.0
173
     0
291
     1
 45
0.0
1001
ACAD
1000
AcDbSavedByObjectVersion
1070
     0
1000
AcDbSavedByObjectVersion
1070
     0
  0
ACAD_PROXY_OBJECT
  5
DE
102
{ACAD_REACTORS
330
7F
102
}
330
7F
100
AcDbProxyObject
 90
      499
 91
      508
 95
  1310743
 70
     1
100
AcDbVisualStyle
  2
Facepattern
 70
    15
 71
     2
 72
     2
 73
     0
 90
        0
 40
-0.6
 41
-30.0
 62
     5
 63
     7
 74
     1
 91
        4
 64
     7
 65
   257
 75
     1
175
     1
 42
1.0
 92
        8
 66
     7
 43
1.0
 76
     1
 77
     6
 78
     2
 67
     7
 79
     5
170
     0
171
     0
290
     0
174
     0
 93
        1
 44
0.0
173
     0
291
     1
 45
0.0
1001
ACAD
1000
AcDbSavedByObjectVersion
1070
     0
1000
AcDbSavedByObjectVersion
1070
     0
  0
ACAD_PROXY_OBJECT
  5
D3
102
{ACAD_REACTORS
330
7F
102
}
330
7F
100
AcDbProxyObject
 90
      499
 91
      508
 95
  1310743
 70
     1
100
AcDbVisualStyle
  2
Flat
 70
     0
 71
     2
 72
     1
 73
     1
 90
        2
 40
-0.6
 41
30.0
 62
     5
 63
     7
 74
     0
 91
        4
 64
     7
 65
   257
 75
     1
175
     1
 42
1.0
 92
        8
 66
     7
 43
1.0
 76
     1
 77
     6
 78
     2
 67
     7
 79
     5
170
     0
171
     0
290
     0
174
     0
 93
       13
 44
0.0
173
     0
291
     1
 45
0.0
1001
ACAD
1000
AcDbSavedByObjectVersion
1070
     0
1000
AcDbSavedByObjectVersion
1070
     0
  0
ACAD_PROXY_OBJECT
  5
D4
102
{ACAD_REACTORS
330
7F
102
}
330
7F
100
AcDbProxyObject
 90
      499
 91
      508
 95
  1310743
 70
     1
100
AcDbVisualStyle
  2
FlatWithEdges
 70
     1
 71
     2
 72
     1
 73
     1
 90
        2
 40
-0.6
 41
30.0
 62
     5
 63
     7
 74
     1
 91
        4
 64
     7
 65
   257
 75
     1
175
     1
 42
1.0
 92
        0
 66
   257
 43
1.0
 76
     1
 77
     6
 78
     2
 67
     7
 79
     5
170
     0
171
     0
290
     0
174
     0
 93
       13
 44
0.0
173
     0
291
     1
 45
0.0
1001
ACAD
1000
AcDbSavedByObjectVersion
1070
     0
1000
AcDbSavedByObjectVersion
1070
     0
  0
ACAD_PROXY_OBJECT
  5
D5
102
{ACAD_REACTORS
330
7F
102
}
330
7F
100
AcDbProxyObject
 90
      499
 91
      508
 95
  1310743
 70
     1
100
AcDbVisualStyle
  2
Gouraud
 70
     2
 71
     2
 72
     2
 73
     1
 90
        2
 40
-0.6
 41
30.0
 62
     5
 63
     7
 74
     0
 91
        4
 64
     7
 65
   257
 75
     1
175
     1
 42
1.0
 92
        0
 66
     7
 43
1.0
 76
     1
 77
     6
 78
     2
 67
     7
 79
     5
170
     0
171
     0
290
     0
174
     0
 93
       13
 44
0.0
173
     0
291
     1
 45
0.0
1001
ACAD
1000
AcDbSavedByObjectVersion
1070
     0
1000
AcDbSavedByObjectVersion
1070
     0
  0
ACAD_PROXY_OBJECT
  5
D6
102
{ACAD_REACTORS
330
7F
102
}
330
7F
100
AcDbProxyObject
 90
      499
 91
      508
 95
  1310743
 70
     1
100
AcDbVisualStyle
  2
GouraudWithEdges
 70
     3
 71
     2
 72
     2
 73
     1
 90
        2
 40
-0.6
 41
30.0
 62
     5
 63
     7
 74
     1
 91
        4
 64
     7
 65
   257
 75
     1
175
     1
 42
1.0
 92
        0
 66
   257
 43
1.0
 76
     1
 77
     6
 78
     2
 67
     7
 79
     5
170
     0
171
     0
290
     0
174
     0
 93
       13
 44
0.0
173
     0
291
     1
 45
0.0
1001
ACAD
1000
AcDbSavedByObjectVersion
1070
     0
1000
AcDbSavedByObjectVersion
1070
     0
  0
ACAD_PROXY_OBJECT
  5
DD
102
{ACAD_REACTORS
330
7F
102
}
330
7F
100
AcDbProxyObject
 90
      499
 91
      508
 95
  1310743
 70
     1
100
AcDbVisualStyle
  2
Linepattern
 70
    14
 71
     2
 72
     2
 73
     0
 90
        0
 40
-0.6
 41
-30.0
 62
     5
 63
     7
 74
     1
 91
        4
 64
     7
 65
   257
 75
     7
175
     7
 42
1.0
 92
        8
 66
     7
 43
1.0
 76
     1
 77
     6
 78
     2
 67
     7
 79
     5
170
     0
171
     0
290
     0
174
     0
 93
        1
 44
0.0
173
     0
291
     1
 45
0.0
1001
ACAD
1000
AcDbSavedByObjectVersion
1070
     0
1000
AcDbSavedByObjectVersion
1070
     0
  0
ACAD_PROXY_OBJECT
  5
A5
102
{ACAD_REACTORS
330
7F
102
}
330
7F
100
AcDbProxyObject
 90
      499
 91
      508
 95
  1310743
 70
     1
100
AcDbVisualStyle
  2
Realistic
 70
     8
 71
     2
 72
     2
 73
     0
 90
        0
 40
-0.6
 41
-30.0
 62
     5
 63
     7
 74
     1
 91
        0
 64
     7
 65
   257
 75
     1
175
     1
 42
1.0
 92
        8
 66
     8
 43
1.0
 76
     1
 77
     6
 78
     2
 67
     7
 79
     5
170
     0
171
     0
290
     0
174
     0
 93
       13
 44
0.0
173
     0
291
     0
 45
0.0
1001
ACAD
1000
AcDbSavedByObjectVersion
1070
     0
1000
AcDbSavedByObjectVersion
1070
     0
1000
AcDbSavedByObjectVersion
1070
     0
  0
ACAD_PROXY_OBJECT
  5
DC
102
{ACAD_REACTORS
330
7F
102
}
330
7F
100
AcDbProxyObject
 90
      499
 91
      508
 95
  1310743
 70
     1
100
AcDbVisualStyle
  2
Thicken
 70
    13
 71
     2
 72
     2
 73
     0
 90
        0
 40
-0.6
 41
-30.0
 62
     5
 63
     7
 74
     1
 91
        4
 64
     7
 65
   257
 75
     1
175
     1
 42
1.0
 92
       12
 66
     7
 43
1.0
 76
     1
 77
     6
 78
     2
 67
     7
 79
     5
170
     0
171
     0
290
     0
174
     0
 93
        1
 44
0.0
173
     0
291
     1
 45
0.0
1001
ACAD
1000
AcDbSavedByObjectVersion
1070
     0
1000
AcDbSavedByObjectVersion
1070
     0
  0
DICTIONARYVAR
  5
AA
102
{ACAD_REACTORS
330
A9
102
}
330
A9
100
DictionaryVariables
280
     0
  1
STANDARD
  0
DICTIONARYVAR
  5
AE
102
{ACAD_REACTORS
330
A9
102
}
330
A9
100
DictionaryVariables
280
     0
  1
2
  0
DICTIONARYVAR
  5
AD
102
{ACAD_REACTORS
330
A9
102
}
330
A9
100
DictionaryVariables
280
     0
  1
1
  0
DICTIONARYVAR
  5
AC
102
{ACAD_REACTORS
330
A9
102
}
330
A9
100
DictionaryVariables
280
     0
  1
0
  0
DICTIONARYVAR
  5
16A
102
{ACAD_REACTORS
330
A9
102
}
330
A9
100
DictionaryVariables
280
     0
  1

  0
DICTIONARYVAR
  5
AB
102
{ACAD_REACTORS
330
A9
102
}
330
A9
100
DictionaryVariables
280
     0
  1
127
  0
DICTIONARY
  5
83
330
82
100
AcDbDictionary
280
     1
281
     1
  3
ADSK_XREC_LAYOUTTHUMBNAIL
360
84
  0
DICTIONARY
  5
C7
330
A0
100
AcDbDictionary
280
     1
281
     1
  3
ACAD_XREC_ROUNDTRIP
360
C8
  0
DICTIONARY
  5
C5
330
9F
100
AcDbDictionary
280
     1
281
     1
  3
ACAD_XREC_ROUNDTRIP
360
C6
  0
DICTIONARY
  5
B1
330
A
100
AcDbDictionary
280
     1
281
     1
  3
ACAD_XREC_ROUNDTRIP
360
B2
  0
DICTIONARY
  5
155
330
A4
100
AcDbDictionary
280
     1
281
     1
  3
ACAD_XREC_ROUNDTRIP
360
156
  0
XRECORD
  5
84
102
{ACAD_REACTORS
330
83
102
}
330
83
100
AcDbXrecord
280
     1
310
28000000B40000007F00000001000800000000004C59000000000000000000000001000000000000FFFFFF0000000000FFFFFF000000000000000000000000000000000000000000000000000000000000000000330000006600000099000000CC000000FF00000000330000333300006633000099330000CC330000FF3300
310
0000660000336600006666000099660000CC660000FF66000000990000339900006699000099990000CC990000FF99000000CC000033CC000066CC000099CC0000CCCC0000FFCC000000FF000033FF000066FF000099FF0000CCFF0000FFFF000000003300330033006600330099003300CC003300FF003300003333003333
310
33006633330099333300CC333300FF33330000663300336633006666330099663300CC663300FF66330000993300339933006699330099993300CC993300FF99330000CC330033CC330066CC330099CC3300CCCC3300FFCC330000FF330033FF330066FF330099FF3300CCFF3300FFFF330000006600330066006600660099
310
006600CC006600FF00660000336600333366006633660099336600CC336600FF33660000666600336666006666660099666600CC666600FF66660000996600339966006699660099996600CC996600FF99660000CC660033CC660066CC660099CC6600CCCC6600FFCC660000FF660033FF660066FF660099FF6600CCFF6600
310
FFFF660000009900330099006600990099009900CC009900FF00990000339900333399006633990099339900CC339900FF33990000669900336699006666990099669900CC669900FF66990000999900339999006699990099999900CC999900FF99990000CC990033CC990066CC990099CC9900CCCC9900FFCC990000FF99
310
0033FF990066FF990099FF9900CCFF9900FFFF99000000CC003300CC006600CC009900CC00CC00CC00FF00CC000033CC003333CC006633CC009933CC00CC33CC00FF33CC000066CC003366CC006666CC009966CC00CC66CC00FF66CC000099CC003399CC006699CC009999CC00CC99CC00FF99CC0000CCCC0033CCCC0066CC
310
CC0099CCCC00CCCCCC00FFCCCC0000FFCC0033FFCC0066FFCC0099FFCC00CCFFCC00FFFFCC000000FF003300FF006600FF009900FF00CC00FF00FF00FF000033FF003333FF006633FF009933FF00CC33FF00FF33FF000066FF003366FF006666FF009966FF00CC66FF00FF66FF000099FF003399FF006699FF009999FF00CC
310
99FF00FF99FF0000CCFF0033CCFF0066CCFF0099CCFF00CCCCFF00FFCCFF0000FFFF0033FFFF0066FFFF0099FFFF00CCFFFF00FFFFFF00000000000D0D0D001A1A1A00282828003535350043434300505050005D5D5D006B6B6B00787878008686860093939300A1A1A100AEAEAE00BBBBBB00C9C9C900D6D6D600E4E4E400
310
F1F1F100FFFFFF0000000000000000000000000000000000000000000000000000000000000000000000000000000000E2E2E2E2E2E2E2E2E2E2E2E2E2E2E2E2E2E2E2E2E2E2E2E2E2E2E2E2E2E2E2E2E2E2E2E2E2E2E2E2E2E2E2E2E2E2E2E2E2E2E2E2E2E2E2E2E2E2E2E2E2E2E2E2E2E2E2E2E2E2E2E2E2E2E2E2E2E2E2
310
E2E2E2E2E2E2E2E2E2E2E2E2E2E2E2E2E2E2E2E2E2E2E2E2E2E2E2E2E2E2E2E2E2E2E2E2E2E2E2E2E2E2E2E2E2E2E2E2E2E2E2E2E2E2E2E2E2E2E2E2E2E2E2E2E2E2E2E2E2E2E2E2E2E2E2E2E2E2E2E2E2E2E2E2E2E2E2E2E2E2E2E2E2E2E2E2E2E2E2E2E2E2F5F5F5F5F5F5F5F5F5F5F5F5F5F5F5F5F5F5F5F5F5F5F5F5F5
310
F5F5F5F5F5F5F5F5F5F5F5F5F5F5F5F5F5F5F5F5F5F5F5F5F5F5F5F5F5F5F5F5F5F5F5F5F5F5F5F5F5F5F5F5F5F5F5F5F5F5F5F5F5F5F5F5F5F5F5F5F5F5F5F5F5F5F5F5F5F5F5F5F5F5F5F5F5F5F5F5F5F5F5F5F5F5F5F5F5F5F5F5F5F5F5F5F5F5F5F5F5F5F5F5F5F5F5F5F5F5F5F5F5F5F5F5F5F5F5F5F5F5F5F5F5F5F5
310
F5F5F5F5F5F5F5F5F5F5F5F5F5F5F5F5F5F5F5F5F5F5F5F5F5F5E2E2F5E2E2E2E2E2E2E2E2E2F5F5F5F5F5F5F5F5F5E2E2E2E2E2E2E2E2E2E2E2E2E2E2E2E2F5F5F5F5F5F5F5F5F5E2E2E2E2E2E2E2E2E2E2E2E2E2E2E2E2F5F5F5F5F5F5F5F5F5E2E2E2E2E2E2E2E2E2E2E2E2E2E2E2E2F5F5F5F5F5F5F5F5F5E2E2E2E2E2
310
E2E2E2E2E2E2E2E2E2E2E2F5F5F5F5F5F5F5F5F5E2E2E2E2E2E2E2E2E2E2E2E2E2E2E2E2F5F5F5F5F5F5F5F5F5E2E2E2E2E2E2E2E2E2E2E2E2E2E2E2E2F5F5F5F5F5F5F5F5F5E2E2E2E2E2E2E2E2F5E2E2F5E2F5F5F5F5F5F5F5F5F5F5F5F5F5F5F5F5F5F5F5F5F5F5F5F5F5F5F5F5F5F5F5F5F5F5F5F5F5F5F5F5F5F5F5F5
310
F5F5F5F5F5F5F5F5F5F5F5F5F5F5F5F5F5F5F5F5F5F5F5F5F5F5F5F5F5F5F5F5F5F5F5F5F5F5F5F5F5F5F5F5F5F5F5F5F5F5F5F5F5F5F5F5F5F5F5F5F5F5F5F5F5F5F5F5F5F5F5F5F5F5F5F5F5F5F5F5F5F5F5F5F5F5F5F5F5F5F5F5F5F5F5F5F5F5F5F5F5F5F5F5F5F5F5F5F5F5F5F5F5F5F5F5F5F5F5F5F5F5F5F5F5F5F5
310
F5F5F5E2F5E2E2F5E2F5F5F5F5F5F5F5F5F5F5F5F5F5F5F5F5F5F5F5F5F5F5F5F5F5F5F5F5F5F5F5F5F5F5F5F5F5F5F5F5F5F5F5F5F5F5F5F5F5F5F5F5F5F5F5F5F5F5F5F5F5F5F5F5F5F5F5F5F5F5F5F5F5F5F5F5F5F5F5F5F5F5F5F5F5F5F5F5F5F5F5F5F5F5F5F5F5F5F5F5F5F5F5F5F5F5F5F5F5F5F5F5F5F5F5F5F5F5
310
F5F5F5F5F5F5F5F5F5F5F5F5F5F5F5F5F5F5F5F5F5F5F5F5F5F5F5F5F5F5F5F5F5F5F5F5F5F5F5F5F5F5F5F5F5F5F5F5F5F5F5F5F5F5F5F5E2F5E2E2F5E2F5F5F5F5F5F5F5F5F5F5F5F5F5F5F5F5F5F5F5F5F5F5F5F5F5F5F5F5F5F5F5F5F5F5F5F5F5F5F5F5F5F5F5F5F5F5F5F5F5F5F5F5F5F5F5F5F5F5F5F5F5F5F5F5F5
310
F5F5F5F5F5F5F5F5F5F5F5F5F5F5F5F5F5F5F5F5F5F5F5F5F5F5F5F5F5F5F5F5F5F5F5F5F5F5F5F5F5F5F5F5F5F5F5F5F5F5F5F5F5F5F5F5F5F5F5F5F5F5F5F5F5F5F5F5F5F5F5F5F5F5F5F5F5F5F5F5F5F5F5F5F5F5F5F5F5F5F5F5F5F5F5F5F5F5F5F5F5F5F5F5F5F5F5F5F5E2F5E2E2F5E2F5F5F5F5F5F5F5F5F5F5F5F5
310
F5F5F5F5F5F5F5F5F5F5F5F5F5F5F5F5F5F5F5F5F5F5F5F5F5F5F5F5F5F5F5F5F5F5F5F5F5F5F5F5F5F5F5F5F5F5F5F5F5F5F5F5F5F5F5F5F5F5F5F5F5F5F5F5F5F5F5F5F5F5F5F5F5F5F5F5F5F5F5F5F5F5F5F5F5F5F5F5F5F5F5F5F5F5F5F5F5F5F5F5F5F5F5F5F5F5F5F5F5F5F5F5F5F5F5F5F5F5F5F5F5F5F5F5F5F5F5
310
F5F5F5F5F5F5F5F5F5F5F5F5F5F5F5F5F5F5F5F5F5F5F5F5F5F5F5F5F5F5F5F5F5F5F5E2F5E2E2F5E2F5F5F5F5F5F5F5F5F5F5F5F5F5F5F5F5F5F5F5F5F5F5F5F5F5F5F5F5F5F5F5F5F5F5F5F5F5F5F5F5F5F5F5F5F5F5F5F5F5F5F5F5F5F5F5F5F5F5F5F5F5F5F5F5F5F5F5F5F5F5F5F5F5F5F5F5F5F5F5F5F5F5F5F5F5F5
310
F5F5F5F5F5F5F5F5F5F5F5F5F5F5F5F5F5F5F5F5F5F5F5F5F5F5F5F5F5F5F5F5F5F5F5F5F5F5F5F5F5F5F5F5F5F5F5F5F5F5F5F5F5F5F5F5F5F5F5F5F5F5F5F5F5F5F5F5F5F5F5F5F5F5F5F5F5F5F5F5F5F5F5F5F5F5F5F5E2F5E2E2F5E2F5F5F5F5F5F5F5F5F5F5F5F5F5F5F5F5F5F5F5F5F5F5F5F5F5F5F5F5F5F5F5F5F5
310
F5F5F5F5F5F5F5F5F5F5F5F5F5F5F5F5F5F5F5F5F5F5F5F5F5F5F5F5F5F5F5F5F5F5F5F5F5F5F5F5F5F5F5F5F5F5F5F5F5F5F5F5F5F5F5F5F5F5F5F5F5F5F5F5F5F5F5F5F5F5F5F5F5F5F5F5F5F5F5F5F5F5F5F5F5F5F5F5F5F5F5F5F5F5F5F5F5F5F5F5F5F5F5F5F5F5F5F5F5F5F5F5F5F5F5F5F5F5F5F5F5F5F5F5F5F5F5
310
F5F5F5F5F5F5F5F5F5F5F5F5F5F5E2F5E2E2F5E2F5F5F5F5F5F5F5F5F5F5F5F5F5F5F5F5F5F5F5F5F5F5F5F5F5F5F5F5F5F5F5F5F5F5F5F5F5F5F5F5F5F5F5F5F5F5F5F5F5F5F5F5F5F5F5F5F5F5F5F5F5F5F5F5F5F5F5F5F5F5F5F5F5F5F5F5F5F5F5F5F5F5F5F5F5F5F5F5F5F5F5F5F5F5F5F5F5F5F5F5F5F5F5F5F5F5F5
310
F5F5F5F5F5F5F5F5F5F5F5F5F5F5F5F5F5F5F5F5F5F5F5F5F5F5F5F5F5F5F5F5F5F5F5F5F5F5F5F5F5F5F5F5F5F5F5F5F5F5F5F5F5F5F5F5F5F5F5F5F5F5F5F5F5F5F5E2F5E2E2F5F5F5F5F5F5F5F5F5F5F5F5F5F5F5F5F5F5F5F5F5F5F5F5F5F5F5F5F5F5F5F5F5F5F5F5F5F5F5F5F5F5F5F5F5F5F5F5F5F5F5F5F5F5F5F5
310
F5F5F5F5F5F5F5F5F5F5F5F5F5F5F5F5F5F5F5F5F5F5F5F5F5F5F5F5F5F5F5F5F5F5F5F5F5F5F5F5F5F5F5F5F5F5F5F5F5F5F5F5F5F5F5F5F5F5F5F5F5F5F5F5F5F5F5F5F5F5F5F5F5F5F5F5F5F5F5F5F5F5F5F5F5F5F5F5F5F5F5F5F5F5F5F5F5F5F5F5F5F5F5F5F5F5F5F5F5F5F5F5F5F5F5F5F5F5F5F5F5F5E2E2F5F5F5
310
F5F5F5F5F5F5F5F5F5F5F5F5F5F5F5F5F5F5F5F5F5F5F5F5F5F5F5F5F5F5F5F5F5F5F5F5F5F5F5F5F5F5F5F5F5F5F5F5F5F5F5F5F5F5F5F5F5F5F5F5F5F5F5F5F5F5F5F5F5F5F5F5F5F5F5F5F5F5F5F5F5F5F5F5F5F5F5F5F5F5F5F5F5F5F5F5F5F5F5F5F5F5F5F5F5F5F5F5F5F5F5F5F5F5F5F5F5F5F5F5F5F5F5F5F5F5F5
310
F5F5F5F5F5F5F5F5F5F5F5F5F5F5F5F5F5F5F5F5F5F5F5F5F5F5F5F5F5F5F5F5F5F5F5F5F5F5F5F5F5F5F5F5F5F5F5F5E2E2F5F5F5F5F5F5F5F5F5F5F5F5F5F5F5F5F5F5F5F5F5F5F5F5F5F5F5F5F5F5F5F5F5F5F5F5F5F5F5F5F5F5F5F5F5F5F5F5F5F5F5F5F5F5F5F5F5F5F5F5F5F5F5F5F5F5F5F5F5F5F5F5F5F5F5F5F5
310
F5F5F5F5F5F5F5F5F5F5F5F5F5F5F5F5F5F5F5F5F5F5F5F5F5F5F5F5F5F5F5F5F5F5F5F5F5F5F5F5F5F5F5F5F5F5F5F5F5F5F5F5F5F5F5F5F5F5F5F5F5F5F5F5F5F5F5F5F5F5F5F5F5F5F5F5F5F5F5F5F5F5F5F5F5F5F5F5F5F5F5F5F5F5F5F5F5F5F5F5F5E2E2F5F5F5F5F5F5F5F5F5F5F5F5F5F5F5F5F5F5F5F5F5F5F5F5
310
F5F5F5F5F5F5F5F5F5F5F5F5F5F5F5F5F5F5F5F5F5F5F5F5F5F5F5F5F5F5F5F5F5F5F5F5F5F5F5F5F5F5F5F5F5F5F5F5F5F5F5F5F5F5F5F5F5F5F5F5F5F5F5F5F5F5F5F5F5F5F5F5F5F5F5F5F5F5F5F5F5F5F5F5F5F5F5F5F5F5F5F5F5F5F5F5F5F5F5F5F5F5F5F5F5F5F5F5F5F5F5F5F5F5F5F5F5F5F5F5F5F5F5F5F5F5F5
310
F5F5F5F5F5F5F5F5F5F5F5F5F5F5F5F5F5F5F5F5F5F5F5F5F5F5F5E2E2F5F5F5F5F5F5F5F5F5F5F5F5F5F5F5F5F5F5F5DCDCDCDCDCDCDCDCDCDCDCDCDCDCDCDCDCDCDCDCDCDCDCDCDCDCDCDCDCDCDCDCDCDCDCDCDCDCDCDCDCDCDCDCDCDCDCDCDCDCDCDCDCDCDCDCDCDCDCDCDCDCDCDCDCDCDCDCDCDCDCDCDCDCDCDCDCDCDC
310
DCDCDCDCDCDCDCDCDCDCDCDCDCDCDCDCDCDCDCDCDCDCDCDCDCDCDCDCDCDCDCDCDCDCDCDCDCDCDCDCDCDCDCDCDCDCDCDCDCDCDCDCDCDCDCDCDCDCDCDCDCF5F5F5F5F5F5F5F5F5F5F5F5F5F5F5F5F5F5F5E2E2F5F5F5F5F5F5F5F5F5F5F5F5F5F5F5F5F5F5F5DCDCDCDCDCDCDCDCDCDCDCDCDCDCDCDCDCDCDCDCDCDCDCDCDCDC
310
DCDCDCDCDCDCDCDCDCDCDCDCDCDCDCDCDCDCDCDCDCDCDCDCDCDCDCDCDCDCDCDCDCDCDCDCDCDCDCDCDCDCDCDCDCDCDCDCDCDCDCDCDCDCDCDCDCDCDCDCDCDCDCDCDCDCDCDCDCDCDCDCDCDCDCDCDCDCDCDCDCDCDCDCDCDCDCDCDCDCDCDCDCDCDCDCDCDCDCDCDCDCDCDCDCDCDCDCDCDCDCDCDCDCF5F5F5F5F5F5F5F5F5F5F5F5F5
310
F5F5F5F5F5F5E2E2F5F5F5F5F5F5F5F5F5F5F5F5F5F5F5F5F5F5F5DCF5F5F5F5F5F5F5F5F5F5F5F5F5F5F5F5F5F5F5F5F5F5F5F5F5F5F5F5F5F5F5F5F5F5F5F5F5F5F5F5F5F5F5F5F5F5F5F5F5F5F5F5F5F5F5F5F5F5F5F5F5F5F5F5F5F5F5F5F5F5F5F5F5F5F5F5F5F5F5F5F5F5F5F5F5F5F5F5F5F5F5F5F5F5F5F5F5F5F5
310
F5F5F5F5F5F5F5F5F5F5F5F5F5F5F5F5F5F5F5F5F5F5F5F5F5F5F5F5F5F5F5F5F5F5F5F5F5F5F5DCF5F5F5F5F5F5F5F5F5F5F5F5F5F5F5F5F5F5F5E2E2F5F5F5F5F5F5F5F5F5F5F5F5F5F5F5F5F5F5F5DCF5282828282828282828282828282828282828282828282828282828282828282828282828282828282828282828
310
28282828282828282828282828282828282828282828282828282828282828282828282828282828282828282828282828282828282828282828282828282828282828282828282828282828282828282828282828282828282828F5DCF5F5F5F5F5F5F5F5F5F5F5F5F5F5F5F5F5F5F5E2E2F5F5F5F5F5F5F5F5F5F5F5F5F5
310
F5F5F5F5F5F5DCF5282D2D2D2D2D2D2D2D2D2D2D2D2D2D2D2D2D2D2D2D2DF5F5F5F5F5F5F5F5F5F5F5F5F5F5F5F5F5F5F5F5F5F5F5F5F5F5F5F5F5F5F5F5F5F5F5F5F5F5F5F5F5F5F5F5F528F5F5F5F5F5F5F5F5F5F5F5F5F5F5F5F5F5F5F5F5F5F5F5F5F5F5F5F5F5F5F5F5F5F5F5F5F5F5F5F5F5F5F5F5F5F5F5F5F5F5F5
310
F5F5F5F5F5F5F5F5F5F5F5F5F5F5F5F528F5DCF5F5F5F5F5F5F5F5F5F5F5F5F5F5F5F5F5F5F5E2E2F5E2F5F5F5F5F5F5F5F5F5F5F5F5F5F5F5F5F5DCF5282D2D2D2D2D2D2D2D2D2D2D2D2D2D2D2D2D2D2D2D2D2D2D2D2D2D2D2D2DF5F5F5F5F5F5F5F5F5F5F5F5F5F5F5F5F5F5F5F5F5F5F5F5F5F5F5F5F5F5F5F5F5F5F5F5
310
F528F5F5F5F5F5F5F5F5F5F5F5F5F5F5F5F5F5F5F5F5F5F5F5F5F5F5F5F5F5F5F5F5F5F5F5F5F5F5F5F5F5F5F5F5F5F5F5F5F5F5F5F5F5F5F5F5F5F5F5F5F5F5F5F5F5F5F528F5DCF5F5F5F5F5F5F5F5F5F5F5F5F5F5F5F5F5E2F5E2E2F5E2F5F5F5F5F5F5F5F5F5F5F5F5F5F5F5F5F5DCF5282D2D2D2D2D2D2D2D2D2D2D2D
310
2D2D2D2D2D2D2D2D2D2D2D2D2D2D2D2D2DF5F5F5F5F5F5F5F5F5F5F5F5F5F5F5F5F5F5F5F5F5F5F5F5F5F5F5F5F5F5F5F5F5F5F5F5F528F5F5F5F5F5F5F5F52D2D2D2D2D2D2D2D2D2D2D2D2D2D2D2D2D2D2D2D2D2D2D2D2D2D2D2D2D2D2D2D2D2D2D2D2D2D2D2D2D2D2D2D2D2D2D2D2D2D2DF5F5F5F5F5F5F5F528F5DCF5F5
310
F5F5F5F5F5F5F5F5F5F5F5F5F5F5F5E2F5E2E2F5E2F5F5F5F5F5F5F5F5F5F5F5F5F5F5F5F5F5DCF5282D2D2D2D2D2D2D2D2D2D2D2D2D2D2D2D2D2D2D2D2D2D2D2D2D2D2D2D2D2D2D2D2D2D2D2D2D2D2D2D2D2D2D2D2D2D2D2D2D2D2D2D2D2D2D2D2D2D2D2D2D2D2D2D2D2D28F5F5F5F5F5F5F5F52D2D2D2D2D2D2D2D2D2D2D
310
2D2D2D2D2D2D2D2D2D2D2D2D2D2D2D2D2D2D2D2D2D2D2D2D2D2D2D2D2D2D2D2D2D2D2D2D2D2D2D2DF5F5F5F5F5F5F5F528F5DCF5F5F5F5F5F5F5F5F5F5F5F5F5F5F5F5F5E2F5E2E2F5E2F5F5F5F5F5F5F5F5F5F5F5F5F5F5F5F5F5DCF5282D2D2D2D2D2D2D2D2D2D2D2D2D2D2D2D2D2D2D2D2D2D2D2D2D2D2D2D2D2D2D2D2D
310
2D2D2D2D2D2D2D2D2D2D2D2D2D2D2D2D2D2D2D2D2D2D2D2D2D2D2D2D2DF5F5F5F528F5F5F5F5F5F5F5F5F5F5F5F52D2D2D2D2D2D2D2D2D2D2D2D2D2D2D2D2D2D2D2D2D2D2D2D2D2D2D2D2D2D2D2D2D2D2D2D2D2D2D2D2D2DF5F5F5F5F5F5F5F5F5F5F5F5F528F5DCF5F5F5F5F5F5F5F5F5F5F5F5F5F5F5F5F5E2F5E2E2F5E2
310
F5F5F5F5F5F5F5F5F5F5F5F5F5F5F5F5F5DCF5282D2D2D2D2D2D2D2D2D2D2D2D2D2D2D2D2D2D2D2D2D2D2D2D2D2D2D2D2D2D2D2D2D2D2D2D2D2D2D2D2D2D2D2D2D2D2D2D2D2D2D2D2D2D2D2D2D2D2D2D2D2DF5F5F5F528F5F5F5F5F5F5F5F5F5F5F5F52D2D2D2D2D2D2D2D2D2D2D2D2D2D2D2D2D2D2D2D2D2D2D2D2D2D2D2D
310
2D2D2D2D2D2D2D2D2D2D2D2D2D2DF5F5F5F5F5F5F5F5F5F5F5F5F528F5DCF5F5F5F5F5F5F5F5F5F5F5F5F5F5F5F5F5E2F5E2E2F5E2F5F5F5F5F5F5F5F5F5F5F5F5F5F5F5F5F5DCF5282D2D2D2D2D2D2D2D2D2D2D2D2D2D2D2D2D2D2D2D2D2D2D2D2D2D2D2D2D2D2D2D2D2D2D2D2D2D2D2D2D2D2D2D2D2D2D2D2D2D2D2D2D2D
310
2D2D2D2D2DF5F5F5F5F5F5F528F5F5F5F5F5F5F5F5F5F5F5F5F5F5F5F5F5F5F5F5F5F5F5F5F5F5F5F52D2D2D2D2D2D2D2D2D2DF5F5F5F5F5F5F5F5F5F5F5F5F5F5F5F5F5F5F5F5F5F5F5F5F5F5F5F5F528F5DCF5F5F5F5F5F5F5F5F5F5F5F5F5F5F5F5F5E2F5E2E2F5E2F5F5F5F5F5F5F5F5F5F5F5F5F5F5F5F5F5DCF5282D
310
2D2D2D2D2D2D2D2D2D2D2D2D2D2D2D2D2D2D2D2D2D2D2D2D2D2D2D2D2D2D2DF5F5F5F5F5F5F5F5F5F5F5F5F5F5F5F5F5F5F5F5F5F5F5F5F5F5F5F5F5F5F5F5F5F528F5F5F5F5F5F5F5F5F5F5F5F5F5F5F5F5F5F5F5F5F5F5F5F5F5F5F5F52D2D2D2D2D2D2D2D2D2DF5F5F5F5F5F5F5F5F5F5F5F5F5F5F5F5F5F5F5F5F5F5F5
310
F5F5F5F5F5F528F5DCF5F5F5F5F5F5F5F5F5F5F5F5F5F5F5F5F5E2F5E2E2F5E2F5F5F5F5F5F5F5F5F5F5F5F5F5F5F5F5F5DCF5282D2D2D2D2D2D2D2D2D2D2D2D2D2D2D2D2D2D2D2D2D2D2D2D2D2D2D2D2D2D2D2DF5F5F5F5F5F5F5F5F5F5F5F5F5F5F5F5F5F5F5F5F5F5F5F5F5F5F5F5F5F5F5F5F5F528F5F5F5F5F5F5F5F5
310
F5F5F5F5F5F5F5F5F5F5F5F5F5F5F5F5F5F5F5F52D2D2D2D2D2D2D2D2D2DF5F5F5F5F5F5F5F5F5F5F5F5F5F5F5F5F5F5F5F5F5F5F5F5F5F5F5F5F528F5DCF5F5F5F5F5F5F5F5F5F5F5F5F5F5F5F5F5E2F5E2E2F5E2F5F5F5F5F5F5F5F5F5F5F5F5F5F5F5F5F5DCF5282D2D2D2D2D2D2D2D2D2D2D2D2D2D2D2D2D2D2D2D2D2D
310
2D2D2D2D2D2D2D2D2D2D2D2D2D2D2D2D2D2D2D2D2D2D2D2D2D2D2D2D2D2D2D2D2D2D2D2D2D2D2D2D2D2DF5F528F5F5F5F5F5F5F5F5F5F5F5F5F5F5F5F5F5F5F5F5F5F5F5F5F5F5F5F5F5F5F5F5F5F5F5F5F5F5F5F5F5F5F5F5F5F5F5F5F5F5F5F5F5F5F5F5F5F5F5F5F5F5F5F5F5F5F528F5DCF5F5F5F5F5F5F5F5F5F5F5F5
310
F5F5F5F5F5E2F5E2E2F5E2F5F5F5F5F5F5F5F5F5F5F5F5F5F5F5F5F5DCF528F5F5F5F5F5F5F5F5F5F5F5F5F5F5F5F5F5F5F5F5F5F5F5F5F5F5F5F5F5F5F5F5F5F5F5F5F5F5F5F5F5F5F5F5F5F5F5F5F5F5F5F5F5F5F5F5F5F5F5F5F5F5F5F5F5F528F5F5F5F5F5F5F5F5F5F5F5F5F5F5F5F5F5F5F5F5F5F5F5F5F5F5F5F5F5
310
F5F5F5F5F5F5F5F5F5F5F5F5F5F5F5F5F5F5F5F5F5F5F5F5F5F5F5F5F5F5F5F5F5F5F5F5F5F528F5DCF5F5F5F5F5F5F5F5F5F5F5F5F5F5F5F5F5E2F5E2E2F5E2F5F5F5F5F5F5F5F5F5F5F5F5F5F5F5F5F5DCF52828282828282828282828282828282828282828282828282828282828282828282828282828282828282828
310
2828282828282828282828282828282828282828282828282828282828282828282828282828282828282828282828282828282828282828282828282828282828282828282828282828282828282828282828282828282828282828F5DCF5F5F5F5F5F5F5F5F5F5F5F5F5F5F5F5F5E2F5E2E2F5E2F5F5F5F5F5F5F5F5F5F5
310
F5F5F5F5F5F5F5DCF528F5F5F5F5F5F5F5F5F5F5F5F5F5F5F5F5F5F5F5F5F5F5F5F5F5F5F5F5F5F5F5F5F5F5F5F5F5F5F5F5F5F5F5F5F5F5F5F5F5F5F5F5F5F5F5F5F5F5F5F5F5F5F5F5F5F5F5F5F5F5F5F5F5F5F5F5F5F5F5F5F5F5F5F5F5F5F5F5F5F5F5F5F5F5F5F5F5F5F5F5F5F5F5F5F5F5F5F5F5F5F5F5F5F5F5F5F5
310
F5F5F5F5F5F5F5F5F5F5F5F5F5F5F5F5F528F5DCF5F5F5F5F5F5F5F5F5F5F5F5F5F5F5F5F5E2F5E2E2F5E2F5F5F5F5F5F5F5F5F5F5F5F5F5F5F5F5F5DCF528F5F5F5F5F5F5F5F5F5F5F5F5F5F5F5F5F5F5F5F5F5F5F5F5F5F5F5F5F5F5F5F5F5F5F5F5F5F5F5F5F5F5F5F5F5F5F5F5F5F5F5F5F5F5F5F5F5F5F5F5F5F5F5F5
310
F5F5F5F5F5F5F5F5F5F5F5F5F5F5F5F5F5F5F5F5F5F5F5F5F5F5F5F5F5F5F5F5F5F5F5F5F5F5F5F5F5F5F5F5F5F5F5F5F5F5F5F5F5F5F5F5F5F5F5F5F5F5F5F5F5F5F5F5F5F528F5DCF5F5F5F5F5F5F5F5F5F5F5F5F5F5F5F5F5E2F5E2E2F5E2F5F5F5F5F5F5F5F5F5F5F5F5F5F5F5F5F5DCF528F5F5F5F5F5F5F5F5F5F5F5
310
F5F5F5F5F5F5F5F5F5F5F5F5F5F5F5F5F5F5F5F5F5F5F5F5F5F5F5F5F5F5F5F5F5F5F5F5F5F5F5F5F5F5F5F5F5F5F5F5F5F5F5F5F5F5F5F5F5F5F5F5F5F5F5F5F5F5F5F5F5F5F5F5F5F5F5F5F5F5F5F5F5F5F5F5F5F5F5F5F5F5F5F5F5F5F5F5F5F5F5F5F5F5F5F5F5F5F5F5F5F5F5F5F5F5F5F5F5F5F5F5F5F5F528F5DCF5
310
F5F5F5F5F5F5F5F5F5F5F5F5F5F5F5F5E2F5E2E2F5E2F5F5F5F5F5F5F5F5F5F5F5F5F5F5F5F5F5DCF528F5F5F5F5F5F5F5F5F5F5F5F5F5F5F5F5F5F5F5F5F5F5F5F5F5F5F5F5F5F5F5F5F5F5F5F5F5F5F5F5F5F5F5F5F5F5F5F5F5F5F5F5F5F5F5F5F5F5F5F5F5F5F5F5F5F5F5F5F5F5F5F5F5F5F5F5F5F5F5F5F5F5F5F5F5
310
F5F5F5F5F5F5F5F5F5F5F5F5F5F5F5F5F5F5F5F5F5F5F5F5F5F5F5F5F5F5F5F5F5F5F5F5F5F5F5F5F5F5F5F5F5F5F5F5F528F5DCF5F5F5F5F5F5F5F5F5F5F5F5F5F5F5F5F5E2F5E2E2F5E2F5F5F5F5F5F5F5F5F5F5F5F5F5F5F5F5F5DCF528F5F5F5F5F5F5F5F5F5F5F5F5F5F5F5F5F5F5F5F5F5F5F5F5F5F5F5F5F5F5F5F5
310
F5F5F5F5F5F5F5F5F5F5F5F5F5F5F5F5F5F5F5F5F5F5F5F5F5F5F5F5F5F5F5F5F5F5F5F5F5F5F5F5F5F5F5F5F5F5F5F5F5F5F5F5F5F5F5F5F5F5F5F5F5F5F5F5F5F5F5F5F5F5F5F5F5F5F5F5F5F5F5F5F5F5F5F5F5F5F5F5F5F5F5F5F5F5F5F5F5F5F5F5F5F528F5DCF5F5F5F5F5F5F5F5F5F5F5F5F5F5F5F5F5E2F5E2E2F5
310
F5F5F5F5F5F5F5F5F5F5F5F5F5F5F5F5F5F5DCF528F5F5F5F5F5F5F5F5F5F5F5F5F5F5F5F5F5F5F5F5F5F5F5F5F5F5F5F5F5F5F5F5F5F5F5F5F5F5F5F5F5F5F5F5F5F5F5F5F5F5F5F5F5F5F5F5F5F5F5F5F5F5F5F5F5F5F5F5F5F5F5F5F5F5F5F5F5F5F5F5F5F5F5F5F5F5F5F5F5F5F5F5F5F5F5F5F5F5F5F5F5F5F5F5F5F5
310
F5F5F5F5F5F5F5F5F5F5F5F5F5F5F5F5F5F5F5F5F5F5F5F5F5F5F5F528F5DCF5F5F5F5F5F5F5F5F5F5F5F5F5F5F5F5F5F5F5E2E2F5F5F5F5F5F5F5F5F5F5F5F5F5F5F5F5F5F5F5DCF528F5F5F5F5F5F5F5F5F5F5F5F5F5F5F5F5F5F5F5F5F5F5F5F5F5F5F5F5F5F5F5F5F5F5F5F5F5F5F5F5F5F5F5F5F5F5F5F5F5F5F5F5F5
310
F5F5F5F5F5F5F5F5F5F5F5F5F5F5F5F5F5F5F5F5F5F5F5F5F5F5F5F5F5F5F5F5F5F5F5F5F5F5F5F5F5F5F5F5F5F5F5F5F5F5F5F5F5F5F5F5F5F5F5F5F5F5F5F5F5F5F5F5F5F5F5F5F5F5F5F5F5F5F5F5F528F5DCF5F5F5F5F5F5F5F5F5F5F5F5F5F5F5F5F5F5F5E2E2F5F5F5F5F5F5F5F5F5F5F5F5F5F5F5F5F5F5F5DCF528
310
F5F5F5F5F5F5F5F5F5F5F5F5F5F5F5F5F5F5F5F5F5F5F5F5F5F5F5F5F5F5F5F5F5F5F5F5F5F5F5F5F5F5F5F5F5F5F5F5F5F5F5F5F5F5F5F5F5F5F5F5F5F5F5F5F5F5F5F5F5F5F5F5F5F5F5F5F5F5F5F5F5F5F5F5F5F5F5F5F5F5F5F5F5F5F5F5F5F5F5F5F5F5F5F5F5F5F5F5F5F5F5F5F5F5F5F5F5F5F5F5F5F5F5F5F5F5F5
310
F5F5F5F5F5F5F528F5DCF5F5F5F5F5F5F5F5F5F5F5F5F5F5F5F5F5F5F5E2E2F5F5F5F5F5F5F5F5F5F5F5F5F5F5F5F5F5F5F5DCF528F5F5F5F5F5F5F5F5F5F5F5F5F5F5F5F5F5F5F5F5F5F5F5F5F5F5F5F5F5F5F5F5F5F5F5F5F5F5F5F5F5F5F5F5F5F5F5F5F5F5F5F5F5F5F5F5F5F5F5F5F5F5F5F5F5F5F5F5F5F5F5F5F5F5
310
F5F5F5F5F5F5F5F5F5F5F5F5F5F5F5F5F5F5F5F5F5F5F5F5F5F5F5F5F5F5F5F5F5F5F5F5F5F5F5F5F5F5F5F5F5F5F5F5F5F5F5F5F5F5F5F5F5F5F5F528F5DCF5F5F5F5F5F5F5F5F5F5F5F5F5F5F5F5F5F5F5E2E2F5F5F5F5F5F5F5F5F5F5F5F5F5F5F5F5F5F5F5DCF528F5F5F5F5F5F5F5F5F5F5F5F5F5F5F5F5F5F5F5F5F5
310
F5F5F5F5F5F5F5F5F5F5F5F5F5F5F5F5F5F5F5F5F5F5F5F5F5F5F5F5F5F5F5F5F5F5F5F5F5F5F5F5F5F5F5F5F5F5F5F5F5F5F5F5F5F5F5F5F5F5F5F5F5F5F5F5F5F5F5F5F5F5F5F5F5F5F5F5F5F5F5F5F5F5F5F5F5F5F5F5F5F5F5F5F5F5F5F5F5F5F5F5F5F5F5F5F5F5F5F5F5F5F5F5F528F5DCF5F5F5F5F5F5F5F5F5F5F5
310
F5F5F5F5F5F5F5F5E2E2F5F5F5F5F5F5F5F5F5F5F5F5F5F5F5F5F5F5F5DCF528F5F5F5F5F5F5F5F5F5F5F5F5F5F5F5F5F5F5F5F5F5F5F5F5F5F5F5F5F5F5F5F5F5F5F5F5F5F5F5F5F5F5F5F5F5F5F5F5F5F5F5F5F5F5F5F5F5F5F5F5F5F5F5F5F5F5F5F5F5F5F5F5F5F5F5F5F5F5F5F5F5F5F5F5F5F5F5F5F5F5F5F5F5F5F5
310
F5F5F5F5F5F5F5F5F5F5F5F5F5F5F5F5F5F5F5F5F5F5F5F5F5F5F5F5F5F5F5F5F5F5F5F5F5F5F528F5DCF5F5F5F5F5F5F5F5F5F5F5F5F5F5F5F5F5F5F5E2E2F5F5F5F5F5F5F5F5F5F5F5F5F5F5F5F5F5F5F5DCF528F5F5F5F5F5F5F5F5F5F5F5F5F5F5F5F5F5F5F5F5F5F5F5F5F5F5F5F5F5F5F5F5F5F5F5F5F5F5F5F5F5F5
310
F5F5F5F5F5F5F5F5F5F5F5F5F5F5F5F5F5F5F5F5F5F5F5F5F5F5F5F5F5F5F5F5F5F5F5F5F5F5F5F5F5F5F5F5F5F5F5F5F5F5F5F5F5F5F5F5F5F5F5F5F5F5F5F5F5F5F5F5F5F5F5F5F5F5F5F5F5F5F5F5F5F5F5F5F5F5F5F5F5F5F5F528F5DCF5F5F5F5F5F5F5F5F5F5F5F5F5F5F5F5F5F5F5E2E2F5F5F5F5F5F5F5F5F5F5F5
310
F5F5F5F5F5F5F5F5DCF528F5F5F5F5F5F5F5F5F5F5F5F5F5F5F52D2D2D2D2D2D2D2D2D2DF5F5F5F5F5F5F5F5F5F5F5F5F5F5F5F5F5F5F5F5F5F5F5F5F5F5F5F5F5F5F5F5F5F5F5F5F5F5F5F5F5F5F5F5F5F5F5F5F5F5F5F5F5F5F5F5F5F5F5F5F5F5F5F5F5F5F5F5F5F5F5F5F5F5F5F5F5F5F5F5F5F5F5F5F5F5F5F5F5F5F5
310
F5F5F5F5F5F5F5F5F5F5F5F5F5F5F5F5F5F528F5DCF5F5F5F5F5F5F5F5F5F5F5F5F5F5F5F5F5F5F5E2E2F5E2F5F5F5F5F5F5F5F5F5F5F5F5F5F5F5F5F5DCF528F5F5F5F5F5F5F5F5F5F5F5F5F5F5F52D2D2D2D2D2D2D2D2D2DF5F5F5F5F5F5F5F5F5F5F5F5F5F5F5F5F5F5F5F5F5F5F5F5F5F5F5F5F5F5F5F5F5F5F5F5F5F5
310
F5F5F5F5F5F5F5F5F5F5F5F5F5F5F5F5F5F5F5F5F5F5F5F5F5F5F5F5F5F5F5F5F5F5F5F5F5F5F5F5F5F5F5F5F5F5F5F5F5F5F5F5F5F5F5F5F5F5F5F5F5F5F5F5F5F5F5F5F5F5F528F5DCF5F5F5F5F5F5F5F5F5F5F5F5F5F5F5F5F5E2F5E2E2F5E2F5F5F5F5F5F5F5F5F5F5F5F5F5F5F5F5F5DCF528F5F5F5F5F5F5F5F5F5F5
310
F5F5F5F5F5F5F5F5F5F5F5F5F5F5F5F5F5F5F5F5F5F5F5F5F5F5F5F5F5F5F5F5F5F5F5F5F5F5F5F5F5F5F5F5F5F5F5F5F5F5F5F5F5F5F5F5F5F5F5F5F5F5F5F5F5F5F5F5F5F5F5F5F5F5F5F5F5F5F5F5F5F5F5F5F5F5F5F5F5F5F5F5F5F5F5F5F5F5F5F5F5F5F5F5F5F5F5F5F5F5F5F5F5F5F5F5F5F5F5F5F5F5F5F528F5DC
310
F5F5F5F5F5F5F5F5F5F5F5F5F5F5F5F5F5E2F5E2E2F5E2F5F5F5F5F5F5F5F5F5F5F5F5F5F5F5F5F5DCF528F5F5F5F5F5F5F5F5F5F5F5F5F5F5F5F5F5F5F5F5F5F5F5F5F5F5F5F5F5F5F5F5F5F5F5F5F5F5F5F5F5F5F5F5F5F5F5F5F5F5F5F5F5F5F5F5F5F5F5F5F5F5F5F5F5F5F5F5F5F5F5F5F5F5F5F5F5F5F5F5F5F5F5F5
310
F5F5F5F5F5F5F5F5F5F5F5F5F5F5F5F5F5F5F5F5F5F5F5F5F5F5F5F5F5F5F5F5F5F5F5F5F5F5F5F5F5F5F5F5F5F5F5F5F5F528F5DCF5F5F5F5F5F5F5F5F5F5F5F5F5F5F5F5F5E2F5E2E2F5E2F5F5F5F5F5F5F5F5F5F5F5F5F5F5F5F5F5DCF528F5F5F5F5F5F5F5F5F5F5F5F5F5F5F5F5F5F5F5F5F5F5F5F5F5F5F5F5F5F5F5
310
F5F5F5F5F5F5F5F5F5F5F5F5F5F5F5F5F5F5F5F5F5F5F5F5F5F5F5F5F5F5F5F5F5F5F5F5F5F5F5F5F5F5F5F5F5F5F5F5F5F5F5F5F5F5F5F5F5F5F5F5F5F5F5F5F5F5F5F5F5F5F5F5F5F5F5F5F5F5F5F5F5F5F5F5F5F5F5F5F5F5F5F5F5F5F5F5F5F5F5F5F5F5F528F5DCF5F5F5F5F5F5F5F5F5F5F5F5F5F5F5F5F5E2F5E2E2
310
F5E2F5F5F5F5F5F5F5F5F5F5F5F5F5F5F5F5F5DCF528F5F5F5F5F5F5F5F5F5F5F5F5F5F5F5F5F5F5F5F5F5F5F5F5F5F5F5F5F5F5F5F5F5F5F5F5F5F5F5F5F5F5F5F5F5F5F5F5F5F5F5F5F5F5F5F5F5F5F5F5F5F5F5F5F5F5F5F5F5F5F5F5F5F5F5F5F5F5F5F5F5F5F5F5F5F5F5F5F5F5F5F5F5F5F5F5F5F5F5F5F5F5F5F5F5
310
F5F5F5F5F5F5F5F5F5F5F5F5F5F5F5F5F5F5F5F5F5F5F5F5F5F5F5F5F528F5DCF5F5F5F5F5F5F5F5F5F5F5F5F5F5F5F5F5E2F5E2E2F5E2F5F5F5F5F5F5F5F5F5F5F5F5F5F5F5F5F5DCF528F5F5F5F5F5F5F5F5F5F5F5F5F5F5F5F5F5F5F5F5F5F5F5F5F5F5F5F5F5F5F5F5F5F5F5F5F5F5F5F5F5F5F5F5F5F5F5F5F5F5F5F5
310
F5F5F5F5F5F5F5F5F5F5F5F5F5F5F5F5F5F5F5F5F5F5F5F5F5F5F5F5F5F5F5F5F5F5F5F5F5F5F5F5F5F5F5F5F5F5F5F5F5F5F5F5F5F5F5F5F5F5F5F5F5F5F5F5F5F5F5F5F5F5F5F5F5F5F5F5F5F5F5F5F5F528F5DCF5F5F5F5F5F5F5F5F5F5F5F5F5F5F5F5F5E2F5E2E2F5E2F5F5F5F5F5F5F5F5F5F5F5F5F5F5F5F5F5DCF5
310
28F5F5F5F5F5F5F5F5F5F5F5F5F5F5F5F5F5F5F5F5F5F5F5F5F5F5F5F5F5F5F5F5F5F5F5F5F5F5F5F5F5F5F5F5F5F5F5F5F5F5F5F5F5F5F5F5F5F5F5F5F5F5F5F5F5F5F5F5F5F5F5F5F5F5F5F5F5F5F5F5F5F5F5F5F5F5F5F5F5F5F5F5F5F5F5F5F5F5F5F5F5F5F5F5F5F5F5F5F5F5F5F5F5F5F5F5F5F5F5F5F5F5F5F5F5F5
310
F5F5F5F5F5F5F5F528F5DCF5F5F5F5F5F5F5F5F5F5F5F5F5F5F5F5F5E2F5E2E2F5E2F5F5F5F5F5F5F5F5F5F5F5F5F5F5F5F5F5DCF528F5F5F5F5F5F5F5F5F5F5F5F5F5F5F5F5F5F5F5F5F5F5F5F5F5F5F5F5F5F5F5F5F5F5F5F5F5F5F5F5F5F5F5F5F5F5F5F5F5F5F5F5F5F5F5F5F5F5F5F5F5F5F5F5F5F5F5F5F5F5F5F5F5
310
F5F5F5F5F5F5F5F5F5F5F5F5F5F5F5F5F5F5F5F5F5F5F5F5F5F5F5F5F5F5F5F5F5F5F5F5F5F5F5F5F5F5F5F5F5F5F5F5F5F5F5F5F5F5F5F5F5F5F5F5F528F5DCF5F5F5F5F5F5F5F5F5F5F5F5F5F5F5F5F5E2F5E2E2F5E2F5F5F5F5F5F5F5F5F5F5F5F5F5F5F5F5F5DCF528F5F5F5F5F5F5F5F5F5F5F5F5F5F5F5F5F5F5F5F5
310
F5F5F5F5F5F5F5F5F5F5F5F5F5F5F5F5F5F5F5F5F5F5F5F5F5F5F5F5F5F5F5F5F5F5F5F5F5F5F5F5F5F5F5F5F5F5F5F5F5F5F5F5F5F5F5F5F5F5F5F5F5F5F5F5F5F5F5F5F5F5F5F5F5F5F5F5F5F5F5F5F5F5F5F5F5F5F5F5F5F5F5F5F5F5F5F5F5F5F5F5F5F5F5F5F5F5F5F5F5F5F5F5F5F528F5DCF5F5F5F5F5F5F5F5F5F5
310
F5F5F5F5F5F5F5E2F5E2E2F5E2F5F5F5F5F5F5F5F5F5F5F5F5F5F5F5F5F5DCF528F5F5F5F5F5F5F5F5F5DCF5F5F5F5F5F5F5F5F5F5F5F5F5F5F5F5F5F5F5F5F5F5F5F5F5F5F5F5F5F5F5F5F5F5F5F5F5F5F5F5F5F5F5F5F5F5F5F5F5F5F5F5F5F5F5F5F5F5F5F5F5F5F5F5F5F5F5F5F5F5F5F5F5F5F5F5F5F5F5F5F5F5F5F5
310
F5F5F5F5F5F5F5F5F5F5F5F5F5F5F5F5F5F5F5F5F5F5F5F5F5F5F5F5F5F5F5F5F5F5F5F5F5F5F5F528F5DCF5F5F5F5F5F5F5F5F5F5F5F5F5F5F5F5F5E2F5E2E2F5E2F5F5F5F5F5F5F5F5F5F5F5F5F5F5F5F5F5DCF528F5F5F5F5F5F5F5F50FDCF5F5F5F5F52D2D2D2D2D2D2D2DF5F5F5F5F50FF5F5F5F5F5F5F5F5F5F5F5F5
310
F5F5F5F5F5F5F5F5F5F5F5F5F5F5F5F5F5F5F5F5F5F5F5F5F5F5F5F5F5F5F5F5F5F5F5F5F5F5F5F5F5F5F5F5F5F5F5F5F5F5F5F5F5F5F5F5F5F5F5F5F5F5F5F5F5F5F5F5F5F5F5F5F5F5F5F5F5F5F5F5F5F5F5F5F5F5F5F5F5F5F5F5F528F5DCF5F5F5F5F5F5F5F5F5F5F5F5F5F5F5F5F5E2F5E2E2F5E2F5F5F5F5F5F5F5F5
310
F5F5F5F5F5F5F5F5F5DCF528F5F5F5F5DCF5F5DC0FDC0F0F0F0F0F2D2D2D2D2D2D2D2D0F0F0F0F0F0F0FF5F5F5F5F5F5F5F5F5F5F5F5F5F5F5F5F5F5F5F5F5F5F5F5F5F5F5F5F5F5F5F5F5F5F5F5F5F5F5F5F5F5F5F5F5F5F5F5F5F5F5F5F5F5F5F5F5F5F5F5F5F5F5F5F5F5F5F5F5F5F5F5F5F5F5F5F5F5F5F5F5F5F5F5F5
310
F5F5F5F5F5F5F5F5F5F5F5F5F5F5F5F5F5F5F528F5DCF5F5F5F5F5F5F5F5F5F5F5F5F5F5F5F5F5E2F5E2E2F5E2F5F5F5F5F5F5F5F5F5F5F5F5F5F5F5F5F5DCF528F5F5F5DCF5F5DCF5F5DCF5F5F5F5F5F5F5F5F5F5F5F5F5F5F5F5F5F50FF5F5F5F5F5F5F5F5F5F5F5F5F5F5F5F5F5F5F5F5F5F5F5F5F5F5F5F5F5F5F5F5F5
310
F5F5F5F5F5F5F5F5F5F5F5F5F5F5F5F5F5F5F5F5F5F5F5F5F5F5F5F5F5F5F5F5F5F5F5F5F5F5F5F5F5F5F5F5F5F5F5F5F5F5F5F5F5F5F5F5F5F5F5F5F5F5F5F5F5F5F5F5F5F5F5F528F5DCF5F5F5F5F5F5F5F5F5F5F5F5F5F5F5F5F5E2F5E2E2F5E2F5F5F5F5F5F5F5F5F5F5F5F5F5F5F5F5F5DCF528F5F5F5F5F5DCF5F5DC
310
DCF5F5F5F5F5F5F5F5F5F5F5F5F5F5F5F5F5F50FF5F5F5F5F5F5F5F5F5F5F5F5F5F5F5F5F5F5F5F5F5F5F5F5F5F5F5F5F5F5F5F5F5F5F5F5F5F5F5F5F5F5F5F5F5F5F5F5F5F5F5F5F5F5F5F5F5F5F5F5F5F5F5F5F5F5F5F5F5F5F5F5F5F5F5F5F5F5F5F5F5F5F5F5F5F5F5F5F5F5F5F5F5F5F5F5F5F5F5F5F5F5F5F5F528F5
310
DCF5F5F5F5F5F5F5F5F5F5F5F5F5F5F5F5F5E2F5E2E2F5E2F5F5F5F5F5F5F5F5F5F5F5F5F5F5F5F5F5DCF528F5F5F5F5DCF5F5DCF5DCF5F5F5F5F5F5F5F5F5F5F5F5F5F5F5F5F5F50FF5F5F5F5F5F5F5F5F5F5F5F5F5F5F5F5F5F5F5F5F5F5F5F5F5F5F5F5F5F5F5F5F5F5F5F5F5F5F5F5F5F5F5F5F5F5F5F5F5F5F5F5F5F5
310
F5F5F5F5F5F5F5F5F5F5F5F5F5F5F5F5F5F5F5F5F5F5F5F5F5F5F5F5F5F5F5F5F5F5F5F5F5F5F5F5F5F5F5F5F5F5F5F5F5F5F528F5DCF5F5F5F5F5F5F5F5F5F5F5F5F5F5F5F5F5E2F5E2E2F5E2F5F5F5F5F5F5F5F5F5F5F5F5F5F5F5F5F5DCF528F5F5F5DCF5F5DCF5F5DCF5F5F5F5F5F5F5F5F5F5F5F5F5F5F5F5F5F50FF5
310
F5F5F5F5F5F5F5F5F5F5F5F5F5F5F5F5F5F5F5F5F5F5F5F5F5F5F5F5F5F5F5F5F5F5F5F5F5F5F5F5F5F5F5F5F5F5F5F5F5F5F5F5F5F5F5F5F5F5F5F5F5F5F5F5F5F5F5F5F5F5F5F5F5F5F5F5F5F5F5F5F5F5F5F5F5F5F5F5F5F5F5F5F5F5F5F5F5F5F5F5F5F5F5F528F5DCF5F5F5F5F5F5F5F5F5F5F5F5F5F5F5F5F5E2F5E2
310
E2F5F5F5F5F5F5F5F5F5F5F5F5F5F5F5F5F5F5F5DCF528F5F5F5F5F5DCF5F5F5DC1B0F0F0F0F0F0F0F0F0F0F0F0F0F0F0F0F0F0F0F0F0F0F0F0F0FF5F5F5F5F5F5F5F5F5F5F5F5F5F5F5F5F5F5F5F5F5F5F5F5F5F5F5F5F5F5F5F5F5F5F5F5F5F5F5F5F5F5F5F5F5F5F5F5F5F5F5F5F5F5F5F5F5F5F5F5F5F5F5F5F5F5F5F5
310
F5F5F5F5F5F5F5F5F5F5F5F5F5F5F5F5F5F5F5F5F5F5F5F5F5F5F5F5F5F528F5DCF5F5F5F5F5F5F5F5F5F5F5F5F5F5F5F5F5F5F5E2E2F5F5F5F5F5F5F5F5F5F5F5F5F5F5F5F5F5F5F5DCF528F5F5F5F5DCF5F5F5DCDCBEF5F5F5F5F5F5F5F5F5F5F5F5F5F5F5F5F50FF5F5F5F5F50FF5F5F5F5F5F5F5F5F5F5F5F5F5F5F5F5
310
F5F5F5F5F5F5F5F5F5F5F5F5F5F5F5F5F5F5F5F5F5F5F5F5F5F5F5F5F5F5F5F5F5F5F5F5F5F5F5F5F5F5F5F5F5F5F5F5F5F5F5F5F5F5F5F5F5F5F5F5F5F5F5F5F5F5F5F5F5F5F5F5F5F5F5F5F5F5F5F5F5F5F528F5DCF5F5F5F5F5F5F5F5F5F5F5F5F5F5F5F5F5F5F5E2E2F5F5F5F5F5F5F5F5F5F5F5F5F5F5F5F5F5F5F5DC
310
F528F5F5F5DCF5F5F5DCF5DCF5BEBEF5F5F5F5F5F5F5F5F5F5F5F5F5F5F50FF5F5F5F5F50FF5F5F5F5F5F5F5F5F5F5F5F5F5F5F5F5F5F5F5F5F5F5F5F5F5F5F5F5F5F5F5F5F5F5F5F5F5F5F5F5F5F5F5F5F5F5F5F5F5F5F5F5F5F5F5F5F5F5F5F5F5F5F5F5F5F5F5F5F5F5F5F5F5F5F5F5F5F5F5F5F5F5F5F5F5F5F5F5F5F5
310
F5F5F5F5F5F5F5F5F528F5DCF5F5F5F5F5F5F5F5F5F5F5F5F5F5F5F5F5F5F5E2E2F5F5F5F5F5F5F5F5F5F5F5F5F5F5F5F5F5F5F5DCF528F5F5F5F5F5DCDCF5F5DCF5F5BEBEF5F5F5F5F5F5F5F5F5F5F5F5F5F50FF5F5F5F5F50FF5F5F5F5F5F5F5F5F5F5F5F5F5F5F5F5F5F5F5F5F5F5F5F5F5F5F5F5F5F5F5F5F5F5F5F5F5
310
F5F5F5F5F5F5F5F5F5F5F5F5F5F5F5F5F5F5F5F5F5F5F5F5F5F5F5F5F5F5F5F5F5F5F5F5F5F5F5F5F5F5F5F5F5F5F5F5F5F5F5F5F5F5F5F5F5F5F5F5F5F528F5DCF5F5F5F5F5F5F5F5F5F5F5F5F5F5F5F5F5F5F5E2E2F5F5F5F5F5F5F5F5F5F5F5F5F5F5F5F5F5F5F5DCF528F5F5F5F5DCF5F5F5DCDCF5F5F5BEF5F5F5F5F5
310
F5F5F5F5F5F5F5F5F50FF5F5F5F5F50FF5F5F5F5F5F5F5F5F5F5F5F5F5F5F5F5F5F5F5F5F5F5F5F5F5F5F5F5F5F5F5F5F5F5F5F5F5F5F5F5F5F5F5F5F5F5F5F5F5F5F5F5F5F5F5F5F5F5F5F5F5F5F5F5F5F5F5F5F5F5F5F5F5F5F5F5F5F5F5F5F5F5F5F5F5F5F5F5F5F5F5F5F5F5F5F5F5F5F528F5DCF5F5F5F5F5F5F5F5F5
310
F5F5F5F5F5F5F5F5F5F5E2E2F5F5F5F5F5F5F5F5F5F5F5F5F5F5F5F5F5F5F5DCF528F5F5F5DCF5F5F5DCF5DCF5F5F5BEBEBEF5F5F5F5F5F5F5F5F5F5F5F50FF5F5F5F5F50FF5F5F5F5F5F5F5F5F5F5F5F5F5F5F5F5F5F5F5F5F5F5F5F5F5F5F5F5F5F5F5F5F5F5F5F5F5F5F5F5F5F5F5F5F5F5F5F5F5F5F5F5F5F5F5F5F5F5
310
F5F5F5F5F5F5F5F5F5F5F5F5F5F5F5F5F5F5F5F5F5F5F5F5F5F5F5F5F5F5F5F5F5F5F5F5F5F5F5F5F528F5DCF5F5F5F5F5F5F5F5F5F5F5F5F5F5F5F5F5F5F5E2E2F5F5F5F5F5F5F5F5F5F5F5F5F5F5F5F5F5F5F5DCF528F5F5F5F5F5DCDCF5F5DCF5F5F5F5BEBEF5F5F5F5F5F5F5F5F5F5F5F50FF5F5F5F5F50FF5F5F5F5F5
310
F5F5F5F5F5F5F5F5F5F5F5F5F5F5F5F5F5F5F5F5F5F5F5F5F5F5F5F5F5F5F5F5F5F5F5F5F5F5F5F5F5F5F5F5F5F5F5F5F5F5F5F5F5F5F5F5F5F5F5F5F5F5F5F5F5F5F5F5F5F5F5F5F5F5F5F5F5F5F5F5F5F5F5F5F5F5F5F5F5F5F5F5F5F528F5DCF5F5F5F5F5F5F5F5F5F5F5F5F5F5F5F5F5F5F5E2E2F5F5F5F5F5F5F5F5F5
310
F5F5F5F5F5F5F5F5F5F5DCF528F5F5F5F5DCF5F5F5DCDCF5F5F5F5BEF5F5F5F5F5F5F5F5F5F5F5F5F50FF5F5F5F5F50FF5F5F5F5F5F5F5F5F5F5F5F5F5F5F5F5F5F5F5F5F5F5F5F5F5F5F5F5F5F5F5F5F5F5F5F5F5F5F5F5F5F5F5F5F5F5F5F5F5F5F5F5F5F5F5F5F5F5F5F5F5F5F5F5F5F5F5F5F5F5F5F5F5F5F5F5F5F5F5
310
F5F5F5F5F5F5F5F5F5F5F5F5F5F5F5F5F5F5F5F528F5DCF5F5F5F5F5F5F5F5F5F5F5F5F5F5F5F5F5F5F5E2E2F5F5F5F5F5F5F5F5F5F5F5F5F5F5F5F5F5F5F5DCF528F5F5F5DCF5F5F5DCF5DCF5F5F5F5BEF5F5F5F5F5F5F5F5F5F5F5F5F50FF5F5F5F5F50FF5F5F5F5F5F5F5F5F5F5F5F5F5F5F5F5F5F5F5F5F5F5F5F5F5F5
310
F5F5F5F5F5F5F5F5F5F5F5F5F5F5F5F5F5F5F5F5F5F5F5F5F5F5F5F5F5F5F5F5F5F5F5F5F5F5F5F5F5F5F5F5F5F5F5F5F5F5F5F5F5F5F5F5F5F5F5F5F5F5F5F5F5F5F5F5F5F5F5F5F528F5DCF5F5F5F5F5F5F5F5F5F5F5F5F5F5F5F5F5F5F5E2E2F5E2F5F5F5F5F5F5F5F5F5F5F5F5F5F5F5F5F5DCF528F5F5F5F5F5F5DCF5
310
F5DCBEBEF5F5BEF5F5F5F5F5F5F5F5F5F5F5F5F50FF5F52D2D2D2D2D2D2D2DF5F5F5F5F5F5F5F5F5F5F5F5F5F5F5F5F5F5F5F5F5F5F5F5F5F5F5F5F5F5F5F5F5F5F5F5F5F5F5F5F5F5F5F5F5F5F5F5F5F5F5F5F5F5F5F5F5F5F5F5F5F5F5F5F5F5F5F5F5F5F5F5F5F5F5F5F5F5F5F5F5F5F5F5F5F5F5F5F5F5F5F5F5F5F528
310
F5DCF5F5F5F5F5F5F5F5F5F5F5F5F5F5F5F5F5E2F5E2E2F5E2F5F5F5F5F5F5F5F5F5F5F5F5F5F5F5F5F5DCF528F5F5F5F5F5DCF5F5DCDCF5BEF5F5BEF5F5F5F5F5F5F5F5F5F5F5F5F50FF5F52D2D2D2D2D2D2D2DF5F5F5F5F5F5F5F5F5F5F5F5F5F5F5F5F5F5F5F5F5F5F5F5F5F5F5F5F5F5F5F5F5F5F5F5F5F5F5F5F5F5F5
310
F5F5F5F5F5F5F5F5F5F5F5F5F5F5F5F5F5F5F5F5F5F5F5F5F5F5F5F5F5F5F5F5F5F5F5F5F5F5F5F5F5F5F5F5F5F5F5F5F5F5F5F528F5DCF5F5F5F5F5F5F5F5F5F5F5F5F5F5F5F5F5E2F5E2E2F5E2F5F5F5F5F5F5F5F5F5F5F5F5F5F5F5F5F5DCF528F5F5F5F5DCF5F5DCF5DCF5BEF5F5BEBEF5F5F5F5F5F5F5F5F5F5F5F50F
310
F5F5F5F5F50FF5F5F5F5F5F5F5F5F5F5F5F5F5F5F5F5F5F5F5F5F5F5F5F5F5F5F5F5F5F5F5F5F5F5F5F5F5F5F5F5F5F5F5F5F5F5F5F5F5F5F5F5F5F5F5F5F5F5F5F5F5F5F5F5F5F5F5F5F5F5F5F5F5F5F5F5F5F5F5F5F5F5F5F5F5F5F5F5F5F5F5F5F5F5F5F5F5F5F528F5DCF5F5F5F5F5F5F5F5F5F5F5F5F5F5F5F5F5E2F5
310
E2E2F5E2F5F5F5F5F5F5F5F5F5F5F5F5F5F5F5F5F5DCF528F5F5F5DCF5F5DCF5F5DCF5F5BEF5F5BEF5F5F5F5F5F5F5F5F5F5F5F50FF5F5F5F5F50FF5F5F5F5F5F5F5F5F5F5F5F5F5F5F5F5F5F5F5F5F5F5F5F5F5F5F5F5F5F5F5F5F5F5F5F5F5F5F5F5F5F5F5F5F5F5F5F5F5F5F5F5F5F5F5F5F5F5F5F5F5F5F5F5F5F5F5F5
310
F5F5F5F5F5F5F5F5F5F5F5F5F5F5F5F5F5F5F5F5F5F5F5F5F5F5F5F5F5F5F528F5DCF5F5F5F5F5F5F5F5F5F5F5F5F5F5F5F5F5E2F5E2E2F5E2F5F5F5F5F5F5F5F5F5F5F5F5F5F5F5F5F5DCF528F5F5F5F5F5DCF5F5DCDCF5F5BEF5F5F5BEBEF5F5F5F5BEBEF5F5F5F50FF5F5F5F5F50FF5F5F5F5F5F5F5F5F5F5F5F5F5F5F5
310
F5F5F5F5F5F5F5F5F5F5F5F5F5F5F5F5F5F5F5F5F5F5F5F5F5F5F5F5F5F5F5F5F5F5F5F5F5F5F5F5F5F5F5F5F5F5F5F5F5F5F5F5F5F5F5F5F5F5F5F5F5F5F5F5F5F5F5F5F5F5F5F5F5F5F5F5F5F5F5F5F5F5F5F528F5DCF5F5F5F5F5F5F5F5F5F5F5F5F5F5F5F5F5E2F5E2E2F5E2F5F5F5F5F5F5F5F5F5F5F5F5F5F5F5F5F5
310
DCF528F5F5F5F5DCF5F5DCF5DCF5F5F5BEF5F5F5BEBEBEBEBEF5BEF5F5F5F50FF5F5F5F5F50FF5F5F5F5F5F5F5F5F5F5F5F5F5F5F5F5F5F5F5F5F5F5F5F5F5F5F5F5F5F5F5F5F5F5F5F5F5F5F5F5F5F5F5F5F5F5F5F5F5F5F5F5F5F5F5F5F5F5F5F5F5F5F5F5F5F5F5F5F5F5F5F5F5F5F5F5F5F5F5F5F5F5F5F5F5F5F5F5F5
310
F5F5F5F5F5F5F5F5F5F528F5DCF5F5F5F5F5F5F5F5F5F5F5F5F5F5F5F5F5E2F5E2E2F5E2F5F5F5F5F5F5F5F5F5F5F5F5F5F5F5F5F5DCF528F5F5F5DCF5F5DCF5F5DCF5F5F5F5BEF5F5F5F5F5F5F5F5BEBEF5F5F50FF5F5F5F5F50FF5F5F5F5F5F5F5F5F5F5F5F5F5F5F5F5F5F5F5F5F5F5F5F5F5F5F5F5F5F5F5F5F5F5F5F5
310
F5F5F5F5F5F5F5F5F5F5F5F5F5F5F5F5F5F5F5F5F5F5F5F5F5F5F5F5F5F5F5F5F5F5F5F5F5F5F5F5F5F5F5F5F5F5F5F5F5F5F5F5F5F5F5F5F5F5F5F5F5F5F528F5DCF5F5F5F5F5F5F5F5F5F5F5F5F5F5F5F5F5E2F5E2E2F5E2F5F5F5F5F5F5F5F5F5F5F5F5F5F5F5F5F5DCF528F5F5F5F5F5DCF5F5F5DCF5F5F5F5F5BEBEBE
310
F5F5F5F5F5F5F5BEBEF50FF5F5F5F5F50FF5F5F5F5F5F5F5F5F5F5F5F5F5F5F5F5F5F5F5F5F5F5F5F5F5F5F5F5F5F5F5F5F5F5F5F5F5F5F5F5F5F5F5F5F5F5F5F5F5F5F5F5F5F5F5F5F5F5F5F5F5F5F5F5F5F5F5F5F5F5F5F5F5F5F5F5F5F5F5F5F5F5F5F5F5F5F5F5F5F5F5F5F5F5F5F5F5F5F528F5DCF5F5F5F5F5F5F5F5
310
F5F5F5F5F5F5F5F5F5E2F5E2E2F5E2F5F5F5F5F5F5F5F5F5F5F5F5F5F5F5F5F5DCF528F5F5F5F5DCF5F5F5DCDCF5F5F5F5F5F5F5F5BEBEF5F5F5F5F5F5BEF50FF5F5F5F5F50FF5F5F5F5F5F5F5F5F5F5F5F5F5F5F5F5F5F5F5F5F5F5F5F5F5F5F5F5F5F5F5F5F5F5F5F5F5F5F5F5F5F5F5F5F5F5F5F5F5F5F5F5F5F5F5F5F5
310
F5F5F5F5F5F5F5F5F5F5F5F5F5F5F5F5F5F5F5F5F5F5F5F5F5F5F5F5F5F5F5F5F5F5F5F5F5F5F5F5F5F528F5DCF5F5F5F5F5F5F5F5F5F5F5F5F5F5F5F5F5E2F5E2E2F5E2F5F5F5F5F5F5F5F5F5F5F5F5F5F5F5F5F5DCF528F5F5F5DCF5F5F5DCF5DCF5F5F5F5F5F5F5F5F5BEBEF5F5F5F5F5F5BE1BF5F5F5F5F50FF5F5F5F5
310
F5F5F5F5F5F5F5F5F5F5F5F5F5F5F5F5F5F5F5F5F5F5F5F5F5F5F5F5F5F5F5F5F5F5F5F5F5F5F5F5F5F5F5F5F5F5F5F5F5F5F5F5F5F5F5F5F5F5F5F5F5F5F5F5F5F5F5F5F5F5F5F5F5F5F5F5F5F5F5F5F5F5F5F5F5F5F5F5F5F5F5F5F5F5F528F5DCF5F5F5F5F5F5F5F5F5F5F5F5F5F5F5F5F5E2F5E2E2F5E2F5F5F5F5F5F5
310
F5F5F5F5F5F5F5F5F5F5F5DCF528F5F5F5F5F5DCDCF5F5DCF5F5F5F5F5F5F5F5F5F5BEF5F5F5F5F5F5F5BEF5F5F5F5F50F0FF5F5F5F5F5F5F5F5F5F5F5F5F5F5F5F5F5F5F5F5F5F5F5F5F5F5F5F5F5F5F5F5F5F5F5F5F5F5F5F5F5F5F5F5F5F5F5F5F5F5F5F5F5F5F5F5F5F5F5F5F5F5F5F5F5F5F5F5F5F5F5F5F5F5F5F5F5
310
F5F5F5F5F5F5F5F5F5F5F5F5F5F5F5F5F5F5F5F5F528F5DCF5F5F5F5F5F5F5F5F5F5F5F5F5F5F5F5F5E2F5E2E2F5E2F5F5F5F5F5F5F5F5F5F5F5F5F5F5F5F5F5DCF528F5F5F5F5DCF5F5F5DCDCDCDCDCDCDCDCDCDCDCDCDCDCDCDCDCDCDCDCDCDCDCDCDCDCDCDCDCF5F5F5F5F5F5F5F5F5F5F5F5F5F5F5F5F5F5F5F5F5F5F5
310
F5F5F5F5F5F5F5F5F5F5F5F5F5F5F5F5F5F5F5F5F5F5F5F5F5F5F5F5F5F5F5F5F5F5F5F5F5F5F5F5F5F5F5F5F5F5F5F5F5F5F5F5F5F5F5F5F5F5F5F5F5F5F5F5F5F5F5F5F5F5F5F5F5F528F5DCF5F5F5F5F5F5F5F5F5F5F5F5F5F5F5F5F5E2F5E2E2F5E2F5F5F5F5F5F5F5F5F5F5F5F5F5F5F5F5F5DCF528F5F5F5DCF5F5F5
310
DCF5F5DCF5F5DCF5F5F5DCF5F5DCF5F5DCF5F5DCF5F5DCF5F5DCF5F5F5F5F5F5F5F5F5F5F5F5F5F5F5F5F5F5F5F5F5F5F5F5F5F5F5F5F5F5F5F5F5F5F5F5F5F5F5F5F5F5F5F5F5F5F5F5F5F5F5F5F5F5F5F5F5F5F5F5F5F5F5F5F5F5F5F5F5F5F5F5F5F5F5F5F5F5F5F5F5F5F5F5F5F5F5F5F5F5F5F5F5F5F5F5F5F5F5F5F5
310
28F5DCF5F5F5F5F5F5F5F5F5F5F5F5F5F5F5F5F5E2F5E2E2F5E2F5F5F5F5F5F5F5F5F5F5F5F5F5F5F5F5F5DCF528F5F5F5F5F5DCDCF5F5DCF5F5DCF5F5F5DCF5F5DCF5F5DCF5F5DCF5F5DCF5F5DCF5F5F5F5F5F5F5F5F5F5F5F5F5F5F5F5F5F5F5F5F5F5F5F5F5F5F5F5F5F5F5F5F5F5F5F5F5F5F5F5F5F5F5F5F5F5F5F5F5
310
F5F5F5F5F5F5F5F5F5F5F5F5F5F5F5F5F5F5F5F5F5F5F5F5F5F5F5F5F5F5F5F5F5F5F5F5F5F5F5F5F5F5F5F5F5F5F5F5F5F5F5F5F528F5DCF5F5F5F5F5F5F5F5F5F5F5F5F5F5F5F5F5E2F5E2E2F5E2F5F5F5F5F5F5F5F5F5F5F5F5F5F5F5F5F5DCF528F5F5F5F5DCF5F5F5DCF5F5DCF5F5DCDCF5DCDCF5DCDCF5F5DCF5F5DC
310
F5F5DCF5F5F5F5F5F5F5F5F5F5F5F5F5F5F5F5F5F5F5F5F5F5F5F5F5F5F5F5F5F5F5F5F5F5F5F5F5F5F5F5F5F5F5F5F5F5F5F5F5F5F5F5F5F5F5F5F5F5F5F5F5F5F5F5F5F5F5F5F5F5F5F5F5F5F5F5F5F5F5F5F5F5F5F5F5F5F5F5F5F5F5F5F5F5F5F5F5F5F5F5F5F5F528F5DCF5F5F5F5F5F5F5F5F5F5F5F5F5F5F5F5F5E2
310
F5E2E2F5E2F5F5F5F5F5F5F5F5F5F5F5F5F5F5F5F5F5DCF528F5F5F5DCF5F5F5DCF5F5DCF5F5DCF5F5DCF5F5DCF5F5F5DCF5F5DCF5F5DCF5F5F5DCF5F5F5F5F5F5F5F5F5F5F5F5F5F5F5F5F5F5F5F5F5F5F5F5F5F5F5F5F5F5F5F5F5F5F5F5F5F5F5F5F5F5F5F5F5F5F5F5F5F5F5F5F5F5F5F5F5F5F5F5F5F5F5F5F5F5F5F5
310
F5F5F5F5F5F5F5F5F5F5F5F5F5F5F5F5F5F5F5F5F5F5F5F5F5F5F5F5F5F5F5F528F5DCF5F5F5F5F5F5F5F5F5F5F5F5F5F5F5F5F5E2F5E2E2F5F5F5F5F5F5F5F5F5F5F5F5F5F5F5F5F5F5F5DCF528F5F5F5F5F5F5DCF5F5DCF5F5DCF5F5DCF5F5DCF5F5F5DCF5F5DCF5F5DCF5F5DCDCF5F5F5F5F5F5F5F5F5F5F5F5F5F5F5F5
310
F5F5F5F5F5F5F5F5F5F5F5F5F5F5F5F5F5F5F5F5F5F5F5F5F5F5F5F5F5F5F5F5F5F5F5F5F5F5F5F5F5F5F5F5F5F5F5F5F5F5F5F5F5F5F5F5F5F5F5F5F5F5F5F5F5F5F5F5F5F5F5F5F5F5F5F5F5F5F5F5F5F5F5F5F528F5DCF5F5F5F5F5F5F5F5F5F5F5F5F5F5F5F5F5F5F5E2E2F5F5F5F5F5F5F5F5F5F5F5F5F5F5F5F5F5F5
310
F5DCF528F5F5F5F5F5F5F5F5F5F5F5F5F5F5F5F5F5F5F5F5F5F5F5F5F5F5F5F5F5F5F5F5F5F5F5F5F5F5F5F5F5F5F5F5F5F5F5F5F5F5F5F5F5F5F5F5F5F5F5F5F5F5F5F5F5F5F5F5F5F5F5F5F5F5F5F5F5F5F5F5F5F5F5F5F5F5F5F5F5F5F5F5F5F5F5F5F5F5F5F5F5F5F5F5F5F5F5F5F5F5F5F5F5F5F5F5F5F5F5F5F5F5F5
310
F5F5F5F5F5F5F5F5F5F5F528F5DCF5F5F5F5F5F5F5F5F5F5F5F5F5F5F5F5F5F5F5E2E2F5F5F5F5F5F5F5F5F5F5F5F5F5F5F5F5F5F5F5DCF528F5F5F5F5F5F5F5F5F5F5F5F5F5F5F5F5F5F5F5F5F5F5F5F5F5F5F5F5F5F5F5F5F5F5F5F5F5F5F5F5F5F5F5F5F5F5F5F5F5F5F5F5F5F5F5F5F5F5F5F5F5F5F5F5F5F5F5F5F5F5
310
F5F5F5F5F5F5F5F5F5F5F5F5F5F5F5F5F5F5F5F5F5F5F5F5F5F5F5F5F5F5F5F5F5F5F5F5F5F5F5F5F5F5F5F5F5F5F5F5F5F5F5F5F5F5F5F5F5F5F5F5F5F5F5F528F5DCF5F5F5F5F5F5F5F5F5F5F5F5F5F5F5F5F5F5F5E2E2F5F5F5F5F5F5F5F5F5F5F5F5F5F5F5F5F5F5F5DCF528F5F5F5F5F5F5F5F5F5F5F5F5F5F5F5F5F5
310
F5F5F5F5F5F5F5F5F5F5F5F5F5F5F5F5F5F5F5F5F5F5F5F5F5F5F5F5F5F5F5F5F5F5F5F5F5F5F5F5F5F5F5F5F5F5F5F5F5F5F5F5F5F5F5F5F5F5F5F5F5F5F5F5F5F5F5F5F5F5F5F5F5F5F5F5F5F5F5F5F5F5F5F5F5F5F5F5F5F5F5F5F5F5F5F5F5F5F5F5F5F5F5F5F5F5F5F5F5F5F5F5F5F5F5F5F528F5DCF5F5F5F5F5F5F5
310
F5F5F5F5F5F5F5F5F5F5F5F5E2E2F5F5F5F5F5F5F5F5F5F5F5F5F5F5F5F5F5F5F5DCF528F5F5F5F5F5F5F5F5F5F5F5F5F5F5F5F5F5F5F5F5F5F5F5F5F5F5F5F5F5F5F5F5F5F5F5F5F5F5F5F5F5F5F5F5F5F5F5F5F5F5F5F5F5F5F5F5F5F5F5F5F5F5F5F5F5F5F5F5F5F5F5F5F5F5F5F5F5F5F5F5F5F5F5F5F5F5F5F5F5F5F5
310
F5F5F5F5F5F5F5F5F5F5F5F5F5F5F5F5F5F5F5F5F5F5F5F5F5F5F5F5F5F5F5F5F5F5F5F5F5F5F5F5F5F5F528F5DCF5F5F5F5F5F5F5F5F5F5F5F5F5F5F5F5F5F5F5E2E2F5F5F5F5F5F5F5F5F5F5F5F5F5F5F5F5F5F5F5DCF528F5F5F5F5F5F5F5F5F5F5F5F5F5F5F5F5F5F5F5F5F5F5F5F5F5F5F5F5F5F5F5F5F5F5F5F5F5F5
310
F5F5F5F5F5F5F5F5F5F5F5F5F5F5F5F5F5F5F5F5F5F5F5F5F5F5F5F5F5F5F5F5F5F5F5F5F5F5F5F5F5F5F5F5F5F5F5F5F5F5F5F5F5F5F5F5F5F5F5F5F5F5F5F5F5F5F5F5F5F5F5F5F5F5F5F5F5F5F5F5F5F5F5F5F5F5F5F5F5F5F5F5F5F5F5F528F5DCF5F5F5F5F5F5F5F5F5F5F5F5F5F5F5F5F5F5F5E2E2F5F5F5F5F5F5F5
310
F5F5F5F5F5F5F5F5F5F5F5F5DCF528F5F5F5F5F5F5F5F5F5F5F5F5F5F5F5F5F5F5F5F5F5F5F5F5F5F5F5F5F5F5F5F5F5F5F5F5F5F5F5F5F5F5F5F5F5F5F5F5F5F5F5F5F5F5F5F5F5F5F5F5F5F5F5F5F5F5F5F5F5F5F5F5F5F5F5F5F5F5F5F5F5F5F5F5F5F5F5F5F5F5F5F5F5F5F5F5F5F5F5F5F5F5F5F5F5F5F5F5F5F5F5F5
310
F5F5F5F5F5F5F5F5F5F5F5F5F5F5F5F5F5F5F5F5F5F528F5DCF5F5F5F5F5F5F5F5F5F5F5F5F5F5F5F5F5F5F5E2E2F5F5F5F5F5F5F5F5F5F5F5F5F5F5F5F5F5F5F5DCF528F5F5F5F5F5F5F5F5F5F5F5F5F5F5F5F5F5F5F5F5F5F5F5F5F5F5F5F5F5F5F5F5F5F5F5F5F5F5F5F5F5F5F5F5F5F5F5F5F5F5F5F5F5F5F5F5F5F5F5
310
F5F5F5F5F5F5F5F5F5F5F5F5F5F5F5F5F5F5F5F5F5F5F5F5F5F5F5F5F5F5F5F5F5F5F5F5F5F5F5F5F5F5F5F5F5F5F5F5F5F5F5F5F5F5F5F5F5F5F5F5F5F5F5F5F5F5F5F5F5F5F5F5F5F5F528F5DCF5F5F5F5F5F5F5F5F5F5F5F5F5F5F5F5F5F5F5E2E2F5E2F5F5F5F5F5F5F5F5F5F5F5F5F5F5F5F5F5DCF528F5F5F5F5F5F5
310
F5F5F5F5F5F5F5F5F5F5F5F5F5F5F5F5F5F5F5F5F5F5F5F5F5F5F5F5F5F5F5F5F5F5F5F5F5F5F5F5F5F5F5F5F5F5F5F5F5F5F5F5F5F5F5F5F5F5F5F5F5F5F5F5F5F5F5F5F5F5F5F5F5F5F5F5F5F5F5F5F5F5F5F5F5F5F5F5F5F5F5F5F5F5F5F5F5F5F5F5F5F5F5F5F5F5F5F5F5F5F5F5F5F5F5F5F5F5F5F5F5F5F5F5F5F5F5
310
F528F5DCF5F5F5F5F5F5F5F5F5F5F5F5F5F5F5F5F5E2F5E2E2F5E2F5F5F5F5F5F5F5F5F5F5F5F5F5F5F5F5F5DCF528F5F5F5F5F5F5F5F5F5F5F5F5F5F5F5F5F5F5F5F5F5F5F5F5F5F5F5F5F5F5F5F5F5F5F5F5F5F5F5F5F5F5F5F5F5F5F5F5F5F5F5F5F5F5F5F5F5F5F5F5F5F5F5F5F5F5F5F5F5F5F5F5F5F5F5F5F5F5F5F5
310
F5F5F5F5F5F5F5F5F5F5F5F5F5F5F5F5F5F5F5F5F5F5F5F5F5F5F5F5F5F5F5F5F5F5F5F5F5F5F5F5F5F5F5F5F5F5F5F5F5F5F5F5F5F528F5DCF5F5F5F5F5F5F5F5F5F5F5F5F5F5F5F5F5E2F5E2E2F5E2F5F5F5F5F5F5F5F5F5F5F5F5F5F5F5F5F5DCF528F5F5F5F5F5F5F5F5F5F5F5F5F5F5F5F5F5F5F5F5F5F5F5F5F5F5F5
310
F5F5F5F5F5F5F5F5F5F5F5F5F5F5F5F5F5F5F5F5F5F5F5F5F5F5F5F5F5F5F5F5F5F5F5F5F5F5F5F5F5F5F5F5F5F5F5F5F5F5F5F5F5F5F5F5F5F5F5F5F5F5F5F5F5F5F5F5F5F5F5F5F5F5F5F5F5F5F5F5F5F5F5F5F5F5F5F5F5F5F5F5F5F5F5F5F5F5F5F5F5F5F5F5F5F5F528F5DCF5F5F5F5F5F5F5F5F5F5F5F5F5F5F5F5F5
310
E2F5E2E2F5E2F5F5F5F5F5F5F5F5F5F5F5F5F5F5F5F5F5DCF528F5F5F5F5F5F5F5F5F5F5F5F5F5F5F5F5F5F5F5F5F5F5F5F5F5F5F5F5F5F5F5F5F5F5F5F5F5F5F5F5F5F5F5F5F5F5F5F5F5F5F5F5F5F5F5F5F5F5F5F5F5F5F5F5F5F5F5F5F5F5F5F5F5F5F5F5F5F5F5F5F5F5F5F5F5F5F5F5F5F5F5F5F5F5F5F5F5F5F5F5F5
310
F5F5F5F5F5F5F5F5F5F5F5F5F5F5F5F5F5F5F5F5F5F5F5F5F5F5F5F5F5F5F5F5F528F5DCF5F5F5F5F5F5F5F5F5F5F5F5F5F5F5F5F5E2F5E2E2F5E2F5F5F5F5F5F5F5F5F5F5F5F5F5F5F5F5F5DCF528F5F5F5F5F5F5F5F5F5F5F5F5F5F5F5F5F5F5F5F5F5F5F5F5F5F5F5F5F5F5F5F5F5F5F5F5F5F5F5F5F5F5F5F5F5F5F5F5
310
F5F5F5F5F5F5F5F5F5F5F5F5F5F5F5F5F5F5F5F5F5F5F5F5F5F5F5F5F5F5F5F5F5F5F5F5F5F5F5F5F5F5F5F5F5F5F5F5F5F5F5F5F5F5F5F5F5F5F5F5F5F5F5F5F5F5F5F5F5F5F5F5F5F5F5F5F5F5F5F5F5F5F5F5F5F528F5DCF5F5F5F5F5F5F5F5F5F5F5F5F5F5F5F5F5E2F5E2E2F5E2F5F5F5F5F5F5F5F5F5F5F5F5F5F5F5
310
F5F5DCF528F5F5F5F5F5F5F5F5F5F5F5F5F5F5F5F5F5F5F5F5F5F5F5F5F5F5F5F5F5F5F5F5F5F5F5F5F5F5F5F5F5F5F5F5F5F5F5F5F5F5F5F5F5F5F5F5F5F5F5F5F5F5F5F5F5F5F5F5F5F5F5F5F5F5F5F5F5F5F5F5F5F5F5F5F5F5F5F5F5F5F5F5F5F5F5F5F5F5F5F5F5F5F5F5F5F5F5F5F5F5F5F5F5F5F5F5F5F5F5F5F5F5
310
F5F5F5F5F5F5F5F5F5F5F5F528F5DCF5F5F5F5F5F5F5F5F5F5F5F5F5F5F5F5F5E2F5E2E2F5E2F5F5F5F5F5F5F5F5F5F5F5F5F5F5F5F5F5DCF528F5F5F5F5F5F5F5F5F5F5F5F5F5F5F5F5F5F5F5F5F5F5F5F5F5F5F5F5F5F5F5F5F5F5F5F5F5F5F5F5F5F5F5F5F5F5F5F5F5F5F5F5F5F5F5F5F5F5F5F5F5F5F5F5F5F5F5F5F5
310
F5F5F5F5F5F5F5F5F5F5F5F5F5F5F5F5F5F5F5F5F5F5F5F5F5F5F5F5F5F5F5F5F5F5F5F5F5F5F5F5F5F5F5F5F5F5F5F5F5F5F5F5F5F5F5F5F5F5F5F5F5F5F5F5F528F5DCF5F5F5F5F5F5F5F5F5F5F5F5F5F5F5F5F5E2F5E2E2F5E2F5F5F5F5F5F5F5F5F5F5F5F5F5F5F5F5F5DCF528F5F5F5F5F5F5F5F5F5F5F5F5F5F5F5F5
310
F5F5F5F5F5F5F5F5F5F5F5F5F5F5F5F5F5F5F5F5F5F5F5F5F5F5F5F5F5F5F5F5F5F5F5F5F5F5F5F5F5F5F5F5F5F5F5F5F5F5F5F5F5F5F5F5F5F5F5F5F5F5F5F5F5F5F5F5F5F5F5F5F5F5F5F5F5F5F5F5F5F5F5F5F5F5F5F5F5F5F5F5F5F5F5F5F5F5F5F5F5F5F5F5F5F5F5F5F5F5F5F5F5F5F5F5F5F528F5DCF5F5F5F5F5F5
310
F5F5F5F5F5F5F5F5F5F5F5E2F5E2E2F5E2F5F5F5F5F5F5F5F5F5F5F5F5F5F5F5F5F5DCF528282828282828282828282828282828282828282828282828282828282828282828282828282828282828282828282828282828282828282828282828282828282828282828282828282828282828282828282828282828282828
310
282828282828282828282828282828282828282828282828282828282828282828282828282828282828282828F5DCF5F5F5F5F5F5F5F5F5F5F5F5F5F5F5F5F5E2F5E2E2F5E2F5F5F5F5F5F5F5F5F5F5F5F5F5F5F5F5F5DCF528F5F5F5F5F5F5F5F5F5F5F5F5F5F5F5F5F5F5F5F5F5F5F5F5F5F5F5F5F5F5F5F5F5F5F5F5F5
310
F5F5F5F5F5F5F5F5F5F5F5F5F5F5F5F5F5F5F5F5F5F5F5F5F5F5F5F5F528F5F5F5F5F5F5F5F5F5F5F5F5F5F5F5F5F5F5F5F5F5F5F5F5F5F5F5F5F5F5F5F5F5F5F5F5F5F5F5F5F5F5F5F5F5F5F5F5F5F5F5F5F5F5F5F5F5F5F5F5F5F5F5F5F5F5F528F5DCF5F5F5F5F5F5F5F5F5F5F5F5F5F5F5F5F5E2F5E2E2F5E2F5F5F5F5
310
F5F5F5F5F5F5F5F5F5F5F5F5F5DCF528F5F5F5F5F5F5F5F5F5F5F5F5F52D2D2D2D2D2D2D2D2D2D2D2D2D2D2D2D2D2D2D2D2D2D2D2D2D2D2D2D2D2D2D2D2D2D2D2D2D2DF5F5F5F5F5F5F5F5F5F5F5F5F5F5F528F5F5F52D2D2D2DF52D2D2D2D2D2DF5F5F5F5F5F5F5F5F5F5F5F5F5F5F5F5F5F5F5F5F5F5F5F5F5F5F5F5F5F5
310
F5F5F5F5F5F5F5F5F5F5F5F5F5F5F5F5F5F5F5F5F5F5F528F5DCF5F5F5F5F5F5F5F5F5F5F5F5F5F5F5F5F5E2F5E2E2F5E2F5F5F5F5F5F5F5F5F5F5F5F5F5F5F5F5F5DCF528F5F5F5F5F5F5F5F5F5F5F5F5F52D2D2D2D2D2D2D2D2D2D2D2D2D2D2D2D2D2D2D2D2D2D2D2D2D2D2D2D2D2D2D2D2D2D2D2D2D2DF5F5F5F5F5F5F5
310
F5F5F5F5F5F5F5F528F5F5F52D2D2D2DF52D2D2D2DF52DF5F5F5F5F5F5F5F5F5F5F5F5F5F5F5F5F5F5F5F5F5F5F5F5F5F5F5F5F5F5F5F5F5F5F5F5F5F5F5F5F5F5F5F5F5F5F5F5F5F5F5F5F528F5DCF5F5F5F5F5F5F5F5F5F5F5F5F5F5F5F5F5E2F5E2E2F5E2F5F5F5F5F5F5F5F5F5F5F5F5F5F5F5F5F5DCF528F5F5F5F5F5
310
F5F5F5F5F5F5F5F5F5F5F5F5F5F5F5F5F5F5F5F5F5F5F5F5F5F5F5F5F5F5F5F5F5F5F5F5F5F5F5F5F5F5F5F5F5F5F5F5F5F5F5F5F5F5F5F5F5F5F5F5F528F5F5F5F5F5F5F5F5F5F5F5F5F5F5F5F5F5F5F5F5F5F5F5F5F5F5F5F5F5F5F5F5F5F5F5F5F5F5F5F5F5F5F5F5F5F5F5F5F5F5F5F5F5F5F5F5F5F5F5F5F5F5F5F5F5
310
F5F528F5DCF5F5F5F5F5F5F5F5F5F5F5F5F5F5F5F5F5E2F5E2E2F5E2F5F5F5F5F5F5F5F5F5F5F5F5F5F5F5F5F5DCF52828282828282828282828282828282828282828282828282828282D2D2D2D2D2D2D2D2D2D2D2D2D28282828282828282828282828282828282828282828282828282828282828282828282828282828
310
2828282828282828282828282828282828282828282828282828282828282828282828282828282828282828282828282828282828282828F5DCF5F5F5F5F5F5F5F5F5F5F5F5F5F5F5F5F5E2F5E2E2F5E2F5F5F5F5F5F5F5F5F5F5F5F5F5F5F5F5F5DCF528F5F5F5F5F5F5F5F5F5F5F5F5F5F5F5F5F5F5F5F5F5F5F5F5F5F5
310
2D2D2D2D2D2D2D2D2D2D2D2D2DF5F5F5F5F5F5F5F5F5F5F5F5F5F5F5F5F5F5F5F5F5F5F5F5F5F5F528F5F5F52D2D2D2D2D2D2D2D2D2D2DF5F52D2D2D2D2D2D2D2D2D2DF5F5F5F5F5F5F5F5F5F5F5F5F5F5F5F5F5F5F5F5F5F5F5F5F5F5F5F5F5F5F5F5F5F5F5F5F5F5F5F5F528F5DCF5F5F5F5F5F5F5F5F5F5F5F5F5F5F5F5
310
F5E2F5E2E2F5E2F5F5F5F5F5F5F5F5F5F5F5F5F5F5F5F5F5DCF528F5F5F5F5F5F5F5F5F5F5F5F5F5F5F5F5F5F5F5F5F5F5F5F5F5F52D2D2D2D2D2D2D2D2D2D2D2D2DF5F5F5F5F5F5F5F5F5F5F5F5F5F5F5F5F5F5F5F5F5F5F5F5F5F5F528F5F5F52D2D2D2D2D2D2D2D2D2D2DF52D2D2D2D2D2D2D2D2D2D2DF5F5F5F5F5F5F5
310
F5F5F5F5F5F5F5F5F5F5F5F5F5F5F5F5F5F5F5F5F5F5F5F5F5F5F5F5F5F5F5F5F5F528F5DCF5F5F5F5F5F5F5F5F5F5F5F5F5F5F5F5F5E2F5E2E2F5F5F5F5F5F5F5F5F5F5F5F5F5F5F5F5F5F5F5DCF528F5F5F5F5F5F5F5F5F5F5F5F5F5F5F5F5F5F5F5F5F5F5F5F5F5F5F5F5F5F5F5F5F5F5F5F5F5F5F5F5F5F5F5F5F5F5F5
310
F5F5F5F5F5F5F5F5F5F5F5F5F5F5F5F5F5F5F528F5F5F5F5F5F5F5F5F5F5F5F5F5F5F5F5F5F5F5F5F5F5F5F5F5F5F5F5F5F5F5F5F5F5F5F5F5F5F5F5F5F5F5F5F5F5F5F5F5F5F5F5F5F5F5F5F5F5F5F5F5F5F5F5F5F5F528F5DCF5F5F5F5F5F5F5F5F5F5F5F5F5F5F5F5F5F5F5E2E2F5F5F5F5F5F5F5F5F5F5F5F5F5F5F5F5
310
F5F5F5DCF52828282828282828282828282828282828282828282828282828282828282828282828282828282828282828282828282828282828282828282828282828282828282828282828282828282828282828282828282828282828282828282828282828282828282828282828282828282828282828282828282828
310
2828282828282828282828282828F5DCF5F5F5F5F5F5F5F5F5F5F5F5F5F5F5F5F5F5F5E2E2F5F5F5F5F5F5F5F5F5F5F5F5F5F5F5F5F5F5F5DCF5F5F5F5F5F5F5F5F5F5F5F5F5F5F5F5F5F5F5F5F5F5F5F5F5F5F5F5F5F5F5F5F5F5F5F5F5F5F5F5F5F5F5F5F5F5F5F5F5F5F5F5F5F5F5F5F5F5F5F5F5F5F5F5F5F5F5F5F5F5
310
F5F5F5F5F5F5F5F5F5F5F5F5F5F5F5F5F5F5F5F5F5F5F5F5F5F5F5F5F5F5F5F5F5F5F5F5F5F5F5F5F5F5F5F5F5F5F5F5F5F5F5F5F5F5F5F5F5F5F5F5F5F5F5F5F5F5F5F5DCF5F5F5F5F5F5F5F5F5F5F5F5F5F5F5F5F5F5F5E2E2F5F5F5F5F5F5F5F5F5F5F5F5F5F5F5F5F5F5F5DCDCDCDCDCDCDCDCDCDCDCDCDCDCDCDCDCDC
310
DCDCDCDCDCDCDCDCDCDCDCDCDCDCDCDCDCDCDCDCDCDCDCDCDCDCDCDCDCDCDCDCDCDCDCDCDCDCDCDCDCDCDCDCDCDCDCDCDCDCDCDCDCDCDCDCDCDCDCDCDCDCDCDCDCDCDCDCDCDCDCDCDCDCDCDCDCDCDCDCDCDCDCDCDCDCDCDCDCDCDCDCDCDCDCDCDCDCDCDCDCDCDCDCDCDCDCDCDCDCDCDCDCDCDCDCDCDCDCDCDCDCF5F5F5F5F5
310
F5F5F5F5F5F5F5F5F5F5F5F5F5F5E2E2F5F5F5F5F5F5F5F5F5F5F5F5F5F5F5F5F5F5F5DCDCDCDCDCDCDCDCDCDCDCDCDCDCDCDCDCDCDCDCDCDCDCDCDCDCDCDCDCDCDCDCDCDCDCDCDCDCDCDCDCDCDCDCDCDCDCDCDCDCDCDCDCDCDCDCDCDCDCDCDCDCDCDCDCDCDCDCDCDCDCDCDCDCDCDCDCDCDCDCDCDCDCDCDCDCDCDCDCDCDCDC
310
DCDCDCDCDCDCDCDCDCDCDCDCDCDCDCDCDCDCDCDCDCDCDCDCDCDCDCDCDCDCDCDCDCDCDCDCDCDCDCDCDCDCDCDCDCDCDCDCF5F5F5F5F5F5F5F5F5F5F5F5F5F5F5F5F5F5F5E2E2F5F5F5F5F5F5F5F5F5F5F5F5F5F5F5F5F5F5F5F5F5F5F5F5F5F5F5F5F5F5F5F5F5F5F5F5F5F5F5F5F5F5F5F5F5F5F5F5F5F5F5F5F5F5F5F5F5F5
310
F5F5F5F5F5F5F5F5F5F5F5F5F5F5F5F5F5F5F5F5F5F5F5F5F5F5F5F5F5F5F5F5F5F5F5F5F5F5F5F5F5F5F5F5F5F5F5F5F5F5F5F5F5F5F5F5F5F5F5F5F5F5F5F5F5F5F5F5F5F5F5F5F5F5F5F5F5F5F5F5F5F5F5F5F5F5F5F5F5F5F5F5F5F5F5F5F5F5F5F5F5F5F5F5F5F5F5F5F5F5F5F5F5F5F5F5F5F5F5F5E2E2F5F5F5F5F5
310
F5F5F5F5F5F5F5F5F5F5F5F5F5F5F5F5F5F5F5F5F5F5F5F5F5F5F5F5F5F5F5F5F5F5F5F5F5F5F5F5F5F5F5F5F5F5F5F5F5F5F5F5F5F5F5F5F5F5F5F5F5F5F5F5F5F5F5F5F5F5F5F5F5F5F5F5F5F5F5F5F5F5F5F5F5F5F5F5F5F5F5F5F5F5F5F5F5F5F5F5F5F5F5F5F5F5F5F5F5F5F5F5F5F5F5F5F5F5F5F5F5F5F5F5F5F5F5
310
F5F5F5F5F5F5F5F5F5F5F5F5F5F5F5F5F5F5F5F5F5F5F5F5F5F5F5F5F5F5F5F5F5F5F5F5F5F5F5F5F5F5F5F5F5F5E2E2F5F5F5F5F5F5F5F5F5F5F5F5F5F5F5F5F5F5F5F5F5F5F5F5F5F5F5F5F5F5F5F5F5F5F5F5F5F5F5F5F5F5F5F5F5F5F5F5F5F5F5F5F5F5F5F5F5F5F5F5F5F5F5F5F5F5F5F5F5F5F5F5F5F5F5F5F5F5F5
310
F5F5F5F5F5F5F5F5F5F5F5F5F5F5F5F5F5F5F5F5F5F5F5F5F5F5F5F5F5F5F5F5F5F5F5F5F5F5F5F5F5F5F5F5F5F5F5F5F5F5F5F5F5F5F5F5F5F5F5F5F5F5F5F5F5F5F5F5F5F5F5F5F5F5F5F5F5F5F5F5F5F5F5F5F5F5F5F5F5F5F5F5F5F5F5F5F5F5F5E2E2F5F5F5F5F5F5F5F5F5F5F5F5F5F5F5F5F5F5F5F5F5F5F5F5F5F5
310
F5F5F5F5F5F5F5F5F5F5F5F5F5F5F5F5F5F5F5F5F5F5F5F5F5F5F5F5F5F5F5F5F5F5F5F5F5F5F5F5F5F5F5F5F5F5F5F5F5F5F5F5F5F5F5F5F5F5F5F5F5F5F5F5F5F5F5F5F5F5F5F5F5F5F5F5F5F5F5F5F5F5F5F5F5F5F5F5F5F5F5F5F5F5F5F5F5F5F5F5F5F5F5F5F5F5F5F5F5F5F5F5F5F5F5F5F5F5F5F5F5F5F5F5F5F5F5
310
F5F5F5F5F5F5F5F5F5F5F5F5F5F5F5F5F5F5F5F5F5F5F5F5F5E2E2F5E2F5F5F5F5F5F5F5F5F5F5F5F5F5F5F5F5F5F5F5F5F5F5F5F5F5F5F5F5F5F5F5F5F5F5F5F5F5F5F5F5F5F5F5F5F5F5F5F5F5F5F5F5F5F5F5F5F5F5F5F5F5F5F5F5F5F5F5F5F5F5F5F5F5F5F5F5F5F5F5F5F5F5F5F5F5F5F5F5F5F5F5F5F5F5F5F5F5F5
310
F5F5F5F5F5F5F5F5F5F5F5F5F5F5F5F5F5F5F5F5F5F5F5F5F5F5F5F5F5F5F5F5F5F5F5F5F5F5F5F5F5F5F5F5F5F5F5F5F5F5F5F5F5F5F5F5F5F5F5F5F5F5F5F5F5F5F5F5F5F5F5F5F5F5F5F5E2F5E2E2F5E2F5F5F5F5F5F5F5F5F5F5F5F5F5F5F5F5F5F5F5F5F5F5F5F5F5F5F5F5F5F5F5F5F5F5F5F5F5F5F5F5F5F5F5F5F5
310
F5F5F5F5F5F5F5F5F5F5F5F5F5F5F5F5F5F5F5F5F5F5F5F5F5F5F5F5F5F5F5F5F5F5F5F5F5F5F5F5F5F5F5F5F5F5F5F5F5F5F5F5F5F5F5F5F5F5F5F5F5F5F5F5F5F5F5F5F5F5F5F5F5F5F5F5F5F5F5F5F5F5F5F5F5F5F5F5F5F5F5F5F5F5F5F5F5F5F5F5F5F5F5F5F5F5F5F5F5F5F5F5F5F5F5F5F5F5F5F5F5F5F5F5F5F5F5
310
F5F5E2F5E2E2F5E2F5F5F5F5F5F5F5F5F5F5F5F5F5F5F5F5F5F5F5F5F5F5F5F5F5F5F5F5F5F5F5F5F5F5F5F5F5F5F5F5F5F5F5F5F5F5F5F5F5F5F5F5F5F5F5F5F5F5F5F5F5F5F5F5F5F5F5F5F5F5F5F5F5F5F5F5F5F5F5F5F5F5F5F5F5F5F5F5F5F5F5F5F5F5F5F5F5F5F5F5F5F5F5F5F5F5F5F5F5F5F5F5F5F5F5F5F5F5F5
310
F5F5F5F5F5F5F5F5F5F5F5F5F5F5F5F5F5F5F5F5F5F5F5F5F5F5F5F5F5F5F5F5F5F5F5F5F5F5F5F5F5F5F5F5F5F5F5F5F5F5F5F5F5F5F5E2F5E2E2F5E2F5F5F5F5F5F5F5F5F5F5F5F5F5F5F5F5F5F5F5F5F5F5F5F5F5F5F5F5F5F5F5F5F5F5F5F5F5F5F5F5F5F5F5F5F5F5F5F5F5F5F5F5F5F5F5F5F5F5F5F5F5F5F5F5F5F5
310
F5F5F5F5F5F5F5F5F5F5F5F5F5F5F5F5F5F5F5F5F5F5F5F5F5F5F5F5F5F5F5F5F5F5F5F5F5F5F5F5F5F5F5F5F5F5F5F5F5F5F5F5F5F5F5F5F5F5F5F5F5F5F5F5F5F5F5F5F5F5F5F5F5F5F5F5F5F5F5F5F5F5F5F5F5F5F5F5F5F5F5F5F5F5F5F5F5F5F5F5F5F5F5F5F5F5F5F5E2F5E2E2F5E2F5F5F5F5F5F5F5F5F5F5F5F5F5
310
F5F5F5F5F5F5F5F5F5F5F5F5F5F5F5F5F5F5F5F5F5F5F5F5F5F5F5F5F5F5F5F5F5F5F5F5F5F5F5F5F5F5F5F5F5F5F5F5F5F5F5F5F5F5F5F5F5F5F5F5F5F5F5F5F5F5F5F5F5F5F5F5F5F5F5F5F5F5F5F5F5F5F5F5F5F5F5F5F5F5F5F5F5F5F5F5F5F5F5F5F5F5F5F5F5F5F5F5F5F5F5F5F5F5F5F5F5F5F5F5F5F5F5F5F5F5F5
310
F5F5F5F5F5F5F5F5F5F5F5F5F5F5F5F5F5F5F5F5F5F5F5F5F5F5F5F5F5F5F5F5F5F5E2F5E2E2F5E2F5F5F5F5F5F5F5F5F5F5F5F5F5F5F5F5F5F5F5F5F5F5F5F5F5F5F5F5F5F5F5F5F5F5F5F5F5F5F5F5F5F5F5F5F5F5F5F5F5F5F5F5F5F5F5F5F5F5F5F5F5F5F5F5F5F5F5F5F5F5F5F5F5F5F5F5F5F5F5F5F5F5F5F5F5F5F5
310
F5F5F5F5F5F5F5F5F5F5F5F5F5F5F5F5F5F5F5F5F5F5F5F5F5F5F5F5F5F5F5F5F5F5F5F5F5F5F5F5F5F5F5F5F5F5F5F5F5F5F5F5F5F5F5F5F5F5F5F5F5F5F5F5F5F5F5F5F5F5F5F5F5F5F5F5F5F5F5F5F5F5F5F5F5F5F5E2F5E2E2F5E2F5F5F5F5F5F5F5F5F5F5F5F5F5F5F5F5F5F5F5F5F5F5F5F5F5F5F5F5F5F5F5F5F5F5
310
F5F5F5F5F5F5F5F5F5F5F5F5F5F5F5F5F5F5F5F5F5F5F5F5F5F5F5F5F5F5F5F5F5F5F5F5F5F5F5F5F5F5F5F5F5F5F5F5F5F5F5F5F5F5F5F5F5F5F5F5F5F5F5F5F5F5F5F5F5F5F5F5F5F5F5F5F5F5F5F5F5F5F5F5F5F5F5F5F5F5F5F5F5F5F5F5F5F5F5F5F5F5F5F5F5F5F5F5F5F5F5F5F5F5F5F5F5F5F5F5F5F5F5F5F5F5F5
310
F5F5F5F5F5F5F5F5F5F5F5F5F5E2F5E2E2F5E2E2E2E2E2E2E2E2E2F5F5F5F5F5F5F5F5F5E2E2E2E2E2E2E2E2E2E2E2E2E2E2E2E2F5F5F5F5F5F5F5F5F5E2E2E2E2E2E2E2E2E2E2E2E2E2E2E2E2F5F5F5F5F5F5F5F5F5E2E2E2E2E2E2E2E2E2E2E2E2E2E2E2E2F5F5F5F5F5F5F5F5F5E2E2E2E2E2E2E2E2E2E2E2E2E2E2E2E2
310
F5F5F5F5F5F5F5F5F5E2E2E2E2E2E2E2E2E2E2E2E2E2E2E2E2F5F5F5F5F5F5F5F5F5E2E2E2E2E2E2E2E2E2E2E2E2E2E2E2E2F5F5F5F5F5F5F5F5F5E2E2E2E2E2E2E2E2F5E2E2F5F5F5F5F5F5F5F5F5F5F5F5F5F5F5F5F5F5F5F5F5F5F5F5F5F5F5F5F5F5F5F5F5F5F5F5F5F5F5F5F5F5F5F5F5F5F5F5F5F5F5F5F5F5F5F5F5
310
F5F5F5F5F5F5F5F5F5F5F5F5F5F5F5F5F5F5F5F5F5F5F5F5F5F5F5F5F5F5F5F5F5F5F5F5F5F5F5F5F5F5F5F5F5F5F5F5F5F5F5F5F5F5F5F5F5F5F5F5F5F5F5F5F5F5F5F5F5F5F5F5F5F5F5F5F5F5F5F5F5F5F5F5F5F5F5F5F5F5F5F5F5F5F5F5F5F5F5F5F5F5F5F5F5F5F5F5F5F5F5F5F5F5F5F5F5F5F5F5F5E2E2E2E2E2E2
310
E2E2E2E2E2E2E2E2E2E2E2E2E2E2E2E2E2E2E2E2E2E2E2E2E2E2E2E2E2E2E2E2E2E2E2E2E2E2E2E2E2E2E2E2E2E2E2E2E2E2E2E2E2E2E2E2E2E2E2E2E2E2E2E2E2E2E2E2E2E2E2E2E2E2E2E2E2E2E2E2E2E2E2E2E2E2E2E2E2E2E2E2E2E2E2E2E2E2E2E2E2E2E2E2E2E2E2E2E2E2E2E2E2E2E2E2E2E2E2E2E2E2E2E2E2E2E2
310
E2E2E2E2E2E2E2E2E2E2E2E2E2E2E2E2E2E2E2E2E2E2E2E2E2E2E2E2E2E2E2E2E2E2E2E2E2E2E2E2E2E2E2E2E2E2E2E2
  0
XRECORD
  5
C8
102
{ACAD_REACTORS
330
C7
102
}
330
C7
100
AcDbXrecord
280
     1
102
MATERIAL
148
0.0
149
0.0
149
0.0
 93
        0
 94
       63
282
     0
 72
     1
 77
     1
171
     1
175
     1
179
     1
273
     0
  0
XRECORD
  5
C6
102
{ACAD_REACTORS
330
C5
102
}
330
C5
100
AcDbXrecord
280
     1
102
MATERIAL
148
0.0
149
0.0
149
0.0
 93
        0
 94
       63
282
     0
 72
     1
 77
     1
171
     1
175
     1
179
     1
273
     0
  0
XRECORD
  5
B2
102
{ACAD_REACTORS
330
B1
102
}
330
B1
100
AcDbXrecord
280
     1
102
MATERIAL
148
0.0
149
0.0
149
0.0
 93
        0
 94
       63
282
     0
 72
     1
 77
     1
171
     1
175
     1
179
     1
273
     0
  0
XRECORD
  5
156
102
{ACAD_REACTORS
330
155
102
}
330
155
100
AcDbXrecord
280
     1
102
ACAD_ROUNDTRIP_PRE2007_TABLESTYLE
 90
        4
 91
        0
  1

 92
        4
 93
        0
  2

 94
        4
 95
        0
  3

  0
ENDSEC
  0
EOF
