  0
SECTION
  2
HEADER
  9
$ACADVER
  1
AC1018
  9
$ACADMAINTVER
 70
    76
  9
$DWGCODEPAGE
  3
ANSI_1252
  9
$LASTSAVEDBY
  1
simone
  9
$INSBASE
 10
0.0
 20
0.0
 30
0.0
  9
$EXTMIN
 10
0.0149999999999999
 20
0.015
 30
-0.0056090513244272
  9
$EXTMAX
 10
0.5499933962429715
 20
0.282
 30
0.4817307591438295
  9
$LIMMIN
 10
0.0
 20
0.0
  9
$LIMMAX
 10
1.0
 20
0.5
  9
$ORTHOMODE
 70
     0
  9
$REGENMODE
 70
     1
  9
$FILLMODE
 70
     1
  9
$QTEXTMODE
 70
     0
  9
$MIRRTEXT
 70
     0
  9
$LTSCALE
 40
1.0
  9
$ATTMODE
 70
     1
  9
$TEXTSIZE
 40
0.005
  9
$TRACEWID
 40
1.0
  9
$TEXTSTYLE
  7
style1
  9
$CLAYER
  8
Dimensione
  9
$CELTYPE
  6
ByLayer
  9
$CECOLOR
 62
     1
  9
$CELTSCALE
 40
1.0
  9
$DISPSILH
 70
     0
  9
$DIMSCALE
 40
0.001
  9
$DIMASZ
 40
1.5
  9
$DIMEXO
 40
0.0625
  9
$DIMDLI
 40
0.38
  9
$DIMRND
 40
0.0
  9
$DIMDLE
 40
0.0
  9
$DIMEXE
 40
0.18
  9
$DIMTP
 40
0.0
  9
$DIMTM
 40
0.0
  9
$DIMTXT
 40
3.0
  9
$DIMCEN
 40
0.0
  9
$DIMTSZ
 40
0.0
  9
$DIMTOL
 70
     0
  9
$DIMLIM
 70
     0
  9
$DIMTIH
 70
     1
  9
$DIMTOH
 70
     1
  9
$DIMSE1
 70
     0
  9
$DIMSE2
 70
     0
  9
$DIMTAD
 70
     0
  9
$DIMZIN
 70
     0
  9
$DIMBLK
  1
ArchTick
  9
$DIMASO
 70
     1
  9
$DIMSHO
 70
     1
  9
$DIMPOST
  1

  9
$DIMAPOST
  1

  9
$DIMALT
 70
     0
  9
$DIMALTD
 70
     2
  9
$DIMALTF
 40
25.4
  9
$DIMLFAC
 40
1.0
  9
$DIMTOFL
 70
     0
  9
$DIMTVP
 40
0.0
  9
$DIMTIX
 70
     0
  9
$DIMSOXD
 70
     0
  9
$DIMSAH
 70
     0
  9
$DIMBLK1
  1

  9
$DIMBLK2
  1

  9
$DIMSTYLE
  2
Bovelacci
  9
$DIMCLRD
 70
     5
  9
$DIMCLRE
 70
     5
  9
$DIMCLRT
 70
     4
  9
$DIMTFAC
 40
1.0
  9
$DIMGAP
 40
2.0
  9
$DIMJUST
 70
     0
  9
$DIMSD1
 70
     0
  9
$DIMSD2
 70
     0
  9
$DIMTOLJ
 70
     1
  9
$DIMTZIN
 70
     0
  9
$DIMALTZ
 70
     0
  9
$DIMALTTZ
 70
     0
  9
$DIMUPT
 70
     0
  9
$DIMDEC
 70
     2
  9
$DIMTDEC
 70
     2
  9
$DIMALTU
 70
     2
  9
$DIMALTTD
 70
     2
  9
$DIMTXSTY
  7
ROMANS
  9
$DIMAUNIT
 70
     0
  9
$DIMADEC
 70
     0
  9
$DIMALTRND
 40
0.0
  9
$DIMAZIN
 70
     0
  9
$DIMDSEP
 70
    46
  9
$DIMATFIT
 70
     3
  9
$DIMFRAC
 70
     0
  9
$DIMLDRBLK
  1

  9
$DIMLUNIT
 70
     2
  9
$DIMLWD
 70
    -2
  9
$DIMLWE
 70
    -2
  9
$DIMTMOVE
 70
     2
  9
$LUNITS
 70
     2
  9
$LUPREC
 70
     2
  9
$SKETCHINC
 40
1.0
  9
$FILLETRAD
 40
0.0
  9
$AUNITS
 70
     0
  9
$AUPREC
 70
     0
  9
$MENU
  1
.
  9
$ELEVATION
 40
0.0
  9
$PELEVATION
 40
0.0
  9
$THICKNESS
 40
0.0
  9
$LIMCHECK
 70
     0
  9
$CHAMFERA
 40
0.0
  9
$CHAMFERB
 40
0.0
  9
$CHAMFERC
 40
0.0
  9
$CHAMFERD
 40
0.0
  9
$SKPOLY
 70
     0
  9
$TDCREATE
 40
2454297.625402373
  9
$TDUCREATE
 40
2454297.542069039
  9
$TDUPDATE
 40
2454372.388461007
  9
$TDUUPDATE
 40
2454372.305127674
  9
$TDINDWG
 40
0.4080139583
  9
$TDUSRTIMER
 40
0.4080132292
  9
$USRTIMER
 70
     1
  9
$ANGBASE
 50
0.0
  9
$ANGDIR
 70
     0
  9
$PDMODE
 70
     0
  9
$PDSIZE
 40
0.0
  9
$PLINEWID
 40
0.0
  9
$SPLFRAME
 70
     0
  9
$SPLINETYPE
 70
     6
  9
$SPLINESEGS
 70
     8
  9
$HANDSEED
  5
59B0
  9
$SURFTAB1
 70
     6
  9
$SURFTAB2
 70
     6
  9
$SURFTYPE
 70
     6
  9
$SURFU
 70
     6
  9
$SURFV
 70
     6
  9
$UCSBASE
  2

  9
$UCSNAME
  2

  9
$UCSORG
 10
0.0
 20
0.0
 30
0.0
  9
$UCSXDIR
 10
1.0
 20
0.0
 30
0.0
  9
$UCSYDIR
 10
0.0
 20
1.0
 30
0.0
  9
$UCSORTHOREF
  2

  9
$UCSORTHOVIEW
 70
     0
  9
$UCSORGTOP
 10
0.0
 20
0.0
 30
0.0
  9
$UCSORGBOTTOM
 10
0.0
 20
0.0
 30
0.0
  9
$UCSORGLEFT
 10
0.0
 20
0.0
 30
0.0
  9
$UCSORGRIGHT
 10
0.0
 20
0.0
 30
0.0
  9
$UCSORGFRONT
 10
0.0
 20
0.0
 30
0.0
  9
$UCSORGBACK
 10
0.0
 20
0.0
 30
0.0
  9
$PUCSBASE
  2

  9
$PUCSNAME
  2

  9
$PUCSORG
 10
0.0
 20
0.0
 30
0.0
  9
$PUCSXDIR
 10
1.0
 20
0.0
 30
0.0
  9
$PUCSYDIR
 10
0.0
 20
1.0
 30
0.0
  9
$PUCSORTHOREF
  2

  9
$PUCSORTHOVIEW
 70
     0
  9
$PUCSORGTOP
 10
0.0
 20
0.0
 30
0.0
  9
$PUCSORGBOTTOM
 10
0.0
 20
0.0
 30
0.0
  9
$PUCSORGLEFT
 10
0.0
 20
0.0
 30
0.0
  9
$PUCSORGRIGHT
 10
0.0
 20
0.0
 30
0.0
  9
$PUCSORGFRONT
 10
0.0
 20
0.0
 30
0.0
  9
$PUCSORGBACK
 10
0.0
 20
0.0
 30
0.0
  9
$USERI1
 70
     0
  9
$USERI2
 70
     0
  9
$USERI3
 70
     0
  9
$USERI4
 70
     0
  9
$USERI5
 70
     0
  9
$USERR1
 40
0.0
  9
$USERR2
 40
0.0
  9
$USERR3
 40
0.0
  9
$USERR4
 40
0.0
  9
$USERR5
 40
0.0
  9
$WORLDVIEW
 70
     1
  9
$SHADEDGE
 70
     3
  9
$SHADEDIF
 70
    70
  9
$TILEMODE
 70
     1
  9
$MAXACTVP
 70
    64
  9
$PINSBASE
 10
0.0
 20
0.0
 30
0.0
  9
$PLIMCHECK
 70
     0
  9
$PEXTMIN
 10
29.06606628894805
 20
20.36233246326446
 30
0.0
  9
$PEXTMAX
 10
261.5945966005325
 20
183.2609921693802
 30
0.0
  9
$PLIMMIN
 10
-3.17498779296875
 20
-3.174999952316281
  9
$PLIMMAX
 10
293.8356628417969
 20
206.7983276844024
  9
$UNITMODE
 70
     0
  9
$VISRETAIN
 70
     1
  9
$PLINEGEN
 70
     0
  9
$PSLTSCALE
 70
     1
  9
$TREEDEPTH
 70
  3020
  9
$CMLSTYLE
  2
Standard
  9
$CMLJUST
 70
     0
  9
$CMLSCALE
 40
20.0
  9
$PROXYGRAPHICS
 70
     1
  9
$MEASUREMENT
 70
     1
  9
$CELWEIGHT
370
    -1
  9
$ENDCAPS
280
     0
  9
$JOINSTYLE
280
     0
  9
$LWDISPLAY
290
     0
  9
$INSUNITS
 70
     4
  9
$HYPERLINKBASE
  1

  9
$STYLESHEET
  1

  9
$XEDIT
290
     1
  9
$CEPSNTYPE
380
     0
  9
$PSTYLEMODE
290
     1
  9
$FINGERPRINTGUID
  2
{4F38C4E7-9F37-4C76-96D9-79C94F9B03D9}
  9
$VERSIONGUID
  2
{2FEB6FC9-486E-41C4-A9E7-C6EB1A6AB818}
  9
$EXTNAMES
290
     1
  9
$PSVPSCALE
 40
0.0
  9
$OLESTARTUP
290
     0
  9
$SORTENTS
280
   127
  9
$INDEXCTL
280
     0
  9
$HIDETEXT
280
     1
  9
$XCLIPFRAME
290
     0
  9
$HALOGAP
280
     0
  9
$OBSCOLOR
 70
   257
  9
$OBSLTYPE
280
     0
  9
$INTERSECTIONDISPLAY
280
     0
  9
$INTERSECTIONCOLOR
 70
   257
  9
$DIMASSOC
280
     2
  9
$PROJECTNAME
  1

  0
ENDSEC
  0
SECTION
  2
CLASSES
  0
CLASS
  1
ACDBDICTIONARYWDFLT
  2
AcDbDictionaryWithDefault
  3
ObjectDBX Classes
 90
        0
 91
        1
280
     0
281
     0
  0
CLASS
  1
TABLESTYLE
  2
AcDbTableStyle
  3
ObjectDBX Classes
 90
     2047
 91
        1
280
     0
281
     0
  0
CLASS
  1
SORTENTSTABLE
  2
AcDbSortentsTable
  3
ObjectDBX Classes
 90
        0
 91
        4
280
     0
281
     0
  0
CLASS
  1
DICTIONARYVAR
  2
AcDbDictionaryVar
  3
ObjectDBX Classes
 90
        0
 91
        6
280
     0
281
     0
  0
CLASS
  1
DIMASSOC
  2
AcDbDimAssoc
  3
"AcDbDimAssoc|Product Desc:     AcDim ARX App For Dimension|Company:          Autodesk, Inc.|WEB Address:      www.autodesk.com"
 90
        0
 91
        0
280
     0
281
     0
  0
CLASS
  1
ACDBPLACEHOLDER
  2
AcDbPlaceHolder
  3
ObjectDBX Classes
 90
        0
 91
        1
280
     0
281
     0
  0
CLASS
  1
LAYOUT
  2
AcDbLayout
  3
ObjectDBX Classes
 90
        0
 91
        3
280
     0
281
     0
  0
CLASS
  1
MATERIAL
  2
AcDbMaterial
  3
ObjectDBX Classes
 90
        0
 91
        3
280
     0
281
     0
  0
CLASS
  1
VISUALSTYLE
  2
AcDbVisualStyle
  3
ObjectDBX Classes
 90
     4095
 91
       16
280
     0
281
     0
  0
CLASS
  1
IMAGEDEF
  2
AcDbRasterImageDef
  3
ISM
 90
        0
 91
        2
280
     0
281
     0
  0
CLASS
  1
RASTERVARIABLES
  2
AcDbRasterVariables
  3
ISM
 90
        0
 91
        1
280
     0
281
     0
  0
CLASS
  1
IMAGEDEF_REACTOR
  2
AcDbRasterImageDefReactor
  3
ISM
 90
        1
 91
        1
280
     0
281
     0
  0
CLASS
  1
IMAGE
  2
AcDbRasterImage
  3
ISM
 90
      127
 91
        1
280
     0
281
     1
  0
ENDSEC
  0
SECTION
  2
TABLES
  0
TABLE
  2
VPORT
  5
96
330
0
100
AcDbSymbolTable
 70
     3
  0
VPORT
  5
59AF
330
96
100
AcDbSymbolTableRecord
100
AcDbViewportTableRecord
  2
*Active
 70
     0
 10
0.0
 20
0.0
 11
1.0
 21
1.0
 12
0.2226545079261585
 22
0.1416551866011684
 13
0.0
 23
0.0
 14
10.0
 24
10.0
 15
10.0
 25
10.0
 16
0.0
 26
0.0
 36
1.0
 17
0.0
 27
0.0
 37
0.0
 40
0.2729769063352166
 41
1.32909604519774
 42
50.0
 43
0.0
 44
0.0
 50
0.0
 51
0.0
 71
     0
 72
  1000
 73
     1
 74
     3
 75
     0
 76
     0
 77
     0
 78
     0
281
     0
 65
     1
110
0.0
120
0.0
130
0.0
111
1.0
121
0.0
131
0.0
112
0.0
122
1.0
132
0.0
 79
     0
146
0.0
  0
ENDTAB
  0
TABLE
  2
LTYPE
  5
91
330
0
100
AcDbSymbolTable
 70
     4
  0
LTYPE
  5
92
330
91
100
AcDbSymbolTableRecord
100
AcDbLinetypeTableRecord
  2
ByBlock
 70
     0
  3

 72
    65
 73
     0
 40
0.0
  0
LTYPE
  5
93
330
91
100
AcDbSymbolTableRecord
100
AcDbLinetypeTableRecord
  2
ByLayer
 70
     0
  3

 72
    65
 73
     0
 40
0.0
  0
LTYPE
  5
C
330
91
100
AcDbSymbolTableRecord
100
AcDbLinetypeTableRecord
  2
Continuous
 70
     0
  3
Solid line
 72
    65
 73
     0
 40
0.0
  0
LTYPE
  5
105
330
91
100
AcDbSymbolTableRecord
100
AcDbLinetypeTableRecord
  2
ACAD_ISO10W100
 70
     0
  3
ISO dash dot __ . __ . __ . __ . __ . __ . __ .
 72
    65
 73
     4
 40
18.0
 49
12.0
 74
     0
 49
-3.0
 74
     0
 49
0.0
 74
     0
 49
-3.0
 74
     0
  0
LTYPE
  5
190
330
91
100
AcDbSymbolTableRecord
100
AcDbLinetypeTableRecord
  2
RAYITAX4
 70
     0
  3
RAYITAX4
 72
    65
 73
     2
 40
18.0
 49
12.0
 74
     0
 49
-6.0
 74
     0
  0
LTYPE
  5
73C
330
91
100
AcDbSymbolTableRecord
100
AcDbLinetypeTableRecord
  2
RAYITA
 70
     0
  3
rayita
 72
    65
 73
     2
 40
1.5
 49
1.0
 74
     0
 49
-0.5
 74
     0
  0
ENDTAB
  0
TABLE
  2
LAYER
  5
8A
102
{ACAD_XDICTIONARY
360
8B
102
}
330
0
100
AcDbSymbolTable
 70
    14
  0
LAYER
  5
6
330
8A
100
AcDbSymbolTableRecord
100
AcDbLayerTableRecord
  2
0
 70
     0
 62
     7
  6
Continuous
370
    -3
390
7
  0
LAYER
  5
3F
330
8A
100
AcDbSymbolTableRecord
100
AcDbLayerTableRecord
  2
Defpoints
 70
     0
 62
     7
  6
Continuous
290
     0
370
    -3
390
7
  0
LAYER
  5
2E
330
8A
100
AcDbSymbolTableRecord
100
AcDbLayerTableRecord
  2
Dimensione
 70
     0
 62
   150
  6
Continuous
370
    -3
390
7
1001
AcAecLayerStandard
1000

1000

  0
LAYER
  5
2A
330
8A
100
AcDbSymbolTableRecord
100
AcDbLayerTableRecord
  2
Profilo
 70
     0
 62
     1
  6
Continuous
370
    -3
390
7
1001
AcAecLayerStandard
1000

1000

  0
LAYER
  5
54
330
8A
100
AcDbSymbolTableRecord
100
AcDbLayerTableRecord
  2
Sezione
 70
     0
 62
     2
  6
Continuous
370
    -3
390
7
1001
AcAecLayerStandard
1000

1000

  0
LAYER
  5
E
330
8A
100
AcDbSymbolTableRecord
100
AcDbLayerTableRecord
  2
Table
 70
     0
 62
     3
  6
Continuous
370
    -3
390
7
1001
AcAecLayerStandard
1000

1000

  0
LAYER
  5
19
330
8A
100
AcDbSymbolTableRecord
100
AcDbLayerTableRecord
  2
Text
 70
     0
 62
     4
  6
Continuous
370
    -3
390
7
1001
AcAecLayerStandard
1000

1000

  0
LAYER
  5
5C
330
8A
100
AcDbSymbolTableRecord
100
AcDbLayerTableRecord
  2
Vista
 70
     0
 62
     2
  6
Continuous
370
    -3
390
7
1001
AcAecLayerStandard
1000

1000

  0
LAYER
  5
256
330
8A
100
AcDbSymbolTableRecord
100
AcDbLayerTableRecord
  2
CORTE
 70
     0
 62
     1
  6
Continuous
370
    -3
390
7
  0
LAYER
  5
40E
330
8A
100
AcDbSymbolTableRecord
100
AcDbLayerTableRecord
  2
COTAS
 70
     0
 62
     4
  6
Continuous
370
    -3
390
7
  0
LAYER
  5
594
330
8A
100
AcDbSymbolTableRecord
100
AcDbLayerTableRecord
  2
MARCO
 70
     0
 62
     4
  6
Continuous
370
    -3
390
7
  0
LAYER
  5
B5A
330
8A
100
AcDbSymbolTableRecord
100
AcDbLayerTableRecord
  2
TRAMA
 70
     0
 62
     4
  6
Continuous
370
    -3
390
7
  0
LAYER
  5
1823
330
8A
100
AcDbSymbolTableRecord
100
AcDbLayerTableRecord
  2
Eurostyl
 70
     0
 62
   233
420
 14702479
  6
Continuous
370
    -3
390
7
  0
LAYER
  5
56F2
330
8A
100
AcDbSymbolTableRecord
100
AcDbLayerTableRecord
  2
Brisckstyl
 70
     0
 62
    81
420
 10085529
  6
Continuous
370
    -3
390
7
  0
ENDTAB
  0
TABLE
  2
STYLE
  5
8F
330
0
100
AcDbSymbolTable
 70
     5
  0
STYLE
  5
1A
330
8F
100
AcDbSymbolTableRecord
100
AcDbTextStyleTableRecord
  2
Standard
 70
     0
 40
0.0
 41
1.0
 50
0.0
 71
     0
 42
2.5
  3
txt
  4

  0
STYLE
  5
20
330
8F
100
AcDbSymbolTableRecord
100
AcDbTextStyleTableRecord
  2
ROMANS
 70
     0
 40
0.0
 41
1.0
 50
0.0
 71
     0
 42
2.5
  3
romans
  4

  0
STYLE
  5
28
330
8F
100
AcDbSymbolTableRecord
100
AcDbTextStyleTableRecord
  2
Arial
 70
     0
 40
0.0
 41
1.0
 50
0.0
 71
     0
 42
0.25
  3
ARIAL.TTF
  4

1001
ACAD
1000
Arial
1071
       34
  0
STYLE
  5
26
330
8F
100
AcDbSymbolTableRecord
100
AcDbTextStyleTableRecord
  2
style1
 70
     0
 40
0.0
 41
1.0
 50
0.0
 71
     0
 42
0.005
  3
TIMES.TTF
  4

1001
ACAD
1000
Times New Roman
1071
       18
  0
STYLE
  5
595
330
8F
100
AcDbSymbolTableRecord
100
AcDbTextStyleTableRecord
  2
EUROROMANOBLIQUE
 70
     0
 40
0.0
 41
1.0
 50
0.0
 71
     0
 42
2.5
  3
euro____.pfb
  4

  0
ENDTAB
  0
TABLE
  2
VIEW
  5
94
330
0
100
AcDbSymbolTable
 70
     0
  0
ENDTAB
  0
TABLE
  2
UCS
  5
95
330
0
100
AcDbSymbolTable
 70
     0
  0
ENDTAB
  0
TABLE
  2
APPID
  5
98
330
0
100
AcDbSymbolTable
 70
     9
  0
APPID
  5
1B
330
98
100
AcDbSymbolTableRecord
100
AcDbRegAppTableRecord
  2
ACAD
 70
     0
  0
APPID
  5
34
330
98
100
AcDbSymbolTableRecord
100
AcDbRegAppTableRecord
  2
ACAD_DSTYLE_DIMJOGGED_JOGANGLE_SYMBOL
 70
     0
  0
APPID
  5
F
330
98
100
AcDbSymbolTableRecord
100
AcDbRegAppTableRecord
  2
AcAecLayerStandard
 70
     0
  0
APPID
  5
85
330
98
100
AcDbSymbolTableRecord
100
AcDbRegAppTableRecord
  2
ACAD_PSEXT
 70
     0
  0
APPID
  5
BA
330
98
100
AcDbSymbolTableRecord
100
AcDbRegAppTableRecord
  2
ACAD_DSTYLE_DIMEXT_LENGTH
 70
     0
  0
APPID
  5
101
330
98
100
AcDbSymbolTableRecord
100
AcDbRegAppTableRecord
  2
ACAD_EXEMPT_FROM_CAD_STANDARDS
 70
     0
  0
APPID
  5
102
330
98
100
AcDbSymbolTableRecord
100
AcDbRegAppTableRecord
  2
ACAD_DSTYLE_DIM_LINETYPE
 70
     0
  0
APPID
  5
103
330
98
100
AcDbSymbolTableRecord
100
AcDbRegAppTableRecord
  2
ACAD_DSTYLE_DIM_EXT1_LINETYPE
 70
     0
  0
APPID
  5
104
330
98
100
AcDbSymbolTableRecord
100
AcDbRegAppTableRecord
  2
ACAD_DSTYLE_DIM_EXT2_LINETYPE
 70
     0
  0
ENDTAB
  0
TABLE
  2
DIMSTYLE
  5
99
330
0
100
AcDbSymbolTable
 70
     7
100
AcDbDimStyleTable
 71
     2
340
2F
340
9A
  0
DIMSTYLE
105
9A
330
99
100
AcDbSymbolTableRecord
100
AcDbDimStyleTableRecord
  2
ISO-25
 70
     0
 41
2.5
 42
0.625
 43
3.75
 44
1.25
 73
     0
 74
     0
 77
     1
 78
     8
140
2.5
141
2.5
143
0.03937007874016
147
0.625
171
     3
172
     1
271
     2
272
     2
274
     3
278
    44
283
     0
284
     8
340
1A
  0
DIMSTYLE
105
2F
102
{ACAD_REACTORS
330
57FE
330
57FF
330
5965
330
5966
102
}
330
99
100
AcDbSymbolTableRecord
100
AcDbDimStyleTableRecord
  2
Bovelacci
 70
     0
 40
0.001
 41
1.5
140
3.0
141
0.0
147
2.0
176
     5
177
     5
178
     4
271
     2
272
     2
279
     2
340
20
342
30
1001
ACAD_DSTYLE_DIMJOGGED_JOGANGLE_SYMBOL
1070
   384
1040
0.7853981633974483
1001
ACAD_DSTYLE_DIMEXT_LENGTH
1070
   378
1040
0.18
  0
DIMSTYLE
105
194
330
99
100
AcDbSymbolTableRecord
100
AcDbDimStyleTableRecord
  2
STANDARD
 70
     0
340
1A
  0
DIMSTYLE
105
4EB
330
99
100
AcDbSymbolTableRecord
100
AcDbDimStyleTableRecord
  2
Dim 1-100
 70
     0
 40
0.1
 41
1.5
 42
0.0
 43
5.0
 44
1.25
 45
0.005
 46
1.25
 73
     0
 74
     0
 77
     1
 78
     9
140
2.0
141
2.5
147
1.0
172
     1
174
     1
179
     2
279
     2
289
     2
340
20
342
30
  0
DIMSTYLE
105
4EC
330
99
100
AcDbSymbolTableRecord
100
AcDbDimStyleTableRecord
  2
Dim 1-50
 70
     0
 40
0.05
 41
1.5
 42
0.0
 43
5.0
 44
1.25
 45
0.005
 46
1.25
 73
     0
 74
     0
 77
     1
 78
     9
140
2.0
141
2.5
147
1.0
172
     1
174
     1
179
     2
279
     2
289
     2
340
20
342
30
  0
DIMSTYLE
105
4ED
330
99
100
AcDbSymbolTableRecord
100
AcDbDimStyleTableRecord
  2
Dim 1-200
 70
     0
 40
0.2
 41
1.5
 42
0.0
 43
5.0
 44
1.25
 45
0.005
 46
1.25
 73
     0
 74
     0
 77
     1
 78
     9
140
2.0
141
2.5
147
1.0
172
     1
174
     1
179
     2
271
     2
272
     2
279
     2
289
     2
340
20
342
30
  0
DIMSTYLE
105
4EE
330
99
100
AcDbSymbolTableRecord
100
AcDbDimStyleTableRecord
  2
AEC Scale - Italiano
 70
     0
 41
1.0
 42
10.0
 43
10.0
 44
10.0
 73
     0
 74
     0
 75
     1
 76
     1
 77
     1
140
10.0
141
1.0
147
10.0
173
     1
271
     0
272
     0
279
     2
340
1A
343
4E6
344
4E0
  0
ENDTAB
  0
TABLE
  2
BLOCK_RECORD
  5
1
330
0
100
AcDbSymbolTable
 70
    30
  0
BLOCK_RECORD
  5
2
102
{ACAD_XDICTIONARY
360
3
102
}
330
1
100
AcDbSymbolTableRecord
100
AcDbBlockTableRecord
  2
*Model_Space
340
77
  0
BLOCK_RECORD
  5
79
330
1
100
AcDbSymbolTableRecord
100
AcDbBlockTableRecord
  2
*Paper_Space
340
82
  0
BLOCK_RECORD
  5
86
330
1
100
AcDbSymbolTableRecord
100
AcDbBlockTableRecord
  2
*Paper_Space0
340
89
  0
BLOCK_RECORD
  5
30
330
1
100
AcDbSymbolTableRecord
100
AcDbBlockTableRecord
  2
_ArchTick
340
0
310
2800000020000000200000000100080000000000000400000000000000000000000000000000000000000000000080000080000000808000800000008000800080800000C0C0C000C0DCC000F0CAA6000020400000206000002080000020A0000020C0000020E00000400000004020000040400000406000004080000040A0
310
000040C0000040E00000600000006020000060400000606000006080000060A0000060C0000060E00000800000008020000080400000806000008080000080A0000080C0000080E00000A0000000A0200000A0400000A0600000A0800000A0A00000A0C00000A0E00000C0000000C0200000C0400000C0600000C0800000C0
310
A00000C0C00000C0E00000E0000000E0200000E0400000E0600000E0800000E0A00000E0C00000E0E00040000000400020004000400040006000400080004000A0004000C0004000E00040200000402020004020400040206000402080004020A0004020C0004020E000404000004040200040404000404060004040800040
310
40A0004040C0004040E00040600000406020004060400040606000406080004060A0004060C0004060E00040800000408020004080400040806000408080004080A0004080C0004080E00040A0000040A0200040A0400040A0600040A0800040A0A00040A0C00040A0E00040C0000040C0200040C0400040C0600040C08000
310
40C0A00040C0C00040C0E00040E0000040E0200040E0400040E0600040E0800040E0A00040E0C00040E0E00080000000800020008000400080006000800080008000A0008000C0008000E00080200000802020008020400080206000802080008020A0008020C0008020E00080400000804020008040400080406000804080
310
008040A0008040C0008040E00080600000806020008060400080606000806080008060A0008060C0008060E00080800000808020008080400080806000808080008080A0008080C0008080E00080A0000080A0200080A0400080A0600080A0800080A0A00080A0C00080A0E00080C0000080C0200080C0400080C0600080C0
310
800080C0A00080C0C00080C0E00080E0000080E0200080E0400080E0600080E0800080E0A00080E0C00080E0E000C0000000C0002000C0004000C0006000C0008000C000A000C000C000C000E000C0200000C0202000C0204000C0206000C0208000C020A000C020C000C020E000C0400000C0402000C0404000C0406000C0
310
408000C040A000C040C000C040E000C0600000C0602000C0604000C0606000C0608000C060A000C060C000C060E000C0800000C0802000C0804000C0806000C0808000C080A000C080C000C080E000C0A00000C0A02000C0A04000C0A06000C0A08000C0A0A000C0A0C000C0A0E000C0C00000C0C02000C0C04000C0C06000
310
C0C08000C0C0A000F0FBFF00A4A0A000808080000000FF0000FF000000FFFF00FF000000FF00FF00FFFF0000FFFFFF00000000FF000000000000000000000000000000000000000000000000000000000000FF00FF00000000000000000000000000000000000000000000000000000000FF000000FF000000000000000000
310
0000000000000000000000000000000000FF0000000000FF0000000000000000000000000000000000000000000000000000FF0000000000FF0000000000000000000000000000000000000000000000000000FF0000000000FF0000000000000000000000000000000000000000000000000000FF0000000000FF00000000
310
00000000000000000000000000000000000000000000FF0000000000FF0000000000000000000000000000000000000000000000000000FF0000000000FF0000000000000000000000000000000000000000000000000000FF0000000000FF0000000000000000000000000000000000000000000000000000FF0000000000
310
FF0000000000000000000000000000000000000000000000000000FF0000000000FF0000000000000000000000000000000000000000000000000000FF0000000000FF0000000000000000000000000000000000000000000000000000FF0000000000FF0000000000000000000000000000000000000000000000000000FF
310
0000000000FF0000000000000000000000000000000000000000000000000000FF0000000000FF0000000000000000000000000000000000000000000000000000FF0000000000FF0000000000000000000000000000000000000000000000000000FF0000000000FF00000000000000000000000000000000000000000000
310
00000000FF0000000000FF0000000000000000000000000000000000000000000000000000FF0000000000FF0000000000000000000000000000000000000000000000000000FF0000000000FF0000000000000000000000000000000000000000000000000000FF0000000000FF0000000000000000000000000000000000
310
000000000000000000FF0000000000FF0000000000000000000000000000000000000000000000000000FF0000000000FF0000000000000000000000000000000000000000000000000000FF0000000000FF0000000000000000000000000000000000000000000000000000FF0000000000FF000000000000000000000000
310
0000000000000000000000000000FF0000000000FF0000000000000000000000000000000000000000000000000000FF0000000000FF0000000000000000000000000000000000000000000000000000FF0000000000FF0000000000000000000000000000000000000000000000000000FF000000FF000000000000000000
310
00000000000000000000000000000000000000FF00FF000000000000000000000000000000000000000000000000000000000000FF000000
102
{BLKREFS
331
180E
331
180F
331
1818
331
1819
331
5664
331
5665
331
566E
331
566F
331
567A
331
567B
331
5687
331
5688
331
56BB
331
56BC
331
56C5
331
56C6
331
56DF
331
56E0
331
56EC
331
56ED
331
591C
331
591D
331
5926
331
5927
331
5934
331
5935
331
5941
331
5942
331
599A
331
599B
331
59A4
331
59A5
102
}
  0
BLOCK_RECORD
  5
179
330
1
100
AcDbSymbolTableRecord
100
AcDbBlockTableRecord
  2
DOT
340
0
  0
BLOCK_RECORD
  5
213
330
1
100
AcDbSymbolTableRecord
100
AcDbBlockTableRecord
  2
ELEMENT
340
0
102
{BLKREFS
331
244
102
}
  0
BLOCK_RECORD
  5
235
330
1
100
AcDbSymbolTableRecord
100
AcDbBlockTableRecord
  2
NOM-J
340
0
  0
BLOCK_RECORD
  5
3FB
330
1
100
AcDbSymbolTableRecord
100
AcDbBlockTableRecord
  2
NOM-QR
340
0
  0
BLOCK_RECORD
  5
4E0
330
1
100
AcDbSymbolTableRecord
100
AcDbBlockTableRecord
  2
_Arrivo
340
0
310
2800000020000000200000000100080000000000000400000000000000000000000000000000000000000000000080000080000000808000800000008000800080800000C0C0C000C0DCC000F0CAA6000020400000206000002080000020A0000020C0000020E00000400000004020000040400000406000004080000040A0
310
000040C0000040E00000600000006020000060400000606000006080000060A0000060C0000060E00000800000008020000080400000806000008080000080A0000080C0000080E00000A0000000A0200000A0400000A0600000A0800000A0A00000A0C00000A0E00000C0000000C0200000C0400000C0600000C0800000C0
310
A00000C0C00000C0E00000E0000000E0200000E0400000E0600000E0800000E0A00000E0C00000E0E00040000000400020004000400040006000400080004000A0004000C0004000E00040200000402020004020400040206000402080004020A0004020C0004020E000404000004040200040404000404060004040800040
310
40A0004040C0004040E00040600000406020004060400040606000406080004060A0004060C0004060E00040800000408020004080400040806000408080004080A0004080C0004080E00040A0000040A0200040A0400040A0600040A0800040A0A00040A0C00040A0E00040C0000040C0200040C0400040C0600040C08000
310
40C0A00040C0C00040C0E00040E0000040E0200040E0400040E0600040E0800040E0A00040E0C00040E0E00080000000800020008000400080006000800080008000A0008000C0008000E00080200000802020008020400080206000802080008020A0008020C0008020E00080400000804020008040400080406000804080
310
008040A0008040C0008040E00080600000806020008060400080606000806080008060A0008060C0008060E00080800000808020008080400080806000808080008080A0008080C0008080E00080A0000080A0200080A0400080A0600080A0800080A0A00080A0C00080A0E00080C0000080C0200080C0400080C0600080C0
310
800080C0A00080C0C00080C0E00080E0000080E0200080E0400080E0600080E0800080E0A00080E0C00080E0E000C0000000C0002000C0004000C0006000C0008000C000A000C000C000C000E000C0200000C0202000C0204000C0206000C0208000C020A000C020C000C020E000C0400000C0402000C0404000C0406000C0
310
408000C040A000C040C000C040E000C0600000C0602000C0604000C0606000C0608000C060A000C060C000C060E000C0800000C0802000C0804000C0806000C0808000C080A000C080C000C080E000C0A00000C0A02000C0A04000C0A06000C0A08000C0A0A000C0A0C000C0A0E000C0C00000C0C02000C0C04000C0C06000
310
C0C08000C0C0A000F0FBFF00A4A0A000808080000000FF0000FF000000FFFF00FF000000FF00FF00FFFF0000FFFFFF00000000000000000000000000000000000000000000000000000000000000000000000000000000000000FF0000000000000000000000000000000000000000000000000000000000000000FF000000
310
00000000000000000000000000000000000000000000000000000000FF0000000000000000000000000000000000000000000000000000000000000000FF00000000000000000000000000000000000000000000000000000000000000FF0000000000000000000000000000000000000000000000000000000000000000FF
310
0000000000000000000000000000000000000000000000000000000000000000FF00000000000000000000000000000000000000000000000000000000000000FF0000000000000000000000000000000000000000000000000000000000000000FF0000000000000000000000000000000000000000000000000000000000
310
0000FF0000000000000000000000000000000000000000000000000000000000000000FF00000000000000000000000000000000000000000000000000000000000000FF0000000000000000000000000000000000000000000000000000000000000000FF0000FF0000000000000000000000000000000000000000000000
310
000000000000FFFF000000000000000000000000000000000000000000000000000000000000FFFF00000000000000000000000000000000000000000000000000000000FFFFFFFFFFFF00000000000000000000000000000000000000000000000000000000FFFF0000000000000000000000000000000000000000000000
310
000000000000FF0000FF000000000000000000000000000000000000000000000000000000FF00000000000000000000000000000000000000000000000000000000000000FF000000000000000000000000000000000000000000000000000000000000FF0000000000000000000000000000000000000000000000000000
310
0000000000FF000000000000000000000000000000000000000000000000000000000000FF00000000000000000000000000000000000000000000000000000000000000FF000000000000000000000000000000000000000000000000000000000000FF000000000000000000000000000000000000000000000000000000
310
000000FF00000000000000000000000000000000000000000000000000000000000000FF000000000000000000000000000000000000000000000000000000000000FF00000000000000000000000000000000000000000000000000000000000000FF00000000000000000000000000000000000000000000000000000000
310
0000FF0000000000000000000000000000000000000000000000000000000000000000000000000000000000000000000000000000000000
  0
BLOCK_RECORD
  5
4E6
330
1
100
AcDbSymbolTableRecord
100
AcDbBlockTableRecord
  2
_Partenza
340
0
310
2800000020000000200000000100080000000000000400000000000000000000000000000000000000000000000080000080000000808000800000008000800080800000C0C0C000C0DCC000F0CAA6000020400000206000002080000020A0000020C0000020E00000400000004020000040400000406000004080000040A0
310
000040C0000040E00000600000006020000060400000606000006080000060A0000060C0000060E00000800000008020000080400000806000008080000080A0000080C0000080E00000A0000000A0200000A0400000A0600000A0800000A0A00000A0C00000A0E00000C0000000C0200000C0400000C0600000C0800000C0
310
A00000C0C00000C0E00000E0000000E0200000E0400000E0600000E0800000E0A00000E0C00000E0E00040000000400020004000400040006000400080004000A0004000C0004000E00040200000402020004020400040206000402080004020A0004020C0004020E000404000004040200040404000404060004040800040
310
40A0004040C0004040E00040600000406020004060400040606000406080004060A0004060C0004060E00040800000408020004080400040806000408080004080A0004080C0004080E00040A0000040A0200040A0400040A0600040A0800040A0A00040A0C00040A0E00040C0000040C0200040C0400040C0600040C08000
310
40C0A00040C0C00040C0E00040E0000040E0200040E0400040E0600040E0800040E0A00040E0C00040E0E00080000000800020008000400080006000800080008000A0008000C0008000E00080200000802020008020400080206000802080008020A0008020C0008020E00080400000804020008040400080406000804080
310
008040A0008040C0008040E00080600000806020008060400080606000806080008060A0008060C0008060E00080800000808020008080400080806000808080008080A0008080C0008080E00080A0000080A0200080A0400080A0600080A0800080A0A00080A0C00080A0E00080C0000080C0200080C0400080C0600080C0
310
800080C0A00080C0C00080C0E00080E0000080E0200080E0400080E0600080E0800080E0A00080E0C00080E0E000C0000000C0002000C0004000C0006000C0008000C000A000C000C000C000E000C0200000C0202000C0204000C0206000C0208000C020A000C020C000C020E000C0400000C0402000C0404000C0406000C0
310
408000C040A000C040C000C040E000C0600000C0602000C0604000C0606000C0608000C060A000C060C000C060E000C0800000C0802000C0804000C0806000C0808000C080A000C080C000C080E000C0A00000C0A02000C0A04000C0A06000C0A08000C0A0A000C0A0C000C0A0E000C0C00000C0C02000C0C04000C0C06000
310
C0C08000C0C0A000F0FBFF00A4A0A000808080000000FF0000FF000000FFFF00FF000000FF00FF00FFFF0000FFFFFF0000000000000000000000000000000000000000000000000000000000000000000000000000000000000000000000000000000000000000000000000000000000000000000000000000000000000000
310
000000000000000000000000000000000000000000000000000000000000000000000000000000000000000000000000000000000000000000000000000000000000000000000000000000000000000000000000000000000000000000000000000000000000000000000000000000000000FFFFFFFFFFFFFFFFFFFFFFFFFF
310
FFFFFFFFFFFFFFFFFFFFFFFFFFFFFFFFFF0000000000000000000000000000000000000000000000000000000000000000000000000000000000000000000000000000000000000000000000000000000000000000000000000000000000000000000000000000000000000000000000000000000000000000000000000000
310
00000000000000000000000000000000000000000000000000000000000000000000000000000000000000000000000000000000000000000000000000000000000000000000000000000000000000000000000000000000000000000000000000000000000000000000000000000000000000000000000000000000000000
310
00000000000000000000000000000000000000000000000000000000000000000000000000000000000000000000000000000000000000000000000000000000000000000000000000000000000000000000000000000000000000000000000000000000000000000000000000000000000000000000000000000000000000
310
00000000000000000000000000000000000000000000000000000000000000000000000000000000000000000000000000000000000000000000000000000000000000000000000000000000000000000000000000000000000000000000000000000000000000000000000000000000000000000000000000000000000000
310
000000000000000000000000000000000000000000000000000000000000000000000000000000000000000000000000000000000000000000000000000000000000000000000000000000000000000000000000000000FFFFFFFFFFFFFFFFFFFFFFFFFFFFFFFFFFFFFFFFFFFFFFFFFFFFFFFFFFFF00000000000000000000
310
00000000000000000000000000000000000000000000000000000000000000000000000000000000000000000000000000000000000000000000000000000000000000000000000000000000000000000000000000000000000000000000000000000000000000000000000000000000000000000000000000000000000000
310
0000000000000000000000000000000000000000000000000000000000000000000000000000000000000000000000000000000000000000
  0
BLOCK_RECORD
  5
73D
330
1
100
AcDbSymbolTableRecord
100
AcDbBlockTableRecord
  2
A$C6CE44357
340
0
1001
ACAD
1000
DesignCenter Data
1002
{
1070
     1
1070
     0
1002
}
  0
BLOCK_RECORD
  5
B69
102
{ACAD_XDICTIONARY
360
B6D
102
}
330
1
100
AcDbSymbolTableRecord
100
AcDbBlockTableRecord
  2
A$C263D6B6A
340
0
1001
ACAD
1000
DesignCenter Data
1002
{
1070
     1
1070
     4
1002
}
  0
BLOCK_RECORD
  5
BFB
330
1
100
AcDbSymbolTableRecord
100
AcDbBlockTableRecord
  2
*X10
340
0
102
{BLKREFS
331
C22
102
}
  0
BLOCK_RECORD
  5
C1F
330
1
100
AcDbSymbolTableRecord
100
AcDbBlockTableRecord
  2
A$C6C65579B
340
0
1001
ACAD
1000
DesignCenter Data
1002
{
1070
     1
1070
     0
1002
}
  0
BLOCK_RECORD
  5
16A7
330
1
100
AcDbSymbolTableRecord
100
AcDbBlockTableRecord
  2
*D12
340
0
  0
BLOCK_RECORD
  5
16C1
330
1
100
AcDbSymbolTableRecord
100
AcDbBlockTableRecord
  2
*D13
340
0
  0
BLOCK_RECORD
  5
569E
330
1
100
AcDbSymbolTableRecord
100
AcDbBlockTableRecord
  2
*D18
340
0
  0
BLOCK_RECORD
  5
56AB
330
1
100
AcDbSymbolTableRecord
100
AcDbBlockTableRecord
  2
*D19
340
0
  0
BLOCK_RECORD
  5
56D9
330
1
100
AcDbSymbolTableRecord
100
AcDbBlockTableRecord
  2
*D20
340
0
  0
BLOCK_RECORD
  5
56E6
330
1
100
AcDbSymbolTableRecord
100
AcDbBlockTableRecord
  2
*D21
340
0
  0
BLOCK_RECORD
  5
56F3
102
{ACAD_XDICTIONARY
360
57F7
102
}
330
1
100
AcDbSymbolTableRecord
100
AcDbBlockTableRecord
  2
A$C560330C9
340
0
1001
ACAD
1000
DesignCenter Data
1002
{
1070
     1
1070
     4
1002
}
  0
BLOCK_RECORD
  5
58FF
330
1
100
AcDbSymbolTableRecord
100
AcDbBlockTableRecord
  2
*D23
340
0
  0
BLOCK_RECORD
  5
590C
330
1
100
AcDbSymbolTableRecord
100
AcDbBlockTableRecord
  2
*D24
340
0
  0
BLOCK_RECORD
  5
592E
330
1
100
AcDbSymbolTableRecord
100
AcDbBlockTableRecord
  2
*D25
340
0
  0
BLOCK_RECORD
  5
593B
330
1
100
AcDbSymbolTableRecord
100
AcDbBlockTableRecord
  2
*D26
340
0
  0
BLOCK_RECORD
  5
597C
330
1
100
AcDbSymbolTableRecord
100
AcDbBlockTableRecord
  2
*D28
340
0
  0
BLOCK_RECORD
  5
5989
330
1
100
AcDbSymbolTableRecord
100
AcDbBlockTableRecord
  2
*D29
340
0
  0
ENDTAB
  0
ENDSEC
  0
SECTION
  2
BLOCKS
  0
BLOCK
  5
5
330
2
100
AcDbEntity
  8
0
100
AcDbBlockBegin
  2
*Model_Space
 70
     0
 10
0.0
 20
0.0
 30
0.0
  3
*Model_Space
  1

  0
ENDBLK
  5
76
330
2
100
AcDbEntity
  8
0
100
AcDbBlockEnd
  0
BLOCK
  5
7A
330
79
100
AcDbEntity
 67
     1
  8
0
100
AcDbBlockBegin
  2
*Paper_Space
 70
     0
 10
0.0
 20
0.0
 30
0.0
  3
*Paper_Space
  1

  0
ENDBLK
  5
81
330
79
100
AcDbEntity
 67
     1
  8
0
100
AcDbBlockEnd
  0
BLOCK
  5
87
330
86
100
AcDbEntity
 67
     1
  8
0
100
AcDbBlockBegin
  2
*Paper_Space0
 70
     0
 10
0.0
 20
0.0
 30
0.0
  3
*Paper_Space0
  1

  0
ENDBLK
  5
88
330
86
100
AcDbEntity
 67
     1
  8
0
100
AcDbBlockEnd
  0
BLOCK
  5
31
330
30
100
AcDbEntity
  8
0
 62
     1
100
AcDbBlockBegin
  2
_ArchTick
 70
     0
 10
0.0
 20
0.0
 30
0.0
  3
_ArchTick
  1

  0
LWPOLYLINE
  5
32
330
30
100
AcDbEntity
  8
0
  6
ByBlock
 62
     0
100
AcDbPolyline
 90
        2
 70
     0
 43
0.15
 10
-0.5
 20
-0.5
 10
0.5
 20
0.5
  0
ENDBLK
  5
33
330
30
100
AcDbEntity
  8
0
 62
     1
100
AcDbBlockEnd
  0
BLOCK
  5
17A
330
179
100
AcDbEntity
  8
0
100
AcDbBlockBegin
  2
DOT
 70
     0
 10
0.0
 20
0.0
 30
0.0
  3
DOT
  1

  0
LWPOLYLINE
  5
17B
330
179
100
AcDbEntity
  8
0
  6
ByBlock
 62
     0
100
AcDbPolyline
 90
        2
 70
     1
 43
0.5
 10
-0.25
 20
0.0
 42
1.0
 10
0.25
 20
0.0
 42
1.0
  0
LINE
  5
17C
330
179
100
AcDbEntity
  8
0
  6
ByBlock
 62
     0
100
AcDbLine
 10
-0.5
 20
0.0
 30
0.0
 11
-1.0
 21
0.0
 31
0.0
  0
ENDBLK
  5
17D
330
179
100
AcDbEntity
  8
0
100
AcDbBlockEnd
  0
BLOCK
  5
214
330
213
100
AcDbEntity
  8
0
100
AcDbBlockBegin
  2
ELEMENT
 70
     0
 10
0.0
 20
0.0
 30
0.0
  3
ELEMENT
  1

  0
LINE
  5
215
330
213
100
AcDbEntity
  8
CORTE
 62
     1
100
AcDbLine
 10
0.0287752548522349
 20
0.037775254852221
 30
0.0
 11
0.0062928932188697
 21
0.015292893218799
 31
0.0
  0
ARC
  5
216
330
213
100
AcDbEntity
  8
CORTE
 62
     1
100
AcDbCircle
 10
0.0148333333333994
 20
0.0291666666666402
 30
0.0
 40
0.0191847740553366
100
AcDbArc
 50
270.4730994291238
 51
359.5269005707907
  0
LINE
  5
217
330
213
100
AcDbEntity
  8
CORTE
100
AcDbLine
 10
0.0130000000000337
 20
-0.0000000000000568
 30
0.0
 11
0.0099999999999909
 21
0.0000000000000284
 31
0.0
  0
LINE
  5
218
330
213
100
AcDbEntity
  8
CORTE
100
AcDbLine
 10
-0.0009999999999764
 20
0.0010000000000048
 30
0.0
 11
-0.0009999999999764
 21
0.0140000000000384
 31
0.0
  0
ARC
  5
219
330
213
100
AcDbEntity
  8
CORTE
100
AcDbCircle
 10
0.0
 20
0.0010000000000048
 30
0.0
 40
0.001
100
AcDbArc
 50
180.0
 51
269.9999999991858
  0
LINE
  5
21A
330
213
100
AcDbEntity
  8
CORTE
100
AcDbLine
 10
0.0040000000000191
 20
-0.0039999999999623
 30
0.0
 11
0.0040000000000191
 21
-0.0010000000000332
 31
0.0
  0
LINE
  5
21B
330
213
100
AcDbEntity
  8
CORTE
100
AcDbLine
 10
0.0090000000000146
 20
-0.0039999999999907
 30
0.0
 11
0.0090000000000146
 21
-0.0009999999999764
 31
0.0
  0
ARC
  5
21C
330
213
100
AcDbEntity
  8
CORTE
100
AcDbCircle
 10
0.0049999999999955
 20
-0.0039999999999623
 30
0.0
 40
0.001
100
AcDbArc
 50
180.0
 51
269.9999999996743
  0
LINE
  5
21D
330
213
100
AcDbEntity
  8
CORTE
100
AcDbLine
 10
0.0080000000000382
 20
-0.0049999999999955
 30
0.0
 11
0.0049999999999955
 21
-0.004999999999967
 31
0.0
  0
ARC
  5
21E
330
213
100
AcDbEntity
  8
CORTE
100
AcDbCircle
 10
0.0080000000000382
 20
-0.0039999999999907
 30
0.0
 40
0.001
100
AcDbArc
 50
269.9999999995929
 51
0.000000000000007
  0
LINE
  5
21F
330
213
100
AcDbEntity
  8
CORTE
100
AcDbLine
 10
0.0030000000000427
 20
-0.0000000000000284
 30
0.0
 11
0.0
 21
0.0
 31
0.0
  0
ARC
  5
220
330
213
100
AcDbEntity
  8
CORTE
100
AcDbCircle
 10
0.0030000000000427
 20
-0.0010000000000332
 30
0.0
 40
0.001
100
AcDbArc
 50
0.000000000000007
 51
89.99999999967434
  0
ARC
  5
221
330
213
100
AcDbEntity
  8
CORTE
100
AcDbCircle
 10
0.0099999999999909
 20
-0.0009999999999764
 30
0.0
 40
0.001
100
AcDbArc
 50
89.99999999967434
 51
180.0
  0
ARC
  5
222
330
213
100
AcDbEntity
  8
CORTE
100
AcDbCircle
 10
0.0
 20
0.0140000000000384
 30
0.0
 40
0.001
100
AcDbArc
 50
89.99999999975273
 51
180.0
  0
LINE
  5
223
330
213
100
AcDbEntity
  8
CORTE
100
AcDbLine
 10
0.0055857864376776
 20
0.0149999999999864
 30
0.0
 11
0.0
 21
0.0150000000000432
 31
0.0
  0
ARC
  5
224
330
213
100
AcDbEntity
  8
CORTE
 62
     1
100
AcDbCircle
 10
0.0055857864376776
 20
0.0159999999999911
 30
0.0
 40
0.001
100
AcDbArc
 50
269.9999999997674
 51
315.0000000000357
  0
LINE
  5
225
330
213
100
AcDbEntity
  8
CORTE
100
AcDbLine
 10
0.01400000000001
 20
0.0009999999999479
 30
0.0
 11
0.01400000000001
 21
0.0089825806863075
 31
0.0
  0
ARC
  5
226
330
213
100
AcDbEntity
  8
CORTE
100
AcDbCircle
 10
0.0130000000000337
 20
0.0009999999999479
 30
0.0
 40
0.001
100
AcDbArc
 50
269.9999999991858
 51
0.000000000000007
  0
ARC
  5
227
330
213
100
AcDbEntity
  8
CORTE
 62
     1
100
AcDbCircle
 10
0.0149999999999864
 20
0.0089825806862791
 30
0.0
 40
0.001
100
AcDbArc
 50
90.47309942941522
 51
179.9999999983715
  0
LINE
  5
228
330
213
100
AcDbEntity
  8
CORTE
100
AcDbLine
 10
0.0440000000000964
 20
0.0339999999999918
 30
0.0
 11
0.0440000000000396
 21
0.0310000000000059
 31
0.0
  0
ARC
  5
229
330
213
100
AcDbEntity
  8
CORTE
100
AcDbCircle
 10
0.0430000000000632
 20
0.0310000000000059
 30
0.0
 40
0.001
100
AcDbArc
 50
270.0
 51
0.000000000000007
  0
ARC
  5
22A
330
213
100
AcDbEntity
  8
CORTE
 62
     1
100
AcDbCircle
 10
0.0350174193137605
 20
0.0290000000000248
 30
0.0
 40
0.001
100
AcDbArc
 50
90.00000000325689
 51
179.5269005705981
  0
LINE
  5
22B
330
213
100
AcDbEntity
  8
CORTE
100
AcDbLine
 10
0.0430000000000632
 20
0.0300000000000011
 30
0.0
 11
0.0350174193137036
 21
0.0300000000000296
 31
0.0
  0
LINE
  5
22C
330
213
100
AcDbEntity
  8
CORTE
100
AcDbLine
 10
0.047999999999945
 20
0.0400000000000205
 30
0.0
 11
0.0300000000000296
 21
0.0400000000000205
 31
0.0
  0
ARC
  5
22D
330
213
100
AcDbEntity
  8
CORTE
 62
     1
100
AcDbCircle
 10
0.0300000000000296
 20
0.0390000000000157
 30
0.0
 40
0.001
100
AcDbArc
 50
90.0
 51
195.0000055997391
  0
ARC
  5
22E
330
213
100
AcDbEntity
  8
CORTE
 62
     1
100
AcDbCircle
 10
0.0280681480710428
 20
0.0384823616334131
 30
0.0
 40
0.001
100
AcDbArc
 50
315.0
 51
15.00000559812761
  0
LINE
  5
22F
330
213
100
AcDbEntity
  8
CORTE
100
AcDbLine
 10
0.0489999999998645
 20
0.0360000000000582
 30
0.0
 11
0.0489999999999213
 21
0.0389999999999873
 31
0.0
  0
LINE
  5
230
330
213
100
AcDbEntity
  8
CORTE
100
AcDbLine
 10
0.0480000000000018
 20
0.0350000000000534
 30
0.0
 11
0.0450000000000728
 21
0.0349999999999966
 31
0.0
  0
ARC
  5
231
330
213
100
AcDbEntity
  8
CORTE
100
AcDbCircle
 10
0.0480000000000018
 20
0.0360000000000582
 30
0.0
 40
0.001
100
AcDbArc
 50
270.0000000004071
 51
0.000000000000007
  0
ARC
  5
232
330
213
100
AcDbEntity
  8
CORTE
100
AcDbCircle
 10
0.0450000000000728
 20
0.0339999999999918
 30
0.0
 40
0.001
100
AcDbArc
 50
90.0
 51
180.0
  0
ARC
  5
233
330
213
100
AcDbEntity
  8
CORTE
100
AcDbCircle
 10
0.047999999999945
 20
0.0390000000000157
 30
0.0
 40
0.001
100
AcDbArc
 50
359.9999999991858
 51
90.0
  0
ENDBLK
  5
234
330
213
100
AcDbEntity
  8
0
100
AcDbBlockEnd
  0
BLOCK
  5
236
330
235
100
AcDbEntity
  8
0
 62
     4
100
AcDbBlockBegin
  2
NOM-J
 70
     0
 10
0.0
 20
0.0
 30
0.0
  3
NOM-J
  1

  0
LINE
  5
237
330
235
100
AcDbEntity
  8
Vista
 62
     4
100
AcDbLine
 10
0.0211489998446837
 20
0.0224999999999795
 30
0.0
 11
0.093805067538824
 21
0.0379594292031982
 31
0.0
  0
LINE
  5
238
330
235
100
AcDbEntity
  8
Vista
 62
     4
100
AcDbLine
 10
0.0197074998707194
 20
0.0224999999999795
 30
0.0
 11
0.0923635675646324
 21
0.0379594292032266
 31
0.0
  0
LINE
  5
239
330
235
100
AcDbEntity
  8
Vista
 62
     4
100
AcDbLine
 10
0.0182659998964141
 20
0.0224999999999795
 30
0.0
 11
0.0909220675904408
 21
0.0379594292031982
 31
0.0
  0
LINE
  5
23A
330
235
100
AcDbEntity
  8
Vista
 62
     4
100
AcDbLine
 10
0.0168244999223362
 20
0.0224999999999795
 30
0.0
 11
0.0894805676163628
 21
0.0379594292032266
 31
0.0
  0
LINE
  5
23B
330
235
100
AcDbEntity
  8
Vista
 62
     4
100
AcDbLine
 10
0.0153829999481445
 20
0.0224999999999795
 30
0.0
 11
0.0880390676422849
 21
0.0379594292032266
 31
0.0
  0
LINE
  5
23C
330
235
100
AcDbEntity
  8
Vista
 62
     4
100
AcDbLine
 10
0.0139414999740666
 20
0.0224999999999795
 30
0.0
 11
0.0865975676682069
 21
0.0379594292032266
 31
0.0
  0
LINE
  5
23D
330
235
100
AcDbEntity
  8
Vista
 62
     2
100
AcDbLine
 10
0.0125000000000455
 20
0.022500000000008
 30
0.0
 11
0.0851560676940153
 21
0.0379594292032266
 31
0.0
  0
LINE
  5
23E
330
235
100
AcDbEntity
  8
Vista
 62
     2
100
AcDbLine
 10
0.0218535533905424
 20
0.0223535533905874
 30
0.0
 11
0.0945096210847396
 21
0.0378129825938061
 31
0.0
  0
LINE
  5
23F
330
235
100
AcDbEntity
  8
Vista
 62
     2
100
AcDbLine
 10
0.02150000000006
 20
0.0200000000000387
 30
0.0
 11
0.094359627334427
 21
0.0355027417029987
 31
0.0
  0
LINE
  5
240
330
235
100
AcDbEntity
  8
Vista
 62
     2
100
AcDbLine
 10
0.0190000000000055
 20
0.0175000000000125
 30
0.0
 11
0.0918596273343724
 21
0.0330027417029726
 31
0.0
  0
LINE
  5
241
330
235
100
AcDbEntity
  8
Vista
 62
     2
100
AcDbLine
 10
0.0075428343679391
 20
0.0078574386832884
 30
0.0
 11
0.0801989020703786
 21
0.0233168678888376
 31
0.0
  0
LINE
  5
242
330
235
100
AcDbEntity
  8
Vista
 62
     2
100
AcDbLine
 10
0.0040000000000191
 20
0.0024999999999693
 30
0.0
 11
0.0746560676942068
 21
0.0175338782567849
 31
0.0
  0
LINE
  5
243
330
235
100
AcDbEntity
  8
Vista
 62
     3
100
AcDbLine
 10
0.0018535533906174
 20
0.0001464466094205
 30
0.0
 11
0.074509621085781
 21
0.0156058758136055
 31
0.0
  0
INSERT
  5
244
330
235
100
AcDbEntity
  8
CORTE
 62
     4
100
AcDbBlockReference
  2
ELEMENT
 10
-0.0024999999999977
 20
0.0024999999999977
 30
0.0
 41
0.5
 42
0.5
 43
0.5
  0
LINE
  5
245
330
235
100
AcDbEntity
  8
Vista
 62
     2
100
AcDbLine
 10
-0.0024999999999977
 20
0.0100000000000193
 30
0.0
 11
0.0013108568762163
 21
0.0108108568761622
 31
0.0
  0
ARC
  5
246
330
235
100
AcDbEntity
  8
CORTE
 62
     3
100
AcDbCircle
 10
0.0775727343608992
 20
0.0325427625365364
 30
0.0
 40
0.0095923870276683
100
AcDbArc
 50
278.1349003175446
 51
356.7599311023579
  0
LINE
  5
247
330
235
100
AcDbEntity
  8
CORTE
 62
     3
100
AcDbLine
 10
0.0771560676942045
 20
0.0184594292032046
 30
0.0
 11
0.0771560676942045
 21
0.0224507195463559
 31
0.0
  0
ARC
  5
248
330
235
100
AcDbEntity
  8
CORTE
 62
     3
100
AcDbCircle
 10
0.0751560676941949
 20
0.0174594292032282
 30
0.0
 40
0.0005
100
AcDbArc
 50
89.99999999967434
 51
180.0
  0
LINE
  5
249
330
235
100
AcDbEntity
  8
Vista
 62
     3
100
AcDbLine
 10
0.074509621085781
 20
0.0156058758135771
 30
0.0
 11
0.0746560676941499
 21
0.0156370360599851
 31
0.0
  0
ARC
  5
24A
330
235
100
AcDbEntity
  8
CORTE
100
AcDbCircle
 10
0.0741560676942186
 20
0.0159594292032068
 30
0.0
 40
0.0005
100
AcDbArc
 50
315.0000001496929
 51
0.000000000000007
  0
LINE
  5
24B
330
235
100
AcDbEntity
  8
CORTE
 62
     3
100
AcDbLine
 10
0.0746560676942068
 20
0.0159594292032068
 30
0.0
 11
0.0746560676942068
 21
0.0174594292032282
 31
0.0
  0
ARC
  5
24C
330
235
100
AcDbEntity
  8
CORTE
 62
     3
100
AcDbCircle
 10
0.0766560676942163
 20
0.0184594292032046
 30
0.0
 40
0.0005
100
AcDbArc
 50
269.9999999991858
 51
0.000000000000007
  0
LINE
  5
24D
330
235
100
AcDbEntity
  8
CORTE
 62
     3
100
AcDbLine
 10
0.0766560676942163
 20
0.017959429203188
 30
0.0
 11
0.0751560676941949
 21
0.0179594292032164
 31
0.0
  0
ARC
  5
24E
330
235
100
AcDbEntity
  8
CORTE
 62
     3
100
AcDbCircle
 10
0.0776560676941927
 20
0.0224507195463559
 30
0.0
 40
0.0005
100
AcDbArc
 50
152.521182623883
 51
179.9999999983715
  0
LINE
  5
24F
330
235
100
AcDbEntity
  8
CORTE
 62
     3
100
AcDbLine
 10
0.0946560676941317
 20
0.0359594292032455
 30
0.0
 11
0.0946560676941317
 21
0.03745942920321
 31
0.0
  0
ARC
  5
250
330
235
100
AcDbEntity
  8
CORTE
 62
     3
100
AcDbCircle
 10
0.0916560676942027
 20
0.0334594292032193
 30
0.0
 40
0.0005
100
AcDbArc
 50
270.0
 51
0.000000000000007
  0
ARC
  5
251
330
235
100
AcDbEntity
  8
CORTE
 62
     3
100
AcDbCircle
 10
0.0941560676942004
 20
0.0359594292032455
 30
0.0
 40
0.0005
100
AcDbArc
 50
294.0240004981589
 51
0.000000000000007
  0
LINE
  5
252
330
235
100
AcDbEntity
  8
CORTE
 62
     3
100
AcDbLine
 10
0.0921560676942477
 20
0.0349594292032123
 30
0.0
 11
0.0921560676941908
 21
0.0334594292032193
 31
0.0
  0
LINE
  5
253
330
235
100
AcDbEntity
  8
CORTE
 62
     3
100
AcDbLine
 10
0.0941560676941436
 20
0.0379594292032266
 30
0.0
 11
0.0851560676942427
 21
0.0379594292032266
 31
0.0
  0
ARC
  5
254
330
235
100
AcDbEntity
  8
CORTE
 62
     3
100
AcDbCircle
 10
0.0941560676941436
 20
0.03745942920321
 30
0.0
 40
0.0005
100
AcDbArc
 50
359.9999999991858
 51
90.0
  0
ENDBLK
  5
255
330
235
100
AcDbEntity
  8
0
 62
     4
100
AcDbBlockEnd
  0
BLOCK
  5
3FC
330
3FB
100
AcDbEntity
  8
0
 62
     1
100
AcDbBlockBegin
  2
NOM-QR
 70
     0
 10
0.0
 20
0.0
 30
0.0
  3
NOM-QR
  1

  0
LINE
  5
3FD
330
3FB
100
AcDbEntity
  8
CORTE
 62
     4
100
AcDbLine
 10
0.0184292030348843
 20
0.0200000000000102
 30
0.0
 11
0.0860297709413658
 21
0.0343689442811126
 31
0.0
  0
LINE
  5
3FE
330
3FB
100
AcDbEntity
  8
CORTE
 62
     4
100
AcDbLine
 10
0.0155433624279908
 20
0.0200000000000102
 30
0.0
 11
0.0831439303344155
 21
0.0343689442811126
 31
0.0
  0
LINE
  5
3FF
330
3FB
100
AcDbEntity
  8
CORTE
 62
     4
100
AcDbLine
 10
0.0126575218209837
 20
0.0200000000000102
 30
0.0
 11
0.0802580897274084
 21
0.034368944281141
 31
0.0
  0
LINE
  5
400
330
3FB
100
AcDbEntity
  8
CORTE
 62
     4
100
AcDbLine
 10
0.0097716812139765
 20
0.0200000000000102
 30
0.0
 11
0.077372249120458
 21
0.0343689442811126
 31
0.0
  0
LINE
  5
401
330
3FB
100
AcDbEntity
  8
CORTE
 62
     4
100
AcDbLine
 10
0.0068858406069694
 20
0.0200000000000102
 30
0.0
 11
0.0744864085134509
 21
0.0343689442811126
 31
0.0
  0
LINE
  5
402
330
3FB
100
AcDbEntity
  8
CORTE
 62
     3
100
AcDbLine
 10
0.0081347328614925
 20
0.0017290908471352
 30
0.0
 11
0.0757353007679171
 21
0.0160980351282376
 31
0.0
  0
LINE
  5
403
330
3FB
100
AcDbEntity
  8
CORTE
 62
     3
100
AcDbLine
 10
0.0040000000000191
 20
0.0200000000000102
 30
0.0
 11
0.0716005679065006
 21
0.034368944281141
 31
0.0
  0
LINE
  5
404
330
3FB
100
AcDbEntity
  8
CORTE
 62
     3
100
AcDbLine
 10
0.0200000000000387
 20
0.0200000000000102
 30
0.0
 11
0.0876005679064633
 21
0.0343689442811126
 31
0.0
  0
ARC
  5
405
330
3FB
100
AcDbEntity
  8
CORTE
 62
     1
100
AcDbCircle
 10
0.0
 20
0.0200000000000102
 30
0.0
 40
0.0200000000000102
100
AcDbArc
 50
270.0
 51
0.0
  0
LINE
  5
406
330
3FB
100
AcDbEntity
  8
CORTE
 62
     1
100
AcDbLine
 10
0.0
 20
0.0160000000000196
 30
0.0
 11
0.0
 21
0.0
 31
0.0
  0
LINE
  5
407
330
3FB
100
AcDbEntity
  8
COTAS
 62
     1
100
AcDbLine
 10
0.0200000000000387
 20
0.0200000000000102
 30
0.0
 11
0.0040000000000191
 21
0.0200000000000102
 31
0.0
  0
ARC
  5
408
330
3FB
100
AcDbEntity
  8
CORTE
 62
     1
100
AcDbCircle
 10
0.0
 20
0.0200000000000102
 30
0.0
 40
0.004
100
AcDbArc
 50
270.0
 51
0.0
  0
ARC
  5
409
330
3FB
100
AcDbEntity
  8
CORTE
 62
     1
100
AcDbCircle
 10
0.0676005679064247
 20
0.0343689442811126
 30
0.0
 40
0.0200000000000102
100
AcDbArc
 50
270.0
 51
0.0
  0
LINE
  5
40A
330
3FB
100
AcDbEntity
  8
COTAS
 62
     1
100
AcDbLine
 10
0.0876005679064633
 20
0.0343689442811126
 30
0.0
 11
0.0716005679064438
 21
0.0343689442811126
 31
0.0
  0
ENDBLK
  5
40B
330
3FB
100
AcDbEntity
  8
0
 62
     1
100
AcDbBlockEnd
  0
BLOCK
  5
4E1
330
4E0
100
AcDbEntity
  8
0
100
AcDbBlockBegin
  2
_Arrivo
 70
     0
 10
0.0
 20
0.0
 30
0.0
  3
_Arrivo
  1

  0
LINE
  5
4E2
330
4E0
100
AcDbEntity
  8
0
  6
ByBlock
 62
     0
370
    -2
100
AcDbLine
 10
0.025
 20
-0.0433012701891858
 30
0.0
 11
-0.15
 21
0.2598076211353328
 31
0.0
  0
LINE
  5
4E3
330
4E0
100
AcDbEntity
  8
0
  6
ByBlock
 62
     0
370
    -2
100
AcDbLine
 10
0.025
 20
0.0433012701892585
 30
0.0
 11
-0.15
 21
-0.2598076211353328
 31
0.0
  0
LINE
  5
4E4
330
4E0
100
AcDbEntity
  8
0
  6
ByBlock
 62
     0
370
    -2
100
AcDbLine
 10
-0.05
 20
0.0
 30
0.0
 11
0.05
 21
0.0
 31
0.0
  0
ENDBLK
  5
4E5
330
4E0
100
AcDbEntity
  8
0
100
AcDbBlockEnd
  0
BLOCK
  5
4E7
330
4E6
100
AcDbEntity
  8
0
100
AcDbBlockBegin
  2
_Partenza
 70
     0
 10
0.0
 20
0.0
 30
0.0
  3
_Partenza
  1

  0
LINE
  5
4E8
330
4E6
100
AcDbEntity
  8
0
  6
ByBlock
 62
     0
370
    -2
100
AcDbLine
 10
-0.05
 20
0.05
 30
0.0
 11
0.1
 21
0.05
 31
0.0
  0
LINE
  5
4E9
330
4E6
100
AcDbEntity
  8
0
  6
ByBlock
 62
     0
370
    -2
100
AcDbLine
 10
-0.05
 20
-0.05
 30
0.0
 11
0.1
 21
-0.05
 31
0.0
  0
ENDBLK
  5
4EA
330
4E6
100
AcDbEntity
  8
0
100
AcDbBlockEnd
  0
BLOCK
  5
807
330
73D
100
AcDbEntity
  8
0
 62
     3
100
AcDbBlockBegin
  2
A$C6CE44357
 70
     0
 10
0.0
 20
0.0
 30
0.0
  3
A$C6CE44357
  1

  0
LINE
  5
73E
330
73D
100
AcDbEntity
  8
Vista
 62
     3
100
AcDbLine
 10
-265.2371225605411
 20
-42.42864078547465
 30
0.0
 11
-265.1113419531143
 21
-42.40238631174739
 31
0.0
  0
LINE
  5
73F
330
73D
100
AcDbEntity
  8
Vista
 62
     4
100
AcDbLine
 10
-265.2590480951634
 20
-42.54823976658282
 30
0.0
 11
-265.2510480951634
 21
-42.54823976658282
 31
0.0
  0
LINE
  5
740
330
73D
100
AcDbEntity
  8
Vista
 62
     3
100
AcDbLine
 10
-265.2678775571128
 20
-42.55723976658282
 30
0.0
 11
-265.2164242716711
 21
-42.55723976658282
 31
0.0
  0
LINE
  5
741
330
73D
100
AcDbEntity
  8
Vista
 62
     2
100
AcDbLine
 10
-265.240902830533
 20
-42.52873976658283
 30
0.0
 11
-265.2164242716711
 21
-42.52873976658283
 31
0.0
  0
LINE
  5
742
330
73D
100
AcDbEntity
  8
Vista
 62
     2
100
AcDbLine
 10
-265.245902830533
 20
-42.53973976658282
 30
0.0
 11
-265.2164242716711
 21
-42.53973976658282
 31
0.0
  0
LINE
  5
743
330
73D
100
AcDbEntity
  8
Vista
 62
     2
100
AcDbLine
 10
-265.2411287103258
 20
-42.53147306509318
 30
0.0
 11
-265.2164242716712
 21
-42.53147306509318
 31
0.0
  0
LINE
  5
744
330
73D
100
AcDbEntity
  8
Vista
 62
     2
100
AcDbLine
 10
-265.2649809809004
 20
-42.55319036467706
 30
0.0
 11
-265.2164242716712
 21
-42.55319036467706
 31
0.0
  0
LWPOLYLINE
  5
745
330
73D
100
AcDbEntity
  8
CORTE
  6
Continuous
 62
     1
100
AcDbPolyline
 90
       30
 70
     1
 43
0.0
 10
-265.2651647001392
 20
-42.55337345319399
 42
0.2685636005234304
 10
-265.2649137067366
 20
-42.55293986846818
 10
-265.2649137067366
 20
-42.54823976658282
 10
-265.2624028305331
 20
-42.54823976658282
 42
0.4142135623730693
 10
-265.261402830533
 20
-42.54723976658282
 10
-265.261402830533
 20
-42.53973976658282
 10
-265.258902830533
 20
-42.53973976658282
 42
-0.2526773759784102
 10
-265.2565834054943
 20
-42.53823976658282
 10
-265.2512222555718
 20
-42.53823976658282
 42
-0.2526773759784102
 10
-265.2489028305331
 20
-42.53973976658282
 10
-265.245902830533
 20
-42.53973976658282
 42
0.414213562373069
 10
-265.244902830533
 20
-42.53873976658281
 10
-265.244902830533
 20
-42.53523036708407
 42
-0.3189892314182299
 10
-265.2417043063426
 20
-42.53182012245305
 42
0.356818340496206
 10
-265.240902830533
 20
-42.53084002646501
 10
-265.240902830533
 20
-42.52873976658283
 42
0.3642693064108649
 10
-265.234652830533
 20
-42.52348976658284
 42
-0.3260576707120786
 10
-265.2292666879074
 20
-42.51829884552306
 42
0.3747567555282292
 10
-265.228402830533
 20
-42.51730815627538
 10
-265.228402830533
 20
-42.51473976658282
 10
-265.240902830533
 20
-42.51473976658282
 10
-265.240902830533
 20
-42.52073976658282
 10
-265.254402830533
 20
-42.53323976658283
 10
-265.264402830533
 20
-42.53323976658283
 42
0.4142135623730704
 10
-265.269402830533
 20
-42.53823976658282
 10
-265.269402830533
 20
-42.54351258119139
 10
-265.270902830533
 20
-42.54473976658281
 10
-265.270902830533
 20
-42.55723976658282
 10
-265.2678775571128
 20
-42.55723976658282
 42
0.3849291685644514
 10
-265.2673801055846
 20
-42.55679018460603
 42
-0.2416670294637286
  0
LINE
  5
746
330
73D
100
AcDbEntity
  8
CORTE
  6
RAYITA
 62
     4
100
AcDbLine
 10
-265.2649137067366
 20
-42.54823976658282
 30
0.0
 11
-265.2649137067366
 21
-42.53973976658282
 31
0.0
  0
LINE
  5
747
330
73D
100
AcDbEntity
  8
CORTE
  6
RAYITA
 62
     4
100
AcDbLine
 10
-265.2631769303866
 20
-42.5441333561959
 30
0.0
 11
-265.2631769303866
 21
-42.53973976658282
 31
0.0
  0
LINE
  5
748
330
73D
100
AcDbEntity
  8
CORTE
  6
RAYITA
 62
     4
100
AcDbLine
 10
-265.2631769303866
 20
-42.5441333561959
 30
0.0
 11
-265.2649137067366
 21
-42.5441333561959
 31
0.0
  0
LINE
  5
749
330
73D
100
AcDbEntity
  8
CORTE
  6
RAYITA
 62
     4
100
AcDbLine
 10
-265.261402830533
 20
-42.53973976658282
 30
0.0
 11
-265.2649137067366
 21
-42.53973976658282
 31
0.0
  0
LINE
  5
74A
330
73D
100
AcDbEntity
  8
Vista
 62
     3
100
AcDbLine
 10
-265.228402830533
 20
-42.51473976658282
 30
0.0
 11
-265.2164242716711
 21
-42.51473976658279
 31
0.0
  0
LINE
  5
74B
330
73D
100
AcDbEntity
  8
Vista
 62
     2
100
AcDbLine
 10
-265.2286491254761
 20
-42.51796536909266
 30
0.0
 11
-265.2164242716712
 21
-42.51796536909266
 31
0.0
  0
LINE
  5
74C
330
73D
100
AcDbEntity
  8
Vista
 62
     4
100
AcDbLine
 10
-265.2590480951634
 20
-42.53973976658282
 30
0.0
 11
-265.2590480951634
 21
-42.54823976658282
 31
0.0
  0
LINE
  5
74D
330
73D
100
AcDbEntity
  8
Vista
 62
     4
100
AcDbLine
 10
-265.2510480951634
 20
-42.53973976658282
 30
0.0
 11
-265.2510480951634
 21
-42.54823976658282
 31
0.0
  0
LINE
  5
74E
330
73D
100
AcDbEntity
  8
Vista
 62
     4
100
AcDbLine
 10
-265.2470480951635
 20
-42.53973976658282
 30
0.0
 11
-265.2470480951635
 21
-42.54823976658282
 31
0.0
  0
LINE
  5
74F
330
73D
100
AcDbEntity
  8
Vista
 62
     4
100
AcDbLine
 10
-265.2390480951634
 20
-42.53973976658282
 30
0.0
 11
-265.2390480951634
 21
-42.54823976658282
 31
0.0
  0
LINE
  5
750
330
73D
100
AcDbEntity
  8
Vista
 62
     4
100
AcDbLine
 10
-265.2350480951635
 20
-42.53973976658282
 30
0.0
 11
-265.2350480951635
 21
-42.54823976658282
 31
0.0
  0
LINE
  5
751
330
73D
100
AcDbEntity
  8
Vista
 62
     4
100
AcDbLine
 10
-265.2510480951634
 20
-42.5441333561959
 30
0.0
 11
-265.2470480951635
 21
-42.5441333561959
 31
0.0
  0
LINE
  5
752
330
73D
100
AcDbEntity
  8
Vista
 62
     4
100
AcDbLine
 10
-265.2390480951634
 20
-42.5441333561959
 30
0.0
 11
-265.2350480951635
 21
-42.5441333561959
 31
0.0
  0
LINE
  5
753
330
73D
100
AcDbEntity
  8
Vista
 62
     4
100
AcDbLine
 10
-265.2470480951635
 20
-42.54823976658282
 30
0.0
 11
-265.2390480951634
 21
-42.54823976658282
 31
0.0
  0
LINE
  5
754
330
73D
100
AcDbEntity
  8
Vista
 62
     4
100
AcDbLine
 10
-265.2350480951635
 20
-42.54823976658282
 30
0.0
 11
-265.2270480951634
 21
-42.54823976658282
 31
0.0
  0
LINE
  5
755
330
73D
100
AcDbEntity
  8
Vista
 62
     4
100
AcDbLine
 10
-265.2230480951634
 20
-42.53973976658282
 30
0.0
 11
-265.2230480951634
 21
-42.54823976658282
 31
0.0
  0
LINE
  5
756
330
73D
100
AcDbEntity
  8
Vista
 62
     4
100
AcDbLine
 10
-265.2270480951634
 20
-42.53973976658282
 30
0.0
 11
-265.2270480951634
 21
-42.54823976658282
 31
0.0
  0
LINE
  5
757
330
73D
100
AcDbEntity
  8
Vista
 62
     4
100
AcDbLine
 10
-265.2230480951634
 20
-42.54823976658282
 30
0.0
 11
-265.2164242716711
 21
-42.54823976658282
 31
0.0
  0
LINE
  5
758
330
73D
100
AcDbEntity
  8
Vista
 62
     4
100
AcDbLine
 10
-265.2270480951634
 20
-42.5441333561959
 30
0.0
 11
-265.2230480951634
 21
-42.5441333561959
 31
0.0
  0
LINE
  5
759
330
73D
100
AcDbEntity
  8
Vista
 62
     4
100
AcDbLine
 10
-265.2079942150913
 20
-42.54823976658282
 30
0.0
 11
-265.2030480951634
 21
-42.54823976658282
 31
0.0
  0
LINE
  5
75A
330
73D
100
AcDbEntity
  8
Vista
 62
     4
100
AcDbLine
 10
-265.1870480951635
 20
-42.53973976658282
 30
0.0
 11
-265.1870480951635
 21
-42.54823976658282
 31
0.0
  0
LINE
  5
75B
330
73D
100
AcDbEntity
  8
Vista
 62
     4
100
AcDbLine
 10
-265.1910480951634
 20
-42.53973976658282
 30
0.0
 11
-265.1910480951634
 21
-42.54823976658282
 31
0.0
  0
LINE
  5
75C
330
73D
100
AcDbEntity
  8
Vista
 62
     4
100
AcDbLine
 10
-265.1990480951635
 20
-42.53973976658282
 30
0.0
 11
-265.1990480951635
 21
-42.54823976658282
 31
0.0
  0
LINE
  5
75D
330
73D
100
AcDbEntity
  8
Vista
 62
     4
100
AcDbLine
 10
-265.2030480951634
 20
-42.53973976658282
 30
0.0
 11
-265.2030480951634
 21
-42.54823976658282
 31
0.0
  0
LINE
  5
75E
330
73D
100
AcDbEntity
  8
Vista
 62
     4
100
AcDbLine
 10
-265.1990480951635
 20
-42.54823976658282
 30
0.0
 11
-265.1910480951634
 21
-42.54823976658282
 31
0.0
  0
LINE
  5
75F
330
73D
100
AcDbEntity
  8
Vista
 62
     4
100
AcDbLine
 10
-265.2030480951634
 20
-42.5441333561959
 30
0.0
 11
-265.1990480951635
 21
-42.5441333561959
 31
0.0
  0
LINE
  5
760
330
73D
100
AcDbEntity
  8
Vista
 62
     4
100
AcDbLine
 10
-265.1910480951634
 20
-42.5441333561959
 30
0.0
 11
-265.1870480951635
 21
-42.5441333561959
 31
0.0
  0
LINE
  5
761
330
73D
100
AcDbEntity
  8
Vista
 62
     4
100
AcDbLine
 10
-265.1870480951635
 20
-42.54823976658282
 30
0.0
 11
-265.1790480951634
 21
-42.54823976658282
 31
0.0
  0
LINE
  5
762
330
73D
100
AcDbEntity
  8
Vista
 62
     4
100
AcDbLine
 10
-265.1630480951634
 20
-42.53973976658282
 30
0.0
 11
-265.1630480951634
 21
-42.54823976658282
 31
0.0
  0
LINE
  5
763
330
73D
100
AcDbEntity
  8
Vista
 62
     4
100
AcDbLine
 10
-265.1670480951634
 20
-42.53973976658282
 30
0.0
 11
-265.1670480951634
 21
-42.54823976658282
 31
0.0
  0
LINE
  5
764
330
73D
100
AcDbEntity
  8
Vista
 62
     4
100
AcDbLine
 10
-265.1750480951634
 20
-42.53973976658282
 30
0.0
 11
-265.1750480951634
 21
-42.54823976658282
 31
0.0
  0
LINE
  5
765
330
73D
100
AcDbEntity
  8
Vista
 62
     4
100
AcDbLine
 10
-265.1790480951634
 20
-42.53973976658282
 30
0.0
 11
-265.1790480951634
 21
-42.54823976658282
 31
0.0
  0
LINE
  5
766
330
73D
100
AcDbEntity
  8
Vista
 62
     4
100
AcDbLine
 10
-265.1750480951634
 20
-42.54823976658282
 30
0.0
 11
-265.1670480951634
 21
-42.54823976658282
 31
0.0
  0
LINE
  5
767
330
73D
100
AcDbEntity
  8
Vista
 62
     4
100
AcDbLine
 10
-265.1790480951634
 20
-42.5441333561959
 30
0.0
 11
-265.1750480951634
 21
-42.5441333561959
 31
0.0
  0
LINE
  5
768
330
73D
100
AcDbEntity
  8
Vista
 62
     4
100
AcDbLine
 10
-265.1670480951634
 20
-42.5441333561959
 30
0.0
 11
-265.1630480951634
 21
-42.5441333561959
 31
0.0
  0
LINE
  5
769
330
73D
100
AcDbEntity
  8
Vista
 62
     4
100
AcDbLine
 10
-265.1630480951634
 20
-42.54823976658282
 30
0.0
 11
-265.1550480951634
 21
-42.54823976658282
 31
0.0
  0
LINE
  5
76A
330
73D
100
AcDbEntity
  8
Vista
 62
     4
100
AcDbLine
 10
-265.1390480951635
 20
-42.53973976658282
 30
0.0
 11
-265.1390480951635
 21
-42.54823976658282
 31
0.0
  0
LINE
  5
76B
330
73D
100
AcDbEntity
  8
Vista
 62
     4
100
AcDbLine
 10
-265.1430480951634
 20
-42.53973976658282
 30
0.0
 11
-265.1430480951634
 21
-42.54823976658282
 31
0.0
  0
LINE
  5
76C
330
73D
100
AcDbEntity
  8
Vista
 62
     4
100
AcDbLine
 10
-265.1510480951634
 20
-42.53973976658282
 30
0.0
 11
-265.1510480951634
 21
-42.54823976658282
 31
0.0
  0
LINE
  5
76D
330
73D
100
AcDbEntity
  8
Vista
 62
     4
100
AcDbLine
 10
-265.1550480951634
 20
-42.53973976658282
 30
0.0
 11
-265.1550480951634
 21
-42.54823976658282
 31
0.0
  0
LINE
  5
76E
330
73D
100
AcDbEntity
  8
Vista
 62
     4
100
AcDbLine
 10
-265.1510480951634
 20
-42.54823976658282
 30
0.0
 11
-265.1430480951634
 21
-42.54823976658282
 31
0.0
  0
LINE
  5
76F
330
73D
100
AcDbEntity
  8
Vista
 62
     4
100
AcDbLine
 10
-265.1550480951634
 20
-42.5441333561959
 30
0.0
 11
-265.1510480951634
 21
-42.5441333561959
 31
0.0
  0
LINE
  5
770
330
73D
100
AcDbEntity
  8
Vista
 62
     4
100
AcDbLine
 10
-265.1430480951634
 20
-42.5441333561959
 30
0.0
 11
-265.1390480951635
 21
-42.5441333561959
 31
0.0
  0
LINE
  5
771
330
73D
100
AcDbEntity
  8
Vista
 62
     4
100
AcDbLine
 10
-265.1390480951635
 20
-42.54823976658282
 30
0.0
 11
-265.1310480951634
 21
-42.54823976658282
 31
0.0
  0
LINE
  5
772
330
73D
100
AcDbEntity
  8
Vista
 62
     4
100
AcDbLine
 10
-265.1150480951634
 20
-42.53973976658282
 30
0.0
 11
-265.1150480951634
 21
-42.54823976658282
 31
0.0
  0
LINE
  5
773
330
73D
100
AcDbEntity
  8
Vista
 62
     4
100
AcDbLine
 10
-265.1190480951634
 20
-42.53973976658282
 30
0.0
 11
-265.1190480951634
 21
-42.54823976658282
 31
0.0
  0
LINE
  5
774
330
73D
100
AcDbEntity
  8
Vista
 62
     4
100
AcDbLine
 10
-265.1270480951634
 20
-42.53973976658282
 30
0.0
 11
-265.1270480951634
 21
-42.54823976658282
 31
0.0
  0
LINE
  5
775
330
73D
100
AcDbEntity
  8
Vista
 62
     4
100
AcDbLine
 10
-265.1310480951634
 20
-42.53973976658282
 30
0.0
 11
-265.1310480951634
 21
-42.54823976658282
 31
0.0
  0
LINE
  5
776
330
73D
100
AcDbEntity
  8
Vista
 62
     4
100
AcDbLine
 10
-265.1270480951634
 20
-42.54823976658282
 30
0.0
 11
-265.1190480951634
 21
-42.54823976658282
 31
0.0
  0
LINE
  5
777
330
73D
100
AcDbEntity
  8
Vista
 62
     4
100
AcDbLine
 10
-265.1310480951634
 20
-42.5441333561959
 30
0.0
 11
-265.1270480951634
 21
-42.5441333561959
 31
0.0
  0
LINE
  5
778
330
73D
100
AcDbEntity
  8
Vista
 62
     4
100
AcDbLine
 10
-265.1190480951634
 20
-42.5441333561959
 30
0.0
 11
-265.1150480951634
 21
-42.5441333561959
 31
0.0
  0
LINE
  5
779
330
73D
100
AcDbEntity
  8
Vista
 62
     4
100
AcDbLine
 10
-265.1150480951634
 20
-42.54823976658282
 30
0.0
 11
-265.1070480951634
 21
-42.54823976658282
 31
0.0
  0
LINE
  5
77A
330
73D
100
AcDbEntity
  8
Vista
 62
     4
100
AcDbLine
 10
-265.1030480951634
 20
-42.53973976658282
 30
0.0
 11
-265.1030480951634
 21
-42.54823976658282
 31
0.0
  0
LINE
  5
77B
330
73D
100
AcDbEntity
  8
Vista
 62
     4
100
AcDbLine
 10
-265.1070480951634
 20
-42.53973976658282
 30
0.0
 11
-265.1070480951634
 21
-42.54823976658282
 31
0.0
  0
LINE
  5
77C
330
73D
100
AcDbEntity
  8
Vista
 62
     4
100
AcDbLine
 10
-265.1030480951634
 20
-42.54823976658282
 30
0.0
 11
-265.0999942150913
 21
-42.54823976658285
 31
0.0
  0
LINE
  5
77D
330
73D
100
AcDbEntity
  8
Vista
 62
     4
100
AcDbLine
 10
-265.1070480951634
 20
-42.5441333561959
 30
0.0
 11
-265.1030480951634
 21
-42.5441333561959
 31
0.0
  0
LINE
  5
77E
330
73D
100
AcDbEntity
  8
CORTE
  6
RAYITA
 62
     4
100
AcDbLine
 10
-265.2611334367446
 20
-42.46214078547466
 30
0.0
 11
-265.2611334367446
 21
-42.45803437508772
 31
0.0
  0
LINE
  5
77F
330
73D
100
AcDbEntity
  8
CORTE
  6
RAYITA
 62
     4
100
AcDbLine
 10
-265.2576225605411
 20
-42.45364078547466
 30
0.0
 11
-265.2593966603947
 21
-42.45364078547466
 31
0.0
  0
LINE
  5
780
330
73D
100
AcDbEntity
  8
CORTE
  6
RAYITA
 62
     4
100
AcDbLine
 10
-265.2593966603947
 20
-42.45803437508772
 30
0.0
 11
-265.2611334367446
 21
-42.45803437508772
 31
0.0
  0
LINE
  5
781
330
73D
100
AcDbEntity
  8
CORTE
  6
RAYITA
 62
     4
100
AcDbLine
 10
-265.2593966603947
 20
-42.45803437508772
 30
0.0
 11
-265.2593966603947
 21
-42.45364078547466
 31
0.0
  0
LINE
  5
782
330
73D
100
AcDbEntity
  8
Vista
 62
     2
100
AcDbLine
 10
-265.2246225605411
 20
-42.42864078547465
 30
0.0
 11
-265.0988419531143
 21
-42.40238631174739
 31
0.0
  0
LINE
  5
783
330
73D
100
AcDbEntity
  8
Vista
 62
     2
100
AcDbLine
 10
-265.2253196169622
 20
-42.43216218366035
 30
0.0
 11
-265.1005238724924
 21
-42.40611328262953
 31
0.0
  0
LINE
  5
784
330
73D
100
AcDbEntity
  8
Vista
 62
     2
100
AcDbLine
 10
-265.2357843481861
 20
-42.4424980657533
 30
0.0
 11
-265.1113419531143
 21
-42.41652292015007
 31
0.0
  0
LINE
  5
785
330
73D
100
AcDbEntity
  8
Vista
 62
     2
100
AcDbLine
 10
-265.2377407371607
 20
-42.44566528066571
 30
0.0
 11
-265.1119601297339
 21
-42.41941080693844
 31
0.0
  0
LINE
  5
786
330
73D
100
AcDbEntity
  8
Vista
 62
     2
100
AcDbLine
 10
-265.2616957494533
 20
-42.44725731687553
 30
0.0
 11
-265.2475622982738
 21
-42.44430720930124
 31
0.0
  0
LINE
  5
787
330
73D
100
AcDbEntity
  8
Vista
 62
     2
100
AcDbLine
 10
-265.2419054000998
 20
-42.45361692139899
 30
0.0
 11
-265.1318419531143
 21
-42.43064312650061
 31
0.0
  0
LINE
  5
788
330
73D
100
AcDbEntity
  8
Vista
 62
     4
100
AcDbLine
 10
-265.2551225605411
 20
-42.45364078547466
 30
0.0
 11
-265.2479363219937
 21
-42.45214078547464
 31
0.0
  0
LINE
  5
789
330
73D
100
AcDbEntity
  8
Vista
 62
     4
100
AcDbLine
 10
-265.2543974497464
 20
-42.4613609643679
 30
0.0
 11
-265.2463974497463
 21
-42.4596911060796
 31
0.0
  0
LINE
  5
78A
330
73D
100
AcDbEntity
  8
Vista
 62
     4
100
AcDbLine
 10
-265.2593966603947
 20
-42.45803437508772
 30
0.0
 11
-265.2558974497463
 21
-42.45730397684979
 31
0.0
  0
LINE
  5
78B
330
73D
100
AcDbEntity
  8
Vista
 62
     2
100
AcDbLine
 10
-265.2611968867646
 20
-42.46708465797961
 30
0.0
 11
-265.1354162793379
 21
-42.44083018425235
 31
0.0
  0
LINE
  5
78C
330
73D
100
AcDbEntity
  8
Vista
 62
     3
100
AcDbLine
 10
-265.264002248065
 20
-42.47113166995989
 30
0.0
 11
-265.1382216406382
 21
-42.44487719623264
 31
0.0
  0
ARC
  5
78D
330
73D
100
AcDbEntity
  8
CORTE
  6
Continuous
 62
     1
100
AcDbCircle
 10
-265.2616334367446
 20
-42.46684088735999
 30
0.0
 40
0.0004999999999999
100
AcDbArc
 50
299.8686408419573
 51
359.9999999999935
  0
LINE
  5
78E
330
73D
100
AcDbEntity
  8
CORTE
  6
Continuous
 62
     1
100
AcDbLine
 10
-265.2611334367446
 20
-42.46684088735999
 30
0.0
 11
-265.2611334367446
 21
-42.46214078547466
 31
0.0
  0
LINE
  5
78F
330
73D
100
AcDbEntity
  8
CORTE
  6
Continuous
 62
     1
100
AcDbLine
 10
-265.2576225605411
 20
-42.45364078547466
 30
0.0
 11
-265.2551225605411
 21
-42.45364078547466
 31
0.0
  0
ARC
  5
790
330
73D
100
AcDbEntity
  8
CORTE
  6
Continuous
 62
     1
100
AcDbCircle
 10
-265.2525734960763
 20
-42.45503911726784
 30
0.0
 40
0.0029074149083751
100
AcDbArc
 50
94.53017172282182
 51
151.2522954919238
  0
LINE
  5
791
330
73D
100
AcDbEntity
  8
CORTE
  6
Continuous
 62
     1
100
AcDbLine
 10
-265.2528031355024
 20
-42.45214078547464
 30
0.0
 11
-265.2474419855798
 21
-42.45214078547464
 31
0.0
  0
ARC
  5
792
330
73D
100
AcDbEntity
  8
CORTE
  6
Continuous
 62
     1
100
AcDbCircle
 10
-265.2476716250059
 20
-42.45503911726784
 30
0.0
 40
0.0029074149083745
100
AcDbArc
 50
28.74770450807759
 51
85.46982827718144
  0
LINE
  5
793
330
73D
100
AcDbEntity
  8
CORTE
  6
Continuous
 62
     1
100
AcDbLine
 10
-265.245122560541
 20
-42.45364078547466
 30
0.0
 11
-265.2421225605411
 21
-42.45364078547466
 31
0.0
  0
ARC
  5
794
330
73D
100
AcDbEntity
  8
CORTE
  6
Continuous
 62
     1
100
AcDbCircle
 10
-265.2421225605411
 20
-42.45264078547466
 30
0.0
 40
0.001
100
AcDbArc
 50
270.0
 51
359.9999999999951
  0
LINE
  5
795
330
73D
100
AcDbEntity
  8
CORTE
  6
Continuous
 62
     1
100
AcDbLine
 10
-265.2411225605411
 20
-42.45264078547466
 30
0.0
 11
-265.2411225605411
 21
-42.44913138597588
 31
0.0
  0
ARC
  5
796
330
73D
100
AcDbEntity
  8
CORTE
  6
Continuous
 62
     1
100
AcDbCircle
 10
-265.2371225605411
 20
-42.44967795498879
 30
0.0
 40
0.0040371695141331
100
AcDbArc
 50
101.4506709648844
 51
172.21916242068
  0
ARC
  5
797
330
73D
100
AcDbEntity
  8
CORTE
  6
Continuous
 62
     1
100
AcDbCircle
 10
-265.238122560541
 20
-42.44474104535682
 30
0.0
 40
0.0010000000000001
100
AcDbArc
 50
281.4506709648814
 51
359.9999999999935
  0
LINE
  5
798
330
73D
100
AcDbEntity
  8
CORTE
  6
Continuous
 62
     1
100
AcDbLine
 10
-265.2371225605411
 20
-42.44474104535682
 30
0.0
 11
-265.2371225605411
 21
-42.44264078547463
 31
0.0
  0
ARC
  5
799
330
73D
100
AcDbEntity
  8
CORTE
  6
Continuous
 62
     1
100
AcDbCircle
 10
-265.2371225605411
 20
-42.4362955473794
 30
0.0
 40
0.0063452380952395
100
AcDbArc
 50
270.0
 51
350.0605185437708
  0
ARC
  5
79A
330
73D
100
AcDbEntity
  8
CORTE
  6
Continuous
 62
     1
100
AcDbCircle
 10
-265.224622560541
 20
-42.43848602356989
 30
0.0
 40
0.0063452380952396
100
AcDbArc
 50
97.82469757354443
 51
170.060518543773
  0
ARC
  5
79B
330
73D
100
AcDbEntity
  8
CORTE
  6
Continuous
 62
     1
100
AcDbCircle
 10
-265.2256225605411
 20
-42.43120917516717
 30
0.0
 40
0.001
100
AcDbArc
 50
277.8246975735409
 51
359.9999999999984
  0
LINE
  5
79C
330
73D
100
AcDbEntity
  8
CORTE
  6
Continuous
 62
     1
100
AcDbLine
 10
-265.2246225605411
 20
-42.43120917516717
 30
0.0
 11
-265.2246225605411
 21
-42.42864078547465
 31
0.0
  0
LINE
  5
79D
330
73D
100
AcDbEntity
  8
CORTE
  6
Continuous
 62
     1
100
AcDbLine
 10
-265.2246225605411
 20
-42.42864078547465
 30
0.0
 11
-265.2371225605411
 21
-42.42864078547465
 31
0.0
  0
LINE
  5
79E
330
73D
100
AcDbEntity
  8
CORTE
  6
Continuous
 62
     1
100
AcDbLine
 10
-265.2371225605411
 20
-42.42864078547465
 30
0.0
 11
-265.2371225605411
 21
-42.43464078547464
 31
0.0
  0
LINE
  5
79F
330
73D
100
AcDbEntity
  8
CORTE
  6
Continuous
 62
     1
100
AcDbLine
 10
-265.2371225605411
 20
-42.43464078547464
 30
0.0
 11
-265.2506225605411
 21
-42.44714078547463
 31
0.0
  0
LINE
  5
7A0
330
73D
100
AcDbEntity
  8
CORTE
  6
Continuous
 62
     1
100
AcDbLine
 10
-265.2506225605411
 20
-42.44714078547463
 30
0.0
 11
-265.2606225605411
 21
-42.44714078547463
 31
0.0
  0
ARC
  5
7A1
330
73D
100
AcDbEntity
  8
CORTE
  6
Continuous
 62
     1
100
AcDbCircle
 10
-265.2606225605411
 20
-42.45214078547464
 30
0.0
 40
0.005
100
AcDbArc
 50
90.00000000000325
 51
179.9999999999966
  0
LINE
  5
7A2
330
73D
100
AcDbEntity
  8
CORTE
  6
Continuous
 62
     1
100
AcDbLine
 10
-265.2656225605411
 20
-42.45214078547464
 30
0.0
 11
-265.2656225605411
 21
-42.45741360008323
 31
0.0
  0
LINE
  5
7A3
330
73D
100
AcDbEntity
  8
CORTE
  6
Continuous
 62
     1
100
AcDbLine
 10
-265.2656225605411
 20
-42.45741360008323
 30
0.0
 11
-265.2671225605411
 21
-42.45864078547465
 31
0.0
  0
LINE
  5
7A4
330
73D
100
AcDbEntity
  8
CORTE
  6
Continuous
 62
     1
100
AcDbLine
 10
-265.2671225605411
 20
-42.45864078547465
 30
0.0
 11
-265.2671225605411
 21
-42.47114078547464
 31
0.0
  0
LINE
  5
7A5
330
73D
100
AcDbEntity
  8
CORTE
  6
Continuous
 62
     1
100
AcDbLine
 10
-265.2671225605411
 20
-42.47114078547464
 30
0.0
 11
-265.2640972871209
 21
-42.47114078547464
 31
0.0
  0
ARC
  5
7A6
330
73D
100
AcDbEntity
  8
CORTE
  6
Continuous
 62
     1
100
AcDbCircle
 10
-265.2640972871209
 20
-42.47064078547466
 30
0.0
 40
0.0005
100
AcDbArc
 50
270.0
 51
354.2126842324164
  0
ARC
  5
7A7
330
73D
100
AcDbEntity
  8
CORTE
  6
Continuous
 62
     1
100
AcDbCircle
 10
-265.2591640162722
 20
-42.47114078547464
 30
0.0
 40
0.004458544268822
100
AcDbArc
 50
119.8686408419609
 51
174.2126842324128
  0
LINE
  5
7A8
330
73D
100
AcDbEntity
  8
CORTE
  6
Continuous
 62
     4
100
AcDbLine
 10
-265.2573974497463
 20
-42.4613609643679
 30
0.0
 11
-265.2573974497463
 21
-42.45761707527882
 31
0.0
  0
LINE
  5
7A9
330
73D
100
AcDbEntity
  8
Vista
 62
     4
100
AcDbLine
 10
-265.2611334367446
 20
-42.46214078547466
 30
0.0
 11
-265.2573974497463
 21
-42.4613609643679
 31
0.0
  0
LINE
  5
7AA
330
73D
100
AcDbEntity
  8
CORTE
  6
Continuous
 62
     1
100
AcDbLine
 10
-265.2593974497464
 20
-42.45803437508772
 30
0.0
 11
-265.2593974497464
 21
-42.45359456852866
 31
0.0
  0
LINE
  5
7AB
330
73D
100
AcDbEntity
  8
Vista
 62
     4
100
AcDbLine
 10
-265.2573974497463
 20
-42.4613609643679
 30
0.0
 11
-265.2543974497464
 21
-42.4613609643679
 31
0.0
  0
LINE
  5
7AC
330
73D
100
AcDbEntity
  8
Vista
 62
     4
100
AcDbLine
 10
-265.2463974497463
 20
-42.45532102013243
 30
0.0
 11
-265.2438974497463
 21
-42.45479918941735
 31
0.0
  0
LINE
  5
7AD
330
73D
100
AcDbEntity
  8
CORTE
  6
Continuous
 62
     4
100
AcDbLine
 10
-265.2543974497464
 20
-42.4613609643679
 30
0.0
 11
-265.2543974497464
 21
-42.45348943144084
 31
0.0
  0
LINE
  5
7AE
330
73D
100
AcDbEntity
  8
CORTE
  6
Continuous
 62
     4
100
AcDbLine
 10
-265.2558974497463
 20
-42.45730397684979
 30
0.0
 11
-265.2558974497463
 21
-42.45364078547466
 31
0.0
  0
LINE
  5
7AF
330
73D
100
AcDbEntity
  8
CORTE
  6
Continuous
 62
     4
100
AcDbLine
 10
-265.2463974497463
 20
-42.4596911060796
 30
0.0
 11
-265.2463974497463
 21
-42.45242577862589
 31
0.0
  0
LINE
  5
7B0
330
73D
100
AcDbEntity
  8
Vista
 62
     4
100
AcDbLine
 10
-265.2463974497463
 20
-42.45906490922148
 30
0.0
 11
-265.2453974497464
 21
-42.45885617693547
 31
0.0
  0
LINE
  5
7B1
330
73D
100
AcDbEntity
  8
CORTE
  6
Continuous
 62
     4
100
AcDbLine
 10
-265.2423974497464
 20
-42.45885617693547
 30
0.0
 11
-265.2423974497464
 21
-42.45364078547466
 31
0.0
  0
LINE
  5
7B2
330
73D
100
AcDbEntity
  8
CORTE
  6
Continuous
 62
     4
100
AcDbLine
 10
-265.2453974497464
 20
-42.45885617693547
 30
0.0
 11
-265.2453974497464
 21
-42.45511228784639
 31
0.0
  0
LINE
  5
7B3
330
73D
100
AcDbEntity
  8
CORTE
  6
Continuous
 62
     4
100
AcDbLine
 10
-265.2343974497463
 20
-42.45718631864717
 30
0.0
 11
-265.2343974497463
 21
-42.45204976975823
 31
0.0
  0
LINE
  5
7B4
330
73D
100
AcDbEntity
  8
Vista
 62
     4
100
AcDbLine
 10
-265.2423974497464
 20
-42.45885617693547
 30
0.0
 11
-265.2453974497464
 21
-42.45885617693547
 31
0.0
  0
LINE
  5
7B5
330
73D
100
AcDbEntity
  8
CORTE
  6
Continuous
 62
     4
100
AcDbLine
 10
-265.2438974497463
 20
-42.45479918941735
 30
0.0
 11
-265.2438974497463
 21
-42.45364078547466
 31
0.0
  0
LINE
  5
7B6
330
73D
100
AcDbEntity
  8
Vista
 62
     4
100
AcDbLine
 10
-265.2423974497464
 20
-42.45885617693547
 30
0.0
 11
-265.2343974497463
 21
-42.45718631864717
 31
0.0
  0
LINE
  5
7B7
330
73D
100
AcDbEntity
  8
CORTE
  6
Continuous
 62
     4
100
AcDbLine
 10
-265.2333974497464
 20
-42.45635698981327
 30
0.0
 11
-265.2333974497464
 21
-42.45261310072421
 31
0.0
  0
LINE
  5
7B8
330
73D
100
AcDbEntity
  8
CORTE
  6
Continuous
 62
     4
100
AcDbLine
 10
-265.2303974497463
 20
-42.45635698981327
 30
0.0
 11
-265.2303974497463
 21
-42.45121484061409
 31
0.0
  0
LINE
  5
7B9
330
73D
100
AcDbEntity
  8
Vista
 62
     4
100
AcDbLine
 10
-265.2303974497463
 20
-42.45635698981327
 30
0.0
 11
-265.2223974497463
 21
-42.45468713152496
 31
0.0
  0
LINE
  5
7BA
330
73D
100
AcDbEntity
  8
Vista
 62
     4
100
AcDbLine
 10
-265.2303974497463
 20
-42.45635698981327
 30
0.0
 11
-265.2333974497464
 21
-42.45635698981327
 31
0.0
  0
LINE
  5
7BB
330
73D
100
AcDbEntity
  8
Vista
 62
     4
100
AcDbLine
 10
-265.2343974497463
 20
-42.45656572209931
 30
0.0
 11
-265.2333974497464
 21
-42.45635698981327
 31
0.0
  0
LINE
  5
7BC
330
73D
100
AcDbEntity
  8
Vista
 62
     4
100
AcDbLine
 10
-265.2343974497463
 20
-42.45282183301024
 30
0.0
 11
-265.2318974497463
 21
-42.45230000229515
 31
0.0
  0
LINE
  5
7BD
330
73D
100
AcDbEntity
  8
CORTE
  6
Continuous
 62
     4
100
AcDbLine
 10
-265.2318974497463
 20
-42.45230000229515
 30
0.0
 11
-265.2318974497463
 21
-42.45152793904313
 31
0.0
  0
LINE
  5
7BE
330
73D
100
AcDbEntity
  8
CORTE
  6
Continuous
 62
     4
100
AcDbLine
 10
-265.2223974497463
 20
-42.45468713152496
 30
0.0
 11
-265.2223974497463
 21
-42.44955058263606
 31
0.0
  0
LINE
  5
7BF
330
73D
100
AcDbEntity
  8
Vista
 62
     4
100
AcDbLine
 10
-265.2183974497464
 20
-42.45381967473214
 30
0.0
 11
-265.2103974497463
 21
-42.45214981644386
 31
0.0
  0
LINE
  5
7C0
330
73D
100
AcDbEntity
  8
Vista
 62
     4
100
AcDbLine
 10
-265.2183974497464
 20
-42.45381967473214
 30
0.0
 11
-265.2213974497463
 21
-42.45381967473214
 31
0.0
  0
LINE
  5
7C1
330
73D
100
AcDbEntity
  8
CORTE
  6
Continuous
 62
     4
100
AcDbLine
 10
-265.2198974497463
 20
-42.44976268721403
 30
0.0
 11
-265.2198974497463
 21
-42.44902315161072
 31
0.0
  0
LINE
  5
7C2
330
73D
100
AcDbEntity
  8
Vista
 62
     4
100
AcDbLine
 10
-265.2223974497463
 20
-42.45028451792911
 30
0.0
 11
-265.2198974497463
 21
-42.44976268721403
 31
0.0
  0
LINE
  5
7C3
330
73D
100
AcDbEntity
  8
Vista
 62
     4
100
AcDbLine
 10
-265.2223974497463
 20
-42.45402840701817
 30
0.0
 11
-265.2213974497463
 21
-42.45381967473214
 31
0.0
  0
LINE
  5
7C4
330
73D
100
AcDbEntity
  8
CORTE
  6
Continuous
 62
     4
100
AcDbLine
 10
-265.2213974497463
 20
-42.45381967473214
 30
0.0
 11
-265.2213974497463
 21
-42.45007578564307
 31
0.0
  0
LINE
  5
7C5
330
73D
100
AcDbEntity
  8
CORTE
  6
Continuous
 62
     4
100
AcDbLine
 10
-265.2183974497464
 20
-42.45381967473214
 30
0.0
 11
-265.2183974497464
 21
-42.44867752553297
 31
0.0
  0
LINE
  5
7C6
330
73D
100
AcDbEntity
  8
CORTE
  6
Continuous
 62
     4
100
AcDbLine
 10
-265.2103974497463
 20
-42.45214981644386
 30
0.0
 11
-265.2103974497463
 21
-42.44704019489336
 31
0.0
  0
LINE
  5
7C7
330
73D
100
AcDbEntity
  8
Vista
 62
     4
100
AcDbLine
 10
-265.2063974497464
 20
-42.45136478851414
 30
0.0
 11
-265.1983974497463
 21
-42.44969493022584
 31
0.0
  0
LINE
  5
7C8
330
73D
100
AcDbEntity
  8
Vista
 62
     4
100
AcDbLine
 10
-265.2063974497464
 20
-42.45136478851414
 30
0.0
 11
-265.2093974497463
 21
-42.45136478851414
 31
0.0
  0
LINE
  5
7C9
330
73D
100
AcDbEntity
  8
CORTE
  6
Continuous
 62
     4
100
AcDbLine
 10
-265.2078974497463
 20
-42.44730780099603
 30
0.0
 11
-265.2078974497463
 21
-42.446535737744
 31
0.0
  0
LINE
  5
7CA
330
73D
100
AcDbEntity
  8
Vista
 62
     4
100
AcDbLine
 10
-265.2103974497463
 20
-42.4478296317111
 30
0.0
 11
-265.2078974497463
 21
-42.44730780099603
 31
0.0
  0
LINE
  5
7CB
330
73D
100
AcDbEntity
  8
Vista
 62
     4
100
AcDbLine
 10
-265.2103974497463
 20
-42.45157352080018
 30
0.0
 11
-265.2093974497463
 21
-42.45136478851414
 31
0.0
  0
LINE
  5
7CC
330
73D
100
AcDbEntity
  8
CORTE
  6
Continuous
 62
     4
100
AcDbLine
 10
-265.2093974497463
 20
-42.45136478851414
 30
0.0
 11
-265.2093974497463
 21
-42.44762089942507
 31
0.0
  0
LINE
  5
7CD
330
73D
100
AcDbEntity
  8
CORTE
  6
Continuous
 62
     4
100
AcDbLine
 10
-265.2063974497464
 20
-42.45136478851414
 30
0.0
 11
-265.2063974497464
 21
-42.44622263931495
 31
0.0
  0
LINE
  5
7CE
330
73D
100
AcDbEntity
  8
CORTE
  6
Continuous
 62
     4
100
AcDbLine
 10
-265.1983974497463
 20
-42.44969493022584
 30
0.0
 11
-265.1983974497463
 21
-42.44455838133692
 31
0.0
  0
LINE
  5
7CF
330
73D
100
AcDbEntity
  8
Vista
 62
     4
100
AcDbLine
 10
-265.1943974497464
 20
-42.44883783223379
 30
0.0
 11
-265.1863974497463
 21
-42.44716797394549
 31
0.0
  0
LINE
  5
7D0
330
73D
100
AcDbEntity
  8
Vista
 62
     4
100
AcDbLine
 10
-265.1943974497464
 20
-42.44883783223379
 30
0.0
 11
-265.1973974497463
 21
-42.44883783223379
 31
0.0
  0
LINE
  5
7D1
330
73D
100
AcDbEntity
  8
CORTE
  6
Continuous
 62
     4
100
AcDbLine
 10
-265.1958974497463
 20
-42.44478084471568
 30
0.0
 11
-265.1958974497463
 21
-42.44400878146368
 31
0.0
  0
LINE
  5
7D2
330
73D
100
AcDbEntity
  8
Vista
 62
     4
100
AcDbLine
 10
-265.1983974497463
 20
-42.44530267543075
 30
0.0
 11
-265.1958974497463
 21
-42.44478084471568
 31
0.0
  0
LINE
  5
7D3
330
73D
100
AcDbEntity
  8
Vista
 62
     4
100
AcDbLine
 10
-265.1983974497463
 20
-42.44904656451983
 30
0.0
 11
-265.1973974497463
 21
-42.44883783223379
 31
0.0
  0
LINE
  5
7D4
330
73D
100
AcDbEntity
  8
CORTE
  6
Continuous
 62
     4
100
AcDbLine
 10
-265.1973974497463
 20
-42.44883783223379
 30
0.0
 11
-265.1973974497463
 21
-42.44509394314476
 31
0.0
  0
LINE
  5
7D5
330
73D
100
AcDbEntity
  8
CORTE
  6
Continuous
 62
     4
100
AcDbLine
 10
-265.1943974497464
 20
-42.44883783223379
 30
0.0
 11
-265.1943974497464
 21
-42.44369568303464
 31
0.0
  0
LINE
  5
7D6
330
73D
100
AcDbEntity
  8
CORTE
  6
Continuous
 62
     4
100
AcDbLine
 10
-265.1838974497463
 20
-42.44224352963454
 30
0.0
 11
-265.1838974497463
 21
-42.44150399403125
 31
0.0
  0
LINE
  5
7D7
330
73D
100
AcDbEntity
  8
CORTE
  6
Continuous
 62
     4
100
AcDbLine
 10
-265.1823974497464
 20
-42.44630051715265
 30
0.0
 11
-265.1823974497464
 21
-42.44115836795351
 31
0.0
  0
LINE
  5
7D8
330
73D
100
AcDbEntity
  8
Vista
 62
     4
100
AcDbLine
 10
-265.1823974497464
 20
-42.44630051715265
 30
0.0
 11
-265.1853974497464
 21
-42.44630051715265
 31
0.0
  0
LINE
  5
7D9
330
73D
100
AcDbEntity
  8
CORTE
  6
Continuous
 62
     4
100
AcDbLine
 10
-265.1853974497464
 20
-42.44630051715265
 30
0.0
 11
-265.1853974497464
 21
-42.44255662806361
 31
0.0
  0
LINE
  5
7DA
330
73D
100
AcDbEntity
  8
Vista
 62
     4
100
AcDbLine
 10
-265.1863974497463
 20
-42.4465092494387
 30
0.0
 11
-265.1853974497464
 21
-42.44630051715265
 31
0.0
  0
LINE
  5
7DB
330
73D
100
AcDbEntity
  8
Vista
 62
     4
100
AcDbLine
 10
-265.1863974497463
 20
-42.44276536034965
 30
0.0
 11
-265.1838974497463
 21
-42.44224352963454
 31
0.0
  0
LINE
  5
7DC
330
73D
100
AcDbEntity
  8
CORTE
  6
Continuous
 62
     4
100
AcDbLine
 10
-265.1863974497463
 20
-42.44716797394549
 30
0.0
 11
-265.1863974497463
 21
-42.44203142505657
 31
0.0
  0
LINE
  5
7DD
330
73D
100
AcDbEntity
  8
Vista
 62
     4
100
AcDbLine
 10
-265.1703974497463
 20
-42.44384563093466
 30
0.0
 11
-265.1623974497463
 21
-42.44217577264635
 31
0.0
  0
LINE
  5
7DE
330
73D
100
AcDbEntity
  8
Vista
 62
     4
100
AcDbLine
 10
-265.1823974497464
 20
-42.44630051715265
 30
0.0
 11
-265.1743974497463
 21
-42.44463065886439
 31
0.0
  0
LINE
  5
7DF
330
73D
100
AcDbEntity
  8
CORTE
  6
Continuous
 62
     4
100
AcDbLine
 10
-265.1743974497463
 20
-42.44463065886439
 30
0.0
 11
-265.1743974497463
 21
-42.43952103731388
 31
0.0
  0
LINE
  5
7E0
330
73D
100
AcDbEntity
  8
CORTE
  6
Continuous
 62
     4
100
AcDbLine
 10
-265.1733974497464
 20
-42.44384563093466
 30
0.0
 11
-265.1733974497464
 21
-42.44010174184562
 31
0.0
  0
LINE
  5
7E1
330
73D
100
AcDbEntity
  8
CORTE
  6
Continuous
 62
     4
100
AcDbLine
 10
-265.1703974497463
 20
-42.44384563093466
 30
0.0
 11
-265.1703974497463
 21
-42.4387034817355
 31
0.0
  0
LINE
  5
7E2
330
73D
100
AcDbEntity
  8
Vista
 62
     4
100
AcDbLine
 10
-265.1703974497463
 20
-42.44384563093466
 30
0.0
 11
-265.1733974497464
 21
-42.44384563093466
 31
0.0
  0
LINE
  5
7E3
330
73D
100
AcDbEntity
  8
Vista
 62
     4
100
AcDbLine
 10
-265.1743974497463
 20
-42.4440543632207
 30
0.0
 11
-265.1733974497464
 21
-42.44384563093466
 31
0.0
  0
LINE
  5
7E4
330
73D
100
AcDbEntity
  8
CORTE
  6
Continuous
 62
     4
100
AcDbLine
 10
-265.1718974497463
 20
-42.43978864341655
 30
0.0
 11
-265.1718974497463
 21
-42.43901658016456
 31
0.0
  0
LINE
  5
7E5
330
73D
100
AcDbEntity
  8
Vista
 62
     4
100
AcDbLine
 10
-265.1743974497463
 20
-42.44031047413162
 30
0.0
 11
-265.1718974497463
 21
-42.43978864341655
 31
0.0
  0
LINE
  5
7E6
330
73D
100
AcDbEntity
  8
CORTE
  6
Continuous
 62
     4
100
AcDbLine
 10
-265.1623974497463
 20
-42.44217577264635
 30
0.0
 11
-265.1623974497463
 21
-42.43703922375745
 31
0.0
  0
LINE
  5
7E7
330
73D
100
AcDbEntity
  8
Vista
 62
     4
100
AcDbLine
 10
-265.1583974497464
 20
-42.4413323983189
 30
0.0
 11
-265.1503974497463
 21
-42.43966254003061
 31
0.0
  0
LINE
  5
7E8
330
73D
100
AcDbEntity
  8
Vista
 62
     4
100
AcDbLine
 10
-265.1583974497464
 20
-42.4413323983189
 30
0.0
 11
-265.1613974497463
 21
-42.4413323983189
 31
0.0
  0
LINE
  5
7E9
330
73D
100
AcDbEntity
  8
CORTE
  6
Continuous
 62
     4
100
AcDbLine
 10
-265.1598974497463
 20
-42.43727541080079
 30
0.0
 11
-265.1598974497463
 21
-42.43650334754879
 31
0.0
  0
LINE
  5
7EA
330
73D
100
AcDbEntity
  8
Vista
 62
     4
100
AcDbLine
 10
-265.1623974497463
 20
-42.43779724151589
 30
0.0
 11
-265.1598974497463
 21
-42.43727541080079
 31
0.0
  0
LINE
  5
7EB
330
73D
100
AcDbEntity
  8
Vista
 62
     4
100
AcDbLine
 10
-265.1623974497463
 20
-42.44154113060496
 30
0.0
 11
-265.1613974497463
 21
-42.4413323983189
 31
0.0
  0
LINE
  5
7EC
330
73D
100
AcDbEntity
  8
CORTE
  6
Continuous
 62
     4
100
AcDbLine
 10
-265.1613974497463
 20
-42.4413323983189
 30
0.0
 11
-265.1613974497463
 21
-42.43758850922985
 31
0.0
  0
LINE
  5
7ED
330
73D
100
AcDbEntity
  8
CORTE
  6
Continuous
 62
     4
100
AcDbLine
 10
-265.1583974497464
 20
-42.4413323983189
 30
0.0
 11
-265.1583974497464
 21
-42.43619024911974
 31
0.0
  0
LINE
  5
7EE
330
73D
100
AcDbEntity
  8
CORTE
  6
Continuous
 62
     4
100
AcDbLine
 10
-265.1478974497463
 20
-42.43473809571968
 30
0.0
 11
-265.1478974497463
 21
-42.43399856011635
 31
0.0
  0
LINE
  5
7EF
330
73D
100
AcDbEntity
  8
CORTE
  6
Continuous
 62
     4
100
AcDbLine
 10
-265.1463974497464
 20
-42.43879508323779
 30
0.0
 11
-265.1463974497464
 21
-42.43365293403861
 31
0.0
  0
LINE
  5
7F0
330
73D
100
AcDbEntity
  8
Vista
 62
     4
100
AcDbLine
 10
-265.1463974497464
 20
-42.43879508323779
 30
0.0
 11
-265.1493974497463
 21
-42.43879508323779
 31
0.0
  0
LINE
  5
7F1
330
73D
100
AcDbEntity
  8
CORTE
  6
Continuous
 62
     4
100
AcDbLine
 10
-265.1493974497463
 20
-42.43879508323779
 30
0.0
 11
-265.1493974497463
 21
-42.43505119414872
 31
0.0
  0
LINE
  5
7F2
330
73D
100
AcDbEntity
  8
Vista
 62
     4
100
AcDbLine
 10
-265.1503974497463
 20
-42.43900381552383
 30
0.0
 11
-265.1493974497463
 21
-42.43879508323779
 31
0.0
  0
LINE
  5
7F3
330
73D
100
AcDbEntity
  8
Vista
 62
     4
100
AcDbLine
 10
-265.1503974497463
 20
-42.43525992643475
 30
0.0
 11
-265.1478974497463
 21
-42.43473809571968
 31
0.0
  0
LINE
  5
7F4
330
73D
100
AcDbEntity
  8
CORTE
  6
Continuous
 62
     4
100
AcDbLine
 10
-265.1503974497463
 20
-42.43966254003061
 30
0.0
 11
-265.1503974497463
 21
-42.43452599114171
 31
0.0
  0
LINE
  5
7F5
330
73D
100
AcDbEntity
  8
Vista
 62
     4
100
AcDbLine
 10
-265.1463974497464
 20
-42.43879508323779
 30
0.0
 11
-265.1383974497463
 21
-42.43712522494949
 31
0.0
  0
LINE
  5
7F6
330
73D
100
AcDbEntity
  8
CORTE
  6
Continuous
 62
     4
100
AcDbLine
 10
-265.1383974497463
 20
-42.43712522494949
 30
0.0
 11
-265.1383974497463
 21
-42.43201560339902
 31
0.0
  0
LINE
  5
7F7
330
73D
100
AcDbEntity
  8
CORTE
  6
Continuous
 62
     4
100
AcDbLine
 10
-265.1373974497464
 20
-42.43634019701977
 30
0.0
 11
-265.1373974497464
 21
-42.43259630793072
 31
0.0
  0
LINE
  5
7F8
330
73D
100
AcDbEntity
  8
CORTE
  6
Continuous
 62
     4
100
AcDbLine
 10
-265.1343974497464
 20
-42.43634019701977
 30
0.0
 11
-265.1343974497464
 21
-42.4311980478206
 31
0.0
  0
LINE
  5
7F9
330
73D
100
AcDbEntity
  8
Vista
 62
     4
100
AcDbLine
 10
-265.1383974497463
 20
-42.43654892930583
 30
0.0
 11
-265.1373974497464
 21
-42.43634019701977
 31
0.0
  0
LINE
  5
7FA
330
73D
100
AcDbEntity
  8
CORTE
  6
Continuous
 62
     4
100
AcDbLine
 10
-265.1358974497463
 20
-42.43228320950167
 30
0.0
 11
-265.1358974497463
 21
-42.43151114624965
 31
0.0
  0
LINE
  5
7FB
330
73D
100
AcDbEntity
  8
Vista
 62
     4
100
AcDbLine
 10
-265.1383974497463
 20
-42.43280504021675
 30
0.0
 11
-265.1358974497463
 21
-42.43228320950167
 31
0.0
  0
LINE
  5
7FC
330
73D
100
AcDbEntity
  8
Vista
 62
     4
100
AcDbLine
 10
-265.1353528293179
 20
-42.43634019701977
 30
0.0
 11
-265.1373974497464
 21
-42.43634019701977
 31
0.0
  0
LWPOLYLINE
  5
7FD
330
73D
100
AcDbEntity
  8
Vista
  6
Continuous
 62
     3
100
AcDbPolyline
 90
       21
 70
     0
 43
0.0
 10
-265.1383166796941
 20
-42.44488631174738
 42
0.384929168564455
 10
-265.1378192281659
 20
-42.4444367297706
 42
-0.2416670294637282
 10
-265.1356038227205
 20
-42.44101999835858
 42
0.2685636005234456
 10
-265.1353528293179
 20
-42.44058641363274
 10
-265.1353528293179
 20
-42.43634019701977
 10
-265.1343974497464
 20
-42.43634019701977
 10
-265.1318419531143
 20
-42.43580678236582
 10
-265.1318419531143
 20
-42.43064312650061
 10
-265.1161247926731
 20
-42.42736244767171
 42
0.3514578094911731
 10
-265.1153419531143
 20
-42.42638631174741
 10
-265.1153419531143
 20
-42.42287691224864
 42
-0.3189892314182308
 10
-265.1121434289239
 20
-42.41946666761764
 42
0.3568183404962087
 10
-265.1113419531143
 20
-42.41848657162957
 10
-265.1113419531143
 20
-42.41652292015007
 10
-265.1100037407593
 20
-42.41624359202602
 42
0.3051840064494136
 10
-265.1050919531143
 20
-42.4111363117474
 42
-0.2900042141350497
 10
-265.1005238724924
 20
-42.40611328262953
 10
-265.0995390095354
 20
-42.40590770993311
 42
0.3266838343405565
 10
-265.0988419531143
 20
-42.40495470143993
 10
-265.0988419531143
 20
-42.40238631174739
 10
-265.1113419531143
 20
-42.40238631174739
  0
LINE
  5
7FE
330
73D
100
AcDbEntity
  8
Vista
 62
     6
100
AcDbLine
 10
-265.0999942150913
 20
-42.55723976658282
 30
0.0
 11
-265.0999942150913
 21
-42.51473976658282
 31
0.0
  0
LINE
  5
7FF
330
73D
100
AcDbEntity
  8
Vista
 62
     6
100
AcDbLine
 10
-265.2079942150913
 20
-42.55723976658282
 30
0.0
 11
-265.2079942150913
 21
-42.51473976658282
 31
0.0
  0
LINE
  5
800
330
73D
100
AcDbEntity
  8
Vista
 62
     2
100
AcDbLine
 10
-265.2079942150914
 20
-42.51796536909266
 30
0.0
 11
-265.0999942150913
 21
-42.51796536909266
 31
0.0
  0
LINE
  5
801
330
73D
100
AcDbEntity
  8
Vista
 62
     3
100
AcDbLine
 10
-265.2079942150913
 20
-42.51473976658279
 30
0.0
 11
-265.0999942150913
 21
-42.51473976658284
 31
0.0
  0
LINE
  5
802
330
73D
100
AcDbEntity
  8
Vista
 62
     2
100
AcDbLine
 10
-265.2079942150913
 20
-42.52873976658283
 30
0.0
 11
-265.0999942150913
 21
-42.52873976658283
 31
0.0
  0
LINE
  5
803
330
73D
100
AcDbEntity
  8
Vista
 62
     2
100
AcDbLine
 10
-265.2079942150914
 20
-42.53147306509318
 30
0.0
 11
-265.0999942150913
 21
-42.53147306509318
 31
0.0
  0
LINE
  5
804
330
73D
100
AcDbEntity
  8
Vista
 62
     2
100
AcDbLine
 10
-265.2079942150913
 20
-42.53973976658282
 30
0.0
 11
-265.0999942150913
 21
-42.53973976658282
 31
0.0
  0
LINE
  5
805
330
73D
100
AcDbEntity
  8
Vista
 62
     2
100
AcDbLine
 10
-265.2079942150913
 20
-42.55319036467706
 30
0.0
 11
-265.0999942150913
 21
-42.55319036467709
 31
0.0
  0
LINE
  5
806
330
73D
100
AcDbEntity
  8
Vista
 62
     3
100
AcDbLine
 10
-265.2079942150913
 20
-42.55723976658282
 30
0.0
 11
-265.0999942150913
 21
-42.55723976658282
 31
0.0
  0
ENDBLK
  5
808
330
73D
100
AcDbEntity
  8
0
 62
     3
100
AcDbBlockEnd
  0
BLOCK
  5
B6F
330
B69
100
AcDbEntity
  8
0
 62
     3
100
AcDbBlockBegin
  2
A$C263D6B6A
 70
     0
 10
0.0
 20
0.0
 30
0.0
  3
A$C263D6B6A
  1

  0
HATCH
  5
B6A
330
B69
100
AcDbEntity
  8
Sezione
100
AcDbHatch
 10
0.0
 20
0.0
 30
0.0
210
0.0
220
0.0
230
1.0
  2
ANSI31
 70
     0
 71
     0
 91
        1
 92
        7
 72
     0
 73
     1
 93
        6
 10
0.0922667539244952
 20
0.0862807646728965
 10
-0.0000000665657739
 20
0.0862807646728965
 10
-0.0000000665657739
 20
0.0003091066906239
 10
0.0191316019951639
 20
0.0003091066906239
 10
0.0191316019951639
 20
0.0668219886661159
 10
0.0922667539244952
 20
0.0668219886661158
 97
        0
 75
     0
 76
     1
 52
0.0
 41
0.002
 77
     0
 78
     1
 53
45.0
 43
-0.0858288002254417
 44
-0.1359207187670848
 45
-0.0044901280605346
 46
0.0044901280605346
 79
     0
 47
0.0003507291251325
 98
        1
 10
0.0287510465309501
 20
0.0740124973428604
1001
ACAD
1010
0.0
1020
0.0
1030
0.0
  0
LINE
  5
B6B
330
B69
100
AcDbEntity
  8
Sezione
100
AcDbLine
 10
0.0191316019951639
 20
0.0000000122728271
 30
0.0
 11
0.0191316019951639
 21
0.0668219886661159
 31
0.0
  0
LINE
  5
B6C
330
B69
100
AcDbEntity
  8
Sezione
100
AcDbLine
 10
0.0191316019951639
 20
0.0668219886661159
 30
0.0
 11
0.0923266054750259
 21
0.0668219886661159
 31
0.0
  0
ENDBLK
  5
B70
330
B69
100
AcDbEntity
  8
0
 62
     3
100
AcDbBlockEnd
  0
BLOCK
  5
BFC
330
BFB
100
AcDbEntity
  8
0
100
AcDbBlockBegin
  2
*X10
 70
     1
 10
0.0
 20
0.0
 30
0.0
  3
*X10
  1

  0
LINE
  5
BFD
330
BFB
100
AcDbEntity
  8
0
 62
     0
100
AcDbLine
 10
486.460053877036
 20
124.0678285189305
 30
0.0
 11
503.5693156116773
 21
141.1770902535719
 31
0.0
  0
LINE
  5
BFE
330
BFB
100
AcDbEntity
  8
0
 62
     0
100
AcDbLine
 10
615.6341149734076
 20
253.2418896153022
 30
0.0
 11
629.3545087289434
 21
266.9622833708378
 31
0.0
  0
LINE
  5
BFF
330
BFB
100
AcDbEntity
  8
0
 62
     0
100
AcDbLine
 10
486.460053877036
 20
132.9066632837623
 30
0.0
 11
503.5693156116773
 21
150.0159250184037
 31
0.0
  0
LINE
  5
C00
330
BFB
100
AcDbEntity
  8
0
 62
     0
100
AcDbLine
 10
606.7952802085756
 20
253.2418896153022
 30
0.0
 11
620.5156739641116
 21
266.9622833708378
 31
0.0
  0
LINE
  5
C01
330
BFB
100
AcDbEntity
  8
0
 62
     0
100
AcDbLine
 10
486.460053877036
 20
141.7454980485942
 30
0.0
 11
503.5693156116773
 21
158.8547597832356
 31
0.0
  0
LINE
  5
C02
330
BFB
100
AcDbEntity
  8
0
 62
     0
100
AcDbLine
 10
597.9564454437441
 20
253.2418896153022
 30
0.0
 11
611.6768391992795
 21
266.9622833708378
 31
0.0
  0
LINE
  5
C03
330
BFB
100
AcDbEntity
  8
0
 62
     0
100
AcDbLine
 10
486.460053877036
 20
150.5843328134259
 30
0.0
 11
503.5693156116773
 21
167.6935945480674
 31
0.0
  0
LINE
  5
C04
330
BFB
100
AcDbEntity
  8
0
 62
     0
100
AcDbLine
 10
589.1176106789122
 20
253.2418896153022
 30
0.0
 11
602.8380044344478
 21
266.9622833708378
 31
0.0
  0
LINE
  5
C05
330
BFB
100
AcDbEntity
  8
0
 62
     0
100
AcDbLine
 10
486.460053877036
 20
159.4231675782578
 30
0.0
 11
503.5693156116773
 21
176.5324293128992
 31
0.0
  0
LINE
  5
C06
330
BFB
100
AcDbEntity
  8
0
 62
     0
100
AcDbLine
 10
580.2787759140803
 20
253.2418896153022
 30
0.0
 11
593.999169669616
 21
266.9622833708378
 31
0.0
  0
LINE
  5
C07
330
BFB
100
AcDbEntity
  8
0
 62
     0
100
AcDbLine
 10
486.460053877036
 20
168.2620023430897
 30
0.0
 11
503.5693156116773
 21
185.3712640777311
 31
0.0
  0
LINE
  5
C08
330
BFB
100
AcDbEntity
  8
0
 62
     0
100
AcDbLine
 10
571.4399411492485
 20
253.2418896153022
 30
0.0
 11
585.1603349047841
 21
266.9622833708378
 31
0.0
  0
LINE
  5
C09
330
BFB
100
AcDbEntity
  8
0
 62
     0
100
AcDbLine
 10
486.460053877036
 20
177.1008371079215
 30
0.0
 11
503.5693156116773
 21
194.2100988425629
 31
0.0
  0
LINE
  5
C0A
330
BFB
100
AcDbEntity
  8
0
 62
     0
100
AcDbLine
 10
562.6011063844166
 20
253.2418896153022
 30
0.0
 11
576.3215001399522
 21
266.9622833708378
 31
0.0
  0
LINE
  5
C0B
330
BFB
100
AcDbEntity
  8
0
 62
     0
100
AcDbLine
 10
486.460053877036
 20
185.9396718727533
 30
0.0
 11
503.5693156116773
 21
203.0489336073947
 31
0.0
  0
LINE
  5
C0C
330
BFB
100
AcDbEntity
  8
0
 62
     0
100
AcDbLine
 10
553.7622716195848
 20
253.2418896153022
 30
0.0
 11
567.4826653751202
 21
266.9622833708378
 31
0.0
  0
LINE
  5
C0D
330
BFB
100
AcDbEntity
  8
0
 62
     0
100
AcDbLine
 10
486.4600538770359
 20
194.7785066375852
 30
0.0
 11
503.5693156116773
 21
211.8877683722266
 31
0.0
  0
LINE
  5
C0E
330
BFB
100
AcDbEntity
  8
0
 62
     0
100
AcDbLine
 10
544.9234368547529
 20
253.2418896153022
 30
0.0
 11
558.6438306102884
 21
266.9622833708378
 31
0.0
  0
LINE
  5
C0F
330
BFB
100
AcDbEntity
  8
0
 62
     0
100
AcDbLine
 10
486.4600538770359
 20
203.617341402417
 30
0.0
 11
503.5693156116773
 21
220.7266031370584
 31
0.0
  0
LINE
  5
C10
330
BFB
100
AcDbEntity
  8
0
 62
     0
100
AcDbLine
 10
536.084602089921
 20
253.2418896153022
 30
0.0
 11
549.8049958454567
 21
266.9622833708378
 31
0.0
  0
LINE
  5
C11
330
BFB
100
AcDbEntity
  8
0
 62
     0
100
AcDbLine
 10
486.4600538770359
 20
212.4561761672488
 30
0.0
 11
503.5693156116773
 21
229.5654379018902
 31
0.0
  0
LINE
  5
C12
330
BFB
100
AcDbEntity
  8
0
 62
     0
100
AcDbLine
 10
527.2457673250892
 20
253.2418896153022
 30
0.0
 11
540.9661610806248
 21
266.9622833708378
 31
0.0
  0
LINE
  5
C13
330
BFB
100
AcDbEntity
  8
0
 62
     0
100
AcDbLine
 10
486.4600538770359
 20
221.2950109320807
 30
0.0
 11
503.5693156116773
 21
238.4042726667221
 31
0.0
  0
LINE
  5
C14
330
BFB
100
AcDbEntity
  8
0
 62
     0
100
AcDbLine
 10
518.4069325602573
 20
253.2418896153022
 30
0.0
 11
532.1273263157928
 21
266.9622833708378
 31
0.0
  0
LINE
  5
C15
330
BFB
100
AcDbEntity
  8
0
 62
     0
100
AcDbLine
 10
486.4600538770359
 20
230.1338456969125
 30
0.0
 11
503.5693156116773
 21
247.2431074315539
 31
0.0
  0
LINE
  5
C16
330
BFB
100
AcDbEntity
  8
0
 62
     0
100
AcDbLine
 10
509.5680977954256
 20
253.2418896153021
 30
0.0
 11
523.2884915509611
 21
266.9622833708377
 31
0.0
  0
LINE
  5
C17
330
BFB
100
AcDbEntity
  8
0
 62
     0
100
AcDbLine
 10
486.4600538770359
 20
238.9726804617443
 30
0.0
 11
514.4496567861291
 21
266.9622833708377
 31
0.0
  0
LINE
  5
C18
330
BFB
100
AcDbEntity
  8
0
 62
     0
100
AcDbLine
 10
486.4600538770359
 20
247.8115152265762
 30
0.0
 11
505.6108220212975
 21
266.9622833708377
 31
0.0
  0
LINE
  5
C19
330
BFB
100
AcDbEntity
  8
0
 62
     0
100
AcDbLine
 10
486.4600538770359
 20
256.6503499914079
 30
0.0
 11
496.7719872564655
 21
266.9622833708377
 31
0.0
  0
LINE
  5
C1A
330
BFB
100
AcDbEntity
  8
0
 62
     0
100
AcDbLine
 10
486.4600538770358
 20
265.4891847562398
 30
0.0
 11
487.9331524916336
 21
266.9622833708377
 31
0.0
  0
LINE
  5
C1B
330
BFB
100
AcDbEntity
  8
0
 62
     0
100
AcDbLine
 10
494.0552738068972
 20
122.8242136839599
 30
0.0
 11
503.5693156116773
 21
132.3382554887401
 31
0.0
  0
LINE
  5
C1C
330
BFB
100
AcDbEntity
  8
0
 62
     0
100
AcDbLine
 10
624.4729497382395
 20
253.2418896153022
 30
0.0
 11
629.496054025455
 21
258.2649939025177
 31
0.0
  0
LINE
  5
C1D
330
BFB
100
AcDbEntity
  8
0
 62
     0
100
AcDbLine
 10
502.8941085717291
 20
122.8242136839599
 30
0.0
 11
503.5693156116774
 21
123.4994207239083
 31
0.0
  0
ENDBLK
  5
C1E
330
BFB
100
AcDbEntity
  8
0
100
AcDbBlockEnd
  0
BLOCK
  5
C24
330
C1F
100
AcDbEntity
  8
0
100
AcDbBlockBegin
  2
A$C6C65579B
 70
     0
 10
0.0
 20
0.0
 30
0.0
  3
A$C6C65579B
  1

  0
LINE
  5
C20
330
C1F
100
AcDbEntity
  8
CORTE
  6
RAYITAX4
 62
     4
100
AcDbLine
 10
-265.2537935691752
 20
-42.42682209115611
 30
0.0
 11
-265.2537935691752
 21
-42.55723976708748
 31
0.0
  0
LINE
  5
C21
330
C1F
100
AcDbEntity
  8
CORTE
  6
RAYITAX4
 62
     4
100
AcDbLine
 10
-265.2537935691752
 20
-42.42682209115611
 30
0.0
 11
-265.1278668307615
 21
-42.42682209115611
 31
0.0
  0
INSERT
  5
C22
330
C1F
100
AcDbEntity
  8
TRAMA
100
AcDbBlockReference
  2
*X10
 10
-265.7573628847869
 20
-42.68006398077142
 30
0.0
 41
0.0009999999999764
 42
0.0010000000000048
 43
0.001
1001
ACAD
1000
HATCH
1002
{
1070
    16
1000
ANSI31
1040
50.0
1040
0.0
1002
}
  0
LWPOLYLINE
  5
C23
330
C1F
100
AcDbEntity
  8
CORTE
  6
Continuous
 62
     1
100
AcDbPolyline
 90
       27
 70
     0
 43
0.0
 10
-265.2434935691752
 20
-42.52048009449486
 42
-0.1309515943895288
 10
-265.2396188804983
 20
-42.50227169263182
 42
-0.0391865213385924
 10
-265.2318861974755
 20
-42.48961463308666
 42
0.148047983309989
 10
-265.2273603786659
 20
-42.4653675105652
 42
-0.4771314383243661
 10
-265.226266012113
 20
-42.46426334617864
 42
0.3174254686240992
 10
-265.2222487718652
 20
-42.46199398787246
 10
-265.2204935691752
 20
-42.45828353660646
 42
0.3390955557305459
 10
-265.2133594019252
 20
-42.45748275993213
 42
0.1067380655143518
 10
-265.2064935691752
 20
-42.44728353660645
 10
-265.2014935691752
 20
-42.44428353660646
 42
0.6316956553984646
 10
-265.1944935691751
 20
-42.44228353660645
 42
-0.4142135623730849
 10
-265.1884935691752
 20
-42.43628353660648
 10
-265.1804935691752
 20
-42.43628353660648
 42
0.4142135623730847
 10
-265.1784935691752
 20
-42.43428353660647
 10
-265.1784935691752
 20
-42.42728353660647
 10
-265.1984935691753
 20
-42.42728353660647
 10
-265.2184935691752
 20
-42.43928353660646
 10
-265.2222940706685
 20
-42.43961583728498
 42
0.2192482621402799
 10
-265.2266538493824
 20
-42.4421056036295
 10
-265.2379730166141
 20
-42.45795243775386
 42
0.1840335527349514
 10
-265.239055826335
 20
-42.46208505147598
 10
-265.2384935691752
 20
-42.46728353660649
 10
-265.2534935691752
 20
-42.51228353660649
 10
-265.2534935691752
 20
-42.53228353660648
 10
-265.2454935691752
 20
-42.53228353660648
 42
0.4142135623730847
 10
-265.2434935691752
 20
-42.53028353660647
 10
-265.2434935691752
 20
-42.51681234902132
  0
ENDBLK
  5
C25
330
C1F
100
AcDbEntity
  8
0
100
AcDbBlockEnd
  0
BLOCK
  5
16B2
330
16A7
100
AcDbEntity
  8
0
100
AcDbBlockBegin
  2
*D12
 70
     1
 10
0.0
 20
0.0
 30
0.0
  3
*D12
  1

  0
LINE
  5
566A
330
16A7
100
AcDbEntity
  8
Dimensione
 62
     5
370
    -2
100
AcDbLine
 10
0.323358211999197
 20
0.1980546693591287
 30
0.0
 11
0.3609649652019697
 21
0.1980546693591287
 31
0.0
  0
LINE
  5
566B
330
16A7
100
AcDbEntity
  8
Dimensione
 62
     5
370
    -2
100
AcDbLine
 10
0.3213944906188239
 20
0.0980041599629516
 30
0.0
 11
0.3609649652019697
 21
0.0980041599629516
 31
0.0
  0
LINE
  5
566C
330
16A7
100
AcDbEntity
  8
Dimensione
 62
     5
370
    -2
100
AcDbLine
 10
0.3607849652019697
 20
0.1980546693591287
 30
0.0
 11
0.3607849652019697
 21
0.1515294146610401
 31
0.0
  0
LINE
  5
566D
330
16A7
100
AcDbEntity
  8
Dimensione
 62
     5
370
    -2
100
AcDbLine
 10
0.3607849652019697
 20
0.0980041599629516
 30
0.0
 11
0.3607849652019697
 21
0.1445294146610401
 31
0.0
  0
INSERT
  5
566E
330
16A7
100
AcDbEntity
  8
Dimensione
 62
     5
370
    -2
100
AcDbBlockReference
  2
_ArchTick
 10
0.3607849652019697
 20
0.1980546693591287
 30
0.0
 41
0.0015
 42
0.0015
 43
0.0015
 50
90.0
  0
INSERT
  5
566F
330
16A7
100
AcDbEntity
  8
Dimensione
 62
     5
370
    -2
100
AcDbBlockReference
  2
_ArchTick
 10
0.3607849652019697
 20
0.0980041599629516
 30
0.0
 41
0.0015
 42
0.0015
 43
0.0015
 50
270.0
  0
MTEXT
  5
5670
330
16A7
100
AcDbEntity
  8
Dimensione
 62
     4
100
AcDbMText
 10
0.3607849652019697
 20
0.1480294146610402
 30
0.0
 40
0.003
 41
0.0
 71
     5
 72
     1
  1
\A1;200 mm
  7
ROMANS
 73
     1
 44
1.0
  0
POINT
  5
5671
330
16A7
100
AcDbEntity
  8
Defpoints
 62
     0
100
AcDbPoint
 10
0.323295711999197
 20
0.1980546693591287
 30
0.0
  0
POINT
  5
5672
330
16A7
100
AcDbEntity
  8
Defpoints
 62
     0
100
AcDbPoint
 10
0.3213319906188239
 20
0.0980041599629516
 30
0.0
  0
POINT
  5
5673
330
16A7
100
AcDbEntity
  8
Defpoints
 62
     0
100
AcDbPoint
 10
0.3607849652019697
 20
0.0980041599629516
 30
0.0
  0
ENDBLK
  5
16B3
330
16A7
100
AcDbEntity
  8
0
100
AcDbBlockEnd
  0
BLOCK
  5
16CC
330
16C1
100
AcDbEntity
  8
0
100
AcDbBlockBegin
  2
*D13
 70
     1
 10
0.0
 20
0.0
 30
0.0
  3
*D13
  1

  0
LINE
  5
5660
330
16C1
100
AcDbEntity
  8
Dimensione
 62
     5
370
    -2
100
AcDbLine
 10
0.2255073242482861
 20
0.1969038376400083
 30
0.0
 11
0.2255073242482861
 21
0.2333923006630683
 31
0.0
  0
LINE
  5
5661
330
16C1
100
AcDbEntity
  8
Dimensione
 62
     5
370
    -2
100
AcDbLine
 10
0.328208880027194
 20
0.1938759356675555
 30
0.0
 11
0.328208880027194
 21
0.2333923006630683
 31
0.0
  0
LINE
  5
5662
330
16C1
100
AcDbEntity
  8
Dimensione
 62
     5
370
    -2
100
AcDbLine
 10
0.2255073242482861
 20
0.2332123006630683
 30
0.0
 11
0.2652866735663115
 21
0.2332123006630683
 31
0.0
  0
LINE
  5
5663
330
16C1
100
AcDbEntity
  8
Dimensione
 62
     5
370
    -2
100
AcDbLine
 10
0.328208880027194
 20
0.2332123006630683
 30
0.0
 11
0.2884295307091686
 21
0.2332123006630683
 31
0.0
  0
INSERT
  5
5664
330
16C1
100
AcDbEntity
  8
Dimensione
 62
     5
370
    -2
100
AcDbBlockReference
  2
_ArchTick
 10
0.2255073242482861
 20
0.2332123006630683
 30
0.0
 41
0.0015
 42
0.0015
 43
0.0015
 50
180.0
  0
INSERT
  5
5665
330
16C1
100
AcDbEntity
  8
Dimensione
 62
     5
370
    -2
100
AcDbBlockReference
  2
_ArchTick
 10
0.328208880027194
 20
0.2332123006630683
 30
0.0
 41
0.0015
 42
0.0015
 43
0.0015
  0
MTEXT
  5
5666
330
16C1
100
AcDbEntity
  8
Dimensione
 62
     4
100
AcDbMText
 10
0.27685810213774
 20
0.2332123006630683
 30
0.0
 40
0.003
 41
0.0
 71
     5
 72
     1
  1
\A1;200 mm
  7
ROMANS
 73
     1
 44
1.0
  0
POINT
  5
5667
330
16C1
100
AcDbEntity
  8
Defpoints
 62
     0
100
AcDbPoint
 10
0.2255073242482861
 20
0.1968413376400083
 30
0.0
  0
POINT
  5
5668
330
16C1
100
AcDbEntity
  8
Defpoints
 62
     0
100
AcDbPoint
 10
0.328208880027194
 20
0.1938134356675555
 30
0.0
  0
POINT
  5
5669
330
16C1
100
AcDbEntity
  8
Defpoints
 62
     0
100
AcDbPoint
 10
0.328208880027194
 20
0.2332123006630683
 30
0.0
  0
ENDBLK
  5
16CD
330
16C1
100
AcDbEntity
  8
0
100
AcDbBlockEnd
  0
BLOCK
  5
56A9
330
569E
100
AcDbEntity
  8
0
 62
     1
100
AcDbBlockBegin
  2
*D18
 70
     1
 10
0.0
 20
0.0
 30
0.0
  3
*D18
  1

  0
LINE
  5
56B7
330
569E
100
AcDbEntity
  8
Dimensione
 62
     5
370
    -2
100
AcDbLine
 10
0.1079667759846128
 20
0.1479080938843439
 30
0.0
 11
0.1414276383849857
 21
0.1479080938843439
 31
0.0
  0
LINE
  5
56B8
330
569E
100
AcDbEntity
  8
Dimensione
 62
     5
370
    -2
100
AcDbLine
 10
0.1079667759846285
 20
0.1859080938843549
 30
0.0
 11
0.1414276383849857
 21
0.1859080938843549
 31
0.0
  0
LINE
  5
56B9
330
569E
100
AcDbEntity
  8
Dimensione
 62
     5
370
    -2
100
AcDbLine
 10
0.1412476383849858
 20
0.1479080938843439
 30
0.0
 11
0.1412476383849858
 21
0.1634080938843494
 31
0.0
  0
LINE
  5
56BA
330
569E
100
AcDbEntity
  8
Dimensione
 62
     5
370
    -2
100
AcDbLine
 10
0.1412476383849858
 20
0.1859080938843549
 30
0.0
 11
0.1412476383849858
 21
0.1704080938843494
 31
0.0
  0
INSERT
  5
56BB
330
569E
100
AcDbEntity
  8
Dimensione
 62
     5
370
    -2
100
AcDbBlockReference
  2
_ArchTick
 10
0.1412476383849858
 20
0.1479080938843439
 30
0.0
 41
0.0015
 42
0.0015
 43
0.0015
 50
270.0
  0
INSERT
  5
56BC
330
569E
100
AcDbEntity
  8
Dimensione
 62
     5
370
    -2
100
AcDbBlockReference
  2
_ArchTick
 10
0.1412476383849858
 20
0.1859080938843549
 30
0.0
 41
0.0015
 42
0.0015
 43
0.0015
 50
90.0
  0
MTEXT
  5
56BD
330
569E
100
AcDbEntity
  8
Dimensione
 62
     4
100
AcDbMText
 10
0.1412476383849857
 20
0.1669080938843494
 30
0.0
 40
0.003
 41
0.0
 71
     5
 72
     1
  1
\A1;70 mm
  7
ROMANS
 73
     1
 44
1.0
  0
POINT
  5
56BE
330
569E
100
AcDbEntity
  8
Defpoints
 62
     0
100
AcDbPoint
 10
0.1079042759846128
 20
0.1479080938843439
 30
0.0
  0
POINT
  5
56BF
330
569E
100
AcDbEntity
  8
Defpoints
 62
     0
100
AcDbPoint
 10
0.1079042759846285
 20
0.1859080938843549
 30
0.0
  0
POINT
  5
56C0
330
569E
100
AcDbEntity
  8
Defpoints
 62
     0
100
AcDbPoint
 10
0.1412476383849858
 20
0.1859080938843549
 30
0.0
  0
ENDBLK
  5
56AA
330
569E
100
AcDbEntity
  8
0
 62
     1
100
AcDbBlockEnd
  0
BLOCK
  5
56B5
330
56AB
100
AcDbEntity
  8
0
 62
     1
100
AcDbBlockBegin
  2
*D19
 70
     1
 10
0.0
 20
0.0
 30
0.0
  3
*D19
  1

  0
LINE
  5
56C1
330
56AB
100
AcDbEntity
  8
Dimensione
 62
     5
370
    -2
100
AcDbLine
 10
0.1020281257913885
 20
0.1488263446623344
 30
0.0
 11
0.1020281257913885
 21
0.1177362170154844
 31
0.0
  0
LINE
  5
56C2
330
56AB
100
AcDbEntity
  8
Dimensione
 62
     5
370
    -2
100
AcDbLine
 10
0.1176992266088244
 20
0.1668455938843494
 30
0.0
 11
0.1176992266088244
 21
0.1177362170154844
 31
0.0
  0
LINE
  5
56C3
330
56AB
100
AcDbEntity
  8
Dimensione
 62
     5
370
    -2
100
AcDbLine
 10
0.1020281257913885
 20
0.1179162170154844
 30
0.0
 11
0.1176992266088244
 21
0.1179162170154844
 31
0.0
  0
MTEXT
  5
56C4
330
56AB
100
AcDbEntity
  8
Dimensione
 62
     4
100
AcDbMText
 10
0.1098636762001065
 20
0.1107362170154844
 30
0.0
 40
0.003
 41
0.0
 71
     5
 72
     1
  1
\A1;14 mm
  7
ROMANS
 73
     1
 44
1.0
  0
INSERT
  5
56C5
330
56AB
100
AcDbEntity
  8
Dimensione
 62
     5
370
    -2
100
AcDbBlockReference
  2
_ArchTick
 10
0.1020281257913885
 20
0.1179162170154844
 30
0.0
 41
0.0015
 42
0.0015
 43
0.0015
 50
180.0
  0
INSERT
  5
56C6
330
56AB
100
AcDbEntity
  8
Dimensione
 62
     5
370
    -2
100
AcDbBlockReference
  2
_ArchTick
 10
0.1176992266088244
 20
0.1179162170154844
 30
0.0
 41
0.0015
 42
0.0015
 43
0.0015
  0
POINT
  5
56C7
330
56AB
100
AcDbEntity
  8
Defpoints
 62
     0
100
AcDbPoint
 10
0.1020281257913885
 20
0.1488888446623344
 30
0.0
  0
POINT
  5
56C8
330
56AB
100
AcDbEntity
  8
Defpoints
 62
     0
100
AcDbPoint
 10
0.1176992266088244
 20
0.1669080938843493
 30
0.0
  0
POINT
  5
56C9
330
56AB
100
AcDbEntity
  8
Defpoints
 62
     0
100
AcDbPoint
 10
0.1176992266088244
 20
0.1179162170154844
 30
0.0
  0
ENDBLK
  5
56B6
330
56AB
100
AcDbEntity
  8
0
 62
     1
100
AcDbBlockEnd
  0
BLOCK
  5
56DA
330
56D9
100
AcDbEntity
  8
0
 62
     2
100
AcDbBlockBegin
  2
*D20
 70
     1
 10
0.0
 20
0.0
 30
0.0
  3
*D20
  1

  0
LINE
  5
56DB
330
56D9
100
AcDbEntity
  8
Dimensione
 62
     5
370
    -2
100
AcDbLine
 10
0.1111698347284262
 20
0.1268632126155279
 30
0.0
 11
0.1426552131786509
 21
0.1268632126155279
 31
0.0
  0
LINE
  5
56DC
330
56D9
100
AcDbEntity
  8
Dimensione
 62
     5
370
    -2
100
AcDbLine
 10
0.1081052023126557
 20
0.1968447876277349
 30
0.0
 11
0.142655213178651
 21
0.1968447876277349
 31
0.0
  0
LINE
  5
56DD
330
56D9
100
AcDbEntity
  8
Dimensione
 62
     5
370
    -2
100
AcDbLine
 10
0.142475213178651
 20
0.1268632126155279
 30
0.0
 11
0.142475213178651
 21
0.1583540001216314
 31
0.0
  0
LINE
  5
56DE
330
56D9
100
AcDbEntity
  8
Dimensione
 62
     5
370
    -2
100
AcDbLine
 10
0.142475213178651
 20
0.1968447876277349
 30
0.0
 11
0.142475213178651
 21
0.1653540001216314
 31
0.0
  0
INSERT
  5
56DF
330
56D9
100
AcDbEntity
  8
Dimensione
 62
     5
370
    -2
100
AcDbBlockReference
  2
_ArchTick
 10
0.142475213178651
 20
0.1268632126155279
 30
0.0
 41
0.0015
 42
0.0015
 43
0.0015
 50
270.0
  0
INSERT
  5
56E0
330
56D9
100
AcDbEntity
  8
Dimensione
 62
     5
370
    -2
100
AcDbBlockReference
  2
_ArchTick
 10
0.142475213178651
 20
0.1968447876277349
 30
0.0
 41
0.0015
 42
0.0015
 43
0.0015
 50
90.0
  0
MTEXT
  5
56E1
330
56D9
100
AcDbEntity
  8
Dimensione
 62
     4
100
AcDbMText
 10
0.1424752131786509
 20
0.1618540001216314
 30
0.0
 40
0.003
 41
0.0
 71
     5
 72
     1
  1
\A1;70 mm
  7
ROMANS
 73
     1
 44
1.0
  0
POINT
  5
56E2
330
56D9
100
AcDbEntity
  8
Defpoints
 62
     0
100
AcDbPoint
 10
0.1111073347284262
 20
0.1268632126155279
 30
0.4817307591438295
  0
POINT
  5
56E3
330
56D9
100
AcDbEntity
  8
Defpoints
 62
     0
100
AcDbPoint
 10
0.1080427023126557
 20
0.1968447876277349
 30
0.4817307591438295
  0
POINT
  5
56E4
330
56D9
100
AcDbEntity
  8
Defpoints
 62
     0
100
AcDbPoint
 10
0.142475213178651
 20
0.1968447876277349
 30
0.0
  0
ENDBLK
  5
56E5
330
56D9
100
AcDbEntity
  8
0
 62
     2
100
AcDbBlockEnd
  0
BLOCK
  5
56E7
330
56E6
100
AcDbEntity
  8
0
 62
     2
100
AcDbBlockBegin
  2
*D21
 70
     1
 10
0.0
 20
0.0
 30
0.0
  3
*D21
  1

  0
LINE
  5
56E8
330
56E6
100
AcDbEntity
  8
Dimensione
 62
     5
370
    -2
100
AcDbLine
 10
0.1042628141595795
 20
0.1268007126155279
 30
0.0
 11
0.1042628141595795
 21
0.1130086974320959
 31
0.0
  0
LINE
  5
56E9
330
56E6
100
AcDbEntity
  8
Dimensione
 62
     5
370
    -2
100
AcDbLine
 10
0.1172170492364838
 20
0.1382555332484625
 30
0.0
 11
0.1172170492364838
 21
0.1130086974320959
 31
0.0
  0
LINE
  5
56EA
330
56E6
100
AcDbEntity
  8
Dimensione
 62
     5
370
    -2
100
AcDbLine
 10
0.1042628141595795
 20
0.1131886974320959
 30
0.0
 11
0.1172170492364838
 21
0.1131886974320959
 31
0.0
  0
MTEXT
  5
56EB
330
56E6
100
AcDbEntity
  8
Dimensione
 62
     4
100
AcDbMText
 10
0.1107399316980316
 20
0.1060086974320959
 30
0.0
 40
0.003
 41
0.0
 71
     5
 72
     1
  1
\A1;14 mm
  7
ROMANS
 73
     1
 44
1.0
  0
INSERT
  5
56EC
330
56E6
100
AcDbEntity
  8
Dimensione
 62
     5
370
    -2
100
AcDbBlockReference
  2
_ArchTick
 10
0.1042628141595795
 20
0.1131886974320959
 30
0.0
 41
0.0015
 42
0.0015
 43
0.0015
 50
180.0
  0
INSERT
  5
56ED
330
56E6
100
AcDbEntity
  8
Dimensione
 62
     5
370
    -2
100
AcDbBlockReference
  2
_ArchTick
 10
0.1172170492364838
 20
0.1131886974320959
 30
0.0
 41
0.0015
 42
0.0015
 43
0.0015
  0
POINT
  5
56EE
330
56E6
100
AcDbEntity
  8
Defpoints
 62
     0
100
AcDbPoint
 10
0.1042628141595795
 20
0.1268632126155279
 30
0.4817307591438295
  0
POINT
  5
56EF
330
56E6
100
AcDbEntity
  8
Defpoints
 62
     0
100
AcDbPoint
 10
0.1172170492364838
 20
0.1383180332484625
 30
0.4817307591438295
  0
POINT
  5
56F0
330
56E6
100
AcDbEntity
  8
Defpoints
 62
     0
100
AcDbPoint
 10
0.1172170492364838
 20
0.1131886974320959
 30
0.0
  0
ENDBLK
  5
56F1
330
56E6
100
AcDbEntity
  8
0
 62
     2
100
AcDbBlockEnd
  0
BLOCK
  5
57F9
330
56F3
100
AcDbEntity
  8
0
 62
     1
100
AcDbBlockBegin
  2
A$C560330C9
 70
     0
 10
0.0
 20
0.0
 30
0.0
  3
A$C560330C9
  1

  0
HATCH
  5
56F4
330
56F3
100
AcDbEntity
  8
Sezione
100
AcDbHatch
 10
0.0
 20
0.0
 30
0.0
210
0.0
220
0.0
230
1.0
  2
ANSI31
 70
     0
 71
     0
 91
        1
 92
        7
 72
     0
 73
     1
 93
        4
 10
0.0330506528353717
 20
0.1143528444410372
 10
-0.0000000002166721
 20
0.1143528444410372
 10
-0.0000000002166721
 20
0.0015882802059018
 10
0.0330506528353717
 20
0.0015882802059018
 97
        0
 75
     0
 76
     1
 52
0.0
 41
0.002
 77
     0
 78
     1
 53
45.0
 43
-0.059332275684013
 44
-0.1129233493450733
 45
-0.0044901280605346
 46
0.0044901280605346
 79
     0
 47
0.0003176462656032
 98
        1
 10
0.0152541263912135
 20
0.0314471421438264
1001
ACAD
1010
0.0
1020
0.0
1030
0.0
  0
LINE
  5
56F5
330
56F3
100
AcDbEntity
  8
Sezione
100
AcDbLine
 10
0.0330506528353717
 20
-0.0000000002299948
 30
0.0
 11
0.0330506528353717
 21
0.1181645765729166
 31
0.0
  0
DIMENSION
  5
56F6
330
56F3
100
AcDbEntity
  8
Dimensione
 62
     6
100
AcDbDimension
  2
*D20
 10
0.0725256592059453
 20
0.0937747240723358
 30
0.0
 11
0.0725256592059452
 21
0.0587839365662323
 31
0.0
 12
-0.0699495539727058
 22
-0.1030700635553992
 32
0.0
  1
70 mm
 71
     5
 42
0.069981575012207
  3
Bovelacci
100
AcDbAlignedDimension
 13
0.0411577807557205
 23
0.0237931490601288
 33
0.4817307591438295
 14
0.03809314833995
 24
0.0937747240723358
 34
0.4817307591438295
 50
90.0
100
AcDbRotatedDimension
  0
DIMENSION
  5
56F7
330
56F3
100
AcDbEntity
  8
Dimensione
 62
     6
100
AcDbDimension
  2
*D21
 10
0.047267495263778
 20
0.0101186338766968
 30
0.0
 11
0.0407903777253259
 21
0.0029386338766968
 31
0.0
 12
-0.0699495539727058
 22
-0.1030700635553992
 32
0.0
  1
14 mm
 71
     5
 42
0.0129542350769043
  3
Bovelacci
100
AcDbAlignedDimension
 13
0.0343132601868737
 23
0.0237931490601288
 33
0.4817307591438295
 14
0.047267495263778
 24
0.0352479696930633
 34
0.4817307591438295
100
AcDbRotatedDimension
  0
POLYLINE
  5
56F8
330
56F3
100
AcDbEntity
  8
Brisckstyl
 62
     1
100
AcDb2dPolyline
 66
     1
 10
0.0
 20
0.0
 30
0.4817307591438295
 70
     1
  0
VERTEX
  5
56F9
330
56F8
100
AcDbEntity
  8
Brisckstyl
 62
     1
100
AcDbVertex
100
AcDb2dVertex
 10
0.03809314833995
 20
0.0937747240723358
 30
0.4817307591438295
  0
VERTEX
  5
56FA
330
56F8
100
AcDbEntity
  8
Brisckstyl
 62
     1
100
AcDbVertex
100
AcDb2dVertex
 10
0.0335980044495682
 20
0.0937747240723358
 30
0.4817307591438295
  0
VERTEX
  5
56FB
330
56F8
100
AcDbEntity
  8
Brisckstyl
 62
     1
100
AcDbVertex
100
AcDb2dVertex
 10
0.0335980044495682
 20
0.0827411890686737
 30
0.4817307591438295
  0
VERTEX
  5
56FC
330
56F8
100
AcDbEntity
  8
Brisckstyl
 62
     1
100
AcDbVertex
100
AcDb2dVertex
 10
0.0357347117554764
 20
0.0806001902283417
 30
0.4817307591438295
  0
VERTEX
  5
56FD
330
56F8
100
AcDbEntity
  8
Brisckstyl
 62
     1
100
AcDbVertex
100
AcDb2dVertex
 10
0.0367146121155847
 20
0.0795392275513397
 30
0.4817307591438295
  0
VERTEX
  5
56FE
330
56F8
100
AcDbEntity
  8
Brisckstyl
 62
     1
100
AcDbVertex
100
AcDb2dVertex
 10
0.037588654626571
 20
0.07848827845466
 30
0.4817307591438295
  0
VERTEX
  5
56FF
330
56F8
100
AcDbEntity
  8
Brisckstyl
 62
     1
100
AcDbVertex
100
AcDb2dVertex
 10
0.0379748927247156
 20
0.0779685259522186
 30
0.4817307591438295
  0
VERTEX
  5
5700
330
56F8
100
AcDbEntity
  8
Brisckstyl
 62
     1
100
AcDbVertex
100
AcDb2dVertex
 10
0.0383215533387283
 20
0.0774521113098846
 30
0.4817307591438295
  0
VERTEX
  5
5701
330
56F8
100
AcDbEntity
  8
Brisckstyl
 62
     1
100
AcDbVertex
100
AcDb2dVertex
 10
0.03862386809703
 20
0.0769404650391327
 30
0.4817307591438295
  0
VERTEX
  5
5702
330
56F8
100
AcDbEntity
  8
Brisckstyl
 62
     1
100
AcDbVertex
100
AcDb2dVertex
 10
0.038757382501326
 20
0.0766867876709686
 30
0.4817307591438295
  0
VERTEX
  5
5703
330
56F8
100
AcDbEntity
  8
Brisckstyl
 62
     1
100
AcDbVertex
100
AcDb2dVertex
 10
0.0388775454651932
 20
0.0764340639771209
 30
0.4817307591438295
  0
VERTEX
  5
5704
330
56F8
100
AcDbEntity
  8
Brisckstyl
 62
     1
100
AcDbVertex
100
AcDb2dVertex
 10
0.0389853106629471
 20
0.0761827707947479
 30
0.4817307591438295
  0
VERTEX
  5
5705
330
56F8
100
AcDbEntity
  8
Brisckstyl
 62
     1
100
AcDbVertex
100
AcDb2dVertex
 10
0.0390787707459558
 20
0.0759329081238503
 30
0.4817307591438295
  0
VERTEX
  5
5706
330
56F8
100
AcDbEntity
  8
Brisckstyl
 62
     1
100
AcDbVertex
100
AcDb2dVertex
 10
0.0391579257142175
 20
0.0756844759644256
 30
0.4817307591438295
  0
VERTEX
  5
5707
330
56F8
100
AcDbEntity
  8
Brisckstyl
 62
     1
100
AcDbVertex
100
AcDb2dVertex
 10
0.0392218218934158
 20
0.0754374743164764
 30
0.4817307591438295
  0
VERTEX
  5
5708
330
56F8
100
AcDbEntity
  8
Brisckstyl
 62
     1
100
AcDbVertex
100
AcDb2dVertex
 10
0.0392709361207108
 20
0.0751919031800018
 30
0.4817307591438295
  0
VERTEX
  5
5709
330
56F8
100
AcDbEntity
  8
Brisckstyl
 62
     1
100
AcDbVertex
100
AcDb2dVertex
 10
0.0393038378846268
 20
0.07494823939216
 30
0.4817307591438295
  0
VERTEX
  5
570A
330
56F8
100
AcDbEntity
  8
Brisckstyl
 62
     1
100
AcDbVertex
100
AcDb2dVertex
 10
0.0393200503480057
 20
0.0747060061157928
 30
0.4817307591438295
  0
VERTEX
  5
570B
330
56F8
100
AcDbEntity
  8
Brisckstyl
 62
     1
100
AcDbVertex
100
AcDb2dVertex
 10
0.0393214808594812
 20
0.0745858431519256
 30
0.4817307591438295
  0
VERTEX
  5
570C
330
56F8
100
AcDbEntity
  8
Brisckstyl
 62
     1
100
AcDbVertex
100
AcDb2dVertex
 10
0.0393190966736893
 20
0.0744656801880584
 30
0.4817307591438295
  0
VERTEX
  5
570D
330
56F8
100
AcDbEntity
  8
Brisckstyl
 62
     1
100
AcDbVertex
100
AcDb2dVertex
 10
0.039175568689071
 20
0.0722054720581756
 30
0.4817307591438295
  0
VERTEX
  5
570E
330
56F8
100
AcDbEntity
  8
Brisckstyl
 62
     1
100
AcDbVertex
100
AcDb2dVertex
 10
0.0390425311219315
 20
0.0709242106140838
 30
0.4817307591438295
  0
VERTEX
  5
570F
330
56F8
100
AcDbEntity
  8
Brisckstyl
 62
     1
100
AcDbVertex
100
AcDb2dVertex
 10
0.0388594256531815
 20
0.0696386576355691
 30
0.4817307591438295
  0
VERTEX
  5
5710
330
56F8
100
AcDbEntity
  8
Brisckstyl
 62
     1
100
AcDbVertex
100
AcDb2dVertex
 10
0.0386186228882898
 20
0.068419861859201
 30
0.4817307591438295
  0
VERTEX
  5
5711
330
56F8
100
AcDbEntity
  8
Brisckstyl
 62
     1
100
AcDbVertex
100
AcDb2dVertex
 10
0.0384746180665124
 20
0.0678581476868377
 30
0.4817307591438295
  0
VERTEX
  5
5712
330
56F8
100
AcDbEntity
  8
Brisckstyl
 62
     1
100
AcDbVertex
100
AcDb2dVertex
 10
0.0383134471070398
 20
0.0673398256958709
 30
0.4817307591438295
  0
VERTEX
  5
5713
330
56F8
100
AcDbEntity
  8
Brisckstyl
 62
     1
100
AcDbVertex
100
AcDb2dVertex
 10
0.0382261859070886
 20
0.0670999766052948
 30
0.4817307591438295
  0
VERTEX
  5
5714
330
56F8
100
AcDbEntity
  8
Brisckstyl
 62
     1
100
AcDbVertex
100
AcDb2dVertex
 10
0.0381341563355572
 20
0.0668744326294647
 30
0.4817307591438295
  0
VERTEX
  5
5715
330
56F8
100
AcDbEntity
  8
Brisckstyl
 62
     1
100
AcDbVertex
100
AcDb2dVertex
 10
0.0380378352295975
 20
0.0666646242798553
 30
0.4817307591438295
  0
VERTEX
  5
5716
330
56F8
100
AcDbEntity
  8
Brisckstyl
 62
     1
100
AcDbVertex
100
AcDb2dVertex
 10
0.0379362689149011
 20
0.0664710283936249
 30
0.4817307591438295
  0
VERTEX
  5
5717
330
56F8
100
AcDbEntity
  8
Brisckstyl
 62
     1
100
AcDbVertex
100
AcDb2dVertex
 10
0.0378299342286209
 20
0.0662950754822479
 30
0.4817307591438295
  0
VERTEX
  5
5718
330
56F8
100
AcDbEntity
  8
Brisckstyl
 62
     1
100
AcDbVertex
100
AcDb2dVertex
 10
0.0377750979554285
 20
0.0662140131653534
 30
0.4817307591438295
  0
VERTEX
  5
5719
330
56F8
100
AcDbEntity
  8
Brisckstyl
 62
     1
100
AcDbVertex
100
AcDb2dVertex
 10
0.0377183543336014
 20
0.0661377192200409
 30
0.4817307591438295
  0
VERTEX
  5
571A
330
56F8
100
AcDbEntity
  8
Brisckstyl
 62
     1
100
AcDbVertex
100
AcDb2dVertex
 10
0.037661133874617
 20
0.0660666704834686
 30
0.4817307591438295
  0
VERTEX
  5
571B
330
56F8
100
AcDbEntity
  8
Brisckstyl
 62
     1
100
AcDbVertex
100
AcDb2dVertex
 10
0.0376020060670007
 20
0.0660003901184784
 30
0.4817307591438295
  0
VERTEX
  5
571C
330
56F8
100
AcDbEntity
  8
Brisckstyl
 62
     1
100
AcDbVertex
100
AcDb2dVertex
 10
0.0375419245850662
 20
0.0659393549622284
 30
0.4817307591438295
  0
VERTEX
  5
571D
330
56F8
100
AcDbEntity
  8
Brisckstyl
 62
     1
100
AcDbVertex
100
AcDb2dVertex
 10
0.037480412591658
 20
0.0658840418518768
 30
0.4817307591438295
  0
VERTEX
  5
571E
330
56F8
100
AcDbEntity
  8
Brisckstyl
 62
     1
100
AcDbVertex
100
AcDb2dVertex
 10
0.0372210131775955
 20
0.0656489611328827
 30
0.4817307591438295
  0
VERTEX
  5
571F
330
56F8
100
AcDbEntity
  8
Brisckstyl
 62
     1
100
AcDbVertex
100
AcDb2dVertex
 10
0.036945401300155
 20
0.0653690577210183
 30
0.4817307591438295
  0
VERTEX
  5
5720
330
56F8
100
AcDbEntity
  8
Brisckstyl
 62
     1
100
AcDbVertex
100
AcDb2dVertex
 10
0.0366578684937585
 20
0.0650486231507049
 30
0.4817307591438295
  0
VERTEX
  5
5721
330
56F8
100
AcDbEntity
  8
Brisckstyl
 62
     1
100
AcDbVertex
100
AcDb2dVertex
 10
0.0363627062928308
 20
0.0646933794678436
 30
0.4817307591438295
  0
VERTEX
  5
5722
330
56F8
100
AcDbEntity
  8
Brisckstyl
 62
     1
100
AcDbVertex
100
AcDb2dVertex
 10
0.0357704745423425
 20
0.0638980150879608
 30
0.4817307591438295
  0
VERTEX
  5
5723
330
56F8
100
AcDbEntity
  8
Brisckstyl
 62
     1
100
AcDbVertex
100
AcDb2dVertex
 10
0.0352068530213455
 20
0.0630234957398171
 30
0.4817307591438295
  0
VERTEX
  5
5724
330
56F8
100
AcDbEntity
  8
Brisckstyl
 62
     1
100
AcDbVertex
100
AcDb2dVertex
 10
0.0349479304444412
 20
0.0625695467652069
 30
0.4817307591438295
  0
VERTEX
  5
5725
330
56F8
100
AcDbEntity
  8
Brisckstyl
 62
     1
100
AcDbVertex
100
AcDb2dVertex
 10
0.0347104655396561
 20
0.0621108294190155
 30
0.4817307591438295
  0
VERTEX
  5
5726
330
56F8
100
AcDbEntity
  8
Brisckstyl
 62
     1
100
AcDbVertex
100
AcDb2dVertex
 10
0.0344997035157312
 20
0.0616530657471405
 30
0.4817307591438295
  0
VERTEX
  5
5727
330
56F8
100
AcDbEntity
  8
Brisckstyl
 62
     1
100
AcDbVertex
100
AcDb2dVertex
 10
0.0343194590699322
 20
0.0612005472840057
 30
0.4817307591438295
  0
VERTEX
  5
5728
330
56F8
100
AcDbEntity
  8
Brisckstyl
 62
     1
100
AcDbVertex
100
AcDb2dVertex
 10
0.0342426882874597
 20
0.0609783411682831
 30
0.4817307591438295
  0
VERTEX
  5
5729
330
56F8
100
AcDbEntity
  8
Brisckstyl
 62
     1
100
AcDbVertex
100
AcDb2dVertex
 10
0.0341754542481522
 20
0.0607589960755096
 30
0.4817307591438295
  0
VERTEX
  5
572A
330
56F8
100
AcDbEntity
  8
Brisckstyl
 62
     1
100
AcDbVertex
100
AcDb2dVertex
 10
0.0341182337891687
 20
0.06054394251716
 30
0.4817307591438295
  0
VERTEX
  5
572B
330
56F8
100
AcDbEntity
  8
Brisckstyl
 62
     1
100
AcDbVertex
100
AcDb2dVertex
 10
0.0340719805848221
 20
0.0603336573303933
 30
0.4817307591438295
  0
VERTEX
  5
572C
330
56F8
100
AcDbEntity
  8
Brisckstyl
 62
     1
100
AcDbVertex
100
AcDb2dVertex
 10
0.0340371714722733
 20
0.0601281405152069
 30
0.4817307591438295
  0
VERTEX
  5
572D
330
56F8
100
AcDbEntity
  8
Brisckstyl
 62
     1
100
AcDbVertex
100
AcDb2dVertex
 10
0.0340142832886822
 20
0.059928822583078
 30
0.4817307591438295
  0
VERTEX
  5
572E
330
56F8
100
AcDbEntity
  8
Brisckstyl
 62
     1
100
AcDbVertex
100
AcDb2dVertex
 10
0.0340037928711999
 20
0.0597357035340057
 30
0.4817307591438295
  0
VERTEX
  5
572F
330
56F8
100
AcDbEntity
  8
Brisckstyl
 62
     1
100
AcDbVertex
100
AcDb2dVertex
 10
0.0340037928711999
 20
0.0596422434509979
 30
0.4817307591438295
  0
VERTEX
  5
5730
330
56F8
100
AcDbEntity
  8
Brisckstyl
 62
     1
100
AcDbVertex
100
AcDb2dVertex
 10
0.0340066538941483
 20
0.0595502138794647
 30
0.4817307591438295
  0
VERTEX
  5
5731
330
56F8
100
AcDbEntity
  8
Brisckstyl
 62
     1
100
AcDbVertex
100
AcDb2dVertex
 10
0.0340352641236413
 20
0.0591758967102752
 30
0.4817307591438295
  0
VERTEX
  5
5732
330
56F8
100
AcDbEntity
  8
Brisckstyl
 62
     1
100
AcDbVertex
100
AcDb2dVertex
 10
0.0340815173279862
 20
0.0587844134033905
 30
0.4817307591438295
  0
VERTEX
  5
5733
330
56F8
100
AcDbEntity
  8
Brisckstyl
 62
     1
100
AcDbVertex
100
AcDb2dVertex
 10
0.0342221842896561
 20
0.057966637677073
 30
0.4817307591438295
  0
VERTEX
  5
5734
330
56F8
100
AcDbEntity
  8
Brisckstyl
 62
     1
100
AcDbVertex
100
AcDb2dVertex
 10
0.0344176875245194
 20
0.0571293116272683
 30
0.4817307591438295
  0
VERTEX
  5
5735
330
56F8
100
AcDbEntity
  8
Brisckstyl
 62
     1
100
AcDbVertex
100
AcDb2dVertex
 10
0.0346580134522546
 20
0.0563062906922088
 30
0.4817307591438295
  0
VERTEX
  5
5736
330
56F8
100
AcDbEntity
  8
Brisckstyl
 62
     1
100
AcDbVertex
100
AcDb2dVertex
 10
0.034931241143905
 20
0.0555314303101288
 30
0.4817307591438295
  0
VERTEX
  5
5737
330
56F8
100
AcDbEntity
  8
Brisckstyl
 62
     1
100
AcDbVertex
100
AcDb2dVertex
 10
0.0350776301514725
 20
0.0551723719300018
 30
0.4817307591438295
  0
VERTEX
  5
5738
330
56F8
100
AcDbEntity
  8
Brisckstyl
 62
     1
100
AcDbVertex
100
AcDb2dVertex
 10
0.0352278338563065
 20
0.0548376322449441
 30
0.4817307591438295
  0
VERTEX
  5
5739
330
56F8
100
AcDbEntity
  8
Brisckstyl
 62
     1
100
AcDbVertex
100
AcDb2dVertex
 10
0.0353808985840906
 20
0.054531979626535
 30
0.4817307591438295
  0
VERTEX
  5
573A
330
56F8
100
AcDbEntity
  8
Brisckstyl
 62
     1
100
AcDbVertex
100
AcDb2dVertex
 10
0.0355358706605057
 20
0.0542592287720428
 30
0.4817307591438295
  0
VERTEX
  5
573B
330
56F8
100
AcDbEntity
  8
Brisckstyl
 62
     1
100
AcDbVertex
100
AcDb2dVertex
 10
0.0356135951172937
 20
0.0541362047852264
 30
0.4817307591438295
  0
VERTEX
  5
573C
330
56F8
100
AcDbEntity
  8
Brisckstyl
 62
     1
100
AcDbVertex
100
AcDb2dVertex
 10
0.0356913195740808
 20
0.0540231943787332
 30
0.4817307591438295
  0
VERTEX
  5
573D
330
56F8
100
AcDbEntity
  8
Brisckstyl
 62
     1
100
AcDbVertex
100
AcDb2dVertex
 10
0.0357685671937097
 20
0.0539206743897186
 30
0.4817307591438295
  0
VERTEX
  5
573E
330
56F8
100
AcDbEntity
  8
Brisckstyl
 62
     1
100
AcDbVertex
100
AcDb2dVertex
 10
0.0358458148133386
 20
0.0538291216553436
 30
0.4817307591438295
  0
VERTEX
  5
573F
330
56F8
100
AcDbEntity
  8
Brisckstyl
 62
     1
100
AcDbVertex
100
AcDb2dVertex
 10
0.0359225855958084
 20
0.0537456751526581
 30
0.4817307591438295
  0
VERTEX
  5
5740
330
56F8
100
AcDbEntity
  8
Brisckstyl
 62
     1
100
AcDbVertex
100
AcDb2dVertex
 10
0.0360007868897546
 20
0.0536674738587127
 30
0.4817307591438295
  0
VERTEX
  5
5741
330
56F8
100
AcDbEntity
  8
Brisckstyl
 62
     1
100
AcDbVertex
100
AcDb2dVertex
 10
0.0361567126404862
 20
0.0535253763855691
 30
0.4817307591438295
  0
VERTEX
  5
5742
330
56F8
100
AcDbEntity
  8
Brisckstyl
 62
     1
100
AcDbVertex
100
AcDb2dVertex
 10
0.036457120050155
 20
0.053278374737619
 30
0.4817307591438295
  0
VERTEX
  5
5743
330
56F8
100
AcDbEntity
  8
Brisckstyl
 62
     1
100
AcDbVertex
100
AcDb2dVertex
 10
0.0365934954774011
 20
0.053163456982492
 30
0.4817307591438295
  0
VERTEX
  5
5744
330
56F8
100
AcDbEntity
  8
Brisckstyl
 62
     1
100
AcDbVertex
100
AcDb2dVertex
 10
0.0366569148194412
 20
0.0531057596863503
 30
0.4817307591438295
  0
VERTEX
  5
5745
330
56F8
100
AcDbEntity
  8
Brisckstyl
 62
     1
100
AcDbVertex
100
AcDb2dVertex
 10
0.0367165194642175
 20
0.0530475855530487
 30
0.4817307591438295
  0
VERTEX
  5
5746
330
56F8
100
AcDbEntity
  8
Brisckstyl
 62
     1
100
AcDbVertex
100
AcDb2dVertex
 10
0.0367713557374109
 20
0.0529879809082733
 30
0.4817307591438295
  0
VERTEX
  5
5747
330
56F8
100
AcDbEntity
  8
Brisckstyl
 62
     1
100
AcDbVertex
100
AcDb2dVertex
 10
0.0368214236390213
 20
0.0529264689148651
 30
0.4817307591438295
  0
VERTEX
  5
5748
330
56F8
100
AcDbEntity
  8
Brisckstyl
 62
     1
100
AcDbVertex
100
AcDb2dVertex
 10
0.0368447886597733
 20
0.0528945208252655
 30
0.4817307591438295
  0
VERTEX
  5
5749
330
56F8
100
AcDbEntity
  8
Brisckstyl
 62
     1
100
AcDbVertex
100
AcDb2dVertex
 10
0.0368662463318924
 20
0.0528620958985077
 30
0.4817307591438295
  0
VERTEX
  5
574A
330
56F8
100
AcDbEntity
  8
Brisckstyl
 62
     1
100
AcDbVertex
100
AcDb2dVertex
 10
0.036886750329696
 20
0.0528287172974334
 30
0.4817307591438295
  0
VERTEX
  5
574B
330
56F8
100
AcDbEntity
  8
Brisckstyl
 62
     1
100
AcDbVertex
100
AcDb2dVertex
 10
0.036905346978866
 20
0.0527943850220428
 30
0.4817307591438295
  0
VERTEX
  5
574C
330
56F8
100
AcDbEntity
  8
Brisckstyl
 62
     1
100
AcDbVertex
100
AcDb2dVertex
 10
0.0369225131165613
 20
0.0527590990723358
 30
0.4817307591438295
  0
VERTEX
  5
574D
330
56F8
100
AcDbEntity
  8
Brisckstyl
 62
     1
100
AcDbVertex
100
AcDb2dVertex
 10
0.0369382487427811
 20
0.0527228594483132
 30
0.4817307591438295
  0
VERTEX
  5
574E
330
56F8
100
AcDbEntity
  8
Brisckstyl
 62
     1
100
AcDbVertex
100
AcDb2dVertex
 10
0.0369520770203699
 20
0.0526856661499734
 30
0.4817307591438295
  0
VERTEX
  5
574F
330
56F8
100
AcDbEntity
  8
Brisckstyl
 62
     1
100
AcDbVertex
100
AcDb2dVertex
 10
0.0369639979493249
 20
0.0526470423401581
 30
0.4817307591438295
  0
VERTEX
  5
5750
330
56F8
100
AcDbEntity
  8
Brisckstyl
 62
     1
100
AcDbVertex
100
AcDb2dVertex
 10
0.0369744883668072
 20
0.052606988018869
 30
0.4817307591438295
  0
VERTEX
  5
5751
330
56F8
100
AcDbEntity
  8
Brisckstyl
 62
     1
100
AcDbVertex
100
AcDb2dVertex
 10
0.0369825945984949
 20
0.0525659800232635
 30
0.4817307591438295
  0
VERTEX
  5
5752
330
56F8
100
AcDbEntity
  8
Brisckstyl
 62
     1
100
AcDbVertex
100
AcDb2dVertex
 10
0.0369892703187097
 20
0.0525230646790252
 30
0.4817307591438295
  0
VERTEX
  5
5753
330
56F8
100
AcDbEntity
  8
Brisckstyl
 62
     1
100
AcDbVertex
100
AcDb2dVertex
 10
0.0369935618531335
 20
0.0524791956604706
 30
0.4817307591438295
  0
VERTEX
  5
5754
330
56F8
100
AcDbEntity
  8
Brisckstyl
 62
     1
100
AcDbVertex
100
AcDb2dVertex
 10
0.0369964228760819
 20
0.0524334192932831
 30
0.4817307591438295
  0
VERTEX
  5
5755
330
56F8
100
AcDbEntity
  8
Brisckstyl
 62
     1
100
AcDbVertex
100
AcDb2dVertex
 10
0.0369964228760819
 20
0.0523857355774627
 30
0.4817307591438295
  0
VERTEX
  5
5756
330
56F8
100
AcDbEntity
  8
Brisckstyl
 62
     1
100
AcDbVertex
100
AcDb2dVertex
 10
0.0369949923646072
 20
0.0523366213501678
 30
0.4817307591438295
  0
VERTEX
  5
5757
330
56F8
100
AcDbEntity
  8
Brisckstyl
 62
     1
100
AcDbVertex
100
AcDb2dVertex
 10
0.0369907008301834
 20
0.0522855997742401
 30
0.4817307591438295
  0
VERTEX
  5
5758
330
56F8
100
AcDbEntity
  8
Brisckstyl
 62
     1
100
AcDbVertex
100
AcDb2dVertex
 10
0.0369845019471268
 20
0.0522326708496795
 30
0.4817307591438295
  0
VERTEX
  5
5759
330
56F8
100
AcDbEntity
  8
Brisckstyl
 62
     1
100
AcDbVertex
100
AcDb2dVertex
 10
0.03697591887828
 20
0.0521778345764871
 30
0.4817307591438295
  0
VERTEX
  5
575A
330
56F8
100
AcDbEntity
  8
Brisckstyl
 62
     1
100
AcDbVertex
100
AcDb2dVertex
 10
0.0369516001832108
 20
0.0520619631470428
 30
0.4817307591438295
  0
VERTEX
  5
575B
330
56F8
100
AcDbEntity
  8
Brisckstyl
 62
     1
100
AcDbVertex
100
AcDb2dVertex
 10
0.036917267907821
 20
0.0519370318115936
 30
0.4817307591438295
  0
VERTEX
  5
575C
330
56F8
100
AcDbEntity
  8
Brisckstyl
 62
     1
100
AcDbVertex
100
AcDb2dVertex
 10
0.0368724452149499
 20
0.0518025637329803
 30
0.4817307591438295
  0
VERTEX
  5
575D
330
56F8
100
AcDbEntity
  8
Brisckstyl
 62
     1
100
AcDbVertex
100
AcDb2dVertex
 10
0.0368166552674393
 20
0.051658558911203
 30
0.4817307591438295
  0
VERTEX
  5
575E
330
56F8
100
AcDbEntity
  8
Brisckstyl
 62
     1
100
AcDbVertex
100
AcDb2dVertex
 10
0.0367489443909744
 20
0.051503586834787
 30
0.4817307591438295
  0
VERTEX
  5
575F
330
56F8
100
AcDbEntity
  8
Brisckstyl
 62
     1
100
AcDbVertex
100
AcDb2dVertex
 10
0.0365782366883386
 20
0.051158833569407
 30
0.4817307591438295
  0
VERTEX
  5
5760
330
56F8
100
AcDbEntity
  8
Brisckstyl
 62
     1
100
AcDbVertex
100
AcDb2dVertex
 10
0.036356030572616
 20
0.0507640124024139
 30
0.4817307591438295
  0
VERTEX
  5
5761
330
56F8
100
AcDbEntity
  8
Brisckstyl
 62
     1
100
AcDbVertex
100
AcDb2dVertex
 10
0.0355501757752518
 20
0.0494136095703827
 30
0.4817307591438295
  0
VERTEX
  5
5762
330
56F8
100
AcDbEntity
  8
Brisckstyl
 62
     1
100
AcDbVertex
100
AcDb2dVertex
 10
0.0352664576661209
 20
0.048914361065744
 30
0.4817307591438295
  0
VERTEX
  5
5763
330
56F8
100
AcDbEntity
  8
Brisckstyl
 62
     1
100
AcDbVertex
100
AcDb2dVertex
 10
0.0350409136902908
 20
0.0484656572998749
 30
0.4817307591438295
  0
VERTEX
  5
5764
330
56F8
100
AcDbEntity
  8
Brisckstyl
 62
     1
100
AcDbVertex
100
AcDb2dVertex
 10
0.0349455462586511
 20
0.0482439280213104
 30
0.4817307591438295
  0
VERTEX
  5
5765
330
56F8
100
AcDbEntity
  8
Brisckstyl
 62
     1
100
AcDbVertex
100
AcDb2dVertex
 10
0.0348587618958572
 20
0.0480164766968484
 30
0.4817307591438295
  0
VERTEX
  5
5766
330
56F8
100
AcDbEntity
  8
Brisckstyl
 62
     1
100
AcDbVertex
100
AcDb2dVertex
 10
0.0347791300904373
 20
0.047776150769114
 30
0.4817307591438295
  0
VERTEX
  5
5767
330
56F8
100
AcDbEntity
  8
Brisckstyl
 62
     1
100
AcDbVertex
100
AcDb2dVertex
 10
0.0347042666565994
 20
0.0475172281922088
 30
0.4817307591438295
  0
VERTEX
  5
5768
330
56F8
100
AcDbEntity
  8
Brisckstyl
 62
     1
100
AcDbVertex
100
AcDb2dVertex
 10
0.0345616923462976
 20
0.0469173670471902
 30
0.4817307591438295
  0
VERTEX
  5
5769
330
56F8
100
AcDbEntity
  8
Brisckstyl
 62
     1
100
AcDbVertex
100
AcDb2dVertex
 10
0.0344153033387283
 20
0.0461668253601785
 30
0.4817307591438295
  0
VERTEX
  5
576A
330
56F8
100
AcDbEntity
  8
Brisckstyl
 62
     1
100
AcDbVertex
100
AcDb2dVertex
 10
0.0343523608338455
 20
0.045761990612864
 30
0.4817307591438295
  0
VERTEX
  5
576B
330
56F8
100
AcDbEntity
  8
Brisckstyl
 62
     1
100
AcDbVertex
100
AcDb2dVertex
 10
0.0343146906983475
 20
0.0453881502808319
 30
0.4817307591438295
  0
VERTEX
  5
576C
330
56F8
100
AcDbEntity
  8
Brisckstyl
 62
     1
100
AcDbVertex
100
AcDb2dVertex
 10
0.034301816095076
 20
0.0450438738526101
 30
0.4817307591438295
  0
VERTEX
  5
576D
330
56F8
100
AcDbEntity
  8
Brisckstyl
 62
     1
100
AcDbVertex
100
AcDb2dVertex
 10
0.0343032466065506
 20
0.0448822260559784
 30
0.4817307591438295
  0
VERTEX
  5
576E
330
56F8
100
AcDbEntity
  8
Brisckstyl
 62
     1
100
AcDbVertex
100
AcDb2dVertex
 10
0.0343108760010819
 20
0.044726777142405
 30
0.4817307591438295
  0
VERTEX
  5
576F
330
56F8
100
AcDbEntity
  8
Brisckstyl
 62
     1
100
AcDbVertex
100
AcDb2dVertex
 10
0.034323273767196
 20
0.0445780039490448
 30
0.4817307591438295
  0
VERTEX
  5
5770
330
56F8
100
AcDbEntity
  8
Brisckstyl
 62
     1
100
AcDbVertex
100
AcDb2dVertex
 10
0.0343404399048913
 20
0.0444349528015838
 30
0.4817307591438295
  0
VERTEX
  5
5771
330
56F8
100
AcDbEntity
  8
Brisckstyl
 62
     1
100
AcDbVertex
100
AcDb2dVertex
 10
0.034362851251326
 20
0.0442981005371795
 30
0.4817307591438295
  0
VERTEX
  5
5772
330
56F8
100
AcDbEntity
  8
Brisckstyl
 62
     1
100
AcDbVertex
100
AcDb2dVertex
 10
0.0343890772950272
 20
0.0441660166443582
 30
0.4817307591438295
  0
VERTEX
  5
5773
330
56F8
100
AcDbEntity
  8
Brisckstyl
 62
     1
100
AcDbVertex
100
AcDb2dVertex
 10
0.0344200717103113
 20
0.0440396547974334
 30
0.4817307591438295
  0
VERTEX
  5
5774
330
56F8
100
AcDbEntity
  8
Brisckstyl
 62
     1
100
AcDbVertex
100
AcDb2dVertex
 10
0.0344553576600174
 20
0.0439185381592499
 30
0.4817307591438295
  0
VERTEX
  5
5775
330
56F8
100
AcDbEntity
  8
Brisckstyl
 62
     1
100
AcDbVertex
100
AcDb2dVertex
 10
0.0344939814698319
 20
0.0438017130554901
 30
0.4817307591438295
  0
VERTEX
  5
5776
330
56F8
100
AcDbEntity
  8
Brisckstyl
 62
     1
100
AcDbVertex
100
AcDb2dVertex
 10
0.0345364199769119
 20
0.043689179486155
 30
0.4817307591438295
  0
VERTEX
  5
5777
330
56F8
100
AcDbEntity
  8
Brisckstyl
 62
     1
100
AcDbVertex
100
AcDb2dVertex
 10
0.0345826731812585
 20
0.0435814142884002
 30
0.4817307591438295
  0
VERTEX
  5
5778
330
56F8
100
AcDbEntity
  8
Brisckstyl
 62
     1
100
AcDbVertex
100
AcDb2dVertex
 10
0.0346317874085535
 20
0.0434769869507538
 30
0.4817307591438295
  0
VERTEX
  5
5779
330
56F8
100
AcDbEntity
  8
Brisckstyl
 62
     1
100
AcDbVertex
100
AcDb2dVertex
 10
0.0346837626587976
 20
0.0433763743103729
 30
0.4817307591438295
  0
VERTEX
  5
577A
330
56F8
100
AcDbEntity
  8
Brisckstyl
 62
     1
100
AcDbVertex
100
AcDb2dVertex
 10
0.0347390757691483
 20
0.0432795763672577
 30
0.4817307591438295
  0
VERTEX
  5
577B
330
56F8
100
AcDbEntity
  8
Brisckstyl
 62
     1
100
AcDbVertex
100
AcDb2dVertex
 10
0.0348563777100662
 20
0.0430945635498749
 30
0.4817307591438295
  0
VERTEX
  5
577C
330
56F8
100
AcDbEntity
  8
Brisckstyl
 62
     1
100
AcDbVertex
100
AcDb2dVertex
 10
0.034982739556991
 20
0.0429200411499734
 30
0.4817307591438295
  0
VERTEX
  5
577D
330
56F8
100
AcDbEntity
  8
Brisckstyl
 62
     1
100
AcDbVertex
100
AcDb2dVertex
 10
0.0351157771241296
 20
0.0427536249817596
 30
0.4817307591438295
  0
VERTEX
  5
577E
330
56F8
100
AcDbEntity
  8
Brisckstyl
 62
     1
100
AcDbVertex
100
AcDb2dVertex
 10
0.0352540599000085
 20
0.0425938845337616
 30
0.4817307591438295
  0
VERTEX
  5
577F
330
56F8
100
AcDbEntity
  8
Brisckstyl
 62
     1
100
AcDbVertex
100
AcDb2dVertex
 10
0.0355387316834558
 20
0.0422844172180877
 30
0.4817307591438295
  0
VERTEX
  5
5780
330
56F8
100
AcDbEntity
  8
Brisckstyl
 62
     1
100
AcDbVertex
100
AcDb2dVertex
 10
0.0353346453797448
 20
0.0367678881348358
 30
0.4817307591438295
  0
VERTEX
  5
5781
330
56F8
100
AcDbEntity
  8
Brisckstyl
 62
     1
100
AcDbVertex
100
AcDb2dVertex
 10
0.0343132601868737
 20
0.0344180346192108
 30
0.4817307591438295
  0
VERTEX
  5
5782
330
56F8
100
AcDbEntity
  8
Brisckstyl
 62
     1
100
AcDbVertex
100
AcDb2dVertex
 10
0.0343132601868737
 20
0.0237931490601288
 30
0.4817307591438295
  0
VERTEX
  5
5783
330
56F8
100
AcDbEntity
  8
Brisckstyl
 62
     1
100
AcDbVertex
100
AcDb2dVertex
 10
0.0411577807557205
 20
0.0237931490601288
 30
0.4817307591438295
  0
VERTEX
  5
5784
330
56F8
100
AcDbEntity
  8
Brisckstyl
 62
     1
100
AcDbVertex
100
AcDb2dVertex
 10
0.0411577807557205
 20
0.0278796435059295
 30
0.4817307591438295
  0
VERTEX
  5
5785
330
56F8
100
AcDbEntity
  8
Brisckstyl
 62
     1
100
AcDbVertex
100
AcDb2dVertex
 10
0.0429273234498123
 20
0.0286196947754608
 30
0.4817307591438295
  0
VERTEX
  5
5786
330
56F8
100
AcDbEntity
  8
Brisckstyl
 62
     1
100
AcDbVertex
100
AcDb2dVertex
 10
0.0437536822449783
 20
0.029012131756662
 30
0.4817307591438295
  0
VERTEX
  5
5787
330
56F8
100
AcDbEntity
  8
Brisckstyl
 62
     1
100
AcDbVertex
100
AcDb2dVertex
 10
0.0441423045289147
 20
0.0292176485718484
 30
0.4817307591438295
  0
VERTEX
  5
5788
330
56F8
100
AcDbEntity
  8
Brisckstyl
 62
     1
100
AcDbVertex
100
AcDb2dVertex
 10
0.0445099459778885
 20
0.0294312716187234
 30
0.4817307591438295
  0
VERTEX
  5
5789
330
56F8
100
AcDbEntity
  8
Brisckstyl
 62
     1
100
AcDbVertex
100
AcDb2dVertex
 10
0.0448546992432693
 20
0.0296539545716034
 30
0.4817307591438295
  0
VERTEX
  5
578A
330
56F8
100
AcDbEntity
  8
Brisckstyl
 62
     1
100
AcDbVertex
100
AcDb2dVertex
 10
0.0451732264649499
 20
0.0298866511048065
 30
0.4817307591438295
  0
VERTEX
  5
578B
330
56F8
100
AcDbEntity
  8
Brisckstyl
 62
     1
100
AcDbVertex
100
AcDb2dVertex
 10
0.0453215228211511
 20
0.0300068140686737
 30
0.4817307591438295
  0
VERTEX
  5
578C
330
56F8
100
AcDbEntity
  8
Brisckstyl
 62
     1
100
AcDbVertex
100
AcDb2dVertex
 10
0.045462189782821
 20
0.0301303148926483
 30
0.4817307591438295
  0
VERTEX
  5
578D
330
56F8
100
AcDbEntity
  8
Brisckstyl
 62
     1
100
AcDbVertex
100
AcDb2dVertex
 10
0.0455947505128006
 20
0.030256676739573
 30
0.4817307591438295
  0
VERTEX
  5
578E
330
56F8
100
AcDbEntity
  8
Brisckstyl
 62
     1
100
AcDbVertex
100
AcDb2dVertex
 10
0.0457192050110925
 20
0.0303863764466034
 30
0.4817307591438295
  0
VERTEX
  5
578F
330
56F8
100
AcDbEntity
  8
Brisckstyl
 62
     1
100
AcDbVertex
100
AcDb2dVertex
 10
0.0458350764405358
 20
0.0305198908509002
 30
0.4817307591438295
  0
VERTEX
  5
5790
330
56F8
100
AcDbEntity
  8
Brisckstyl
 62
     1
100
AcDbVertex
100
AcDb2dVertex
 10
0.0459414111268142
 20
0.0306562662781472
 30
0.4817307591438295
  0
VERTEX
  5
5791
330
56F8
100
AcDbEntity
  8
Brisckstyl
 62
     1
100
AcDbVertex
100
AcDb2dVertex
 10
0.0460382090699321
 20
0.0307964564026581
 30
0.4817307591438295
  0
VERTEX
  5
5792
330
56F8
100
AcDbEntity
  8
Brisckstyl
 62
     1
100
AcDbVertex
100
AcDb2dVertex
 10
0.0461254702698807
 20
0.0309404612244354
 30
0.4817307591438295
  0
VERTEX
  5
5793
330
56F8
100
AcDbEntity
  8
Brisckstyl
 62
     1
100
AcDbVertex
100
AcDb2dVertex
 10
0.0462022410523514
 20
0.0310887575806366
 30
0.4817307591438295
  0
VERTEX
  5
5794
330
56F8
100
AcDbEntity
  8
Brisckstyl
 62
     1
100
AcDbVertex
100
AcDb2dVertex
 10
0.0462685214173425
 20
0.0312408686341034
 30
0.4817307591438295
  0
VERTEX
  5
5795
330
56F8
100
AcDbEntity
  8
Brisckstyl
 62
     1
100
AcDbVertex
100
AcDb2dVertex
 10
0.046297608483992
 20
0.0313181162537332
 30
0.4817307591438295
  0
VERTEX
  5
5796
330
56F8
100
AcDbEntity
  8
Brisckstyl
 62
     1
100
AcDbVertex
100
AcDb2dVertex
 10
0.0463243113648514
 20
0.0313967943848358
 30
0.4817307591438295
  0
VERTEX
  5
5797
330
56F8
100
AcDbEntity
  8
Brisckstyl
 62
     1
100
AcDbVertex
100
AcDb2dVertex
 10
0.0463476763856033
 20
0.0314764261902557
 30
0.4817307591438295
  0
VERTEX
  5
5798
330
56F8
100
AcDbEntity
  8
Brisckstyl
 62
     1
100
AcDbVertex
100
AcDb2dVertex
 10
0.046368180383406
 20
0.0315574885071502
 30
0.4817307591438295
  0
VERTEX
  5
5799
330
56F8
100
AcDbEntity
  8
Brisckstyl
 62
     1
100
AcDbVertex
100
AcDb2dVertex
 10
0.0470576869141687
 20
0.03393261439216
 30
0.4817307591438295
  0
VERTEX
  5
579A
330
56F8
100
AcDbEntity
  8
Brisckstyl
 62
     1
100
AcDbVertex
100
AcDb2dVertex
 10
0.0471306429993737
 20
0.0342702151001678
 30
0.4817307591438295
  0
VERTEX
  5
579B
330
56F8
100
AcDbEntity
  8
Brisckstyl
 62
     1
100
AcDbVertex
100
AcDb2dVertex
 10
0.0471945391785721
 20
0.034634518689035
 30
0.4817307591438295
  0
VERTEX
  5
579C
330
56F8
100
AcDbEntity
  8
Brisckstyl
 62
     1
100
AcDbVertex
100
AcDb2dVertex
 10
0.0472474681031335
 20
0.0350307703675018
 30
0.4817307591438295
  0
VERTEX
  5
579D
330
56F8
100
AcDbEntity
  8
Brisckstyl
 62
     1
100
AcDbVertex
100
AcDb2dVertex
 10
0.0472875224244226
 20
0.0354651690186249
 30
0.4817307591438295
  0
VERTEX
  5
579E
330
56F8
100
AcDbEntity
  8
Brisckstyl
 62
     1
100
AcDbVertex
100
AcDb2dVertex
 10
0.0473137484681237
 20
0.0359424830139871
 30
0.4817307591438295
  0
VERTEX
  5
579F
330
56F8
100
AcDbEntity
  8
Brisckstyl
 62
     1
100
AcDbVertex
100
AcDb2dVertex
 10
0.047323762048446
 20
0.0364684343994851
 30
0.4817307591438295
  0
VERTEX
  5
57A0
330
56F8
100
AcDbEntity
  8
Brisckstyl
 62
     1
100
AcDbVertex
100
AcDb2dVertex
 10
0.0472879992615808
 20
0.0376872301758514
 30
0.4817307591438295
  0
VERTEX
  5
57A1
330
56F8
100
AcDbEntity
  8
Brisckstyl
 62
     1
100
AcDbVertex
100
AcDb2dVertex
 10
0.0471792803895105
 20
0.0389479876221405
 30
0.4817307591438295
  0
VERTEX
  5
57A2
330
56F8
100
AcDbEntity
  8
Brisckstyl
 62
     1
100
AcDbVertex
100
AcDb2dVertex
 10
0.0470133410584558
 20
0.0400547266663299
 30
0.4817307591438295
  0
VERTEX
  5
57A3
330
56F8
100
AcDbEntity
  8
Brisckstyl
 62
     1
100
AcDbVertex
100
AcDb2dVertex
 10
0.0469117747437585
 20
0.040552544659494
 30
0.4817307591438295
  0
VERTEX
  5
57A4
330
56F8
100
AcDbEntity
  8
Brisckstyl
 62
     1
100
AcDbVertex
100
AcDb2dVertex
 10
0.0467992411744226
 20
0.041015076702951
 30
0.4817307591438295
  0
VERTEX
  5
57A5
330
56F8
100
AcDbEntity
  8
Brisckstyl
 62
     1
100
AcDbVertex
100
AcDb2dVertex
 10
0.0466771708619226
 20
0.0414427996338601
 30
0.4817307591438295
  0
VERTEX
  5
57A6
330
56F8
100
AcDbEntity
  8
Brisckstyl
 62
     1
100
AcDbVertex
100
AcDb2dVertex
 10
0.0465469943177323
 20
0.0418376208008514
 30
0.4817307591438295
  0
VERTEX
  5
57A7
330
56F8
100
AcDbEntity
  8
Brisckstyl
 62
     1
100
AcDbVertex
100
AcDb2dVertex
 10
0.0464096652161706
 20
0.0422000170410858
 30
0.4817307591438295
  0
VERTEX
  5
57A8
330
56F8
100
AcDbEntity
  8
Brisckstyl
 62
     1
100
AcDbVertex
100
AcDb2dVertex
 10
0.0462661372315506
 20
0.0425309420288788
 30
0.4817307591438295
  0
VERTEX
  5
57A9
330
56F8
100
AcDbEntity
  8
Brisckstyl
 62
     1
100
AcDbVertex
100
AcDb2dVertex
 10
0.0461178408753494
 20
0.0428318262757049
 30
0.4817307591438295
  0
VERTEX
  5
57AA
330
56F8
100
AcDbEntity
  8
Brisckstyl
 62
     1
100
AcDbVertex
100
AcDb2dVertex
 10
0.0459657298218835
 20
0.0431036234558807
 30
0.4817307591438295
  0
VERTEX
  5
57AB
330
56F8
100
AcDbEntity
  8
Brisckstyl
 62
     1
100
AcDbVertex
100
AcDb2dVertex
 10
0.045811711419783
 20
0.0433468104065652
 30
0.4817307591438295
  0
VERTEX
  5
57AC
330
56F8
100
AcDbEntity
  8
Brisckstyl
 62
     1
100
AcDbVertex
100
AcDb2dVertex
 10
0.0456562625062097
 20
0.0435632944763885
 30
0.4817307591438295
  0
VERTEX
  5
57AD
330
56F8
100
AcDbEntity
  8
Brisckstyl
 62
     1
100
AcDbVertex
100
AcDb2dVertex
 10
0.0455008135926355
 20
0.0437540293396698
 30
0.4817307591438295
  0
VERTEX
  5
57AE
330
56F8
100
AcDbEntity
  8
Brisckstyl
 62
     1
100
AcDbVertex
100
AcDb2dVertex
 10
0.0453463183533768
 20
0.0439190149964081
 30
0.4817307591438295
  0
VERTEX
  5
57AF
330
56F8
100
AcDbEntity
  8
Brisckstyl
 62
     1
100
AcDbVertex
100
AcDb2dVertex
 10
0.0450263606202225
 20
0.0442208529175506
 30
0.4817307591438295
  0
VERTEX
  5
57B0
330
56F8
100
AcDbEntity
  8
Brisckstyl
 62
     1
100
AcDbVertex
100
AcDb2dVertex
 10
0.0446811305176834
 20
0.0445145846070038
 30
0.4817307591438295
  0
VERTEX
  5
57B1
330
56F8
100
AcDbEntity
  8
Brisckstyl
 62
     1
100
AcDbVertex
100
AcDb2dVertex
 10
0.0439291583191971
 20
0.0450810671509491
 30
0.4817307591438295
  0
VERTEX
  5
57B2
330
56F8
100
AcDbEntity
  8
Brisckstyl
 62
     1
100
AcDbVertex
100
AcDb2dVertex
 10
0.0422816859376062
 20
0.0461668253601785
 30
0.4817307591438295
  0
VERTEX
  5
57B3
330
56F8
100
AcDbEntity
  8
Brisckstyl
 62
     1
100
AcDbVertex
100
AcDb2dVertex
 10
0.0452442752015213
 20
0.0495380640686737
 30
0.4817307591438295
  0
VERTEX
  5
57B4
330
56F8
100
AcDbEntity
  8
Brisckstyl
 62
     1
100
AcDbVertex
100
AcDb2dVertex
 10
0.0453520403992761
 20
0.0496501208008514
 30
0.4817307591438295
  0
VERTEX
  5
57B5
330
56F8
100
AcDbEntity
  8
Brisckstyl
 62
     1
100
AcDbVertex
100
AcDb2dVertex
 10
0.0454445468079675
 20
0.0497564554871307
 30
0.4817307591438295
  0
VERTEX
  5
57B6
330
56F8
100
AcDbEntity
  8
Brisckstyl
 62
     1
100
AcDbVertex
100
AcDb2dVertex
 10
0.0455237017762283
 20
0.0498575449646698
 30
0.4817307591438295
  0
VERTEX
  5
57B7
330
56F8
100
AcDbEntity
  8
Brisckstyl
 62
     1
100
AcDbVertex
100
AcDb2dVertex
 10
0.0455899821412195
 20
0.0499538660706268
 30
0.4817307591438295
  0
VERTEX
  5
57B8
330
56F8
100
AcDbEntity
  8
Brisckstyl
 62
     1
100
AcDbVertex
100
AcDb2dVertex
 10
0.0456448184144119
 20
0.05004589564216
 30
0.4817307591438295
  0
VERTEX
  5
57B9
330
56F8
100
AcDbEntity
  8
Brisckstyl
 62
     1
100
AcDbVertex
100
AcDb2dVertex
 10
0.0456681834351648
 20
0.0500902414978729
 30
0.4817307591438295
  0
VERTEX
  5
57BA
330
56F8
100
AcDbEntity
  8
Brisckstyl
 62
     1
100
AcDbVertex
100
AcDb2dVertex
 10
0.0456891642701257
 20
0.0501336336792703
 30
0.4817307591438295
  0
VERTEX
  5
57BB
330
56F8
100
AcDbEntity
  8
Brisckstyl
 62
     1
100
AcDbVertex
100
AcDb2dVertex
 10
0.0457072840821374
 20
0.0501760721863503
 30
0.4817307591438295
  0
VERTEX
  5
57BC
330
56F8
100
AcDbEntity
  8
Brisckstyl
 62
     1
100
AcDbVertex
100
AcDb2dVertex
 10
0.0457234965455163
 20
0.050217557019114
 30
0.4817307591438295
  0
VERTEX
  5
57BD
330
56F8
100
AcDbEntity
  8
Brisckstyl
 62
     1
100
AcDbVertex
100
AcDb2dVertex
 10
0.0457373248231033
 20
0.0502580881775604
 30
0.4817307591438295
  0
VERTEX
  5
57BE
330
56F8
100
AcDbEntity
  8
Brisckstyl
 62
     1
100
AcDbVertex
100
AcDb2dVertex
 10
0.0457487689149011
 20
0.0502981424988503
 30
0.4817307591438295
  0
VERTEX
  5
57BF
330
56F8
100
AcDbEntity
  8
Brisckstyl
 62
     1
100
AcDbVertex
100
AcDb2dVertex
 10
0.0457587824952225
 20
0.050337243145823
 30
0.4817307591438295
  0
VERTEX
  5
57C0
330
56F8
100
AcDbEntity
  8
Brisckstyl
 62
     1
100
AcDbVertex
100
AcDb2dVertex
 10
0.0457668887269119
 20
0.0503753901184784
 30
0.4817307591438295
  0
VERTEX
  5
57C1
330
56F8
100
AcDbEntity
  8
Brisckstyl
 62
     1
100
AcDbVertex
100
AcDb2dVertex
 10
0.0457730876099695
 20
0.0504135370911346
 30
0.4817307591438295
  0
VERTEX
  5
57C2
330
56F8
100
AcDbEntity
  8
Brisckstyl
 62
     1
100
AcDbVertex
100
AcDb2dVertex
 10
0.0457778559815506
 20
0.0504507303894753
 30
0.4817307591438295
  0
VERTEX
  5
57C3
330
56F8
100
AcDbEntity
  8
Brisckstyl
 62
     1
100
AcDbVertex
100
AcDb2dVertex
 10
0.045781193841658
 20
0.0504869700134979
 30
0.4817307591438295
  0
VERTEX
  5
57C4
330
56F8
100
AcDbEntity
  8
Brisckstyl
 62
     1
100
AcDbVertex
100
AcDb2dVertex
 10
0.0457831011902908
 20
0.0505232096375222
 30
0.4817307591438295
  0
VERTEX
  5
57C5
330
56F8
100
AcDbEntity
  8
Brisckstyl
 62
     1
100
AcDbVertex
100
AcDb2dVertex
 10
0.0457831011902908
 20
0.0505942583740936
 30
0.4817307591438295
  0
VERTEX
  5
57C6
330
56F8
100
AcDbEntity
  8
Brisckstyl
 62
     1
100
AcDbVertex
100
AcDb2dVertex
 10
0.0457797633301834
 20
0.0506633997620331
 30
0.4817307591438295
  0
VERTEX
  5
57C7
330
56F8
100
AcDbEntity
  8
Brisckstyl
 62
     1
100
AcDbVertex
100
AcDb2dVertex
 10
0.0457730876099695
 20
0.050731587475657
 30
0.4817307591438295
  0
VERTEX
  5
57C8
330
56F8
100
AcDbEntity
  8
Brisckstyl
 62
     1
100
AcDbVertex
100
AcDb2dVertex
 10
0.045755444635116
 20
0.0508660555542703
 30
0.4817307591438295
  0
VERTEX
  5
57C9
330
56F8
100
AcDbEntity
  8
Brisckstyl
 62
     1
100
AcDbVertex
100
AcDb2dVertex
 10
0.0446982966553796
 20
0.0522031069458709
 30
0.4817307591438295
  0
VERTEX
  5
57CA
330
56F8
100
AcDbEntity
  8
Brisckstyl
 62
     1
100
AcDbVertex
100
AcDb2dVertex
 10
0.0437374697815994
 20
0.0535163164795632
 30
0.4817307591438295
  0
VERTEX
  5
57CB
330
56F8
100
AcDbEntity
  8
Brisckstyl
 62
     1
100
AcDbVertex
100
AcDb2dVertex
 10
0.0433230982911209
 20
0.0541562319458709
 30
0.4817307591438295
  0
VERTEX
  5
57CC
330
56F8
100
AcDbEntity
  8
Brisckstyl
 62
     1
100
AcDbVertex
100
AcDb2dVertex
 10
0.0429678546082605
 20
0.0547813654602752
 30
0.4817307591438295
  0
VERTEX
  5
57CD
330
56F8
100
AcDbEntity
  8
Brisckstyl
 62
     1
100
AcDbVertex
100
AcDb2dVertex
 10
0.0428166972291101
 20
0.0550870180786834
 30
0.4817307591438295
  0
VERTEX
  5
57CE
330
56F8
100
AcDbEntity
  8
Brisckstyl
 62
     1
100
AcDbVertex
100
AcDb2dVertex
 10
0.042685090173446
 20
0.0553883791626678
 30
0.4817307591438295
  0
VERTEX
  5
57CF
330
56F8
100
AcDbEntity
  8
Brisckstyl
 62
     1
100
AcDbVertex
100
AcDb2dVertex
 10
0.042574463952742
 20
0.0556840182007538
 30
0.4817307591438295
  0
VERTEX
  5
57D0
330
56F8
100
AcDbEntity
  8
Brisckstyl
 62
     1
100
AcDbVertex
100
AcDb2dVertex
 10
0.0424862490784744
 20
0.0559744120301003
 30
0.4817307591438295
  0
VERTEX
  5
57D1
330
56F8
100
AcDbEntity
  8
Brisckstyl
 62
     1
100
AcDbVertex
100
AcDb2dVertex
 10
0.0424166308533768
 20
0.056262421673655
 30
0.4817307591438295
  0
VERTEX
  5
57D2
330
56F8
100
AcDbEntity
  8
Brisckstyl
 62
     1
100
AcDbVertex
100
AcDb2dVertex
 10
0.0423603640687097
 20
0.0565513849915252
 30
0.4817307591438295
  0
VERTEX
  5
57D3
330
56F8
100
AcDbEntity
  8
Brisckstyl
 62
     1
100
AcDbVertex
100
AcDb2dVertex
 10
0.0423169718873123
 20
0.0568413019837127
 30
0.4817307591438295
  0
VERTEX
  5
57D4
330
56F8
100
AcDbEntity
  8
Brisckstyl
 62
     1
100
AcDbVertex
100
AcDb2dVertex
 10
0.0422850237977136
 20
0.0571326494873749
 30
0.4817307591438295
  0
VERTEX
  5
57D5
330
56F8
100
AcDbEntity
  8
Brisckstyl
 62
     1
100
AcDbVertex
100
AcDb2dVertex
 10
0.0422525988709558
 20
0.0577172518433319
 30
0.4817307591438295
  0
VERTEX
  5
57D6
330
56F8
100
AcDbEntity
  8
Brisckstyl
 62
     1
100
AcDbVertex
100
AcDb2dVertex
 10
0.0422559367310623
 20
0.0583051920593972
 30
0.4817307591438295
  0
VERTEX
  5
57D7
330
56F8
100
AcDbEntity
  8
Brisckstyl
 62
     1
100
AcDbVertex
100
AcDb2dVertex
 10
0.042288361657821
 20
0.0588950396240936
 30
0.4817307591438295
  0
VERTEX
  5
57D8
330
56F8
100
AcDbEntity
  8
Brisckstyl
 62
     1
100
AcDbVertex
100
AcDb2dVertex
 10
0.0423422442566971
 20
0.0594867945374237
 30
0.4817307591438295
  0
VERTEX
  5
57D9
330
56F8
100
AcDbEntity
  8
Brisckstyl
 62
     1
100
AcDbVertex
100
AcDb2dVertex
 10
0.0424862490784744
 20
0.0606736422241921
 30
0.4817307591438295
  0
VERTEX
  5
57DA
330
56F8
100
AcDbEntity
  8
Brisckstyl
 62
     1
100
AcDbVertex
100
AcDb2dVertex
 10
0.0451360331666101
 20
0.0640196085633035
 30
0.4817307591438295
  0
VERTEX
  5
57DB
330
56F8
100
AcDbEntity
  8
Brisckstyl
 62
     1
100
AcDbVertex
100
AcDb2dVertex
 10
0.0461135493409256
 20
0.0653576136292206
 30
0.4817307591438295
  0
VERTEX
  5
57DC
330
56F8
100
AcDbEntity
  8
Brisckstyl
 62
     1
100
AcDbVertex
100
AcDb2dVertex
 10
0.0464549647461999
 20
0.0658835650147186
 30
0.4817307591438295
  0
VERTEX
  5
57DD
330
56F8
100
AcDbEntity
  8
Brisckstyl
 62
     1
100
AcDbVertex
100
AcDb2dVertex
 10
0.0465813265931238
 20
0.0661038637818084
 30
0.4817307591438295
  0
VERTEX
  5
57DE
330
56F8
100
AcDbEntity
  8
Brisckstyl
 62
     1
100
AcDbVertex
100
AcDb2dVertex
 10
0.0466323481690506
 20
0.0662025690735565
 30
0.4817307591438295
  0
VERTEX
  5
57DF
330
56F8
100
AcDbEntity
  8
Brisckstyl
 62
     1
100
AcDbVertex
100
AcDb2dVertex
 10
0.0466747866761307
 20
0.0662926912964569
 30
0.4817307591438295
  0
VERTEX
  5
57E0
330
56F8
100
AcDbEntity
  8
Brisckstyl
 62
     1
100
AcDbVertex
100
AcDb2dVertex
 10
0.0467568026673425
 20
0.0664967776001678
 30
0.4817307591438295
  0
VERTEX
  5
57E1
330
56F8
100
AcDbEntity
  8
Brisckstyl
 62
     1
100
AcDbVertex
100
AcDb2dVertex
 10
0.0468478785645584
 20
0.0667609453858132
 30
0.4817307591438295
  0
VERTEX
  5
57E2
330
56F8
100
AcDbEntity
  8
Brisckstyl
 62
     1
100
AcDbVertex
100
AcDb2dVertex
 10
0.0470452891480572
 20
0.0674518824280487
 30
0.4817307591438295
  0
VERTEX
  5
57E3
330
56F8
100
AcDbEntity
  8
Brisckstyl
 62
     1
100
AcDbVertex
100
AcDb2dVertex
 10
0.0472422228943924
 20
0.0683292627991433
 30
0.4817307591438295
  0
VERTEX
  5
57E4
330
56F8
100
AcDbEntity
  8
Brisckstyl
 62
     1
100
AcDbVertex
100
AcDb2dVertex
 10
0.047415314782821
 20
0.0693578005493866
 30
0.4817307591438295
  0
VERTEX
  5
57E5
330
56F8
100
AcDbEntity
  8
Brisckstyl
 62
     1
100
AcDbVertex
100
AcDb2dVertex
 10
0.0475407229554285
 20
0.0705007792176003
 30
0.4817307591438295
  0
VERTEX
  5
57E6
330
56F8
100
AcDbEntity
  8
Brisckstyl
 62
     1
100
AcDbVertex
100
AcDb2dVertex
 10
0.0475779162537674
 20
0.0711044550598846
 30
0.4817307591438295
  0
VERTEX
  5
57E7
330
56F8
100
AcDbEntity
  8
Brisckstyl
 62
     1
100
AcDbVertex
100
AcDb2dVertex
 10
0.0475941287171463
 20
0.0717233896912332
 30
0.4817307591438295
  0
VERTEX
  5
57E8
330
56F8
100
AcDbEntity
  8
Brisckstyl
 62
     1
100
AcDbVertex
100
AcDb2dVertex
 10
0.047586499322616
 20
0.0723528147400604
 30
0.4817307591438295
  0
VERTEX
  5
57E9
330
56F8
100
AcDbEntity
  8
Brisckstyl
 62
     1
100
AcDbVertex
100
AcDb2dVertex
 10
0.0475516902100662
 20
0.0729889155091034
 30
0.4817307591438295
  0
VERTEX
  5
57EA
330
56F8
100
AcDbEntity
  8
Brisckstyl
 62
     1
100
AcDbVertex
100
AcDb2dVertex
 10
0.0474873171937097
 20
0.0736264467896209
 30
0.4817307591438295
  0
VERTEX
  5
57EB
330
56F8
100
AcDbEntity
  8
Brisckstyl
 62
     1
100
AcDbVertex
100
AcDb2dVertex
 10
0.0473900424134363
 20
0.0742615938843484
 30
0.4817307591438295
  0
VERTEX
  5
57EC
330
56F8
100
AcDbEntity
  8
Brisckstyl
 62
     1
100
AcDbVertex
100
AcDb2dVertex
 10
0.0472522364747156
 20
0.0749010325134979
 30
0.4817307591438295
  0
VERTEX
  5
57ED
330
56F8
100
AcDbEntity
  8
Brisckstyl
 62
     1
100
AcDbVertex
100
AcDb2dVertex
 10
0.0470734225403885
 20
0.0755500078858132
 30
0.4817307591438295
  0
VERTEX
  5
57EE
330
56F8
100
AcDbEntity
  8
Brisckstyl
 62
     1
100
AcDbVertex
100
AcDb2dVertex
 10
0.0468602763306726
 20
0.076201844281076
 30
0.4817307591438295
  0
VERTEX
  5
57EF
330
56F8
100
AcDbEntity
  8
Brisckstyl
 62
     1
100
AcDbVertex
100
AcDb2dVertex
 10
0.0466204272400955
 20
0.0768489123047577
 30
0.4817307591438295
  0
VERTEX
  5
57F0
330
56F8
100
AcDbEntity
  8
Brisckstyl
 62
     1
100
AcDbVertex
100
AcDb2dVertex
 10
0.0460858927857507
 20
0.0781029940308319
 30
0.4817307591438295
  0
VERTEX
  5
57F1
330
56F8
100
AcDbEntity
  8
Brisckstyl
 62
     1
100
AcDbVertex
100
AcDb2dVertex
 10
0.0455251322877038
 20
0.0792545557678933
 30
0.4817307591438295
  0
VERTEX
  5
57F2
330
56F8
100
AcDbEntity
  8
Brisckstyl
 62
     1
100
AcDbVertex
100
AcDb2dVertex
 10
0.0445452319275955
 20
0.0810283899964081
 30
0.4817307591438295
  0
VERTEX
  5
57F3
330
56F8
100
AcDbEntity
  8
Brisckstyl
 62
     1
100
AcDbVertex
100
AcDb2dVertex
 10
0.0441208468567957
 20
0.0817193270386453
 30
0.4817307591438295
  0
VERTEX
  5
57F4
330
56F8
100
AcDbEntity
  8
Brisckstyl
 62
     1
100
AcDbVertex
100
AcDb2dVertex
 10
0.0407496081482996
 20
0.0853971720398651
 30
0.4817307591438295
  0
VERTEX
  5
57F5
330
56F8
100
AcDbEntity
  8
Brisckstyl
 62
     1
100
AcDbVertex
100
AcDb2dVertex
 10
0.0407496081482996
 20
0.0891770601929422
 30
0.4817307591438295
  0
SEQEND
  5
57F6
330
56F8
100
AcDbEntity
  8
Brisckstyl
 62
     1
  0
ENDBLK
  5
57FA
330
56F3
100
AcDbEntity
  8
0
 62
     1
100
AcDbBlockEnd
  0
BLOCK
  5
590A
330
58FF
100
AcDbEntity
  8
0
 62
     1
100
AcDbBlockBegin
  2
*D23
 70
     1
 10
0.0
 20
0.0
 30
0.0
  3
*D23
  1

  0
LINE
  5
5918
330
58FF
100
AcDbEntity
  8
Dimensione
 62
     5
370
    -2
100
AcDbLine
 10
0.1111698347284262
 20
0.1268632126155279
 30
0.0
 11
0.1426552131786509
 21
0.1268632126155279
 31
0.0
  0
LINE
  5
5919
330
58FF
100
AcDbEntity
  8
Dimensione
 62
     5
370
    -2
100
AcDbLine
 10
0.1081052023126557
 20
0.1968447876277349
 30
0.0
 11
0.142655213178651
 21
0.1968447876277349
 31
0.0
  0
LINE
  5
591A
330
58FF
100
AcDbEntity
  8
Dimensione
 62
     5
370
    -2
100
AcDbLine
 10
0.142475213178651
 20
0.1268632126155279
 30
0.0
 11
0.142475213178651
 21
0.1583540001216314
 31
0.0
  0
LINE
  5
591B
330
58FF
100
AcDbEntity
  8
Dimensione
 62
     5
370
    -2
100
AcDbLine
 10
0.142475213178651
 20
0.1968447876277349
 30
0.0
 11
0.142475213178651
 21
0.1653540001216314
 31
0.0
  0
INSERT
  5
591C
330
58FF
100
AcDbEntity
  8
Dimensione
 62
     5
370
    -2
100
AcDbBlockReference
  2
_ArchTick
 10
0.142475213178651
 20
0.1268632126155279
 30
0.0
 41
0.0015
 42
0.0015
 43
0.0015
 50
270.0
  0
INSERT
  5
591D
330
58FF
100
AcDbEntity
  8
Dimensione
 62
     5
370
    -2
100
AcDbBlockReference
  2
_ArchTick
 10
0.142475213178651
 20
0.1968447876277349
 30
0.0
 41
0.0015
 42
0.0015
 43
0.0015
 50
90.0
  0
MTEXT
  5
591E
330
58FF
100
AcDbEntity
  8
Dimensione
 62
     4
100
AcDbMText
 10
0.1424752131786509
 20
0.1618540001216314
 30
0.0
 40
0.003
 41
0.0
 71
     5
 72
     1
  1
\A1;70 mm
  7
ROMANS
 73
     1
 44
1.0
  0
POINT
  5
591F
330
58FF
100
AcDbEntity
  8
Defpoints
 62
     0
100
AcDbPoint
 10
0.1111073347284262
 20
0.1268632126155279
 30
0.4817307591438295
  0
POINT
  5
5920
330
58FF
100
AcDbEntity
  8
Defpoints
 62
     0
100
AcDbPoint
 10
0.1080427023126557
 20
0.1968447876277349
 30
0.4817307591438295
  0
POINT
  5
5921
330
58FF
100
AcDbEntity
  8
Defpoints
 62
     0
100
AcDbPoint
 10
0.142475213178651
 20
0.1968447876277349
 30
0.0
  0
ENDBLK
  5
590B
330
58FF
100
AcDbEntity
  8
0
 62
     1
100
AcDbBlockEnd
  0
BLOCK
  5
5916
330
590C
100
AcDbEntity
  8
0
 62
     1
100
AcDbBlockBegin
  2
*D24
 70
     1
 10
0.0
 20
0.0
 30
0.0
  3
*D24
  1

  0
LINE
  5
5922
330
590C
100
AcDbEntity
  8
Dimensione
 62
     5
370
    -2
100
AcDbLine
 10
0.1042628141595795
 20
0.1268007126155279
 30
0.0
 11
0.1042628141595795
 21
0.1130086974320959
 31
0.0
  0
LINE
  5
5923
330
590C
100
AcDbEntity
  8
Dimensione
 62
     5
370
    -2
100
AcDbLine
 10
0.1172170492364838
 20
0.1382555332484625
 30
0.0
 11
0.1172170492364838
 21
0.1130086974320959
 31
0.0
  0
LINE
  5
5924
330
590C
100
AcDbEntity
  8
Dimensione
 62
     5
370
    -2
100
AcDbLine
 10
0.1042628141595795
 20
0.1131886974320959
 30
0.0
 11
0.1172170492364838
 21
0.1131886974320959
 31
0.0
  0
MTEXT
  5
5925
330
590C
100
AcDbEntity
  8
Dimensione
 62
     4
100
AcDbMText
 10
0.1107399316980316
 20
0.1060086974320959
 30
0.0
 40
0.003
 41
0.0
 71
     5
 72
     1
  1
\A1;14 mm
  7
ROMANS
 73
     1
 44
1.0
  0
INSERT
  5
5926
330
590C
100
AcDbEntity
  8
Dimensione
 62
     5
370
    -2
100
AcDbBlockReference
  2
_ArchTick
 10
0.1042628141595795
 20
0.1131886974320959
 30
0.0
 41
0.0015
 42
0.0015
 43
0.0015
 50
180.0
  0
INSERT
  5
5927
330
590C
100
AcDbEntity
  8
Dimensione
 62
     5
370
    -2
100
AcDbBlockReference
  2
_ArchTick
 10
0.1172170492364838
 20
0.1131886974320959
 30
0.0
 41
0.0015
 42
0.0015
 43
0.0015
  0
POINT
  5
5928
330
590C
100
AcDbEntity
  8
Defpoints
 62
     0
100
AcDbPoint
 10
0.1042628141595795
 20
0.1268632126155279
 30
0.4817307591438295
  0
POINT
  5
5929
330
590C
100
AcDbEntity
  8
Defpoints
 62
     0
100
AcDbPoint
 10
0.1172170492364838
 20
0.1383180332484625
 30
0.4817307591438295
  0
POINT
  5
592A
330
590C
100
AcDbEntity
  8
Defpoints
 62
     0
100
AcDbPoint
 10
0.1172170492364838
 20
0.1131886974320959
 30
0.0
  0
ENDBLK
  5
5917
330
590C
100
AcDbEntity
  8
0
 62
     1
100
AcDbBlockEnd
  0
BLOCK
  5
592F
330
592E
100
AcDbEntity
  8
0
 62
     2
100
AcDbBlockBegin
  2
*D25
 70
     1
 10
0.0
 20
0.0
 30
0.0
  3
*D25
  1

  0
LINE
  5
5930
330
592E
100
AcDbEntity
  8
Dimensione
 62
     5
370
    -2
100
AcDbLine
 10
0.2702971090986521
 20
0.2098039579309007
 30
0.0
 11
0.3612913162121234
 21
0.2098039579309007
 31
0.0
  0
LINE
  5
5931
330
592E
100
AcDbEntity
  8
Dimensione
 62
     5
370
    -2
100
AcDbLine
 10
0.3136166793783483
 20
0.1052032863427103
 30
0.0
 11
0.3612913162121234
 21
0.1052032863427102
 31
0.0
  0
LINE
  5
5932
330
592E
100
AcDbEntity
  8
Dimensione
 62
     5
370
    -2
100
AcDbLine
 10
0.3611113162121234
 20
0.2098039579309007
 30
0.0
 11
0.3611113162121234
 21
0.1610036221368055
 31
0.0
  0
LINE
  5
5933
330
592E
100
AcDbEntity
  8
Dimensione
 62
     5
370
    -2
100
AcDbLine
 10
0.3611113162121233
 20
0.1052032863427102
 30
0.0
 11
0.3611113162121234
 21
0.1540036221368055
 31
0.0
  0
INSERT
  5
5934
330
592E
100
AcDbEntity
  8
Dimensione
 62
     5
370
    -2
100
AcDbBlockReference
  2
_ArchTick
 10
0.3611113162121234
 20
0.2098039579309007
 30
0.0
 41
0.0015
 42
0.0015
 43
0.0015
 50
90.0
  0
INSERT
  5
5935
330
592E
100
AcDbEntity
  8
Dimensione
 62
     5
370
    -2
100
AcDbBlockReference
  2
_ArchTick
 10
0.3611113162121233
 20
0.1052032863427102
 30
0.0
 41
0.0015
 42
0.0015
 43
0.0015
 50
270.0
  0
MTEXT
  5
5936
330
592E
100
AcDbEntity
  8
Dimensione
 62
     4
100
AcDbMText
 10
0.3611113162121233
 20
0.1575036221368056
 30
0.0
 40
0.003
 41
0.0
 71
     5
 72
     1
  1
\A1;220 mm
  7
ROMANS
 73
     1
 44
1.0
  0
POINT
  5
5937
330
592E
100
AcDbEntity
  8
Defpoints
 62
     0
100
AcDbPoint
 10
0.2702346090986521
 20
0.2098039579309007
 30
0.0
  0
POINT
  5
5938
330
592E
100
AcDbEntity
  8
Defpoints
 62
     0
100
AcDbPoint
 10
0.3135541793783483
 20
0.1052032863427103
 30
0.0
  0
POINT
  5
5939
330
592E
100
AcDbEntity
  8
Defpoints
 62
     0
100
AcDbPoint
 10
0.3611113162121233
 20
0.1052032863427102
 30
0.0
  0
ENDBLK
  5
593A
330
592E
100
AcDbEntity
  8
0
 62
     2
100
AcDbBlockEnd
  0
BLOCK
  5
593C
330
593B
100
AcDbEntity
  8
0
 62
     2
100
AcDbBlockBegin
  2
*D26
 70
     1
 10
0.0
 20
0.0
 30
0.0
  3
*D26
  1

  0
LINE
  5
593D
330
593B
100
AcDbEntity
  8
Dimensione
 62
     5
370
    -2
100
AcDbLine
 10
0.2289664104729819
 20
0.1921113721168113
 30
0.0
 11
0.2289664104729819
 21
0.2329286824420788
 31
0.0
  0
LINE
  5
593E
330
593B
100
AcDbEntity
  8
Dimensione
 62
     5
370
    -2
100
AcDbLine
 10
0.3341404989256207
 20
0.1473881675448445
 30
0.0
 11
0.3341404989256207
 21
0.2329286824420788
 31
0.0
  0
LINE
  5
593F
330
593B
100
AcDbEntity
  8
Dimensione
 62
     5
370
    -2
100
AcDbLine
 10
0.2289664104729819
 20
0.2327486824420788
 30
0.0
 11
0.2699820261278727
 21
0.2327486824420788
 31
0.0
  0
LINE
  5
5940
330
593B
100
AcDbEntity
  8
Dimensione
 62
     5
370
    -2
100
AcDbLine
 10
0.3341404989256207
 20
0.2327486824420788
 30
0.0
 11
0.2931248832707299
 21
0.2327486824420788
 31
0.0
  0
INSERT
  5
5941
330
593B
100
AcDbEntity
  8
Dimensione
 62
     5
370
    -2
100
AcDbBlockReference
  2
_ArchTick
 10
0.2289664104729819
 20
0.2327486824420788
 30
0.0
 41
0.0015
 42
0.0015
 43
0.0015
 50
180.0
  0
INSERT
  5
5942
330
593B
100
AcDbEntity
  8
Dimensione
 62
     5
370
    -2
100
AcDbBlockReference
  2
_ArchTick
 10
0.3341404989256207
 20
0.2327486824420788
 30
0.0
 41
0.0015
 42
0.0015
 43
0.0015
  0
MTEXT
  5
5943
330
593B
100
AcDbEntity
  8
Dimensione
 62
     4
100
AcDbMText
 10
0.2815534546993013
 20
0.2327486824420788
 30
0.0
 40
0.003
 41
0.0
 71
     5
 72
     1
  1
\A1;220 mm
  7
ROMANS
 73
     1
 44
1.0
  0
POINT
  5
5944
330
593B
100
AcDbEntity
  8
Defpoints
 62
     0
100
AcDbPoint
 10
0.2289664104729819
 20
0.1920488721168113
 30
0.0
  0
POINT
  5
5945
330
593B
100
AcDbEntity
  8
Defpoints
 62
     0
100
AcDbPoint
 10
0.3341404989256207
 20
0.1473256675448445
 30
0.0
  0
POINT
  5
5946
330
593B
100
AcDbEntity
  8
Defpoints
 62
     0
100
AcDbPoint
 10
0.3341404989256207
 20
0.2327486824420788
 30
0.0
  0
ENDBLK
  5
5947
330
593B
100
AcDbEntity
  8
0
 62
     2
100
AcDbBlockEnd
  0
BLOCK
  5
5987
330
597C
100
AcDbEntity
  8
0
 62
     1
100
AcDbBlockBegin
  2
*D28
 70
     1
 10
0.0
 20
0.0
 30
0.0
  3
*D28
  1

  0
LINE
  5
5996
330
597C
100
AcDbEntity
  8
Dimensione
 62
     5
370
    -2
100
AcDbLine
 10
0.2702971090986521
 20
0.2098039579309007
 30
0.0
 11
0.3612913162121234
 21
0.2098039579309007
 31
0.0
  0
LINE
  5
5997
330
597C
100
AcDbEntity
  8
Dimensione
 62
     5
370
    -2
100
AcDbLine
 10
0.3136166793783483
 20
0.1052032863427103
 30
0.0
 11
0.3612913162121234
 21
0.1052032863427102
 31
0.0
  0
LINE
  5
5998
330
597C
100
AcDbEntity
  8
Dimensione
 62
     5
370
    -2
100
AcDbLine
 10
0.3611113162121234
 20
0.2098039579309007
 30
0.0
 11
0.3611113162121234
 21
0.1610036221368055
 31
0.0
  0
LINE
  5
5999
330
597C
100
AcDbEntity
  8
Dimensione
 62
     5
370
    -2
100
AcDbLine
 10
0.3611113162121233
 20
0.1052032863427102
 30
0.0
 11
0.3611113162121234
 21
0.1540036221368055
 31
0.0
  0
INSERT
  5
599A
330
597C
100
AcDbEntity
  8
Dimensione
 62
     5
370
    -2
100
AcDbBlockReference
  2
_ArchTick
 10
0.3611113162121234
 20
0.2098039579309007
 30
0.0
 41
0.0015
 42
0.0015
 43
0.0015
 50
90.0
  0
INSERT
  5
599B
330
597C
100
AcDbEntity
  8
Dimensione
 62
     5
370
    -2
100
AcDbBlockReference
  2
_ArchTick
 10
0.3611113162121233
 20
0.1052032863427102
 30
0.0
 41
0.0015
 42
0.0015
 43
0.0015
 50
270.0
  0
MTEXT
  5
599C
330
597C
100
AcDbEntity
  8
Dimensione
 62
     4
100
AcDbMText
 10
0.3611113162121233
 20
0.1575036221368056
 30
0.0
 40
0.003
 41
0.0
 71
     5
 72
     1
  1
\A1;220 mm
  7
ROMANS
 73
     1
 44
1.0
  0
POINT
  5
599D
330
597C
100
AcDbEntity
  8
Defpoints
 62
     0
100
AcDbPoint
 10
0.2702346090986521
 20
0.2098039579309007
 30
0.0
  0
POINT
  5
599E
330
597C
100
AcDbEntity
  8
Defpoints
 62
     0
100
AcDbPoint
 10
0.3135541793783483
 20
0.1052032863427103
 30
0.0
  0
POINT
  5
599F
330
597C
100
AcDbEntity
  8
Defpoints
 62
     0
100
AcDbPoint
 10
0.3611113162121233
 20
0.1052032863427102
 30
0.0
  0
ENDBLK
  5
5988
330
597C
100
AcDbEntity
  8
0
 62
     1
100
AcDbBlockEnd
  0
BLOCK
  5
5994
330
5989
100
AcDbEntity
  8
0
 62
     1
100
AcDbBlockBegin
  2
*D29
 70
     1
 10
0.0
 20
0.0
 30
0.0
  3
*D29
  1

  0
LINE
  5
59A0
330
5989
100
AcDbEntity
  8
Dimensione
 62
     5
370
    -2
100
AcDbLine
 10
0.2289664104729819
 20
0.1921113721168113
 30
0.0
 11
0.2289664104729819
 21
0.2329286824420788
 31
0.0
  0
LINE
  5
59A1
330
5989
100
AcDbEntity
  8
Dimensione
 62
     5
370
    -2
100
AcDbLine
 10
0.3341404989256207
 20
0.1473881675448445
 30
0.0
 11
0.3341404989256207
 21
0.2329286824420788
 31
0.0
  0
LINE
  5
59A2
330
5989
100
AcDbEntity
  8
Dimensione
 62
     5
370
    -2
100
AcDbLine
 10
0.2289664104729819
 20
0.2327486824420788
 30
0.0
 11
0.2699820261278727
 21
0.2327486824420788
 31
0.0
  0
LINE
  5
59A3
330
5989
100
AcDbEntity
  8
Dimensione
 62
     5
370
    -2
100
AcDbLine
 10
0.3341404989256207
 20
0.2327486824420788
 30
0.0
 11
0.2931248832707299
 21
0.2327486824420788
 31
0.0
  0
INSERT
  5
59A4
330
5989
100
AcDbEntity
  8
Dimensione
 62
     5
370
    -2
100
AcDbBlockReference
  2
_ArchTick
 10
0.2289664104729819
 20
0.2327486824420788
 30
0.0
 41
0.0015
 42
0.0015
 43
0.0015
 50
180.0
  0
INSERT
  5
59A5
330
5989
100
AcDbEntity
  8
Dimensione
 62
     5
370
    -2
100
AcDbBlockReference
  2
_ArchTick
 10
0.3341404989256207
 20
0.2327486824420788
 30
0.0
 41
0.0015
 42
0.0015
 43
0.0015
  0
MTEXT
  5
59A6
330
5989
100
AcDbEntity
  8
Dimensione
 62
     4
100
AcDbMText
 10
0.2815534546993013
 20
0.2327486824420788
 30
0.0
 40
0.003
 41
0.0
 71
     5
 72
     1
  1
\A1;220 mm
  7
ROMANS
 73
     1
 44
1.0
  0
POINT
  5
59A7
330
5989
100
AcDbEntity
  8
Defpoints
 62
     0
100
AcDbPoint
 10
0.2289664104729819
 20
0.1920488721168113
 30
0.0
  0
POINT
  5
59A8
330
5989
100
AcDbEntity
  8
Defpoints
 62
     0
100
AcDbPoint
 10
0.3341404989256207
 20
0.1473256675448445
 30
0.0
  0
POINT
  5
59A9
330
5989
100
AcDbEntity
  8
Defpoints
 62
     0
100
AcDbPoint
 10
0.3341404989256207
 20
0.2327486824420788
 30
0.0
  0
ENDBLK
  5
5995
330
5989
100
AcDbEntity
  8
0
 62
     1
100
AcDbBlockEnd
  0
ENDSEC
  0
SECTION
  2
ENTITIES
  0
LINE
  5
D
330
2
100
AcDbEntity
  8
Table
100
AcDbLine
 10
0.02
 20
0.02
 30
0.0
 11
0.4
 21
0.02
 31
0.0
  0
LINE
  5
10
330
2
100
AcDbEntity
  8
Table
100
AcDbLine
 10
0.4
 20
0.02
 30
0.0
 11
0.4
 21
0.2769999999999999
 31
0.0
  0
LINE
  5
11
330
2
100
AcDbEntity
  8
Table
100
AcDbLine
 10
0.4
 20
0.2769999999999999
 30
0.0
 11
0.02
 21
0.277
 31
0.0
  0
LINE
  5
12
330
2
100
AcDbEntity
  8
Table
100
AcDbLine
 10
0.02
 20
0.277
 30
0.0
 11
0.02
 21
0.02
 31
0.0
  0
LINE
  5
13
330
2
100
AcDbEntity
  8
Table
 62
     2
100
AcDbLine
 10
0.015
 20
0.015
 30
0.0
 11
0.4050000000000001
 21
0.015
 31
0.0
  0
LINE
  5
14
330
2
100
AcDbEntity
  8
Table
 62
     2
100
AcDbLine
 10
0.4050000000000001
 20
0.015
 30
0.0
 11
0.4050000000000001
 21
0.2819999999999998
 31
0.0
  0
LINE
  5
15
330
2
100
AcDbEntity
  8
Table
 62
     2
100
AcDbLine
 10
0.4050000000000001
 20
0.2819999999999998
 30
0.0
 11
0.0149999999999999
 21
0.282
 31
0.0
  0
LINE
  5
16
330
2
100
AcDbEntity
  8
Table
 62
     2
100
AcDbLine
 10
0.0149999999999999
 20
0.282
 30
0.0
 11
0.015
 21
0.015
 31
0.0
  0
LINE
  5
17
330
2
100
AcDbEntity
  8
Table
100
AcDbLine
 10
0.21
 20
0.2769999999999999
 30
0.0
 11
0.21
 21
0.2532994226089223
 31
0.0
  0
LINE
  5
1D
330
2
100
AcDbEntity
  8
Table
100
AcDbLine
 10
0.02
 20
0.0528099428524846
 30
0.0
 11
0.4
 21
0.0528099428524846
 31
0.0
  0
MTEXT
  5
1E
330
2
100
AcDbEntity
  8
Text
100
AcDbMText
 10
0.1133313047219695
 20
0.2610796890771976
 30
0.0
 40
0.003
 41
0.1685521855507659
 71
     2
 72
     5
  1
{\fTimes New Roman|b0|i0|c0|p18;Le cornici estruse e gli angoli per pareti e soffitti \fTimes New Roman|b0|i1|c0|p18;      Extruded panel mouldings with corners}
 73
     1
 44
1.0
1001
ACAD
1000
ACAD_MTEXT_DEFINED_HEIGHT_BEGIN
1070
    46
1040
0.0141952763113409
1000
ACAD_MTEXT_DEFINED_HEIGHT_END
  0
TEXT
  5
1F
330
2
100
AcDbEntity
  8
Text
100
AcDbText
 10
0.2180556919891047
 20
0.269976982173197
 30
0.0
 40
0.003
  1
Angolo - Corner : H 220 x 220 mm
  7
ROMANS
100
AcDbText
  0
TEXT
  5
21
330
2
100
AcDbEntity
  8
Text
100
AcDbText
 10
0.2184542410678115
 20
0.2576348370183962
 30
0.0
 40
0.003
  1
File : IA 770 D
  7
ROMANS
100
AcDbText
  0
LINE
  5
22
330
2
100
AcDbEntity
  8
Table
100
AcDbLine
 10
0.4
 20
0.2654452889427402
 30
0.0
 11
0.02
 21
0.2654452889427403
 31
0.0
  0
LINE
  5
23
330
2
100
AcDbEntity
  8
Table
100
AcDbLine
 10
0.4
 20
0.2532994226089223
 30
0.0
 11
0.02
 21
0.2532994226089225
 31
0.0
  0
LINE
  5
24
330
2
100
AcDbEntity
  8
Table
100
AcDbLine
 10
0.21
 20
0.0528099428524846
 30
0.0
 11
0.21
 21
0.02
 31
0.0
  0
TEXT
  5
25
330
2
100
AcDbEntity
  8
Text
100
AcDbText
 10
0.0964227676712103
 20
0.2687784133392506
 30
0.0
 40
0.005
  1
ITALSTYL
  7
style1
 72
     1
 11
0.1140561490699125
 21
0.2687784133392506
 31
0.0
100
AcDbText
  0
TEXT
  5
27
330
2
100
AcDbEntity
  8
Text
100
AcDbText
 10
0.2880855258861347
 20
0.0706577158713708
 30
0.0
 40
0.005
  1
scala 1:2
  7
Arial
100
AcDbText
  0
MTEXT
  5
10F
330
2
100
AcDbEntity
  8
Text
100
AcDbMText
 10
0.305
 20
0.0471738284815141
 30
0.0
 40
0.005
 41
0.1900000000000001
 71
     2
 72
     5
  3
\pt0.09;{\fTimes New Roman|b0|i0|c238|p18;\H1.6x;\C4;Bovelacci\P\H0.4375x;\T0.95;via del Commercio, 5  47100 Forli - Italy  \fTimes New Roman|b0|i0|c0|p18;\P\fTimes New Roman|b0|i0|c238|p18;tel.+39-0543721386  fax +39-0543721127\fTimes New Roman|b0|i
  1
0|c0|p18; \fTimes New Roman|b0|i0|c238|p18;www.bovelacci.it\fTimes New Roman|b0|i0|c0|p18; \fTimes New Roman|b0|i0|c238|p18;e-mail: bovelacci@bovelacci\fTimes New Roman|b0|i0|c0|p18;.it}
 73
     1
 44
1.0
1001
ACAD
1000
ACAD_MTEXT_DEFINED_HEIGHT_BEGIN
1070
    46
1040
0.0271738284815141
1000
ACAD_MTEXT_DEFINED_HEIGHT_END
  0
MTEXT
  5
110
330
2
100
AcDbEntity
  8
Text
100
AcDbMText
 10
0.0219676065851835
 20
0.0500313976452307
 30
0.0
 40
0.002
 41
0.1863544980601608
 71
     1
 72
     5
  3
{\fArial|b0|i0|c0|p34;\H1.25x;Le caratteristiche tecniche indicate vengono fornite a titolo indicativo e potranno essere modificate senza preavviso. Non devono quindi essere considerate a scopo di specifica.\P\fArial|b0|i1|c0|p34;The given values are
  3
 indicative and can be changed without notice. They cannot be considered like a state.\PThis lealfet and designs embodied within are protected by copyright law and international treaties. Unauthorized repro- duction of the leaflet or any portion of i
  1
t or reproduction of any of the designs embodied therein may result in severe civil penalties and will be prosecuted to the maximum.\PAll right reserved, Bovelacci Forlì Italy.}
 73
     1
 44
1.0
  0
TEXT
  5
1CA
330
2
100
AcDbEntity
  8
Text
100
AcDbText
 10
0.0879440355147445
 20
0.0732117799103868
 30
0.0
 40
0.005
  1
scala 1:1
  7
Arial
100
AcDbText
  0
HATCH
  5
57FC
330
2
100
AcDbEntity
  8
Sezione
100
AcDbHatch
 10
0.0
 20
0.0
 30
0.0
210
0.0
220
0.0
230
1.0
  2
ANSI31
 70
     0
 71
     0
 91
        1
 92
        7
 72
     0
 73
     1
 93
        4
 10
0.1030002068080774
 20
0.2174229079964363
 10
0.0699495537560336
 20
0.2174229079964363
 10
0.0699495537560336
 20
0.104658343761301
 10
0.1030002068080774
 20
0.104658343761301
 97
        0
 75
     0
 76
     1
 52
0.0
 41
0.002
 77
     0
 78
     1
 53
45.0
 43
0.0106172782886928
 44
-0.0098532857896742
 45
-0.0044901280605346
 46
0.0044901280605346
 79
     0
 47
0.0003176462656032
 98
        1
 10
0.0852036803639193
 20
0.1345172056992255
1001
ACAD
1010
0.0
1020
0.0
1030
0.0
  0
LINE
  5
57FD
330
2
100
AcDbEntity
  8
Sezione
100
AcDbLine
 10
0.1030002068080774
 20
0.1030700633254044
 30
0.0
 11
0.1030002068080774
 21
0.2212346401283157
 31
0.0
  0
DIMENSION
  5
57FE
330
2
100
AcDbEntity
  8
Dimensione
 62
     6
100
AcDbDimension
  2
*D23
 10
0.142475213178651
 20
0.1968447876277349
 30
0.0
 11
0.1424752131786509
 21
0.1618540001216314
 31
0.0
 70
    32
  1
70 mm
 71
     5
 42
0.069981575012207
  3
Bovelacci
100
AcDbAlignedDimension
 13
0.1111073347284262
 23
0.1268632126155279
 33
0.4817307591438295
 14
0.1080427023126557
 24
0.1968447876277349
 34
0.4817307591438295
 50
90.0
100
AcDbRotatedDimension
  0
DIMENSION
  5
57FF
330
2
100
AcDbEntity
  8
Dimensione
 62
     6
100
AcDbDimension
  2
*D24
 10
0.1172170492364838
 20
0.1131886974320959
 30
0.0
 11
0.1107399316980316
 21
0.1060086974320959
 31
0.0
 70
    32
  1
14 mm
 71
     5
 42
0.0129542350769043
  3
Bovelacci
100
AcDbAlignedDimension
 13
0.1042628141595795
 23
0.1268632126155279
 33
0.4817307591438295
 14
0.1172170492364838
 24
0.1383180332484625
 34
0.4817307591438295
100
AcDbRotatedDimension
  0
POLYLINE
  5
5800
330
2
100
AcDbEntity
  8
Brisckstyl
 62
     1
100
AcDb2dPolyline
 66
     1
 10
0.0
 20
0.0
 30
0.4817307591438295
 70
     1
  0
VERTEX
  5
5801
330
5800
100
AcDbEntity
  8
Brisckstyl
 62
     1
100
AcDbVertex
100
AcDb2dVertex
 10
0.1080427023126557
 20
0.1968447876277349
 30
0.4817307591438295
  0
VERTEX
  5
5802
330
5800
100
AcDbEntity
  8
Brisckstyl
 62
     1
100
AcDbVertex
100
AcDb2dVertex
 10
0.1035475584222739
 20
0.1968447876277349
 30
0.4817307591438295
  0
VERTEX
  5
5803
330
5800
100
AcDbEntity
  8
Brisckstyl
 62
     1
100
AcDbVertex
100
AcDb2dVertex
 10
0.1035475584222739
 20
0.1858112526240728
 30
0.4817307591438295
  0
VERTEX
  5
5804
330
5800
100
AcDbEntity
  8
Brisckstyl
 62
     1
100
AcDbVertex
100
AcDb2dVertex
 10
0.1056842657281821
 20
0.1836702537837408
 30
0.4817307591438295
  0
VERTEX
  5
5805
330
5800
100
AcDbEntity
  8
Brisckstyl
 62
     1
100
AcDbVertex
100
AcDb2dVertex
 10
0.1066641660882904
 20
0.1826092911067388
 30
0.4817307591438295
  0
VERTEX
  5
5806
330
5800
100
AcDbEntity
  8
Brisckstyl
 62
     1
100
AcDbVertex
100
AcDb2dVertex
 10
0.1075382085992768
 20
0.1815583420100591
 30
0.4817307591438295
  0
VERTEX
  5
5807
330
5800
100
AcDbEntity
  8
Brisckstyl
 62
     1
100
AcDbVertex
100
AcDb2dVertex
 10
0.1079244466974213
 20
0.1810385895076177
 30
0.4817307591438295
  0
VERTEX
  5
5808
330
5800
100
AcDbEntity
  8
Brisckstyl
 62
     1
100
AcDbVertex
100
AcDb2dVertex
 10
0.1082711073114341
 20
0.1805221748652838
 30
0.4817307591438295
  0
VERTEX
  5
5809
330
5800
100
AcDbEntity
  8
Brisckstyl
 62
     1
100
AcDbVertex
100
AcDb2dVertex
 10
0.1085734220697357
 20
0.1800105285945318
 30
0.4817307591438295
  0
VERTEX
  5
580A
330
5800
100
AcDbEntity
  8
Brisckstyl
 62
     1
100
AcDbVertex
100
AcDb2dVertex
 10
0.1087069364740317
 20
0.1797568512263677
 30
0.4817307591438295
  0
VERTEX
  5
580B
330
5800
100
AcDbEntity
  8
Brisckstyl
 62
     1
100
AcDbVertex
100
AcDb2dVertex
 10
0.1088270994378989
 20
0.1795041275325201
 30
0.4817307591438295
  0
VERTEX
  5
580C
330
5800
100
AcDbEntity
  8
Brisckstyl
 62
     1
100
AcDbVertex
100
AcDb2dVertex
 10
0.1089348646356528
 20
0.179252834350147
 30
0.4817307591438295
  0
VERTEX
  5
580D
330
5800
100
AcDbEntity
  8
Brisckstyl
 62
     1
100
AcDbVertex
100
AcDb2dVertex
 10
0.1090283247186615
 20
0.1790029716792495
 30
0.4817307591438295
  0
VERTEX
  5
580E
330
5800
100
AcDbEntity
  8
Brisckstyl
 62
     1
100
AcDbVertex
100
AcDb2dVertex
 10
0.1091074796869232
 20
0.1787545395198248
 30
0.4817307591438295
  0
VERTEX
  5
580F
330
5800
100
AcDbEntity
  8
Brisckstyl
 62
     1
100
AcDbVertex
100
AcDb2dVertex
 10
0.1091713758661216
 20
0.1785075378718756
 30
0.4817307591438295
  0
VERTEX
  5
5810
330
5800
100
AcDbEntity
  8
Brisckstyl
 62
     1
100
AcDbVertex
100
AcDb2dVertex
 10
0.1092204900934165
 20
0.1782619667354009
 30
0.4817307591438295
  0
VERTEX
  5
5811
330
5800
100
AcDbEntity
  8
Brisckstyl
 62
     1
100
AcDbVertex
100
AcDb2dVertex
 10
0.1092533918573325
 20
0.1780183029475591
 30
0.4817307591438295
  0
VERTEX
  5
5812
330
5800
100
AcDbEntity
  8
Brisckstyl
 62
     1
100
AcDbVertex
100
AcDb2dVertex
 10
0.1092696043207114
 20
0.177776069671192
 30
0.4817307591438295
  0
VERTEX
  5
5813
330
5800
100
AcDbEntity
  8
Brisckstyl
 62
     1
100
AcDbVertex
100
AcDb2dVertex
 10
0.1092710348321869
 20
0.1776559067073248
 30
0.4817307591438295
  0
VERTEX
  5
5814
330
5800
100
AcDbEntity
  8
Brisckstyl
 62
     1
100
AcDbVertex
100
AcDb2dVertex
 10
0.109268650646395
 20
0.1775357437434576
 30
0.4817307591438295
  0
VERTEX
  5
5815
330
5800
100
AcDbEntity
  8
Brisckstyl
 62
     1
100
AcDbVertex
100
AcDb2dVertex
 10
0.1091251226617768
 20
0.1752755356135748
 30
0.4817307591438295
  0
VERTEX
  5
5816
330
5800
100
AcDbEntity
  8
Brisckstyl
 62
     1
100
AcDbVertex
100
AcDb2dVertex
 10
0.1089920850946372
 20
0.173994274169483
 30
0.4817307591438295
  0
VERTEX
  5
5817
330
5800
100
AcDbEntity
  8
Brisckstyl
 62
     1
100
AcDbVertex
100
AcDb2dVertex
 10
0.1088089796258872
 20
0.1727087211909682
 30
0.4817307591438295
  0
VERTEX
  5
5818
330
5800
100
AcDbEntity
  8
Brisckstyl
 62
     1
100
AcDbVertex
100
AcDb2dVertex
 10
0.1085681768609955
 20
0.1714899254146002
 30
0.4817307591438295
  0
VERTEX
  5
5819
330
5800
100
AcDbEntity
  8
Brisckstyl
 62
     1
100
AcDbVertex
100
AcDb2dVertex
 10
0.1084241720392182
 20
0.1709282112422369
 30
0.4817307591438295
  0
VERTEX
  5
581A
330
5800
100
AcDbEntity
  8
Brisckstyl
 62
     1
100
AcDbVertex
100
AcDb2dVertex
 10
0.1082630010797455
 20
0.1704098892512701
 30
0.4817307591438295
  0
VERTEX
  5
581B
330
5800
100
AcDbEntity
  8
Brisckstyl
 62
     1
100
AcDbVertex
100
AcDb2dVertex
 10
0.1081757398797943
 20
0.1701700401606939
 30
0.4817307591438295
  0
VERTEX
  5
581C
330
5800
100
AcDbEntity
  8
Brisckstyl
 62
     1
100
AcDbVertex
100
AcDb2dVertex
 10
0.1080837103082629
 20
0.1699444961848638
 30
0.4817307591438295
  0
VERTEX
  5
581D
330
5800
100
AcDbEntity
  8
Brisckstyl
 62
     1
100
AcDbVertex
100
AcDb2dVertex
 10
0.1079873892023032
 20
0.1697346878352545
 30
0.4817307591438295
  0
VERTEX
  5
581E
330
5800
100
AcDbEntity
  8
Brisckstyl
 62
     1
100
AcDbVertex
100
AcDb2dVertex
 10
0.1078858228876068
 20
0.169541091949024
 30
0.4817307591438295
  0
VERTEX
  5
581F
330
5800
100
AcDbEntity
  8
Brisckstyl
 62
     1
100
AcDbVertex
100
AcDb2dVertex
 10
0.1077794882013267
 20
0.169365139037647
 30
0.4817307591438295
  0
VERTEX
  5
5820
330
5800
100
AcDbEntity
  8
Brisckstyl
 62
     1
100
AcDbVertex
100
AcDb2dVertex
 10
0.1077246519281342
 20
0.1692840767207525
 30
0.4817307591438295
  0
VERTEX
  5
5821
330
5800
100
AcDbEntity
  8
Brisckstyl
 62
     1
100
AcDbVertex
100
AcDb2dVertex
 10
0.1076679083063071
 20
0.16920778277544
 30
0.4817307591438295
  0
VERTEX
  5
5822
330
5800
100
AcDbEntity
  8
Brisckstyl
 62
     1
100
AcDbVertex
100
AcDb2dVertex
 10
0.1076106878473227
 20
0.1691367340388677
 30
0.4817307591438295
  0
VERTEX
  5
5823
330
5800
100
AcDbEntity
  8
Brisckstyl
 62
     1
100
AcDbVertex
100
AcDb2dVertex
 10
0.1075515600397064
 20
0.1690704536738775
 30
0.4817307591438295
  0
VERTEX
  5
5824
330
5800
100
AcDbEntity
  8
Brisckstyl
 62
     1
100
AcDbVertex
100
AcDb2dVertex
 10
0.107491478557772
 20
0.1690094185176275
 30
0.4817307591438295
  0
VERTEX
  5
5825
330
5800
100
AcDbEntity
  8
Brisckstyl
 62
     1
100
AcDbVertex
100
AcDb2dVertex
 10
0.1074299665643638
 20
0.1689541054072759
 30
0.4817307591438295
  0
VERTEX
  5
5826
330
5800
100
AcDbEntity
  8
Brisckstyl
 62
     1
100
AcDbVertex
100
AcDb2dVertex
 10
0.1071705671503013
 20
0.1687190246882818
 30
0.4817307591438295
  0
VERTEX
  5
5827
330
5800
100
AcDbEntity
  8
Brisckstyl
 62
     1
100
AcDbVertex
100
AcDb2dVertex
 10
0.1068949552728607
 20
0.1684391212764175
 30
0.4817307591438295
  0
VERTEX
  5
5828
330
5800
100
AcDbEntity
  8
Brisckstyl
 62
     1
100
AcDbVertex
100
AcDb2dVertex
 10
0.1066074224664643
 20
0.1681186867061041
 30
0.4817307591438295
  0
VERTEX
  5
5829
330
5800
100
AcDbEntity
  8
Brisckstyl
 62
     1
100
AcDbVertex
100
AcDb2dVertex
 10
0.1063122602655365
 20
0.1677634430232427
 30
0.4817307591438295
  0
VERTEX
  5
582A
330
5800
100
AcDbEntity
  8
Brisckstyl
 62
     1
100
AcDbVertex
100
AcDb2dVertex
 10
0.1057200285150482
 20
0.1669680786433599
 30
0.4817307591438295
  0
VERTEX
  5
582B
330
5800
100
AcDbEntity
  8
Brisckstyl
 62
     1
100
AcDbVertex
100
AcDb2dVertex
 10
0.1051564069940513
 20
0.1660935592952163
 30
0.4817307591438295
  0
VERTEX
  5
582C
330
5800
100
AcDbEntity
  8
Brisckstyl
 62
     1
100
AcDbVertex
100
AcDb2dVertex
 10
0.104897484417147
 20
0.165639610320606
 30
0.4817307591438295
  0
VERTEX
  5
582D
330
5800
100
AcDbEntity
  8
Brisckstyl
 62
     1
100
AcDbVertex
100
AcDb2dVertex
 10
0.1046600195123618
 20
0.1651808929744146
 30
0.4817307591438295
  0
VERTEX
  5
582E
330
5800
100
AcDbEntity
  8
Brisckstyl
 62
     1
100
AcDbVertex
100
AcDb2dVertex
 10
0.1044492574884369
 20
0.1647231293025396
 30
0.4817307591438295
  0
VERTEX
  5
582F
330
5800
100
AcDbEntity
  8
Brisckstyl
 62
     1
100
AcDbVertex
100
AcDb2dVertex
 10
0.1042690130426379
 20
0.1642706108394049
 30
0.4817307591438295
  0
VERTEX
  5
5830
330
5800
100
AcDbEntity
  8
Brisckstyl
 62
     1
100
AcDbVertex
100
AcDb2dVertex
 10
0.1041922422601654
 20
0.1640484047236822
 30
0.4817307591438295
  0
VERTEX
  5
5831
330
5800
100
AcDbEntity
  8
Brisckstyl
 62
     1
100
AcDbVertex
100
AcDb2dVertex
 10
0.1041250082208579
 20
0.1638290596309088
 30
0.4817307591438295
  0
VERTEX
  5
5832
330
5800
100
AcDbEntity
  8
Brisckstyl
 62
     1
100
AcDbVertex
100
AcDb2dVertex
 10
0.1040677877618744
 20
0.1636140060725591
 30
0.4817307591438295
  0
VERTEX
  5
5833
330
5800
100
AcDbEntity
  8
Brisckstyl
 62
     1
100
AcDbVertex
100
AcDb2dVertex
 10
0.1040215345575278
 20
0.1634037208857925
 30
0.4817307591438295
  0
VERTEX
  5
5834
330
5800
100
AcDbEntity
  8
Brisckstyl
 62
     1
100
AcDbVertex
100
AcDb2dVertex
 10
0.103986725444979
 20
0.163198204070606
 30
0.4817307591438295
  0
VERTEX
  5
5835
330
5800
100
AcDbEntity
  8
Brisckstyl
 62
     1
100
AcDbVertex
100
AcDb2dVertex
 10
0.1039638372613879
 20
0.1629988861384771
 30
0.4817307591438295
  0
VERTEX
  5
5836
330
5800
100
AcDbEntity
  8
Brisckstyl
 62
     1
100
AcDbVertex
100
AcDb2dVertex
 10
0.1039533468439057
 20
0.1628057670894049
 30
0.4817307591438295
  0
VERTEX
  5
5837
330
5800
100
AcDbEntity
  8
Brisckstyl
 62
     1
100
AcDbVertex
100
AcDb2dVertex
 10
0.1039533468439057
 20
0.162712307006397
 30
0.4817307591438295
  0
VERTEX
  5
5838
330
5800
100
AcDbEntity
  8
Brisckstyl
 62
     1
100
AcDbVertex
100
AcDb2dVertex
 10
0.103956207866854
 20
0.1626202774348638
 30
0.4817307591438295
  0
VERTEX
  5
5839
330
5800
100
AcDbEntity
  8
Brisckstyl
 62
     1
100
AcDbVertex
100
AcDb2dVertex
 10
0.1039848180963471
 20
0.1622459602656744
 30
0.4817307591438295
  0
VERTEX
  5
583A
330
5800
100
AcDbEntity
  8
Brisckstyl
 62
     1
100
AcDbVertex
100
AcDb2dVertex
 10
0.1040310713006919
 20
0.1618544769587896
 30
0.4817307591438295
  0
VERTEX
  5
583B
330
5800
100
AcDbEntity
  8
Brisckstyl
 62
     1
100
AcDbVertex
100
AcDb2dVertex
 10
0.1041717382623618
 20
0.1610367012324721
 30
0.4817307591438295
  0
VERTEX
  5
583C
330
5800
100
AcDbEntity
  8
Brisckstyl
 62
     1
100
AcDbVertex
100
AcDb2dVertex
 10
0.1043672414972251
 20
0.1601993751826675
 30
0.4817307591438295
  0
VERTEX
  5
583D
330
5800
100
AcDbEntity
  8
Brisckstyl
 62
     1
100
AcDbVertex
100
AcDb2dVertex
 10
0.1046075674249604
 20
0.159376354247608
 30
0.4817307591438295
  0
VERTEX
  5
583E
330
5800
100
AcDbEntity
  8
Brisckstyl
 62
     1
100
AcDbVertex
100
AcDb2dVertex
 10
0.1048807951166107
 20
0.1586014938655279
 30
0.4817307591438295
  0
VERTEX
  5
583F
330
5800
100
AcDbEntity
  8
Brisckstyl
 62
     1
100
AcDbVertex
100
AcDb2dVertex
 10
0.1050271841241782
 20
0.1582424354854009
 30
0.4817307591438295
  0
VERTEX
  5
5840
330
5800
100
AcDbEntity
  8
Brisckstyl
 62
     1
100
AcDbVertex
100
AcDb2dVertex
 10
0.1051773878290122
 20
0.1579076958003432
 30
0.4817307591438295
  0
VERTEX
  5
5841
330
5800
100
AcDbEntity
  8
Brisckstyl
 62
     1
100
AcDbVertex
100
AcDb2dVertex
 10
0.1053304525567963
 20
0.1576020431819341
 30
0.4817307591438295
  0
VERTEX
  5
5842
330
5800
100
AcDbEntity
  8
Brisckstyl
 62
     1
100
AcDbVertex
100
AcDb2dVertex
 10
0.1054854246332114
 20
0.157329292327442
 30
0.4817307591438295
  0
VERTEX
  5
5843
330
5800
100
AcDbEntity
  8
Brisckstyl
 62
     1
100
AcDbVertex
100
AcDb2dVertex
 10
0.1055631490899994
 20
0.1572062683406256
 30
0.4817307591438295
  0
VERTEX
  5
5844
330
5800
100
AcDbEntity
  8
Brisckstyl
 62
     1
100
AcDbVertex
100
AcDb2dVertex
 10
0.1056408735467865
 20
0.1570932579341323
 30
0.4817307591438295
  0
VERTEX
  5
5845
330
5800
100
AcDbEntity
  8
Brisckstyl
 62
     1
100
AcDbVertex
100
AcDb2dVertex
 10
0.1057181211664154
 20
0.1569907379451177
 30
0.4817307591438295
  0
VERTEX
  5
5846
330
5800
100
AcDbEntity
  8
Brisckstyl
 62
     1
100
AcDbVertex
100
AcDb2dVertex
 10
0.1057953687860443
 20
0.1568991852107427
 30
0.4817307591438295
  0
VERTEX
  5
5847
330
5800
100
AcDbEntity
  8
Brisckstyl
 62
     1
100
AcDbVertex
100
AcDb2dVertex
 10
0.1058721395685142
 20
0.1568157387080572
 30
0.4817307591438295
  0
VERTEX
  5
5848
330
5800
100
AcDbEntity
  8
Brisckstyl
 62
     1
100
AcDbVertex
100
AcDb2dVertex
 10
0.1059503408624604
 20
0.1567375374141119
 30
0.4817307591438295
  0
VERTEX
  5
5849
330
5800
100
AcDbEntity
  8
Brisckstyl
 62
     1
100
AcDbVertex
100
AcDb2dVertex
 10
0.1061062666131919
 20
0.1565954399409682
 30
0.4817307591438295
  0
VERTEX
  5
584A
330
5800
100
AcDbEntity
  8
Brisckstyl
 62
     1
100
AcDbVertex
100
AcDb2dVertex
 10
0.1064066740228607
 20
0.1563484382930181
 30
0.4817307591438295
  0
VERTEX
  5
584B
330
5800
100
AcDbEntity
  8
Brisckstyl
 62
     1
100
AcDbVertex
100
AcDb2dVertex
 10
0.1065430494501068
 20
0.1562335205378912
 30
0.4817307591438295
  0
VERTEX
  5
584C
330
5800
100
AcDbEntity
  8
Brisckstyl
 62
     1
100
AcDbVertex
100
AcDb2dVertex
 10
0.106606468792147
 20
0.1561758232417495
 30
0.4817307591438295
  0
VERTEX
  5
584D
330
5800
100
AcDbEntity
  8
Brisckstyl
 62
     1
100
AcDbVertex
100
AcDb2dVertex
 10
0.1066660734369232
 20
0.1561176491084478
 30
0.4817307591438295
  0
VERTEX
  5
584E
330
5800
100
AcDbEntity
  8
Brisckstyl
 62
     1
100
AcDbVertex
100
AcDb2dVertex
 10
0.1067209097101166
 20
0.1560580444636724
 30
0.4817307591438295
  0
VERTEX
  5
584F
330
5800
100
AcDbEntity
  8
Brisckstyl
 62
     1
100
AcDbVertex
100
AcDb2dVertex
 10
0.106770977611727
 20
0.1559965324702642
 30
0.4817307591438295
  0
VERTEX
  5
5850
330
5800
100
AcDbEntity
  8
Brisckstyl
 62
     1
100
AcDbVertex
100
AcDb2dVertex
 10
0.106794342632479
 20
0.1559645843806646
 30
0.4817307591438295
  0
VERTEX
  5
5851
330
5800
100
AcDbEntity
  8
Brisckstyl
 62
     1
100
AcDbVertex
100
AcDb2dVertex
 10
0.1068158003045981
 20
0.1559321594539068
 30
0.4817307591438295
  0
VERTEX
  5
5852
330
5800
100
AcDbEntity
  8
Brisckstyl
 62
     1
100
AcDbVertex
100
AcDb2dVertex
 10
0.1068363043024018
 20
0.1558987808528326
 30
0.4817307591438295
  0
VERTEX
  5
5853
330
5800
100
AcDbEntity
  8
Brisckstyl
 62
     1
100
AcDbVertex
100
AcDb2dVertex
 10
0.1068549009515717
 20
0.155864448577442
 30
0.4817307591438295
  0
VERTEX
  5
5854
330
5800
100
AcDbEntity
  8
Brisckstyl
 62
     1
100
AcDbVertex
100
AcDb2dVertex
 10
0.106872067089267
 20
0.1558291626277349
 30
0.4817307591438295
  0
VERTEX
  5
5855
330
5800
100
AcDbEntity
  8
Brisckstyl
 62
     1
100
AcDbVertex
100
AcDb2dVertex
 10
0.1068878027154868
 20
0.1557929230037124
 30
0.4817307591438295
  0
VERTEX
  5
5856
330
5800
100
AcDbEntity
  8
Brisckstyl
 62
     1
100
AcDbVertex
100
AcDb2dVertex
 10
0.1069016309930756
 20
0.1557557297053725
 30
0.4817307591438295
  0
VERTEX
  5
5857
330
5800
100
AcDbEntity
  8
Brisckstyl
 62
     1
100
AcDbVertex
100
AcDb2dVertex
 10
0.1069135519220307
 20
0.1557171058955572
 30
0.4817307591438295
  0
VERTEX
  5
5858
330
5800
100
AcDbEntity
  8
Brisckstyl
 62
     1
100
AcDbVertex
100
AcDb2dVertex
 10
0.1069240423395129
 20
0.1556770515742681
 30
0.4817307591438295
  0
VERTEX
  5
5859
330
5800
100
AcDbEntity
  8
Brisckstyl
 62
     1
100
AcDbVertex
100
AcDb2dVertex
 10
0.1069321485712006
 20
0.1556360435786627
 30
0.4817307591438295
  0
VERTEX
  5
585A
330
5800
100
AcDbEntity
  8
Brisckstyl
 62
     1
100
AcDbVertex
100
AcDb2dVertex
 10
0.1069388242914154
 20
0.1555931282344244
 30
0.4817307591438295
  0
VERTEX
  5
585B
330
5800
100
AcDbEntity
  8
Brisckstyl
 62
     1
100
AcDbVertex
100
AcDb2dVertex
 10
0.1069431158258393
 20
0.1555492592158697
 30
0.4817307591438295
  0
VERTEX
  5
585C
330
5800
100
AcDbEntity
  8
Brisckstyl
 62
     1
100
AcDbVertex
100
AcDb2dVertex
 10
0.1069459768487876
 20
0.1555034828486822
 30
0.4817307591438295
  0
VERTEX
  5
585D
330
5800
100
AcDbEntity
  8
Brisckstyl
 62
     1
100
AcDbVertex
100
AcDb2dVertex
 10
0.1069459768487876
 20
0.1554557991328619
 30
0.4817307591438295
  0
VERTEX
  5
585E
330
5800
100
AcDbEntity
  8
Brisckstyl
 62
     1
100
AcDbVertex
100
AcDb2dVertex
 10
0.106944546337313
 20
0.155406684905567
 30
0.4817307591438295
  0
VERTEX
  5
585F
330
5800
100
AcDbEntity
  8
Brisckstyl
 62
     1
100
AcDbVertex
100
AcDb2dVertex
 10
0.1069402548028892
 20
0.1553556633296392
 30
0.4817307591438295
  0
VERTEX
  5
5860
330
5800
100
AcDbEntity
  8
Brisckstyl
 62
     1
100
AcDbVertex
100
AcDb2dVertex
 10
0.1069340559198325
 20
0.1553027344050787
 30
0.4817307591438295
  0
VERTEX
  5
5861
330
5800
100
AcDbEntity
  8
Brisckstyl
 62
     1
100
AcDbVertex
100
AcDb2dVertex
 10
0.1069254728509857
 20
0.1552478981318862
 30
0.4817307591438295
  0
VERTEX
  5
5862
330
5800
100
AcDbEntity
  8
Brisckstyl
 62
     1
100
AcDbVertex
100
AcDb2dVertex
 10
0.1069011541559165
 20
0.155132026702442
 30
0.4817307591438295
  0
VERTEX
  5
5863
330
5800
100
AcDbEntity
  8
Brisckstyl
 62
     1
100
AcDbVertex
100
AcDb2dVertex
 10
0.1068668218805268
 20
0.1550070953669927
 30
0.4817307591438295
  0
VERTEX
  5
5864
330
5800
100
AcDbEntity
  8
Brisckstyl
 62
     1
100
AcDbVertex
100
AcDb2dVertex
 10
0.1068219991876557
 20
0.1548726272883795
 30
0.4817307591438295
  0
VERTEX
  5
5865
330
5800
100
AcDbEntity
  8
Brisckstyl
 62
     1
100
AcDbVertex
100
AcDb2dVertex
 10
0.106766209240145
 20
0.1547286224666021
 30
0.4817307591438295
  0
VERTEX
  5
5866
330
5800
100
AcDbEntity
  8
Brisckstyl
 62
     1
100
AcDbVertex
100
AcDb2dVertex
 10
0.1066984983636802
 20
0.1545736503901861
 30
0.4817307591438295
  0
VERTEX
  5
5867
330
5800
100
AcDbEntity
  8
Brisckstyl
 62
     1
100
AcDbVertex
100
AcDb2dVertex
 10
0.1065277906610443
 20
0.1542288971248061
 30
0.4817307591438295
  0
VERTEX
  5
5868
330
5800
100
AcDbEntity
  8
Brisckstyl
 62
     1
100
AcDbVertex
100
AcDb2dVertex
 10
0.1063055845453217
 20
0.1538340759578131
 30
0.4817307591438295
  0
VERTEX
  5
5869
330
5800
100
AcDbEntity
  8
Brisckstyl
 62
     1
100
AcDbVertex
100
AcDb2dVertex
 10
0.1054997297479575
 20
0.1524836731257818
 30
0.4817307591438295
  0
VERTEX
  5
586A
330
5800
100
AcDbEntity
  8
Brisckstyl
 62
     1
100
AcDbVertex
100
AcDb2dVertex
 10
0.1052160116388267
 20
0.1519844246211431
 30
0.4817307591438295
  0
VERTEX
  5
586B
330
5800
100
AcDbEntity
  8
Brisckstyl
 62
     1
100
AcDbVertex
100
AcDb2dVertex
 10
0.1049904676629966
 20
0.151535720855274
 30
0.4817307591438295
  0
VERTEX
  5
586C
330
5800
100
AcDbEntity
  8
Brisckstyl
 62
     1
100
AcDbVertex
100
AcDb2dVertex
 10
0.1048951002313568
 20
0.1513139915767095
 30
0.4817307591438295
  0
VERTEX
  5
586D
330
5800
100
AcDbEntity
  8
Brisckstyl
 62
     1
100
AcDbVertex
100
AcDb2dVertex
 10
0.104808315868563
 20
0.1510865402522475
 30
0.4817307591438295
  0
VERTEX
  5
586E
330
5800
100
AcDbEntity
  8
Brisckstyl
 62
     1
100
AcDbVertex
100
AcDb2dVertex
 10
0.1047286840631431
 20
0.1508462143245132
 30
0.4817307591438295
  0
VERTEX
  5
586F
330
5800
100
AcDbEntity
  8
Brisckstyl
 62
     1
100
AcDbVertex
100
AcDb2dVertex
 10
0.1046538206293052
 20
0.150587291747608
 30
0.4817307591438295
  0
VERTEX
  5
5870
330
5800
100
AcDbEntity
  8
Brisckstyl
 62
     1
100
AcDbVertex
100
AcDb2dVertex
 10
0.1045112463190033
 20
0.1499874306025893
 30
0.4817307591438295
  0
VERTEX
  5
5871
330
5800
100
AcDbEntity
  8
Brisckstyl
 62
     1
100
AcDbVertex
100
AcDb2dVertex
 10
0.1043648573114341
 20
0.1492368889155776
 30
0.4817307591438295
  0
VERTEX
  5
5872
330
5800
100
AcDbEntity
  8
Brisckstyl
 62
     1
100
AcDbVertex
100
AcDb2dVertex
 10
0.1043019148065513
 20
0.1488320541682632
 30
0.4817307591438295
  0
VERTEX
  5
5873
330
5800
100
AcDbEntity
  8
Brisckstyl
 62
     1
100
AcDbVertex
100
AcDb2dVertex
 10
0.1042642446710532
 20
0.148458213836231
 30
0.4817307591438295
  0
VERTEX
  5
5874
330
5800
100
AcDbEntity
  8
Brisckstyl
 62
     1
100
AcDbVertex
100
AcDb2dVertex
 10
0.1042513700677817
 20
0.1481139374080093
 30
0.4817307591438295
  0
VERTEX
  5
5875
330
5800
100
AcDbEntity
  8
Brisckstyl
 62
     1
100
AcDbVertex
100
AcDb2dVertex
 10
0.1042528005792563
 20
0.1479522896113775
 30
0.4817307591438295
  0
VERTEX
  5
5876
330
5800
100
AcDbEntity
  8
Brisckstyl
 62
     1
100
AcDbVertex
100
AcDb2dVertex
 10
0.1042604299737876
 20
0.1477968406978042
 30
0.4817307591438295
  0
VERTEX
  5
5877
330
5800
100
AcDbEntity
  8
Brisckstyl
 62
     1
100
AcDbVertex
100
AcDb2dVertex
 10
0.1042728277399018
 20
0.1476480675044439
 30
0.4817307591438295
  0
VERTEX
  5
5878
330
5800
100
AcDbEntity
  8
Brisckstyl
 62
     1
100
AcDbVertex
100
AcDb2dVertex
 10
0.1042899938775971
 20
0.147505016356983
 30
0.4817307591438295
  0
VERTEX
  5
5879
330
5800
100
AcDbEntity
  8
Brisckstyl
 62
     1
100
AcDbVertex
100
AcDb2dVertex
 10
0.1043124052240317
 20
0.1473681640925787
 30
0.4817307591438295
  0
VERTEX
  5
587A
330
5800
100
AcDbEntity
  8
Brisckstyl
 62
     1
100
AcDbVertex
100
AcDb2dVertex
 10
0.1043386312677329
 20
0.1472360801997573
 30
0.4817307591438295
  0
VERTEX
  5
587B
330
5800
100
AcDbEntity
  8
Brisckstyl
 62
     1
100
AcDbVertex
100
AcDb2dVertex
 10
0.104369625683017
 20
0.1471097183528326
 30
0.4817307591438295
  0
VERTEX
  5
587C
330
5800
100
AcDbEntity
  8
Brisckstyl
 62
     1
100
AcDbVertex
100
AcDb2dVertex
 10
0.1044049116327231
 20
0.146988601714649
 30
0.4817307591438295
  0
VERTEX
  5
587D
330
5800
100
AcDbEntity
  8
Brisckstyl
 62
     1
100
AcDbVertex
100
AcDb2dVertex
 10
0.1044435354425376
 20
0.1468717766108892
 30
0.4817307591438295
  0
VERTEX
  5
587E
330
5800
100
AcDbEntity
  8
Brisckstyl
 62
     1
100
AcDbVertex
100
AcDb2dVertex
 10
0.1044859739496177
 20
0.1467592430415542
 30
0.4817307591438295
  0
VERTEX
  5
587F
330
5800
100
AcDbEntity
  8
Brisckstyl
 62
     1
100
AcDbVertex
100
AcDb2dVertex
 10
0.1045322271539643
 20
0.1466514778437994
 30
0.4817307591438295
  0
VERTEX
  5
5880
330
5800
100
AcDbEntity
  8
Brisckstyl
 62
     1
100
AcDbVertex
100
AcDb2dVertex
 10
0.1045813413812592
 20
0.1465470505061529
 30
0.4817307591438295
  0
VERTEX
  5
5881
330
5800
100
AcDbEntity
  8
Brisckstyl
 62
     1
100
AcDbVertex
100
AcDb2dVertex
 10
0.1046333166315033
 20
0.146446437865772
 30
0.4817307591438295
  0
VERTEX
  5
5882
330
5800
100
AcDbEntity
  8
Brisckstyl
 62
     1
100
AcDbVertex
100
AcDb2dVertex
 10
0.104688629741854
 20
0.1463496399226568
 30
0.4817307591438295
  0
VERTEX
  5
5883
330
5800
100
AcDbEntity
  8
Brisckstyl
 62
     1
100
AcDbVertex
100
AcDb2dVertex
 10
0.104805931682772
 20
0.146164627105274
 30
0.4817307591438295
  0
VERTEX
  5
5884
330
5800
100
AcDbEntity
  8
Brisckstyl
 62
     1
100
AcDbVertex
100
AcDb2dVertex
 10
0.1049322935296967
 20
0.1459901047053725
 30
0.4817307591438295
  0
VERTEX
  5
5885
330
5800
100
AcDbEntity
  8
Brisckstyl
 62
     1
100
AcDbVertex
100
AcDb2dVertex
 10
0.1050653310968354
 20
0.1458236885371588
 30
0.4817307591438295
  0
VERTEX
  5
5886
330
5800
100
AcDbEntity
  8
Brisckstyl
 62
     1
100
AcDbVertex
100
AcDb2dVertex
 10
0.1052036138727143
 20
0.1456639480891607
 30
0.4817307591438295
  0
VERTEX
  5
5887
330
5800
100
AcDbEntity
  8
Brisckstyl
 62
     1
100
AcDbVertex
100
AcDb2dVertex
 10
0.1054882856561615
 20
0.1453544807734869
 30
0.4817307591438295
  0
VERTEX
  5
5888
330
5800
100
AcDbEntity
  8
Brisckstyl
 62
     1
100
AcDbVertex
100
AcDb2dVertex
 10
0.1052841993524506
 20
0.1398379516902349
 30
0.4817307591438295
  0
VERTEX
  5
5889
330
5800
100
AcDbEntity
  8
Brisckstyl
 62
     1
100
AcDbVertex
100
AcDb2dVertex
 10
0.1042628141595795
 20
0.1374880981746099
 30
0.4817307591438295
  0
VERTEX
  5
588A
330
5800
100
AcDbEntity
  8
Brisckstyl
 62
     1
100
AcDbVertex
100
AcDb2dVertex
 10
0.1042628141595795
 20
0.1268632126155279
 30
0.4817307591438295
  0
VERTEX
  5
588B
330
5800
100
AcDbEntity
  8
Brisckstyl
 62
     1
100
AcDbVertex
100
AcDb2dVertex
 10
0.1111073347284262
 20
0.1268632126155279
 30
0.4817307591438295
  0
VERTEX
  5
588C
330
5800
100
AcDbEntity
  8
Brisckstyl
 62
     1
100
AcDbVertex
100
AcDb2dVertex
 10
0.1111073347284262
 20
0.1309497070613287
 30
0.4817307591438295
  0
VERTEX
  5
588D
330
5800
100
AcDbEntity
  8
Brisckstyl
 62
     1
100
AcDbVertex
100
AcDb2dVertex
 10
0.112876877422518
 20
0.1316897583308599
 30
0.4817307591438295
  0
VERTEX
  5
588E
330
5800
100
AcDbEntity
  8
Brisckstyl
 62
     1
100
AcDbVertex
100
AcDb2dVertex
 10
0.1137032362176841
 20
0.1320821953120611
 30
0.4817307591438295
  0
VERTEX
  5
588F
330
5800
100
AcDbEntity
  8
Brisckstyl
 62
     1
100
AcDbVertex
100
AcDb2dVertex
 10
0.1140918585016205
 20
0.1322877121272475
 30
0.4817307591438295
  0
VERTEX
  5
5890
330
5800
100
AcDbEntity
  8
Brisckstyl
 62
     1
100
AcDbVertex
100
AcDb2dVertex
 10
0.1144594999505942
 20
0.1325013351741225
 30
0.4817307591438295
  0
VERTEX
  5
5891
330
5800
100
AcDbEntity
  8
Brisckstyl
 62
     1
100
AcDbVertex
100
AcDb2dVertex
 10
0.1148042532159751
 20
0.1327240181270025
 30
0.4817307591438295
  0
VERTEX
  5
5892
330
5800
100
AcDbEntity
  8
Brisckstyl
 62
     1
100
AcDbVertex
100
AcDb2dVertex
 10
0.1151227804376556
 20
0.1329567146602056
 30
0.4817307591438295
  0
VERTEX
  5
5893
330
5800
100
AcDbEntity
  8
Brisckstyl
 62
     1
100
AcDbVertex
100
AcDb2dVertex
 10
0.1152710767938568
 20
0.1330768776240728
 30
0.4817307591438295
  0
VERTEX
  5
5894
330
5800
100
AcDbEntity
  8
Brisckstyl
 62
     1
100
AcDbVertex
100
AcDb2dVertex
 10
0.1154117437555267
 20
0.1332003784480474
 30
0.4817307591438295
  0
VERTEX
  5
5895
330
5800
100
AcDbEntity
  8
Brisckstyl
 62
     1
100
AcDbVertex
100
AcDb2dVertex
 10
0.1155443044855063
 20
0.1333267402949722
 30
0.4817307591438295
  0
VERTEX
  5
5896
330
5800
100
AcDbEntity
  8
Brisckstyl
 62
     1
100
AcDbVertex
100
AcDb2dVertex
 10
0.1156687589837982
 20
0.1334564400020025
 30
0.4817307591438295
  0
VERTEX
  5
5897
330
5800
100
AcDbEntity
  8
Brisckstyl
 62
     1
100
AcDbVertex
100
AcDb2dVertex
 10
0.1157846304132416
 20
0.1335899544062994
 30
0.4817307591438295
  0
VERTEX
  5
5898
330
5800
100
AcDbEntity
  8
Brisckstyl
 62
     1
100
AcDbVertex
100
AcDb2dVertex
 10
0.11589096509952
 20
0.1337263298335464
 30
0.4817307591438295
  0
VERTEX
  5
5899
330
5800
100
AcDbEntity
  8
Brisckstyl
 62
     1
100
AcDbVertex
100
AcDb2dVertex
 10
0.1159877630426379
 20
0.1338665199580572
 30
0.4817307591438295
  0
VERTEX
  5
589A
330
5800
100
AcDbEntity
  8
Brisckstyl
 62
     1
100
AcDbVertex
100
AcDb2dVertex
 10
0.1160750242425864
 20
0.1340105247798345
 30
0.4817307591438295
  0
VERTEX
  5
589B
330
5800
100
AcDbEntity
  8
Brisckstyl
 62
     1
100
AcDbVertex
100
AcDb2dVertex
 10
0.1161517950250571
 20
0.1341588211360357
 30
0.4817307591438295
  0
VERTEX
  5
589C
330
5800
100
AcDbEntity
  8
Brisckstyl
 62
     1
100
AcDbVertex
100
AcDb2dVertex
 10
0.1162180753900482
 20
0.1343109321895025
 30
0.4817307591438295
  0
VERTEX
  5
589D
330
5800
100
AcDbEntity
  8
Brisckstyl
 62
     1
100
AcDbVertex
100
AcDb2dVertex
 10
0.1162471624566977
 20
0.1343881798091323
 30
0.4817307591438295
  0
VERTEX
  5
589E
330
5800
100
AcDbEntity
  8
Brisckstyl
 62
     1
100
AcDbVertex
100
AcDb2dVertex
 10
0.1162738653375571
 20
0.1344668579402349
 30
0.4817307591438295
  0
VERTEX
  5
589F
330
5800
100
AcDbEntity
  8
Brisckstyl
 62
     1
100
AcDbVertex
100
AcDb2dVertex
 10
0.1162972303583091
 20
0.1345464897456549
 30
0.4817307591438295
  0
VERTEX
  5
58A0
330
5800
100
AcDbEntity
  8
Brisckstyl
 62
     1
100
AcDbVertex
100
AcDb2dVertex
 10
0.1163177343561118
 20
0.1346275520625494
 30
0.4817307591438295
  0
VERTEX
  5
58A1
330
5800
100
AcDbEntity
  8
Brisckstyl
 62
     1
100
AcDbVertex
100
AcDb2dVertex
 10
0.1170072408868744
 20
0.1370026779475592
 30
0.4817307591438295
  0
VERTEX
  5
58A2
330
5800
100
AcDbEntity
  8
Brisckstyl
 62
     1
100
AcDbVertex
100
AcDb2dVertex
 10
0.1170801969720795
 20
0.137340278655567
 30
0.4817307591438295
  0
VERTEX
  5
58A3
330
5800
100
AcDbEntity
  8
Brisckstyl
 62
     1
100
AcDbVertex
100
AcDb2dVertex
 10
0.1171440931512778
 20
0.1377045822444342
 30
0.4817307591438295
  0
VERTEX
  5
58A4
330
5800
100
AcDbEntity
  8
Brisckstyl
 62
     1
100
AcDbVertex
100
AcDb2dVertex
 10
0.1171970220758392
 20
0.1381008339229009
 30
0.4817307591438295
  0
VERTEX
  5
58A5
330
5800
100
AcDbEntity
  8
Brisckstyl
 62
     1
100
AcDbVertex
100
AcDb2dVertex
 10
0.1172370763971283
 20
0.138535232574024
 30
0.4817307591438295
  0
VERTEX
  5
58A6
330
5800
100
AcDbEntity
  8
Brisckstyl
 62
     1
100
AcDbVertex
100
AcDb2dVertex
 10
0.1172633024408295
 20
0.1390125465693862
 30
0.4817307591438295
  0
VERTEX
  5
58A7
330
5800
100
AcDbEntity
  8
Brisckstyl
 62
     1
100
AcDbVertex
100
AcDb2dVertex
 10
0.1172733160211517
 20
0.1395384979548843
 30
0.4817307591438295
  0
VERTEX
  5
58A8
330
5800
100
AcDbEntity
  8
Brisckstyl
 62
     1
100
AcDbVertex
100
AcDb2dVertex
 10
0.1172375532342865
 20
0.1407572937312506
 30
0.4817307591438295
  0
VERTEX
  5
58A9
330
5800
100
AcDbEntity
  8
Brisckstyl
 62
     1
100
AcDbVertex
100
AcDb2dVertex
 10
0.1171288343622162
 20
0.1420180511775396
 30
0.4817307591438295
  0
VERTEX
  5
58AA
330
5800
100
AcDbEntity
  8
Brisckstyl
 62
     1
100
AcDbVertex
100
AcDb2dVertex
 10
0.1169628950311615
 20
0.1431247902217291
 30
0.4817307591438295
  0
VERTEX
  5
58AB
330
5800
100
AcDbEntity
  8
Brisckstyl
 62
     1
100
AcDbVertex
100
AcDb2dVertex
 10
0.1168613287164643
 20
0.1436226082148931
 30
0.4817307591438295
  0
VERTEX
  5
58AC
330
5800
100
AcDbEntity
  8
Brisckstyl
 62
     1
100
AcDbVertex
100
AcDb2dVertex
 10
0.1167487951471283
 20
0.1440851402583502
 30
0.4817307591438295
  0
VERTEX
  5
58AD
330
5800
100
AcDbEntity
  8
Brisckstyl
 62
     1
100
AcDbVertex
100
AcDb2dVertex
 10
0.1166267248346283
 20
0.1445128631892593
 30
0.4817307591438295
  0
VERTEX
  5
58AE
330
5800
100
AcDbEntity
  8
Brisckstyl
 62
     1
100
AcDbVertex
100
AcDb2dVertex
 10
0.116496548290438
 20
0.1449076843562506
 30
0.4817307591438295
  0
VERTEX
  5
58AF
330
5800
100
AcDbEntity
  8
Brisckstyl
 62
     1
100
AcDbVertex
100
AcDb2dVertex
 10
0.1163592191888764
 20
0.1452700805964849
 30
0.4817307591438295
  0
VERTEX
  5
58B0
330
5800
100
AcDbEntity
  8
Brisckstyl
 62
     1
100
AcDbVertex
100
AcDb2dVertex
 10
0.1162156912042563
 20
0.1456010055842779
 30
0.4817307591438295
  0
VERTEX
  5
58B1
330
5800
100
AcDbEntity
  8
Brisckstyl
 62
     1
100
AcDbVertex
100
AcDb2dVertex
 10
0.1160673948480552
 20
0.1459018898311041
 30
0.4817307591438295
  0
VERTEX
  5
58B2
330
5800
100
AcDbEntity
  8
Brisckstyl
 62
     1
100
AcDbVertex
100
AcDb2dVertex
 10
0.1159152837945893
 20
0.1461736870112799
 30
0.4817307591438295
  0
VERTEX
  5
58B3
330
5800
100
AcDbEntity
  8
Brisckstyl
 62
     1
100
AcDbVertex
100
AcDb2dVertex
 10
0.1157612653924888
 20
0.1464168739619643
 30
0.4817307591438295
  0
VERTEX
  5
58B4
330
5800
100
AcDbEntity
  8
Brisckstyl
 62
     1
100
AcDbVertex
100
AcDb2dVertex
 10
0.1156058164789154
 20
0.1466333580317877
 30
0.4817307591438295
  0
VERTEX
  5
58B5
330
5800
100
AcDbEntity
  8
Brisckstyl
 62
     1
100
AcDbVertex
100
AcDb2dVertex
 10
0.1154503675653412
 20
0.1468240928950689
 30
0.4817307591438295
  0
VERTEX
  5
58B6
330
5800
100
AcDbEntity
  8
Brisckstyl
 62
     1
100
AcDbVertex
100
AcDb2dVertex
 10
0.1152958723260825
 20
0.1469890785518072
 30
0.4817307591438295
  0
VERTEX
  5
58B7
330
5800
100
AcDbEntity
  8
Brisckstyl
 62
     1
100
AcDbVertex
100
AcDb2dVertex
 10
0.1149759145929282
 20
0.1472909164729498
 30
0.4817307591438295
  0
VERTEX
  5
58B8
330
5800
100
AcDbEntity
  8
Brisckstyl
 62
     1
100
AcDbVertex
100
AcDb2dVertex
 10
0.1146306844903892
 20
0.1475846481624029
 30
0.4817307591438295
  0
VERTEX
  5
58B9
330
5800
100
AcDbEntity
  8
Brisckstyl
 62
     1
100
AcDbVertex
100
AcDb2dVertex
 10
0.1138787122919028
 20
0.1481511307063482
 30
0.4817307591438295
  0
VERTEX
  5
58BA
330
5800
100
AcDbEntity
  8
Brisckstyl
 62
     1
100
AcDbVertex
100
AcDb2dVertex
 10
0.1122312399103119
 20
0.1492368889155776
 30
0.4817307591438295
  0
VERTEX
  5
58BB
330
5800
100
AcDbEntity
  8
Brisckstyl
 62
     1
100
AcDbVertex
100
AcDb2dVertex
 10
0.115193829174227
 20
0.1526081276240728
 30
0.4817307591438295
  0
VERTEX
  5
58BC
330
5800
100
AcDbEntity
  8
Brisckstyl
 62
     1
100
AcDbVertex
100
AcDb2dVertex
 10
0.1153015943719818
 20
0.1527201843562506
 30
0.4817307591438295
  0
VERTEX
  5
58BD
330
5800
100
AcDbEntity
  8
Brisckstyl
 62
     1
100
AcDbVertex
100
AcDb2dVertex
 10
0.1153941007806732
 20
0.1528265190425299
 30
0.4817307591438295
  0
VERTEX
  5
58BE
330
5800
100
AcDbEntity
  8
Brisckstyl
 62
     1
100
AcDbVertex
100
AcDb2dVertex
 10
0.1154732557489341
 20
0.1529276085200689
 30
0.4817307591438295
  0
VERTEX
  5
58BF
330
5800
100
AcDbEntity
  8
Brisckstyl
 62
     1
100
AcDbVertex
100
AcDb2dVertex
 10
0.1155395361139252
 20
0.1530239296260259
 30
0.4817307591438295
  0
VERTEX
  5
58C0
330
5800
100
AcDbEntity
  8
Brisckstyl
 62
     1
100
AcDbVertex
100
AcDb2dVertex
 10
0.1155943723871177
 20
0.1531159591975591
 30
0.4817307591438295
  0
VERTEX
  5
58C1
330
5800
100
AcDbEntity
  8
Brisckstyl
 62
     1
100
AcDbVertex
100
AcDb2dVertex
 10
0.1156177374078705
 20
0.153160305053272
 30
0.4817307591438295
  0
VERTEX
  5
58C2
330
5800
100
AcDbEntity
  8
Brisckstyl
 62
     1
100
AcDbVertex
100
AcDb2dVertex
 10
0.1156387182428314
 20
0.1532036972346694
 30
0.4817307591438295
  0
VERTEX
  5
58C3
330
5800
100
AcDbEntity
  8
Brisckstyl
 62
     1
100
AcDbVertex
100
AcDb2dVertex
 10
0.1156568380548432
 20
0.1532461357417495
 30
0.4817307591438295
  0
VERTEX
  5
58C4
330
5800
100
AcDbEntity
  8
Brisckstyl
 62
     1
100
AcDbVertex
100
AcDb2dVertex
 10
0.1156730505182221
 20
0.1532876205745132
 30
0.4817307591438295
  0
VERTEX
  5
58C5
330
5800
100
AcDbEntity
  8
Brisckstyl
 62
     1
100
AcDbVertex
100
AcDb2dVertex
 10
0.1156868787958091
 20
0.1533281517329595
 30
0.4817307591438295
  0
VERTEX
  5
58C6
330
5800
100
AcDbEntity
  8
Brisckstyl
 62
     1
100
AcDbVertex
100
AcDb2dVertex
 10
0.1156983228876068
 20
0.1533682060542495
 30
0.4817307591438295
  0
VERTEX
  5
58C7
330
5800
100
AcDbEntity
  8
Brisckstyl
 62
     1
100
AcDbVertex
100
AcDb2dVertex
 10
0.1157083364679282
 20
0.1534073067012221
 30
0.4817307591438295
  0
VERTEX
  5
58C8
330
5800
100
AcDbEntity
  8
Brisckstyl
 62
     1
100
AcDbVertex
100
AcDb2dVertex
 10
0.1157164426996177
 20
0.1534454536738775
 30
0.4817307591438295
  0
VERTEX
  5
58C9
330
5800
100
AcDbEntity
  8
Brisckstyl
 62
     1
100
AcDbVertex
100
AcDb2dVertex
 10
0.1157226415826752
 20
0.1534836006465338
 30
0.4817307591438295
  0
VERTEX
  5
58CA
330
5800
100
AcDbEntity
  8
Brisckstyl
 62
     1
100
AcDbVertex
100
AcDb2dVertex
 10
0.1157274099542563
 20
0.1535207939448745
 30
0.4817307591438295
  0
VERTEX
  5
58CB
330
5800
100
AcDbEntity
  8
Brisckstyl
 62
     1
100
AcDbVertex
100
AcDb2dVertex
 10
0.1157307478143638
 20
0.153557033568897
 30
0.4817307591438295
  0
VERTEX
  5
58CC
330
5800
100
AcDbEntity
  8
Brisckstyl
 62
     1
100
AcDbVertex
100
AcDb2dVertex
 10
0.1157326551629966
 20
0.1535932731929214
 30
0.4817307591438295
  0
VERTEX
  5
58CD
330
5800
100
AcDbEntity
  8
Brisckstyl
 62
     1
100
AcDbVertex
100
AcDb2dVertex
 10
0.1157326551629966
 20
0.1536643219294927
 30
0.4817307591438295
  0
VERTEX
  5
58CE
330
5800
100
AcDbEntity
  8
Brisckstyl
 62
     1
100
AcDbVertex
100
AcDb2dVertex
 10
0.1157293173028892
 20
0.1537334633174322
 30
0.4817307591438295
  0
VERTEX
  5
58CF
330
5800
100
AcDbEntity
  8
Brisckstyl
 62
     1
100
AcDbVertex
100
AcDb2dVertex
 10
0.1157226415826752
 20
0.1538016510310561
 30
0.4817307591438295
  0
VERTEX
  5
58D0
330
5800
100
AcDbEntity
  8
Brisckstyl
 62
     1
100
AcDbVertex
100
AcDb2dVertex
 10
0.1157049986078217
 20
0.1539361191096694
 30
0.4817307591438295
  0
VERTEX
  5
58D1
330
5800
100
AcDbEntity
  8
Brisckstyl
 62
     1
100
AcDbVertex
100
AcDb2dVertex
 10
0.1146478506280854
 20
0.1552731705012701
 30
0.4817307591438295
  0
VERTEX
  5
58D2
330
5800
100
AcDbEntity
  8
Brisckstyl
 62
     1
100
AcDbVertex
100
AcDb2dVertex
 10
0.1136870237543052
 20
0.1565863800349624
 30
0.4817307591438295
  0
VERTEX
  5
58D3
330
5800
100
AcDbEntity
  8
Brisckstyl
 62
     1
100
AcDbVertex
100
AcDb2dVertex
 10
0.1132726522638267
 20
0.1572262955012701
 30
0.4817307591438295
  0
VERTEX
  5
58D4
330
5800
100
AcDbEntity
  8
Brisckstyl
 62
     1
100
AcDbVertex
100
AcDb2dVertex
 10
0.1129174085809662
 20
0.1578514290156744
 30
0.4817307591438295
  0
VERTEX
  5
58D5
330
5800
100
AcDbEntity
  8
Brisckstyl
 62
     1
100
AcDbVertex
100
AcDb2dVertex
 10
0.1127662512018158
 20
0.1581570816340826
 30
0.4817307591438295
  0
VERTEX
  5
58D6
330
5800
100
AcDbEntity
  8
Brisckstyl
 62
     1
100
AcDbVertex
100
AcDb2dVertex
 10
0.1126346441461518
 20
0.158458442718067
 30
0.4817307591438295
  0
VERTEX
  5
58D7
330
5800
100
AcDbEntity
  8
Brisckstyl
 62
     1
100
AcDbVertex
100
AcDb2dVertex
 10
0.1125240179254477
 20
0.1587540817561529
 30
0.4817307591438295
  0
VERTEX
  5
58D8
330
5800
100
AcDbEntity
  8
Brisckstyl
 62
     1
100
AcDbVertex
100
AcDb2dVertex
 10
0.1124358030511802
 20
0.1590444755854995
 30
0.4817307591438295
  0
VERTEX
  5
58D9
330
5800
100
AcDbEntity
  8
Brisckstyl
 62
     1
100
AcDbVertex
100
AcDb2dVertex
 10
0.1123661848260825
 20
0.1593324852290542
 30
0.4817307591438295
  0
VERTEX
  5
58DA
330
5800
100
AcDbEntity
  8
Brisckstyl
 62
     1
100
AcDbVertex
100
AcDb2dVertex
 10
0.1123099180414154
 20
0.1596214485469244
 30
0.4817307591438295
  0
VERTEX
  5
58DB
330
5800
100
AcDbEntity
  8
Brisckstyl
 62
     1
100
AcDbVertex
100
AcDb2dVertex
 10
0.1122665258600181
 20
0.1599113655391119
 30
0.4817307591438295
  0
VERTEX
  5
58DC
330
5800
100
AcDbEntity
  8
Brisckstyl
 62
     1
100
AcDbVertex
100
AcDb2dVertex
 10
0.1122345777704193
 20
0.160202713042774
 30
0.4817307591438295
  0
VERTEX
  5
58DD
330
5800
100
AcDbEntity
  8
Brisckstyl
 62
     1
100
AcDbVertex
100
AcDb2dVertex
 10
0.1122021528436615
 20
0.160787315398731
 30
0.4817307591438295
  0
VERTEX
  5
58DE
330
5800
100
AcDbEntity
  8
Brisckstyl
 62
     1
100
AcDbVertex
100
AcDb2dVertex
 10
0.1122054907037681
 20
0.1613752556147964
 30
0.4817307591438295
  0
VERTEX
  5
58DF
330
5800
100
AcDbEntity
  8
Brisckstyl
 62
     1
100
AcDbVertex
100
AcDb2dVertex
 10
0.1122379156305268
 20
0.1619651031794927
 30
0.4817307591438295
  0
VERTEX
  5
58E0
330
5800
100
AcDbEntity
  8
Brisckstyl
 62
     1
100
AcDbVertex
100
AcDb2dVertex
 10
0.1122917982294028
 20
0.1625568580928228
 30
0.4817307591438295
  0
VERTEX
  5
58E1
330
5800
100
AcDbEntity
  8
Brisckstyl
 62
     1
100
AcDbVertex
100
AcDb2dVertex
 10
0.1124358030511802
 20
0.1637437057795913
 30
0.4817307591438295
  0
VERTEX
  5
58E2
330
5800
100
AcDbEntity
  8
Brisckstyl
 62
     1
100
AcDbVertex
100
AcDb2dVertex
 10
0.1150855871393158
 20
0.1670896721187026
 30
0.4817307591438295
  0
VERTEX
  5
58E3
330
5800
100
AcDbEntity
  8
Brisckstyl
 62
     1
100
AcDbVertex
100
AcDb2dVertex
 10
0.1160631033136313
 20
0.1684276771846197
 30
0.4817307591438295
  0
VERTEX
  5
58E4
330
5800
100
AcDbEntity
  8
Brisckstyl
 62
     1
100
AcDbVertex
100
AcDb2dVertex
 10
0.1164045187189057
 20
0.1689536285701177
 30
0.4817307591438295
  0
VERTEX
  5
58E5
330
5800
100
AcDbEntity
  8
Brisckstyl
 62
     1
100
AcDbVertex
100
AcDb2dVertex
 10
0.1165308805658295
 20
0.1691739273372076
 30
0.4817307591438295
  0
VERTEX
  5
58E6
330
5800
100
AcDbEntity
  8
Brisckstyl
 62
     1
100
AcDbVertex
100
AcDb2dVertex
 10
0.1165819021417563
 20
0.1692726326289556
 30
0.4817307591438295
  0
VERTEX
  5
58E7
330
5800
100
AcDbEntity
  8
Brisckstyl
 62
     1
100
AcDbVertex
100
AcDb2dVertex
 10
0.1166243406488364
 20
0.169362754851856
 30
0.4817307591438295
  0
VERTEX
  5
58E8
330
5800
100
AcDbEntity
  8
Brisckstyl
 62
     1
100
AcDbVertex
100
AcDb2dVertex
 10
0.1167063566400482
 20
0.169566841155567
 30
0.4817307591438295
  0
VERTEX
  5
58E9
330
5800
100
AcDbEntity
  8
Brisckstyl
 62
     1
100
AcDbVertex
100
AcDb2dVertex
 10
0.1167974325372642
 20
0.1698310089412124
 30
0.4817307591438295
  0
VERTEX
  5
58EA
330
5800
100
AcDbEntity
  8
Brisckstyl
 62
     1
100
AcDbVertex
100
AcDb2dVertex
 10
0.1169948431207629
 20
0.1705219459834478
 30
0.4817307591438295
  0
VERTEX
  5
58EB
330
5800
100
AcDbEntity
  8
Brisckstyl
 62
     1
100
AcDbVertex
100
AcDb2dVertex
 10
0.1171917768670981
 20
0.1713993263545425
 30
0.4817307591438295
  0
VERTEX
  5
58EC
330
5800
100
AcDbEntity
  8
Brisckstyl
 62
     1
100
AcDbVertex
100
AcDb2dVertex
 10
0.1173648687555268
 20
0.1724278641047857
 30
0.4817307591438295
  0
VERTEX
  5
58ED
330
5800
100
AcDbEntity
  8
Brisckstyl
 62
     1
100
AcDbVertex
100
AcDb2dVertex
 10
0.1174902769281342
 20
0.1735708427729995
 30
0.4817307591438295
  0
VERTEX
  5
58EE
330
5800
100
AcDbEntity
  8
Brisckstyl
 62
     1
100
AcDbVertex
100
AcDb2dVertex
 10
0.1175274702264731
 20
0.1741745186152838
 30
0.4817307591438295
  0
VERTEX
  5
58EF
330
5800
100
AcDbEntity
  8
Brisckstyl
 62
     1
100
AcDbVertex
100
AcDb2dVertex
 10
0.117543682689852
 20
0.1747934532466323
 30
0.4817307591438295
  0
VERTEX
  5
58F0
330
5800
100
AcDbEntity
  8
Brisckstyl
 62
     1
100
AcDbVertex
100
AcDb2dVertex
 10
0.1175360532953217
 20
0.1754228782954595
 30
0.4817307591438295
  0
VERTEX
  5
58F1
330
5800
100
AcDbEntity
  8
Brisckstyl
 62
     1
100
AcDbVertex
100
AcDb2dVertex
 10
0.117501244182772
 20
0.1760589790645025
 30
0.4817307591438295
  0
VERTEX
  5
58F2
330
5800
100
AcDbEntity
  8
Brisckstyl
 62
     1
100
AcDbVertex
100
AcDb2dVertex
 10
0.1174368711664154
 20
0.1766965103450201
 30
0.4817307591438295
  0
VERTEX
  5
58F3
330
5800
100
AcDbEntity
  8
Brisckstyl
 62
     1
100
AcDbVertex
100
AcDb2dVertex
 10
0.117339596386142
 20
0.1773316574397475
 30
0.4817307591438295
  0
VERTEX
  5
58F4
330
5800
100
AcDbEntity
  8
Brisckstyl
 62
     1
100
AcDbVertex
100
AcDb2dVertex
 10
0.1172017904474213
 20
0.177971096068897
 30
0.4817307591438295
  0
VERTEX
  5
58F5
330
5800
100
AcDbEntity
  8
Brisckstyl
 62
     1
100
AcDbVertex
100
AcDb2dVertex
 10
0.1170229765130942
 20
0.1786200714412124
 30
0.4817307591438295
  0
VERTEX
  5
58F6
330
5800
100
AcDbEntity
  8
Brisckstyl
 62
     1
100
AcDbVertex
100
AcDb2dVertex
 10
0.1168098303033783
 20
0.1792719078364752
 30
0.4817307591438295
  0
VERTEX
  5
58F7
330
5800
100
AcDbEntity
  8
Brisckstyl
 62
     1
100
AcDbVertex
100
AcDb2dVertex
 10
0.1165699812128013
 20
0.1799189758601568
 30
0.4817307591438295
  0
VERTEX
  5
58F8
330
5800
100
AcDbEntity
  8
Brisckstyl
 62
     1
100
AcDbVertex
100
AcDb2dVertex
 10
0.1160354467584564
 20
0.181173057586231
 30
0.4817307591438295
  0
VERTEX
  5
58F9
330
5800
100
AcDbEntity
  8
Brisckstyl
 62
     1
100
AcDbVertex
100
AcDb2dVertex
 10
0.1154746862604096
 20
0.1823246193232925
 30
0.4817307591438295
  0
VERTEX
  5
58FA
330
5800
100
AcDbEntity
  8
Brisckstyl
 62
     1
100
AcDbVertex
100
AcDb2dVertex
 10
0.1144947859003013
 20
0.1840984535518072
 30
0.4817307591438295
  0
VERTEX
  5
58FB
330
5800
100
AcDbEntity
  8
Brisckstyl
 62
     1
100
AcDbVertex
100
AcDb2dVertex
 10
0.1140704008295014
 20
0.1847893905940444
 30
0.4817307591438295
  0
VERTEX
  5
58FC
330
5800
100
AcDbEntity
  8
Brisckstyl
 62
     1
100
AcDbVertex
100
AcDb2dVertex
 10
0.1106991621210053
 20
0.1884672355952642
 30
0.4817307591438295
  0
VERTEX
  5
58FD
330
5800
100
AcDbEntity
  8
Brisckstyl
 62
     1
100
AcDbVertex
100
AcDb2dVertex
 10
0.1106991621210053
 20
0.1922471237483413
 30
0.4817307591438295
  0
SEQEND
  5
58FE
330
5800
100
AcDbEntity
  8
Brisckstyl
 62
     1
  0
DIMENSION
  5
5965
330
2
100
AcDbEntity
  8
Dimensione
100
AcDbDimension
  2
*D28
 10
0.3611113162121233
 20
0.1052032863427102
 30
0.0
 11
0.3611113162121233
 21
0.1575036221368056
 31
0.0
 70
    32
  1
220 mm
 71
     5
 42
0.1046006715881905
  3
Bovelacci
100
AcDbAlignedDimension
 13
0.2702346090986521
 23
0.2098039579309007
 33
0.0
 14
0.3135541793783483
 24
0.1052032863427103
 34
0.0
 50
90.0
100
AcDbRotatedDimension
  0
DIMENSION
  5
5966
330
2
100
AcDbEntity
  8
Dimensione
100
AcDbDimension
  2
*D29
 10
0.3341404989256207
 20
0.2327486824420788
 30
0.0
 11
0.2815534546993013
 21
0.2327486824420788
 31
0.0
 70
    32
  1
220 mm
 71
     5
 42
0.1051740884526389
  3
Bovelacci
100
AcDbAlignedDimension
 13
0.2289664104729819
 23
0.1920488721168113
 33
0.0
 14
0.3341404989256207
 24
0.1473256675448445
 34
0.0
100
AcDbRotatedDimension
  0
LWPOLYLINE
  5
5967
330
2
100
AcDbEntity
  8
Dimensione
 62
     3
100
AcDbPolyline
 90
        4
 70
     0
 43
0.0
 10
0.3341404989256207
 20
0.1134600171212287
 10
0.2979768919579853
 20
0.1134600171212287
 42
0.3889871693915641
 10
0.236960889262581
 20
0.1744760198166331
 10
0.236960889262581
 20
0.2098039579309007
  0
LWPOLYLINE
  5
596B
330
2
100
AcDbEntity
  8
Dimensione
 62
     3
100
AcDbPolyline
 90
        4
 70
     0
 43
0.0
 10
0.3341404989256207
 20
0.1473256675448445
 10
0.3247738041247055
 20
0.1473256675448445
 42
0.2032566771925839
 10
0.2708265396861968
 20
0.2012729319833531
 10
0.2708265396861968
 20
0.2098039579309007
  0
LINE
  5
596C
330
2
100
AcDbEntity
  8
Dimensione
 62
     1
100
AcDbLine
 10
0.3341404989256207
 20
0.1134600171212287
 30
0.0
 11
0.3341404989256207
 21
0.1473256675448445
 31
0.0
  0
LINE
  5
596D
330
2
100
AcDbEntity
  8
Dimensione
 62
     1
100
AcDbLine
 10
0.2708265396861968
 20
0.2098039579309007
 30
0.0
 11
0.236960889262581
 21
0.2098039579309007
 31
0.0
  0
LWPOLYLINE
  5
5970
330
2
100
AcDbEntity
  8
Dimensione
 62
     2
100
AcDbPolyline
 90
       32
 70
     1
 43
0.0
 10
0.3290269212788253
 20
0.113146470422009
 10
0.3273541919691796
 20
0.11220583032435
 10
0.3228587336226116
 20
0.1096974567305926
 10
0.3207678222334219
 20
0.1078161757609743
 10
0.3195132759947898
 20
0.1068755356633152
 10
0.3177360011652582
 20
0.1057258646909432
 10
0.3135541793783483
 20
0.1052032863427103
 10
0.3128223607391463
 20
0.1061439272146694
 10
0.3127178152192603
 20
0.1072935981870416
 10
0.3125087241794882
 20
0.1079206915854809
 10
0.3112541769493863
 20
0.1075026290617545
 10
0.3098950851908684
 20
0.1071890823625349
 10
0.3079087193215646
 20
0.1061439272146694
 10
0.3066541730829327
 20
0.10551683304193
 10
0.3057132634039585
 20
0.10551683304193
 10
0.3046678072136288
 20
0.1056213488664366
 10
0.304354170653971
 20
0.1065619889640955
 10
0.304354170653971
 20
0.1075026290617545
 10
0.3037268975346548
 20
0.1078161757609743
 10
0.3032041699352248
 20
0.1077116607107679
 10
0.3016359871369348
 20
0.1077116607107679
 10
0.299022348148315
 20
0.1057258646909432
 10
0.2967223457193533
 20
0.1054123179917235
 10
0.2954677994807211
 20
0.1058303805154499
 10
0.2945268888102774
 20
0.1069800514878219
 10
0.2945268888102774
 20
0.1079206915854809
 10
0.294631435321633
 20
0.1085477849839203
 10
0.294735980841519
 20
0.1091748783823596
 10
0.2957814360403792
 20
0.1102200343045254
 10
0.2965132546795813
 20
0.1114742211014039
 10
0.2974541643585554
 20
0.1123103461488566
 10
0.2979768919579853
 20
0.1134600171212287
  0
LWPOLYLINE
  5
5971
330
2
100
AcDbEntity
  8
Dimensione
 62
     2
100
AcDbPolyline
 90
       14
 70
     1
 43
0.0
 10
0.3207917860554679
 20
0.1091924573213493
 10
0.319763783697298
 20
0.1081647502557283
 10
0.3187871821014915
 20
0.1074967405082146
 10
0.3178619792851098
 20
0.106828730760701
 10
0.3163199762435895
 20
0.1063662621165915
 10
0.3152919738854194
 20
0.1064176477795925
 10
0.3152919738854194
 20
0.1075481253969155
 10
0.3158573753311333
 20
0.1086786037885389
 10
0.3166797776142574
 20
0.1095521554137569
 10
0.3180675803516256
 20
0.1101173946095686
 10
0.3193011827848418
 20
0.1102715508242717
 10
0.3202263846097539
 20
0.1101687794982694
 10
0.3207403862845739
 20
0.1100660089465673
 10
0.3208431858263621
 20
0.1099118527318643
  0
LWPOLYLINE
  5
5972
330
2
100
AcDbEntity
  8
Dimensione
 62
     2
100
AcDbPolyline
 90
       14
 70
     1
 43
0.0
 10
0.3107687643026467
 20
0.1088841448919428
 10
0.3097407619444767
 20
0.1078564378263219
 10
0.3087641603486704
 20
0.1071884280788083
 10
0.3078389575322887
 20
0.1065204183312945
 10
0.3062969544907684
 20
0.1060579496871849
 10
0.3052689521325981
 20
0.106109335350186
 10
0.3052689521325981
 20
0.107239812967509
 10
0.3058343535783122
 20
0.1083702913591324
 10
0.3066567558614361
 20
0.1092438429843505
 10
0.3080445585988043
 20
0.1098090821801621
 10
0.3092781610320205
 20
0.1099632383948653
 10
0.3102033628569328
 20
0.109860467068863
 10
0.3107173645317526
 20
0.109757696517161
 10
0.3108201640735408
 20
0.1096035403024578
  0
LWPOLYLINE
  5
5973
330
2
100
AcDbEntity
  8
Dimensione
 62
     2
100
AcDbPolyline
 90
       14
 70
     1
 43
0.0
 10
0.3019279462036172
 20
0.1086786037885388
 10
0.3008999438454474
 20
0.1076508967229179
 10
0.2999233422496411
 20
0.1069828869754042
 10
0.2989981394332593
 20
0.1063148772278905
 10
0.297456136391739
 20
0.1058524085837809
 10
0.2964281340335689
 20
0.105903794246782
 10
0.2964281340335689
 20
0.1070342718641051
 10
0.2969935354792827
 20
0.1081647502557284
 10
0.2978159377624068
 20
0.1090383018809464
 10
0.2992037404997749
 20
0.1096035410767582
 10
0.3004373429329912
 20
0.1097576972914613
 10
0.3013625447579034
 20
0.1096549259654589
 10
0.3018765464327234
 20
0.1095521554137569
 10
0.3019793459745115
 20
0.1093979991990537
  0
LWPOLYLINE
  5
5974
330
2
100
AcDbEntity
  8
Dimensione
 62
     2
100
AcDbPolyline
 90
        8
 70
     0
 43
0.0
 10
0.2964783115920764
 20
0.1128250026349744
 42
0.4142135623730951
 10
0.236273087502551
 20
0.1730302267244998
 42
0.5773502691896294
 10
0.2318938771848952
 20
0.16544521195729
 42
0.3065548323722033
 10
0.239759450745017
 20
0.1594634015004615
 42
0.4469743164439377
 10
0.2443218687074461
 20
0.1640258194628907
 42
0.382194540201077
 10
0.2419327167610961
 20
0.1664149714092407
 42
0.2977978211628986
 10
0.2385285792548219
 20
0.1644495917036348
 42
-0.9999999999999966
 10
0.2360973184020112
 20
0.1668808525564456
 42
-0.414213562373095
  0
LWPOLYLINE
  5
5975
330
2
100
AcDbEntity
  8
Dimensione
 62
     2
100
AcDbPolyline
 90
        8
 70
     0
 43
0.0
 10
0.2358306245810947
 20
0.1734726896459559
 42
-0.4142135623730951
 10
0.2960358486706203
 20
0.1132674655564305
 42
-0.5773502691896294
 10
0.2884508339034105
 20
0.1088882552387748
 42
-0.3065548323722033
 10
0.282469023446582
 20
0.1167538287988965
 42
-0.4469743164439377
 10
0.2870314414090112
 20
0.1213162467613256
 42
-0.382194540201077
 10
0.2894205933553612
 20
0.1189270948149757
 42
-0.2977978211628986
 10
0.2874552136497553
 20
0.1155229573087015
 42
0.9999999999999966
 10
0.289886474502566
 20
0.1130916964558908
 42
0.414213562373095
  0
LWPOLYLINE
  5
5976
330
2
100
AcDbEntity
  8
Dimensione
 62
     2
100
AcDbPolyline
 90
        2
 70
     0
 43
0.0
 10
0.290979172159147
 20
0.1132674655564307
 42
0.4031348011985731
 10
0.2377175164209967
 20
0.1685910143104482
 42
2.20109065412881
  0
LWPOLYLINE
  5
5977
330
2
100
AcDbEntity
  8
Dimensione
 62
     2
100
AcDbPolyline
 90
        2
 70
     0
 43
0.0
 10
0.2870314414090112
 20
0.1213162467613256
 42
0.3517459035138461
 10
0.2443218687074459
 20
0.1640258194628906
 42
0.4795680125983903
  0
LWPOLYLINE
  5
5978
330
2
100
AcDbEntity
  8
Dimensione
 62
     2
100
AcDbPolyline
 90
       32
 70
     1
 43
0.0
 10
0.2366483053781641
 20
0.2054307031238335
 10
0.2357076652805051
 20
0.2037579738141877
 10
0.2331992916867478
 20
0.1992625154676199
 10
0.2313180107171295
 20
0.19717160407843
 10
0.2303773706194705
 20
0.195917057839798
 10
0.2292276996470983
 20
0.1941397830102662
 10
0.2287051212988655
 20
0.1899579612233564
 10
0.2296457621708248
 20
0.1892261425841545
 10
0.2307954331431968
 20
0.1891215970642683
 10
0.2314225265416362
 20
0.1889125060244964
 10
0.2310044640179098
 20
0.1876579587943945
 10
0.2306909173186902
 20
0.1862988670358765
 10
0.2296457621708248
 20
0.1843125011665727
 10
0.2290186679980852
 20
0.1830579549279407
 10
0.2290186679980852
 20
0.1821170452489667
 10
0.2291231838225919
 20
0.181071589058637
 10
0.2300638239202508
 20
0.1807579524989792
 10
0.2310044640179098
 20
0.1807579524989792
 10
0.2313180107171295
 20
0.180130679379663
 10
0.2312134956669232
 20
0.1796079517802329
 10
0.2312134956669232
 20
0.1780397689819428
 10
0.2292276996470985
 20
0.1754261299933232
 10
0.2289141529478789
 20
0.1731261275643614
 10
0.2293322154716051
 20
0.1718715813257292
 10
0.2304818864439773
 20
0.1709306706552857
 10
0.2314225265416363
 20
0.1709306706552857
 10
0.2320496199400757
 20
0.1710352171666412
 10
0.232676713338515
 20
0.1711397626865272
 10
0.2337218692606806
 20
0.1721852178853873
 10
0.2349760560575592
 20
0.1729170365245893
 10
0.2358121811050119
 20
0.1738579462035635
 10
0.2369618520773839
 20
0.1743806738029935
  0
LWPOLYLINE
  5
5979
330
2
100
AcDbEntity
  8
Dimensione
 62
     2
100
AcDbPolyline
 90
       14
 70
     1
 43
0.0
 10
0.2326942922775046
 20
0.1971955679004761
 10
0.2316665852118835
 20
0.1961675655423062
 10
0.23099857546437
 20
0.1951909639464997
 10
0.2303305657168562
 20
0.1942657611301181
 10
0.2298680970727467
 20
0.1927237580885977
 10
0.2299194827357478
 20
0.1916957557304275
 10
0.2310499603530707
 20
0.1916957557304275
 10
0.2321804387446942
 20
0.1922611571761416
 10
0.2330539903699122
 20
0.1930835594592656
 10
0.2336192295657238
 20
0.1944713621966337
 10
0.2337733857804269
 20
0.19570496462985
 10
0.2336706144544247
 20
0.1966301664547621
 10
0.2335678439027227
 20
0.197144168129582
 10
0.2334136876880195
 20
0.1972469676713703
  0
LWPOLYLINE
  5
597A
330
2
100
AcDbEntity
  8
Dimensione
 62
     2
100
AcDbPolyline
 90
       14
 70
     1
 43
0.0
 10
0.2323859798480981
 20
0.1871725461476549
 10
0.2313582727824772
 20
0.1861445437894849
 10
0.2306902630349635
 20
0.1851679421936785
 10
0.2300222532874498
 20
0.1842427393772968
 10
0.2295597846433402
 20
0.1827007363357765
 10
0.2296111703063413
 20
0.1816727339776063
 10
0.2307416479236643
 20
0.1816727339776063
 10
0.2318721263152877
 20
0.1822381354233202
 10
0.2327456779405058
 20
0.1830605377064443
 10
0.2333109171363174
 20
0.1844483404438124
 10
0.2334650733510206
 20
0.1856819428770288
 10
0.2333623020250183
 20
0.1866071447019408
 10
0.2332595314733162
 20
0.1871211463767608
 10
0.233105375258613
 20
0.187223945918549
  0
LWPOLYLINE
  5
597B
330
2
100
AcDbEntity
  8
Dimensione
 62
     2
100
AcDbPolyline
 90
       14
 70
     1
 43
0.0
 10
0.232180438744694
 20
0.1783317280486254
 10
0.2311527316790731
 20
0.1773037256904555
 10
0.2304847219315595
 20
0.1763271240946491
 10
0.2298167121840457
 20
0.1754019212782675
 10
0.2293542435399363
 20
0.1738599182367472
 10
0.2294056292029374
 20
0.172831915878577
 10
0.2305361068202603
 20
0.172831915878577
 10
0.2316665852118838
 20
0.173397317324291
 10
0.2325401368371018
 20
0.1742197196074149
 10
0.2331053760329134
 20
0.1756075223447832
 10
0.2332595322476165
 20
0.1768411247779993
 10
0.2331567609216142
 20
0.1777663266029116
 10
0.2330539903699121
 20
0.1782803282777314
 10
0.2328998341552089
 20
0.1783831278195196
  0
LWPOLYLINE
  5
59AA
330
2
100
AcDbEntity
  8
Dimensione
 62
     2
100
AcDbPolyline
 90
        4
 70
     0
 43
0.0
 10
0.3341404989256207
 20
0.1435386072322298
 10
0.3221833968383462
 20
0.1435386072322298
 42
0.2173747859754378
 10
0.2670394793735821
 20
0.1986825246969938
 10
0.2670394793735821
 20
0.2098039579309007
  0
LWPOLYLINE
  5
59AB
330
2
100
AcDbEntity
  8
Dimensione
 62
     2
100
AcDbPolyline
 90
        4
 70
     0
 43
0.0
 10
0.3341404989256207
 20
0.1271527339367422
 10
0.3099614679294648
 20
0.1271527339367422
 42
0.2937481587006688
 10
0.2506536060780945
 20
0.1864605957881123
 10
0.2506536060780945
 20
0.2098039579309007
  0
LWPOLYLINE
  5
59AC
330
2
100
AcDbEntity
  8
Dimensione
 62
     2
100
AcDbPolyline
 90
        4
 70
     0
 43
0.0
 10
0.3341404989256207
 20
0.1247756759528937
 10
0.3080206181043414
 20
0.1247756759528937
 42
0.3076090293459143
 10
0.2482765480942461
 20
0.1845197459629889
 10
0.2482765480942461
 20
0.2098039579309007
  0
LWPOLYLINE
  5
59AD
330
2
100
AcDbEntity
  8
Dimensione
 62
     2
100
AcDbPolyline
 90
        4
 70
     0
 43
0.0
 10
0.3341404989256207
 20
0.1153125865235141
 10
0.2997266767787028
 20
0.1153125865235141
 42
0.3735152637068072
 10
0.2388134586648665
 20
0.1762258046373504
 10
0.2388134586648665
 20
0.2098039579309007
  0
VIEWPORT
  5
7B
330
79
100
AcDbEntity
 67
     1
  8
0
100
AcDbViewport
 10
145.330337524414
 20
101.8116638660431
 30
0.0
 40
351.1337450215151
 41
222.1517806396485
 68
     1
 69
     1
 12
145.330337524414
 22
101.8116638660431
 13
0.0
 23
0.0
 14
10.0
 24
10.0
 15
10.0
 25
10.0
 16
0.0
 26
0.0
 36
1.0
 17
0.0
 27
0.0
 37
0.0
 42
50.0
 43
0.0
 44
0.0
 45
222.1517806396485
 50
0.0
 51
0.0
 72
  1000
 90
    32800
  1

281
     0
 71
     1
 74
     0
110
0.0
120
0.0
130
0.0
111
1.0
121
0.0
131
0.0
112
0.0
122
1.0
132
0.0
 79
     0
146
0.0
170
     0
  0
VIEWPORT
  5
80
330
79
100
AcDbEntity
 67
     1
  8
Sezione
100
AcDbViewport
 10
145.3303314447403
 20
101.8116623163223
 30
0.0
 40
232.5285303115845
 41
162.8986597061157
 68
     2
 69
     2
 12
0.2100067158578973
 22
0.1484909068076998
 13
0.0
 23
0.0
 14
10.0
 24
10.0
 15
10.0
 25
10.0
 16
0.0
 26
0.0
 36
1.0
 17
0.0
 27
0.0
 37
0.0
 42
50.0
 43
0.0
 44
0.0
 45
0.2752830087467564
 50
0.0
 51
0.0
 72
  1000
 90
    32864
  1

281
     0
 71
     1
 74
     0
110
0.0
120
0.0
130
0.0
111
1.0
121
0.0
131
0.0
112
0.0
122
1.0
132
0.0
 79
     0
146
0.0
170
     0
  0
ENDSEC
  0
SECTION
  2
OBJECTS
  0
DICTIONARY
  5
9
330
0
100
AcDbDictionary
281
     1
  3
ACAD_2007HEADERVARS_RT
350
14A
  3
ACAD_COLOR
350
A1
  3
ACAD_GROUP
350
9C
  3
ACAD_IMAGE_DICT
350
181E
  3
ACAD_IMAGE_VARS
350
1820
  3
ACAD_LAYOUT
350
78
  3
ACAD_MATERIAL
350
B
  3
ACAD_MLINESTYLE
350
9D
  3
ACAD_PLOTSETTINGS
350
9E
  3
ACAD_PLOTSTYLENAME
350
8
  3
ACAD_TABLESTYLE
350
A2
  3
ACAD_VISUALSTYLE
350
7F
  3
AcDbVariableDictionary
350
A9
  3
AEC_CLASSIFICATION_SYSTEM_DEFS
350
5697
  3
AEC_PROPERTY_SET_DEFS
350
10D
  0
DICTIONARY
  5
8B
330
8A
100
AcDbDictionary
280
     1
281
     1
  3
ACAD_LAYERFILTERS
360
48D
  3
ACAD_LAYERSTATES
360
8D
  3
ACLYDICTIONARY
360
48C
  0
DICTIONARY
  5
3
330
2
100
AcDbDictionary
280
     1
281
     1
  3
ACAD_SORTENTS
360
A8
  0
DICTIONARY
  5
B6D
330
B69
100
AcDbDictionary
280
     1
281
     1
  3
ACAD_SORTENTS
360
B6E
  0
DICTIONARY
  5
57F7
330
56F3
100
AcDbDictionary
280
     1
281
     1
  3
ACAD_SORTENTS
360
57F8
  0
DICTIONARY
  5
14A
102
{ACAD_REACTORS
330
9
102
}
330
9
100
AcDbDictionary
281
     1
  3
DIMFXL
350
14B
  0
DICTIONARY
  5
A1
102
{ACAD_REACTORS
330
9
102
}
330
9
100
AcDbDictionary
281
     1
  0
DICTIONARY
  5
9C
102
{ACAD_REACTORS
330
9
102
}
330
9
100
AcDbDictionary
281
     1
  0
DICTIONARY
  5
181E
102
{ACAD_REACTORS
330
9
102
}
330
9
100
AcDbDictionary
281
     1
  3
IA709D
350
181F
  3
IA770D
350
592B
  0
RASTERVARIABLES
  5
1820
102
{ACAD_REACTORS
330
9
102
}
330
9
100
AcDbRasterVariables
 90
        0
 70
     1
 71
     1
 72
     1
  0
DICTIONARY
  5
78
102
{ACAD_REACTORS
330
9
102
}
330
9
100
AcDbDictionary
281
     1
  3
Layout1
350
82
  3
Layout2
350
89
  3
Model
350
77
  0
DICTIONARY
  5
B
102
{ACAD_REACTORS
330
9
102
}
330
9
100
AcDbDictionary
281
     1
  3
ByBlock
350
A0
  3
ByLayer
350
9F
  3
Global
350
A
  0
DICTIONARY
  5
9D
102
{ACAD_REACTORS
330
9
102
}
330
9
100
AcDbDictionary
281
     1
  3
Standard
350
A3
  0
DICTIONARY
  5
9E
102
{ACAD_REACTORS
330
9
102
}
330
9
100
AcDbDictionary
281
     1
  0
ACDBDICTIONARYWDFLT
  5
8
102
{ACAD_REACTORS
330
9
102
}
330
9
100
AcDbDictionary
281
     1
  3
Normal
350
7
100
AcDbDictionaryWithDefault
340
7
  0
DICTIONARY
  5
A2
102
{ACAD_REACTORS
330
9
102
}
330
9
100
AcDbDictionary
281
     1
  3
Standard
350
A4
  0
DICTIONARY
  5
7F
102
{ACAD_REACTORS
330
9
102
}
330
9
100
AcDbDictionary
281
     1
  3
2dWireframe
350
7E
  3
3D Hidden
350
D8
  3
3dWireframe
350
A6
  3
Basic
350
D7
  3
Brighten
350
DB
  3
ColorChange
350
DF
  3
Conceptual
350
D9
  3
Dim
350
DA
  3
Facepattern
350
DE
  3
Flat
350
D3
  3
FlatWithEdges
350
D4
  3
Gouraud
350
D5
  3
GouraudWithEdges
350
D6
  3
Linepattern
350
DD
  3
Realistic
350
A5
  3
Thicken
350
DC
  0
DICTIONARY
  5
A9
102
{ACAD_REACTORS
330
9
102
}
330
9
100
AcDbDictionary
281
     1
  3
CTABLESTYLE
350
AA
  3
DIMASSOC
350
AE
  3
HIDETEXT
350
AD
  3
INDEXCTL
350
AC
  3
PROJECTNAME
350
16A
  3
SORTENTS
350
AB
  0
DICTIONARY
  5
5697
102
{ACAD_REACTORS
330
9
102
}
330
9
100
AcDbDictionary
281
     1
  0
DICTIONARY
  5
10D
102
{ACAD_REACTORS
330
9
102
}
330
9
100
AcDbDictionary
281
     1
  0
DICTIONARY
  5
48D
102
{ACAD_REACTORS
330
8B
102
}
330
8B
100
AcDbDictionary
281
     1
  0
DICTIONARY
  5
8D
102
{ACAD_REACTORS
330
8B
102
}
330
8B
100
AcDbDictionary
281
     1
  0
DICTIONARY
  5
48C
102
{ACAD_REACTORS
330
8B
102
}
330
8B
100
AcDbDictionary
281
     1
1001
ACAD
1000
<All
  0
SORTENTSTABLE
  5
A8
102
{ACAD_REACTORS
330
3
102
}
330
3
100
AcDbSortentsTable
330
2
331
10F
  5
110
331
D
  5
14
331
597A
  5
59AC
331
59AD
  5
5971
331
57FC
  5
57FD
331
27
  5
10F
331
14
  5
11
331
5976
  5
597A
331
21
  5
23
331
110
  5
1CA
331
597B
  5
59AD
331
5970
  5
5974
331
57FD
  5
57FE
331
1CA
  5
57FC
331
15
  5
12
331
5977
  5
597B
331
22
  5
24
331
5971
  5
5975
331
57FE
  5
57FF
331
16
  5
13
331
596B
  5
596B
331
23
  5
25
331
10
  5
15
331
5965
  5
5965
331
5972
  5
5976
331
57FF
  5
5800
331
1D
  5
1F
331
59AA
  5
596C
331
596C
  5
5972
331
17
  5
18
331
24
  5
1E
331
11
  5
16
331
5966
  5
5966
331
5973
  5
5977
331
5800
  5
592D
331
1E
  5
21
331
5978
  5
59AA
331
59AB
  5
596D
331
596D
  5
5973
331
25
  5
27
331
12
  5
17
331
5967
  5
5967
331
5974
  5
5978
331
1F
  5
22
331
5979
  5
59AB
331
59AC
  5
5970
331
13
  5
10
331
5975
  5
5979
  0
SORTENTSTABLE
  5
B6E
102
{ACAD_REACTORS
330
B6D
102
}
330
B6D
100
AcDbSortentsTable
330
B69
  0
SORTENTSTABLE
  5
57F8
102
{ACAD_REACTORS
330
57F7
102
}
330
57F7
100
AcDbSortentsTable
330
56F3
  0
XRECORD
  5
14B
102
{ACAD_REACTORS
330
14A
102
}
330
14A
100
AcDbXrecord
280
     1
 40
0.18
  0
IMAGEDEF
  5
181F
102
{ACAD_REACTORS
330
181E
102
}
330
181E
100
AcDbRasterImageDef
 90
        0
  1
\\Commander\f\Lavori\BRIOMEDIA\Amadei\Originali\Website\Italstyl\IA709D.jpg
 10
800.0
 20
800.0
 11
0.01
 21
0.01
280
     1
281
     0
  0
IMAGEDEF
  5
592B
102
{ACAD_REACTORS
330
181E
330
592C
102
}
330
181E
100
AcDbRasterImageDef
 90
        0
  1
\\Commander\f\Lavori\BRIOMEDIA\Amadei\Originali\Website\Italstyl\IA770D.jpg
 10
951.0
 20
951.0
 11
0.01
 21
0.01
280
     1
281
     0
  0
LAYOUT
  5
82
102
{ACAD_XDICTIONARY
360
83
102
}
102
{ACAD_REACTORS
330
78
102
}
330
78
100
AcDbPlotSettings
  1

  2
C:\Documents and Settings\All Users\Dati applicazioni\Autodesk\ADT 2006\enu\Plotters\Default Windows System Printer.pc3
  4
A4
  6

 40
3.174999952316281
 41
3.174999952316281
 42
3.175003051757812
 43
3.17498779296875
 44
209.9733276367186
 45
297.0106506347656
 46
0.0
 47
0.0
 48
0.0
 49
0.0
140
0.0
141
0.0
142
1.0
143
1.0
 70
   688
 72
     1
 73
     1
 74
     5
  7

 75
    16
147
1.0
 76
     0
 77
     2
 78
   300
148
0.0
149
0.0
100
AcDbLayout
  1
Layout1
 70
     1
 71
     1
 10
-3.17498779296875
 20
-3.174999952316281
 11
293.8356628417969
 21
206.7983276844024
 12
0.0
 22
0.0
 32
0.0
 14
29.06606628894805
 24
20.36233246326446
 34
0.0
 15
261.5945966005325
 25
183.2609921693802
 35
0.0
146
0.0
 13
0.0
 23
0.0
 33
0.0
 16
1.0
 26
0.0
 36
0.0
 17
0.0
 27
1.0
 37
0.0
 76
     0
330
79
331
7B
1001
ACAD_PSEXT
1000
C:\Documents and Settings\All Users\Dati applicazioni\Autodesk\ADT 2006\enu\Plotters\Default Windows System Printer.pc3
1000
Microsoft Office Document Image Writer Driver
1000
Microsoft Document Imaging Writer Port:
1000

1070
     0
  0
LAYOUT
  5
89
102
{ACAD_REACTORS
330
78
102
}
330
78
100
AcDbPlotSettings
  1

  2
C:\Documents and Settings\All Users\Dati applicazioni\Autodesk\ADT 2006\enu\Plotters\Default Windows System Printer.pc3
  4

  6

 40
0.0
 41
0.0
 42
0.0
 43
0.0
 44
0.0
 45
0.0
 46
0.0
 47
0.0
 48
0.0
 49
0.0
140
0.0
141
0.0
142
1.0
143
1.0
 70
   688
 72
     0
 73
     0
 74
     5
  7

 75
    16
147
1.0
 76
     0
 77
     2
 78
   300
148
0.0
149
0.0
100
AcDbLayout
  1
Layout2
 70
     1
 71
     2
 10
0.0
 20
0.0
 11
12.0
 21
9.0
 12
0.0
 22
0.0
 32
0.0
 14
0.0
 24
0.0
 34
0.0
 15
0.0
 25
0.0
 35
0.0
146
0.0
 13
0.0
 23
0.0
 33
0.0
 16
1.0
 26
0.0
 36
0.0
 17
0.0
 27
1.0
 37
0.0
 76
     0
330
86
  0
LAYOUT
  5
77
102
{ACAD_REACTORS
330
78
102
}
330
78
100
AcDbPlotSettings
  1

  2
C:\Documents and Settings\All Users\Dati applicazioni\Autodesk\ADT 2006\enu\Plotters\Default Windows System Printer.pc3
  4

  6

 40
0.0
 41
0.0
 42
0.0
 43
0.0
 44
0.0
 45
0.0
 46
0.0
 47
0.0
 48
0.0
 49
0.0
140
0.0
141
0.0
142
1.0
143
1.0
 70
  1712
 72
     0
 73
     0
 74
     0
  7

 75
     0
147
1.0
 76
     0
 77
     2
 78
   300
148
0.0
149
0.0
100
AcDbLayout
  1
Model
 70
     1
 71
     0
 10
0.0
 20
0.0
 11
12.0
 21
9.0
 12
0.0
 22
0.0
 32
0.0
 14
0.0
 24
0.0
 34
0.0
 15
0.0
 25
0.0
 35
0.0
146
0.0
 13
0.0
 23
0.0
 33
0.0
 16
1.0
 26
0.0
 36
0.0
 17
0.0
 27
1.0
 37
0.0
 76
     0
330
2
  0
MATERIAL
  5
A0
102
{ACAD_XDICTIONARY
360
C7
102
}
102
{ACAD_REACTORS
330
B
102
}
330
B
100
AcDbMaterial
  1
ByBlock
  0
MATERIAL
  5
9F
102
{ACAD_XDICTIONARY
360
C5
102
}
102
{ACAD_REACTORS
330
B
102
}
330
B
100
AcDbMaterial
  1
ByLayer
  0
MATERIAL
  5
A
102
{ACAD_XDICTIONARY
360
B1
102
}
102
{ACAD_REACTORS
330
B
102
}
330
B
100
AcDbMaterial
  1
Global
  0
MLINESTYLE
  5
A3
102
{ACAD_REACTORS
330
9D
102
}
330
9D
100
AcDbMlineStyle
  2
STANDARD
 70
     0
  3

 62
   256
 51
90.0
 52
90.0
 71
     2
 49
0.5
 62
   256
  6
BYLAYER
 49
-0.5
 62
   256
  6
BYLAYER
  0
ACDBPLACEHOLDER
  5
7
102
{ACAD_REACTORS
330
8
102
}
330
8
  0
TABLESTYLE
  5
A4
102
{ACAD_XDICTIONARY
360
155
102
}
102
{ACAD_REACTORS
330
A2
102
}
330
A2
100
AcDbTableStyle
  3
Standard
 70
     0
 71
     0
 40
1.5
 41
1.5
280
     0
281
     0
  7
Standard
140
4.5
170
     2
 62
     0
 63
     7
283
     0
274
    -2
284
     1
 64
     0
275
    -2
285
     1
 65
     0
276
    -2
286
     1
 66
     0
277
    -2
287
     1
 67
     0
278
    -2
288
     1
 68
     0
279
    -2
289
     1
 69
     0
  7
Standard
140
6.0
170
     5
 62
     0
 63
     7
283
     0
274
    -2
284
     1
 64
     0
275
    -2
285
     1
 65
     0
276
    -2
286
     1
 66
     0
277
    -2
287
     1
 67
     0
278
    -2
288
     1
 68
     0
279
    -2
289
     1
 69
     0
  7
Standard
140
4.5
170
     5
 62
     0
 63
     7
283
     0
274
    -2
284
     1
 64
     0
275
    -2
285
     1
 65
     0
276
    -2
286
     1
 66
     0
277
    -2
287
     1
 67
     0
278
    -2
288
     1
 68
     0
279
    -2
289
     1
 69
     0
  0
ACAD_PROXY_OBJECT
  5
7E
102
{ACAD_REACTORS
330
7F
102
}
330
7F
100
AcDbProxyObject
 90
      499
 91
      508
 95
  1310743
 70
     1
100
AcDbVisualStyle
  2
2dWireframe
 70
     4
 71
     0
 72
     2
 73
     0
 90
        0
 40
-0.6
 41
-30.0
 62
     5
 63
     7
 74
     1
 91
        4
 64
     7
 65
   257
 75
     1
175
     1
 42
1.0
 92
        0
 66
   257
 43
1.0
 76
     1
 77
     6
 78
     2
 67
     7
 79
     5
170
     0
171
     0
290
     0
174
     0
 93
        1
 44
0.0
173
     0
291
     0
 45
0.0
1001
ACAD
1000
AcDbSavedByObjectVersion
1070
     0
1000
AcDbSavedByObjectVersion
1070
     0
1000
AcDbSavedByObjectVersion
1070
     0
  0
ACAD_PROXY_OBJECT
  5
D8
102
{ACAD_REACTORS
330
7F
102
}
330
7F
100
AcDbProxyObject
 90
      499
 91
      508
 95
  1310743
 70
     1
100
AcDbVisualStyle
  2
3D Hidden
 70
     6
 71
     1
 72
     2
 73
     2
 90
        0
 40
-0.6
 41
-30.0
 62
     5
 63
     7
 74
     2
 91
        2
 64
     7
 65
   257
 75
     2
175
     1
 42
40.0
 92
        0
 66
   257
 43
1.0
 76
     1
 77
     6
 78
     2
 67
     7
 79
     3
170
     0
171
     0
290
     0
174
     0
 93
        1
 44
0.0
173
     0
291
     0
 45
0.0
1001
ACAD
1000
AcDbSavedByObjectVersion
1070
     0
1000
AcDbSavedByObjectVersion
1070
     0
  0
ACAD_PROXY_OBJECT
  5
A6
102
{ACAD_REACTORS
330
7F
102
}
330
7F
100
AcDbProxyObject
 90
      499
 91
      508
 95
  1310743
 70
     1
100
AcDbVisualStyle
  2
3dWireframe
 70
     5
 71
     0
 72
     2
 73
     0
 90
        0
 40
-0.6
 41
-30.0
 62
     5
 63
     7
 74
     1
 91
        4
 64
     7
 65
   257
 75
     1
175
     1
 42
1.0
 92
        0
 66
   257
 43
1.0
 76
     1
 77
     6
 78
     2
 67
     7
 79
     5
170
     0
171
     0
290
     0
174
     0
 93
        1
 44
0.0
173
     0
291
     0
 45
0.0
1001
ACAD
1000
AcDbSavedByObjectVersion
1070
     0
1000
AcDbSavedByObjectVersion
1070
     0
1000
AcDbSavedByObjectVersion
1070
     0
  0
ACAD_PROXY_OBJECT
  5
D7
102
{ACAD_REACTORS
330
7F
102
}
330
7F
100
AcDbProxyObject
 90
      499
 91
      508
 95
  1310743
 70
     1
100
AcDbVisualStyle
  2
Basic
 70
     7
 71
     1
 72
     0
 73
     1
 90
        0
 40
-0.6
 41
-30.0
 62
     5
 63
     7
 74
     0
 91
        4
 64
     7
 65
   257
 75
     1
175
     1
 42
1.0
 92
        8
 66
     7
 43
1.0
 76
     1
 77
     6
 78
     2
 67
     7
 79
     5
170
     0
171
     0
290
     0
174
     0
 93
        1
 44
0.0
173
     0
291
     1
 45
0.0
1001
ACAD
1000
AcDbSavedByObjectVersion
1070
     0
1000
AcDbSavedByObjectVersion
1070
     0
  0
ACAD_PROXY_OBJECT
  5
DB
102
{ACAD_REACTORS
330
7F
102
}
330
7F
100
AcDbProxyObject
 90
      499
 91
      508
 95
  1310743
 70
     1
100
AcDbVisualStyle
  2
Brighten
 70
    12
 71
     2
 72
     2
 73
     0
 90
        0
 40
-0.6
 41
-30.0
 62
     5
 63
     7
 74
     1
 91
        4
 64
     7
 65
   257
 75
     1
175
     1
 42
1.0
 92
        8
 66
     7
 43
1.0
 76
     1
 77
     6
 78
     2
 67
     7
 79
     5
170
     0
171
     0
290
     0
174
     0
 93
        1
 44
50.0
173
     0
291
     1
 45
0.0
1001
ACAD
1000
AcDbSavedByObjectVersion
1070
     0
1000
AcDbSavedByObjectVersion
1070
     0
  0
ACAD_PROXY_OBJECT
  5
DF
102
{ACAD_REACTORS
330
7F
102
}
330
7F
100
AcDbProxyObject
 90
      499
 91
      508
 95
  1310743
 70
     1
100
AcDbVisualStyle
  2
ColorChange
 70
    16
 71
     2
 72
     2
 73
     3
 90
        0
 40
-0.6
 41
-30.0
 62
     5
 63
     8
 74
     1
 91
        4
 64
     7
 65
   257
 75
     1
175
     1
 42
1.0
 92
        8
 66
     8
 43
1.0
 76
     1
 77
     6
 78
     2
 67
     7
 79
     5
170
     0
171
     0
290
     0
174
     0
 93
        1
 44
0.0
173
     0
291
     1
 45
0.0
1001
ACAD
1000
AcDbSavedByObjectVersion
1070
     0
1000
AcDbSavedByObjectVersion
1070
     0
  0
ACAD_PROXY_OBJECT
  5
D9
102
{ACAD_REACTORS
330
7F
102
}
330
7F
100
AcDbProxyObject
 90
      499
 91
      508
 95
  1310743
 70
     1
100
AcDbVisualStyle
  2
Conceptual
 70
     9
 71
     3
 72
     2
 73
     0
 90
        0
 40
-0.6
 41
-30.0
 62
     5
 63
     7
 74
     2
 91
        2
 64
     7
 65
   257
 75
     1
175
     1
 42
40.0
 92
        8
 66
     7
 43
1.0
 76
     1
 77
     6
 78
     2
 67
     7
 79
     3
170
     0
171
     0
290
     0
174
     0
 93
        1
 44
0.0
173
     0
291
     0
 45
0.0
1001
ACAD
1000
AcDbSavedByObjectVersion
1070
     0
1000
AcDbSavedByObjectVersion
1070
     0
  0
ACAD_PROXY_OBJECT
  5
DA
102
{ACAD_REACTORS
330
7F
102
}
330
7F
100
AcDbProxyObject
 90
      499
 91
      508
 95
  1310743
 70
     1
100
AcDbVisualStyle
  2
Dim
 70
    11
 71
     2
 72
     2
 73
     0
 90
        0
 40
-0.6
 41
-30.0
 62
     5
 63
     7
 74
     1
 91
        4
 64
     7
 65
   257
 75
     1
175
     1
 42
1.0
 92
        8
 66
     7
 43
1.0
 76
     1
 77
     6
 78
     2
 67
     7
 79
     5
170
     0
171
     0
290
     0
174
     0
 93
        1
 44
-50.0
173
     0
291
     1
 45
0.0
1001
ACAD
1000
AcDbSavedByObjectVersion
1070
     0
1000
AcDbSavedByObjectVersion
1070
     0
  0
ACAD_PROXY_OBJECT
  5
DE
102
{ACAD_REACTORS
330
7F
102
}
330
7F
100
AcDbProxyObject
 90
      499
 91
      508
 95
  1310743
 70
     1
100
AcDbVisualStyle
  2
Facepattern
 70
    15
 71
     2
 72
     2
 73
     0
 90
        0
 40
-0.6
 41
-30.0
 62
     5
 63
     7
 74
     1
 91
        4
 64
     7
 65
   257
 75
     1
175
     1
 42
1.0
 92
        8
 66
     7
 43
1.0
 76
     1
 77
     6
 78
     2
 67
     7
 79
     5
170
     0
171
     0
290
     0
174
     0
 93
        1
 44
0.0
173
     0
291
     1
 45
0.0
1001
ACAD
1000
AcDbSavedByObjectVersion
1070
     0
1000
AcDbSavedByObjectVersion
1070
     0
  0
ACAD_PROXY_OBJECT
  5
D3
102
{ACAD_REACTORS
330
7F
102
}
330
7F
100
AcDbProxyObject
 90
      499
 91
      508
 95
  1310743
 70
     1
100
AcDbVisualStyle
  2
Flat
 70
     0
 71
     2
 72
     1
 73
     1
 90
        2
 40
-0.6
 41
30.0
 62
     5
 63
     7
 74
     0
 91
        4
 64
     7
 65
   257
 75
     1
175
     1
 42
1.0
 92
        8
 66
     7
 43
1.0
 76
     1
 77
     6
 78
     2
 67
     7
 79
     5
170
     0
171
     0
290
     0
174
     0
 93
       13
 44
0.0
173
     0
291
     1
 45
0.0
1001
ACAD
1000
AcDbSavedByObjectVersion
1070
     0
1000
AcDbSavedByObjectVersion
1070
     0
  0
ACAD_PROXY_OBJECT
  5
D4
102
{ACAD_REACTORS
330
7F
102
}
330
7F
100
AcDbProxyObject
 90
      499
 91
      508
 95
  1310743
 70
     1
100
AcDbVisualStyle
  2
FlatWithEdges
 70
     1
 71
     2
 72
     1
 73
     1
 90
        2
 40
-0.6
 41
30.0
 62
     5
 63
     7
 74
     1
 91
        4
 64
     7
 65
   257
 75
     1
175
     1
 42
1.0
 92
        0
 66
   257
 43
1.0
 76
     1
 77
     6
 78
     2
 67
     7
 79
     5
170
     0
171
     0
290
     0
174
     0
 93
       13
 44
0.0
173
     0
291
     1
 45
0.0
1001
ACAD
1000
AcDbSavedByObjectVersion
1070
     0
1000
AcDbSavedByObjectVersion
1070
     0
  0
ACAD_PROXY_OBJECT
  5
D5
102
{ACAD_REACTORS
330
7F
102
}
330
7F
100
AcDbProxyObject
 90
      499
 91
      508
 95
  1310743
 70
     1
100
AcDbVisualStyle
  2
Gouraud
 70
     2
 71
     2
 72
     2
 73
     1
 90
        2
 40
-0.6
 41
30.0
 62
     5
 63
     7
 74
     0
 91
        4
 64
     7
 65
   257
 75
     1
175
     1
 42
1.0
 92
        0
 66
     7
 43
1.0
 76
     1
 77
     6
 78
     2
 67
     7
 79
     5
170
     0
171
     0
290
     0
174
     0
 93
       13
 44
0.0
173
     0
291
     1
 45
0.0
1001
ACAD
1000
AcDbSavedByObjectVersion
1070
     0
1000
AcDbSavedByObjectVersion
1070
     0
  0
ACAD_PROXY_OBJECT
  5
D6
102
{ACAD_REACTORS
330
7F
102
}
330
7F
100
AcDbProxyObject
 90
      499
 91
      508
 95
  1310743
 70
     1
100
AcDbVisualStyle
  2
GouraudWithEdges
 70
     3
 71
     2
 72
     2
 73
     1
 90
        2
 40
-0.6
 41
30.0
 62
     5
 63
     7
 74
     1
 91
        4
 64
     7
 65
   257
 75
     1
175
     1
 42
1.0
 92
        0
 66
   257
 43
1.0
 76
     1
 77
     6
 78
     2
 67
     7
 79
     5
170
     0
171
     0
290
     0
174
     0
 93
       13
 44
0.0
173
     0
291
     1
 45
0.0
1001
ACAD
1000
AcDbSavedByObjectVersion
1070
     0
1000
AcDbSavedByObjectVersion
1070
     0
  0
ACAD_PROXY_OBJECT
  5
DD
102
{ACAD_REACTORS
330
7F
102
}
330
7F
100
AcDbProxyObject
 90
      499
 91
      508
 95
  1310743
 70
     1
100
AcDbVisualStyle
  2
Linepattern
 70
    14
 71
     2
 72
     2
 73
     0
 90
        0
 40
-0.6
 41
-30.0
 62
     5
 63
     7
 74
     1
 91
        4
 64
     7
 65
   257
 75
     7
175
     7
 42
1.0
 92
        8
 66
     7
 43
1.0
 76
     1
 77
     6
 78
     2
 67
     7
 79
     5
170
     0
171
     0
290
     0
174
     0
 93
        1
 44
0.0
173
     0
291
     1
 45
0.0
1001
ACAD
1000
AcDbSavedByObjectVersion
1070
     0
1000
AcDbSavedByObjectVersion
1070
     0
  0
ACAD_PROXY_OBJECT
  5
A5
102
{ACAD_REACTORS
330
7F
102
}
330
7F
100
AcDbProxyObject
 90
      499
 91
      508
 95
  1310743
 70
     1
100
AcDbVisualStyle
  2
Realistic
 70
     8
 71
     2
 72
     2
 73
     0
 90
        0
 40
-0.6
 41
-30.0
 62
     5
 63
     7
 74
     1
 91
        0
 64
     7
 65
   257
 75
     1
175
     1
 42
1.0
 92
        8
 66
     8
 43
1.0
 76
     1
 77
     6
 78
     2
 67
     7
 79
     5
170
     0
171
     0
290
     0
174
     0
 93
       13
 44
0.0
173
     0
291
     0
 45
0.0
1001
ACAD
1000
AcDbSavedByObjectVersion
1070
     0
1000
AcDbSavedByObjectVersion
1070
     0
1000
AcDbSavedByObjectVersion
1070
     0
  0
ACAD_PROXY_OBJECT
  5
DC
102
{ACAD_REACTORS
330
7F
102
}
330
7F
100
AcDbProxyObject
 90
      499
 91
      508
 95
  1310743
 70
     1
100
AcDbVisualStyle
  2
Thicken
 70
    13
 71
     2
 72
     2
 73
     0
 90
        0
 40
-0.6
 41
-30.0
 62
     5
 63
     7
 74
     1
 91
        4
 64
     7
 65
   257
 75
     1
175
     1
 42
1.0
 92
       12
 66
     7
 43
1.0
 76
     1
 77
     6
 78
     2
 67
     7
 79
     5
170
     0
171
     0
290
     0
174
     0
 93
        1
 44
0.0
173
     0
291
     1
 45
0.0
1001
ACAD
1000
AcDbSavedByObjectVersion
1070
     0
1000
AcDbSavedByObjectVersion
1070
     0
  0
DICTIONARYVAR
  5
AA
102
{ACAD_REACTORS
330
A9
102
}
330
A9
100
DictionaryVariables
280
     0
  1
STANDARD
  0
DICTIONARYVAR
  5
AE
102
{ACAD_REACTORS
330
A9
102
}
330
A9
100
DictionaryVariables
280
     0
  1
2
  0
DICTIONARYVAR
  5
AD
102
{ACAD_REACTORS
330
A9
102
}
330
A9
100
DictionaryVariables
280
     0
  1
1
  0
DICTIONARYVAR
  5
AC
102
{ACAD_REACTORS
330
A9
102
}
330
A9
100
DictionaryVariables
280
     0
  1
0
  0
DICTIONARYVAR
  5
16A
102
{ACAD_REACTORS
330
A9
102
}
330
A9
100
DictionaryVariables
280
     0
  1

  0
DICTIONARYVAR
  5
AB
102
{ACAD_REACTORS
330
A9
102
}
330
A9
100
DictionaryVariables
280
     0
  1
127
  0
DICTIONARY
  5
83
330
82
100
AcDbDictionary
280
     1
281
     1
  3
ADSK_XREC_LAYOUTTHUMBNAIL
360
84
  0
DICTIONARY
  5
C7
330
A0
100
AcDbDictionary
280
     1
281
     1
  3
ACAD_XREC_ROUNDTRIP
360
C8
  0
DICTIONARY
  5
C5
330
9F
100
AcDbDictionary
280
     1
281
     1
  3
ACAD_XREC_ROUNDTRIP
360
C6
  0
DICTIONARY
  5
B1
330
A
100
AcDbDictionary
280
     1
281
     1
  3
ACAD_XREC_ROUNDTRIP
360
B2
  0
DICTIONARY
  5
155
330
A4
100
AcDbDictionary
280
     1
281
     1
  3
ACAD_XREC_ROUNDTRIP
360
156
  0
XRECORD
  5
84
102
{ACAD_REACTORS
330
83
102
}
330
83
100
AcDbXrecord
280
     1
310
28000000B40000007F00000001000800000000004C59000000000000000000000001000000000000FFFFFF0000000000FFFFFF000000000000000000000000000000000000000000000000000000000000000000330000006600000099000000CC000000FF00000000330000333300006633000099330000CC330000FF3300
310
0000660000336600006666000099660000CC660000FF66000000990000339900006699000099990000CC990000FF99000000CC000033CC000066CC000099CC0000CCCC0000FFCC000000FF000033FF000066FF000099FF0000CCFF0000FFFF000000003300330033006600330099003300CC003300FF003300003333003333
310
33006633330099333300CC333300FF33330000663300336633006666330099663300CC663300FF66330000993300339933006699330099993300CC993300FF99330000CC330033CC330066CC330099CC3300CCCC3300FFCC330000FF330033FF330066FF330099FF3300CCFF3300FFFF330000006600330066006600660099
310
006600CC006600FF00660000336600333366006633660099336600CC336600FF33660000666600336666006666660099666600CC666600FF66660000996600339966006699660099996600CC996600FF99660000CC660033CC660066CC660099CC6600CCCC6600FFCC660000FF660033FF660066FF660099FF6600CCFF6600
310
FFFF660000009900330099006600990099009900CC009900FF00990000339900333399006633990099339900CC339900FF33990000669900336699006666990099669900CC669900FF66990000999900339999006699990099999900CC999900FF99990000CC990033CC990066CC990099CC9900CCCC9900FFCC990000FF99
310
0033FF990066FF990099FF9900CCFF9900FFFF99000000CC003300CC006600CC009900CC00CC00CC00FF00CC000033CC003333CC006633CC009933CC00CC33CC00FF33CC000066CC003366CC006666CC009966CC00CC66CC00FF66CC000099CC003399CC006699CC009999CC00CC99CC00FF99CC0000CCCC0033CCCC0066CC
310
CC0099CCCC00CCCCCC00FFCCCC0000FFCC0033FFCC0066FFCC0099FFCC00CCFFCC00FFFFCC000000FF003300FF006600FF009900FF00CC00FF00FF00FF000033FF003333FF006633FF009933FF00CC33FF00FF33FF000066FF003366FF006666FF009966FF00CC66FF00FF66FF000099FF003399FF006699FF009999FF00CC
310
99FF00FF99FF0000CCFF0033CCFF0066CCFF0099CCFF00CCCCFF00FFCCFF0000FFFF0033FFFF0066FFFF0099FFFF00CCFFFF00FFFFFF00000000000D0D0D001A1A1A00282828003535350043434300505050005D5D5D006B6B6B00787878008686860093939300A1A1A100AEAEAE00BBBBBB00C9C9C900D6D6D600E4E4E400
310
F1F1F100FFFFFF0000000000000000000000000000000000000000000000000000000000000000000000000000000000E2E2E2E2E2E2E2E2E2E2E2E2E2E2E2E2E2E2E2E2E2E2E2E2E2E2E2E2E2E2E2E2E2E2E2E2E2E2E2E2E2E2E2E2E2E2E2E2E2E2E2E2E2E2E2E2E2E2E2E2E2E2E2E2E2E2E2E2E2E2E2E2E2E2E2E2E2E2E2
310
E2E2E2E2E2E2E2E2E2E2E2E2E2E2E2E2E2E2E2E2E2E2E2E2E2E2E2E2E2E2E2E2E2E2E2E2E2E2E2E2E2E2E2E2E2E2E2E2E2E2E2E2E2E2E2E2E2E2E2E2E2E2E2E2E2E2E2E2E2E2E2E2E2E2E2E2E2E2E2E2E2E2E2E2E2E2E2E2E2E2E2E2E2E2E2E2E2E2E2E2E2E2F5F5F5F5F5F5F5F5F5F5F5F5F5F5F5F5F5F5F5F5F5F5F5F5F5
310
F5F5F5F5F5F5F5F5F5F5F5F5F5F5F5F5F5F5F5F5F5F5F5F5F5F5F5F5F5F5F5F5F5F5F5F5F5F5F5F5F5F5F5F5F5F5F5F5F5F5F5F5F5F5F5F5F5F5F5F5F5F5F5F5F5F5F5F5F5F5F5F5F5F5F5F5F5F5F5F5F5F5F5F5F5F5F5F5F5F5F5F5F5F5F5F5F5F5F5F5F5F5F5F5F5F5F5F5F5F5F5F5F5F5F5F5F5F5F5F5F5F5F5F5F5F5F5
310
F5F5F5F5F5F5F5F5F5F5F5F5F5F5F5F5F5F5F5F5F5F5F5F5F5F5E2E2F5E2E2E2E2E2E2E2E2E2F5F5F5F5F5F5F5F5F5E2E2E2E2E2E2E2E2E2E2E2E2E2E2E2E2F5F5F5F5F5F5F5F5F5E2E2E2E2E2E2E2E2E2E2E2E2E2E2E2E2F5F5F5F5F5F5F5F5F5E2E2E2E2E2E2E2E2E2E2E2E2E2E2E2E2F5F5F5F5F5F5F5F5F5E2E2E2E2E2
310
E2E2E2E2E2E2E2E2E2E2E2F5F5F5F5F5F5F5F5F5E2E2E2E2E2E2E2E2E2E2E2E2E2E2E2E2F5F5F5F5F5F5F5F5F5E2E2E2E2E2E2E2E2E2E2E2E2E2E2E2E2F5F5F5F5F5F5F5F5F5E2E2E2E2E2E2E2E2F5E2E2F5E2F5F5F5F5F5F5F5F5F5F5F5F5F5F5F5F5F5F5F5F5F5F5F5F5F5F5F5F5F5F5F5F5F5F5F5F5F5F5F5F5F5F5F5F5
310
F5F5F5F5F5F5F5F5F5F5F5F5F5F5F5F5F5F5F5F5F5F5F5F5F5F5F5F5F5F5F5F5F5F5F5F5F5F5F5F5F5F5F5F5F5F5F5F5F5F5F5F5F5F5F5F5F5F5F5F5F5F5F5F5F5F5F5F5F5F5F5F5F5F5F5F5F5F5F5F5F5F5F5F5F5F5F5F5F5F5F5F5F5F5F5F5F5F5F5F5F5F5F5F5F5F5F5F5F5F5F5F5F5F5F5F5F5F5F5F5F5F5F5F5F5F5F5
310
F5F5F5E2F5E2E2F5E2F5F5F5F5F5F5F5F5F5F5F5F5F5F5F5F5F5F5F5F5F5F5F5F5F5F5F5F5F5F5F5F5F5F5F5F5F5F5F5F5F5F5F5F5F5F5F5F5F5F5F5F5F5F5F5F5F5F5F5F5F5F5F5F5F5F5F5F5F5F5F5F5F5F5F5F5F5F5F5F5F5F5F5F5F5F5F5F5F5F5F5F5F5F5F5F5F5F5F5F5F5F5F5F5F5F5F5F5F5F5F5F5F5F5F5F5F5F5
310
F5F5F5F5F5F5F5F5F5F5F5F5F5F5F5F5F5F5F5F5F5F5F5F5F5F5F5F5F5F5F5F5F5F5F5F5F5F5F5F5F5F5F5F5F5F5F5F5F5F5F5F5F5F5F5F5E2F5E2E2F5E2F5F5F5F5F5F5F5F5F5F5F5F5F5F5F5F5F5F5F5F5F5F5F5F5F5F5F5F5F5F5F5F5F5F5F5F5F5F5F5F5F5F5F5F5F5F5F5F5F5F5F5F5F5F5F5F5F5F5F5F5F5F5F5F5F5
310
F5F5F5F5F5F5F5F5F5F5F5F5F5F5F5F5F5F5F5F5F5F5F5F5F5F5F5F5F5F5F5F5F5F5F5F5F5F5F5F5F5F5F5F5F5F5F5F5F5F5F5F5F5F5F5F5F5F5F5F5F5F5F5F5F5F5F5F5F5F5F5F5F5F5F5F5F5F5F5F5F5F5F5F5F5F5F5F5F5F5F5F5F5F5F5F5F5F5F5F5F5F5F5F5F5F5F5F5F5E2F5E2E2F5E2F5F5F5F5F5F5F5F5F5F5F5F5
310
F5F5F5F5F5F5F5F5F5F5F5F5F5F5F5F5F5F5F5F5F5F5F5F5F5F5F5F5F5F5F5F5F5F5F5F5F5F5F5F5F5F5F5F5F5F5F5F5F5F5F5F5F5F5F5F5F5F5F5F5F5F5F5F5F5F5F5F5F5F5F5F5F5F5F5F5F5F5F5F5F5F5F5F5F5F5F5F5F5F5F5F5F5F5F5F5F5F5F5F5F5F5F5F5F5F5F5F5F5F5F5F5F5F5F5F5F5F5F5F5F5F5F5F5F5F5F5
310
F5F5F5F5F5F5F5F5F5F5F5F5F5F5F5F5F5F5F5F5F5F5F5F5F5F5F5F5F5F5F5F5F5F5F5E2F5E2E2F5E2F5F5F5F5F5F5F5F5F5F5F5F5F5F5F5F5F5F5F5F5F5F5F5F5F5F5F5F5F5F5F5F5F5F5F5F5F5F5F5F5F5F5F5F5F5F5F5F5F5F5F5F5F5F5F5F5F5F5F5F5F5F5F5F5F5F5F5F5F5F5F5F5F5F5F5F5F5F5F5F5F5F5F5F5F5F5
310
F5F5F5F5F5F5F5F5F5F5F5F5F5F5F5F5F5F5F5F5F5F5F5F5F5F5F5F5F5F5F5F5F5F5F5F5F5F5F5F5F5F5F5F5F5F5F5F5F5F5F5F5F5F5F5F5F5F5F5F5F5F5F5F5F5F5F5F5F5F5F5F5F5F5F5F5F5F5F5F5F5F5F5F5F5F5F5F5E2F5E2E2F5E2F5F5F5F5F5F5F5F5F5F5F5F5F5F5F5F5F5F5F5F5F5F5F5F5F5F5F5F5F5F5F5F5F5
310
F5F5F5F5F5F5F5F5F5F5F5F5F5F5F5F5F5F5F5F5F5F5F5F5F5F5F5F5F5F5F5F5F5F5F5F5F5F5F5F5F5F5F5F5F5F5F5F5F5F5F5F5F5F5F5F5F5F5F5F5F5F5F5F5F5F5F5F5F5F5F5F5F5F5F5F5F5F5F5F5F5F5F5F5F5F5F5F5F5F5F5F5F5F5F5F5F5F5F5F5F5F5F5F5F5F5F5F5F5F5F5F5F5F5F5F5F5F5F5F5F5F5F5F5F5F5F5
310
F5F5F5F5F5F5F5F5F5F5F5F5F5F5E2F5E2E2F5E2F5F5F5F5F5F5F5F5F5F5F5F5F5F5F5F5F5F5F5F5F5F5F5F5F5F5F5F5F5F5F5F5F5F5F5F5F5F5F5F5F5F5F5F5F5F5F5F5F5F5F5F5F5F5F5F5F5F5F5F5F5F5F5F5F5F5F5F5F5F5F5F5F5F5F5F5F5F5F5F5F5F5F5F5F5F5F5F5F5F5F5F5F5F5F5F5F5F5F5F5F5F5F5F5F5F5F5
310
F5F5F5F5F5F5F5F5F5F5F5F5F5F5F5F5F5F5F5F5F5F5F5F5F5F5F5F5F5F5F5F5F5F5F5F5F5F5F5F5F5F5F5F5F5F5F5F5F5F5F5F5F5F5F5F5F5F5F5F5F5F5F5F5F5F5F5E2F5E2E2F5F5F5F5F5F5F5F5F5F5F5F5F5F5F5F5F5F5F5F5F5F5F5F5F5F5F5F5F5F5F5F5F5F5F5F5F5F5F5F5F5F5F5F5F5F5F5F5F5F5F5F5F5F5F5F5
310
F5F5F5F5F5F5F5F5F5F5F5F5F5F5F5F5F5F5F5F5F5F5F5F5F5F5F5F5F5F5F5F5F5F5F5F5F5F5F5F5F5F5F5F5F5F5F5F5F5F5F5F5F5F5F5F5F5F5F5F5F5F5F5F5F5F5F5F5F5F5F5F5F5F5F5F5F5F5F5F5F5F5F5F5F5F5F5F5F5F5F5F5F5F5F5F5F5F5F5F5F5F5F5F5F5F5F5F5F5F5F5F5F5F5F5F5F5F5F5F5F5F5E2E2F5F5F5
310
F5F5F5F5F5F5F5F5F5F5F5F5F5F5F5F5F5F5F5F5F5F5F5F5F5F5F5F5F5F5F5F5F5F5F5F5F5F5F5F5F5F5F5F5F5F5F5F5F5F5F5F5F5F5F5F5F5F5F5F5F5F5F5F5F5F5F5F5F5F5F5F5F5F5F5F5F5F5F5F5F5F5F5F5F5F5F5F5F5F5F5F5F5F5F5F5F5F5F5F5F5F5F5F5F5F5F5F5F5F5F5F5F5F5F5F5F5F5F5F5F5F5F5F5F5F5F5
310
F5F5F5F5F5F5F5F5F5F5F5F5F5F5F5F5F5F5F5F5F5F5F5F5F5F5F5F5F5F5F5F5F5F5F5F5F5F5F5F5F5F5F5F5F5F5F5F5E2E2F5F5F5F5F5F5F5F5F5F5F5F5F5F5F5F5F5F5F5F5F5F5F5F5F5F5F5F5F5F5F5F5F5F5F5F5F5F5F5F5F5F5F5F5F5F5F5F5F5F5F5F5F5F5F5F5F5F5F5F5F5F5F5F5F5F5F5F5F5F5F5F5F5F5F5F5F5
310
F5F5F5F5F5F5F5F5F5F5F5F5F5F5F5F5F5F5F5F5F5F5F5F5F5F5F5F5F5F5F5F5F5F5F5F5F5F5F5F5F5F5F5F5F5F5F5F5F5F5F5F5F5F5F5F5F5F5F5F5F5F5F5F5F5F5F5F5F5F5F5F5F5F5F5F5F5F5F5F5F5F5F5F5F5F5F5F5F5F5F5F5F5F5F5F5F5F5F5F5F5E2E2F5F5F5F5F5F5F5F5F5F5F5F5F5F5F5F5F5F5F5F5F5F5F5F5
310
F5F5F5F5F5F5F5F5F5F5F5F5F5F5F5F5F5F5F5F5F5F5F5F5F5F5F5F5F5F5F5F5F5F5F5F5F5F5F5F5F5F5F5F5F5F5F5F5F5F5F5F5F5F5F5F5F5F5F5F5F5F5F5F5F5F5F5F5F5F5F5F5F5F5F5F5F5F5F5F5F5F5F5F5F5F5F5F5F5F5F5F5F5F5F5F5F5F5F5F5F5F5F5F5F5F5F5F5F5F5F5F5F5F5F5F5F5F5F5F5F5F5F5F5F5F5F5
310
F5F5F5F5F5F5F5F5F5F5F5F5F5F5F5F5F5F5F5F5F5F5F5F5F5F5F5E2E2F5F5F5F5F5F5F5F5F5F5F5F5F5F5F5F5F5F5F5DCDCDCDCDCDCDCDCDCDCDCDCDCDCDCDCDCDCDCDCDCDCDCDCDCDCDCDCDCDCDCDCDCDCDCDCDCDCDCDCDCDCDCDCDCDCDCDCDCDCDCDCDCDCDCDCDCDCDCDCDCDCDCDCDCDCDCDCDCDCDCDCDCDCDCDCDCDCDC
310
DCDCDCDCDCDCDCDCDCDCDCDCDCDCDCDCDCDCDCDCDCDCDCDCDCDCDCDCDCDCDCDCDCDCDCDCDCDCDCDCDCDCDCDCDCDCDCDCDCDCDCDCDCDCDCDCDCDCDCDCDCF5F5F5F5F5F5F5F5F5F5F5F5F5F5F5F5F5F5F5E2E2F5F5F5F5F5F5F5F5F5F5F5F5F5F5F5F5F5F5F5DCDCDCDCDCDCDCDCDCDCDCDCDCDCDCDCDCDCDCDCDCDCDCDCDCDC
310
DCDCDCDCDCDCDCDCDCDCDCDCDCDCDCDCDCDCDCDCDCDCDCDCDCDCDCDCDCDCDCDCDCDCDCDCDCDCDCDCDCDCDCDCDCDCDCDCDCDCDCDCDCDCDCDCDCDCDCDCDCDCDCDCDCDCDCDCDCDCDCDCDCDCDCDCDCDCDCDCDCDCDCDCDCDCDCDCDCDCDCDCDCDCDCDCDCDCDCDCDCDCDCDCDCDCDCDCDCDCDCDCDCDCF5F5F5F5F5F5F5F5F5F5F5F5F5
310
F5F5F5F5F5F5E2E2F5F5F5F5F5F5F5F5F5F5F5F5F5F5F5F5F5F5F5DCF5F5F5F5F5F5F5F5F5F5F5F5F5F5F5F5F5F5F5F5F5F5F5F5F5F5F5F5F5F5F5F5F5F5F5F5F5F5F5F5F5F5F5F5F5F5F5F5F5F5F5F5F5F5F5F5F5F5F5F5F5F5F5F5F5F5F5F5F5F5F5F5F5F5F5F5F5F5F5F5F5F5F5F5F5F5F5F5F5F5F5F5F5F5F5F5F5F5F5
310
F5F5F5F5F5F5F5F5F5F5F5F5F5F5F5F5F5F5F5F5F5F5F5F5F5F5F5F5F5F5F5F5F5F5F5F5F5F5F5DCF5F5F5F5F5F5F5F5F5F5F5F5F5F5F5F5F5F5F5E2E2F5F5F5F5F5F5F5F5F5F5F5F5F5F5F5F5F5F5F5DCF5282828282828282828282828282828282828282828282828282828282828282828282828282828282828282828
310
28282828282828282828282828282828282828282828282828282828282828282828282828282828282828282828282828282828282828282828282828282828282828282828282828282828282828282828282828282828282828F5DCF5F5F5F5F5F5F5F5F5F5F5F5F5F5F5F5F5F5F5E2E2F5F5F5F5F5F5F5F5F5F5F5F5F5
310
F5F5F5F5F5F5DCF5282D2D2D2D2D2D2D2D2D2D2D2D2D2D2D2D2D2D2D2D2DF5F5F5F5F5F5F5F5F5F5F5F5F5F5F5F5F5F5F5F5F5F5F5F5F5F5F5F5F5F5F5F5F5F5F5F5F5F5F5F5F5F5F5F5F528F5F5F5F5F5F5F5F5F5F5F5F5F5F5F5F5F5F5F5F5F5F5F5F5F5F5F5F5F5F5F5F5F5F5F5F5F5F5F5F5F5F5F5F5F5F5F5F5F5F5F5
310
F5F5F5F5F5F5F5F5F5F5F5F5F5F5F5F528F5DCF5F5F5F5F5F5F5F5F5F5F5F5F5F5F5F5F5F5F5E2E2F5E2F5F5F5F5F5F5F5F5F5F5F5F5F5F5F5F5F5DCF5282D2D2D2D2D2D2D2D2D2D2D2D2D2D2D2D2D2D2D2D2D2D2D2D2D2D2D2D2DF5F5F5F5F5F5F5F5F5F5F5F5F5F5F5F5F5F5F5F5F5F5F5F5F5F5F5F5F5F5F5F5F5F5F5F5
310
F528F5F5F5F5F5F5F5F5F5F5F5F5F5F5F5F5F5F5F5F5F5F5F5F5F5F5F5F5F5F5F5F5F5F5F5F5F5F5F5F5F5F5F5F5F5F5F5F5F5F5F5F5F5F5F5F5F5F5F5F5F5F5F5F5F5F5F528F5DCF5F5F5F5F5F5F5F5F5F5F5F5F5F5F5F5F5E2F5E2E2F5E2F5F5F5F5F5F5F5F5F5F5F5F5F5F5F5F5F5DCF5282D2D2D2D2D2D2D2D2D2D2D2D
310
2D2D2D2D2D2D2D2D2D2D2D2D2D2D2D2D2DF5F5F5F5F5F5F5F5F5F5F5F5F5F5F5F5F5F5F5F5F5F5F5F5F5F5F5F5F5F5F5F5F5F5F5F5F528F5F5F5F5F5F5F5F52D2D2D2D2D2D2D2D2D2D2D2D2D2D2D2D2D2D2D2D2D2D2D2D2D2D2D2D2D2D2D2D2D2D2D2D2D2D2D2D2D2D2D2D2D2D2D2D2D2D2DF5F5F5F5F5F5F5F528F5DCF5F5
310
F5F5F5F5F5F5F5F5F5F5F5F5F5F5F5E2F5E2E2F5E2F5F5F5F5F5F5F5F5F5F5F5F5F5F5F5F5F5DCF5282D2D2D2D2D2D2D2D2D2D2D2D2D2D2D2D2D2D2D2D2D2D2D2D2D2D2D2D2D2D2D2D2D2D2D2D2D2D2D2D2D2D2D2D2D2D2D2D2D2D2D2D2D2D2D2D2D2D2D2D2D2D2D2D2D2D28F5F5F5F5F5F5F5F52D2D2D2D2D2D2D2D2D2D2D
310
2D2D2D2D2D2D2D2D2D2D2D2D2D2D2D2D2D2D2D2D2D2D2D2D2D2D2D2D2D2D2D2D2D2D2D2D2D2D2D2DF5F5F5F5F5F5F5F528F5DCF5F5F5F5F5F5F5F5F5F5F5F5F5F5F5F5F5E2F5E2E2F5E2F5F5F5F5F5F5F5F5F5F5F5F5F5F5F5F5F5DCF5282D2D2D2D2D2D2D2D2D2D2D2D2D2D2D2D2D2D2D2D2D2D2D2D2D2D2D2D2D2D2D2D2D
310
2D2D2D2D2D2D2D2D2D2D2D2D2D2D2D2D2D2D2D2D2D2D2D2D2D2D2D2D2DF5F5F5F528F5F5F5F5F5F5F5F5F5F5F5F52D2D2D2D2D2D2D2D2D2D2D2D2D2D2D2D2D2D2D2D2D2D2D2D2D2D2D2D2D2D2D2D2D2D2D2D2D2D2D2D2D2DF5F5F5F5F5F5F5F5F5F5F5F5F528F5DCF5F5F5F5F5F5F5F5F5F5F5F5F5F5F5F5F5E2F5E2E2F5E2
310
F5F5F5F5F5F5F5F5F5F5F5F5F5F5F5F5F5DCF5282D2D2D2D2D2D2D2D2D2D2D2D2D2D2D2D2D2D2D2D2D2D2D2D2D2D2D2D2D2D2D2D2D2D2D2D2D2D2D2D2D2D2D2D2D2D2D2D2D2D2D2D2D2D2D2D2D2D2D2D2D2DF5F5F5F528F5F5F5F5F5F5F5F5F5F5F5F52D2D2D2D2D2D2D2D2D2D2D2D2D2D2D2D2D2D2D2D2D2D2D2D2D2D2D2D
310
2D2D2D2D2D2D2D2D2D2D2D2D2D2DF5F5F5F5F5F5F5F5F5F5F5F5F528F5DCF5F5F5F5F5F5F5F5F5F5F5F5F5F5F5F5F5E2F5E2E2F5E2F5F5F5F5F5F5F5F5F5F5F5F5F5F5F5F5F5DCF5282D2D2D2D2D2D2D2D2D2D2D2D2D2D2D2D2D2D2D2D2D2D2D2D2D2D2D2D2D2D2D2D2D2D2D2D2D2D2D2D2D2D2D2D2D2D2D2D2D2D2D2D2D2D
310
2D2D2D2D2DF5F5F5F5F5F5F528F5F5F5F5F5F5F5F5F5F5F5F5F5F5F5F5F5F5F5F5F5F5F5F5F5F5F5F52D2D2D2D2D2D2D2D2D2DF5F5F5F5F5F5F5F5F5F5F5F5F5F5F5F5F5F5F5F5F5F5F5F5F5F5F5F5F528F5DCF5F5F5F5F5F5F5F5F5F5F5F5F5F5F5F5F5E2F5E2E2F5E2F5F5F5F5F5F5F5F5F5F5F5F5F5F5F5F5F5DCF5282D
310
2D2D2D2D2D2D2D2D2D2D2D2D2D2D2D2D2D2D2D2D2D2D2D2D2D2D2D2D2D2D2DF5F5F5F5F5F5F5F5F5F5F5F5F5F5F5F5F5F5F5F5F5F5F5F5F5F5F5F5F5F5F5F5F5F528F5F5F5F5F5F5F5F5F5F5F5F5F5F5F5F5F5F5F5F5F5F5F5F5F5F5F5F52D2D2D2D2D2D2D2D2D2DF5F5F5F5F5F5F5F5F5F5F5F5F5F5F5F5F5F5F5F5F5F5F5
310
F5F5F5F5F5F528F5DCF5F5F5F5F5F5F5F5F5F5F5F5F5F5F5F5F5E2F5E2E2F5E2F5F5F5F5F5F5F5F5F5F5F5F5F5F5F5F5F5DCF5282D2D2D2D2D2D2D2D2D2D2D2D2D2D2D2D2D2D2D2D2D2D2D2D2D2D2D2D2D2D2D2DF5F5F5F5F5F5F5F5F5F5F5F5F5F5F5F5F5F5F5F5F5F5F5F5F5F5F5F5F5F5F5F5F5F528F5F5F5F5F5F5F5F5
310
F5F5F5F5F5F5F5F5F5F5F5F5F5F5F5F5F5F5F5F52D2D2D2D2D2D2D2D2D2DF5F5F5F5F5F5F5F5F5F5F5F5F5F5F5F5F5F5F5F5F5F5F5F5F5F5F5F5F528F5DCF5F5F5F5F5F5F5F5F5F5F5F5F5F5F5F5F5E2F5E2E2F5E2F5F5F5F5F5F5F5F5F5F5F5F5F5F5F5F5F5DCF5282D2D2D2D2D2D2D2D2D2D2D2D2D2D2D2D2D2D2D2D2D2D
310
2D2D2D2D2D2D2D2D2D2D2D2D2D2D2D2D2D2D2D2D2D2D2D2D2D2D2D2D2D2D2D2D2D2D2D2D2D2D2D2D2D2DF5F528F5F5F5F5F5F5F5F5F5F5F5F5F5F5F5F5F5F5F5F5F5F5F5F5F5F5F5F5F5F5F5F5F5F5F5F5F5F5F5F5F5F5F5F5F5F5F5F5F5F5F5F5F5F5F5F5F5F5F5F5F5F5F5F5F5F5F528F5DCF5F5F5F5F5F5F5F5F5F5F5F5
310
F5F5F5F5F5E2F5E2E2F5E2F5F5F5F5F5F5F5F5F5F5F5F5F5F5F5F5F5DCF528F5F5F5F5F5F5F5F5F5F5F5F5F5F5F5F5F5F5F5F5F5F5F5F5F5F5F5F5F5F5F5F5F5F5F5F5F5F5F5F5F5F5F5F5F5F5F5F5F5F5F5F5F5F5F5F5F5F5F5F5F5F5F5F5F5F528F5F5F5F5F5F5F5F5F5F5F5F5F5F5F5F5F5F5F5F5F5F5F5F5F5F5F5F5F5
310
F5F5F5F5F5F5F5F5F5F5F5F5F5F5F5F5F5F5F5F5F5F5F5F5F5F5F5F5F5F5F5F5F5F5F5F5F5F528F5DCF5F5F5F5F5F5F5F5F5F5F5F5F5F5F5F5F5E2F5E2E2F5E2F5F5F5F5F5F5F5F5F5F5F5F5F5F5F5F5F5DCF52828282828282828282828282828282828282828282828282828282828282828282828282828282828282828
310
2828282828282828282828282828282828282828282828282828282828282828282828282828282828282828282828282828282828282828282828282828282828282828282828282828282828282828282828282828282828282828F5DCF5F5F5F5F5F5F5F5F5F5F5F5F5F5F5F5F5E2F5E2E2F5E2F5F5F5F5F5F5F5F5F5F5
310
F5F5F5F5F5F5F5DCF528F5F5F5F5F5F5F5F5F5F5F5F5F5F5F5F5F5F5F5F5F5F5F5F5F5F5F5F5F5F5F5F5F5F5F5F5F5F5F5F5F5F5F5F5F5F5F5F5F5F5F5F5F5F5F5F5F5F5F5F5F5F5F5F5F5F5F5F5F5F5F5F5F5F5F5F5F5F5F5F5F5F5F5F5F5F5F5F5F5F5F5F5F5F5F5F5F5F5F5F5F5F5F5F5F5F5F5F5F5F5F5F5F5F5F5F5F5
310
F5F5F5F5F5F5F5F5F5F5F5F5F5F5F5F5F528F5DCF5F5F5F5F5F5F5F5F5F5F5F5F5F5F5F5F5E2F5E2E2F5E2F5F5F5F5F5F5F5F5F5F5F5F5F5F5F5F5F5DCF528F5F5F5F5F5F5F5F5F5F5F5F5F5F5F5F5F5F5F5F5F5F5F5F5F5F5F5F5F5F5F5F5F5F5F5F5F5F5F5F5F5F5F5F5F5F5F5F5F5F5F5F5F5F5F5F5F5F5F5F5F5F5F5F5
310
F5F5F5F5F5F5F5F5F5F5F5F5F5F5F5F5F5F5F5F5F5F5F5F5F5F5F5F5F5F5F5F5F5F5F5F5F5F5F5F5F5F5F5F5F5F5F5F5F5F5F5F5F5F5F5F5F5F5F5F5F5F5F5F5F5F5F5F5F5F528F5DCF5F5F5F5F5F5F5F5F5F5F5F5F5F5F5F5F5E2F5E2E2F5E2F5F5F5F5F5F5F5F5F5F5F5F5F5F5F5F5F5DCF528F5F5F5F5F5F5F5F5F5F5F5
310
F5F5F5F5F5F5F5F5F5F5F5F5F5F5F5F5F5F5F5F5F5F5F5F5F5F5F5F5F5F5F5F5F5F5F5F5F5F5F5F5F5F5F5F5F5F5F5F5F5F5F5F5F5F5F5F5F5F5F5F5F5F5F5F5F5F5F5F5F5F5F5F5F5F5F5F5F5F5F5F5F5F5F5F5F5F5F5F5F5F5F5F5F5F5F5F5F5F5F5F5F5F5F5F5F5F5F5F5F5F5F5F5F5F5F5F5F5F5F5F5F5F5F528F5DCF5
310
F5F5F5F5F5F5F5F5F5F5F5F5F5F5F5F5E2F5E2E2F5E2F5F5F5F5F5F5F5F5F5F5F5F5F5F5F5F5F5DCF528F5F5F5F5F5F5F5F5F5F5F5F5F5F5F5F5F5F5F5F5F5F5F5F5F5F5F5F5F5F5F5F5F5F5F5F5F5F5F5F5F5F5F5F5F5F5F5F5F5F5F5F5F5F5F5F5F5F5F5F5F5F5F5F5F5F5F5F5F5F5F5F5F5F5F5F5F5F5F5F5F5F5F5F5F5
310
F5F5F5F5F5F5F5F5F5F5F5F5F5F5F5F5F5F5F5F5F5F5F5F5F5F5F5F5F5F5F5F5F5F5F5F5F5F5F5F5F5F5F5F5F5F5F5F5F528F5DCF5F5F5F5F5F5F5F5F5F5F5F5F5F5F5F5F5E2F5E2E2F5E2F5F5F5F5F5F5F5F5F5F5F5F5F5F5F5F5F5DCF528F5F5F5F5F5F5F5F5F5F5F5F5F5F5F5F5F5F5F5F5F5F5F5F5F5F5F5F5F5F5F5F5
310
F5F5F5F5F5F5F5F5F5F5F5F5F5F5F5F5F5F5F5F5F5F5F5F5F5F5F5F5F5F5F5F5F5F5F5F5F5F5F5F5F5F5F5F5F5F5F5F5F5F5F5F5F5F5F5F5F5F5F5F5F5F5F5F5F5F5F5F5F5F5F5F5F5F5F5F5F5F5F5F5F5F5F5F5F5F5F5F5F5F5F5F5F5F5F5F5F5F5F5F5F5F528F5DCF5F5F5F5F5F5F5F5F5F5F5F5F5F5F5F5F5E2F5E2E2F5
310
F5F5F5F5F5F5F5F5F5F5F5F5F5F5F5F5F5F5DCF528F5F5F5F5F5F5F5F5F5F5F5F5F5F5F5F5F5F5F5F5F5F5F5F5F5F5F5F5F5F5F5F5F5F5F5F5F5F5F5F5F5F5F5F5F5F5F5F5F5F5F5F5F5F5F5F5F5F5F5F5F5F5F5F5F5F5F5F5F5F5F5F5F5F5F5F5F5F5F5F5F5F5F5F5F5F5F5F5F5F5F5F5F5F5F5F5F5F5F5F5F5F5F5F5F5F5
310
F5F5F5F5F5F5F5F5F5F5F5F5F5F5F5F5F5F5F5F5F5F5F5F5F5F5F5F528F5DCF5F5F5F5F5F5F5F5F5F5F5F5F5F5F5F5F5F5F5E2E2F5F5F5F5F5F5F5F5F5F5F5F5F5F5F5F5F5F5F5DCF528F5F5F5F5F5F5F5F5F5F5F5F5F5F5F5F5F5F5F5F5F5F5F5F5F5F5F5F5F5F5F5F5F5F5F5F5F5F5F5F5F5F5F5F5F5F5F5F5F5F5F5F5F5
310
F5F5F5F5F5F5F5F5F5F5F5F5F5F5F5F5F5F5F5F5F5F5F5F5F5F5F5F5F5F5F5F5F5F5F5F5F5F5F5F5F5F5F5F5F5F5F5F5F5F5F5F5F5F5F5F5F5F5F5F5F5F5F5F5F5F5F5F5F5F5F5F5F5F5F5F5F5F5F5F5F528F5DCF5F5F5F5F5F5F5F5F5F5F5F5F5F5F5F5F5F5F5E2E2F5F5F5F5F5F5F5F5F5F5F5F5F5F5F5F5F5F5F5DCF528
310
F5F5F5F5F5F5F5F5F5F5F5F5F5F5F5F5F5F5F5F5F5F5F5F5F5F5F5F5F5F5F5F5F5F5F5F5F5F5F5F5F5F5F5F5F5F5F5F5F5F5F5F5F5F5F5F5F5F5F5F5F5F5F5F5F5F5F5F5F5F5F5F5F5F5F5F5F5F5F5F5F5F5F5F5F5F5F5F5F5F5F5F5F5F5F5F5F5F5F5F5F5F5F5F5F5F5F5F5F5F5F5F5F5F5F5F5F5F5F5F5F5F5F5F5F5F5F5
310
F5F5F5F5F5F5F528F5DCF5F5F5F5F5F5F5F5F5F5F5F5F5F5F5F5F5F5F5E2E2F5F5F5F5F5F5F5F5F5F5F5F5F5F5F5F5F5F5F5DCF528F5F5F5F5F5F5F5F5F5F5F5F5F5F5F5F5F5F5F5F5F5F5F5F5F5F5F5F5F5F5F5F5F5F5F5F5F5F5F5F5F5F5F5F5F5F5F5F5F5F5F5F5F5F5F5F5F5F5F5F5F5F5F5F5F5F5F5F5F5F5F5F5F5F5
310
F5F5F5F5F5F5F5F5F5F5F5F5F5F5F5F5F5F5F5F5F5F5F5F5F5F5F5F5F5F5F5F5F5F5F5F5F5F5F5F5F5F5F5F5F5F5F5F5F5F5F5F5F5F5F5F5F5F5F5F528F5DCF5F5F5F5F5F5F5F5F5F5F5F5F5F5F5F5F5F5F5E2E2F5F5F5F5F5F5F5F5F5F5F5F5F5F5F5F5F5F5F5DCF528F5F5F5F5F5F5F5F5F5F5F5F5F5F5F5F5F5F5F5F5F5
310
F5F5F5F5F5F5F5F5F5F5F5F5F5F5F5F5F5F5F5F5F5F5F5F5F5F5F5F5F5F5F5F5F5F5F5F5F5F5F5F5F5F5F5F5F5F5F5F5F5F5F5F5F5F5F5F5F5F5F5F5F5F5F5F5F5F5F5F5F5F5F5F5F5F5F5F5F5F5F5F5F5F5F5F5F5F5F5F5F5F5F5F5F5F5F5F5F5F5F5F5F5F5F5F5F5F5F5F5F5F5F5F5F528F5DCF5F5F5F5F5F5F5F5F5F5F5
310
F5F5F5F5F5F5F5F5E2E2F5F5F5F5F5F5F5F5F5F5F5F5F5F5F5F5F5F5F5DCF528F5F5F5F5F5F5F5F5F5F5F5F5F5F5F5F5F5F5F5F5F5F5F5F5F5F5F5F5F5F5F5F5F5F5F5F5F5F5F5F5F5F5F5F5F5F5F5F5F5F5F5F5F5F5F5F5F5F5F5F5F5F5F5F5F5F5F5F5F5F5F5F5F5F5F5F5F5F5F5F5F5F5F5F5F5F5F5F5F5F5F5F5F5F5F5
310
F5F5F5F5F5F5F5F5F5F5F5F5F5F5F5F5F5F5F5F5F5F5F5F5F5F5F5F5F5F5F5F5F5F5F5F5F5F5F528F5DCF5F5F5F5F5F5F5F5F5F5F5F5F5F5F5F5F5F5F5E2E2F5F5F5F5F5F5F5F5F5F5F5F5F5F5F5F5F5F5F5DCF528F5F5F5F5F5F5F5F5F5F5F5F5F5F5F5F5F5F5F5F5F5F5F5F5F5F5F5F5F5F5F5F5F5F5F5F5F5F5F5F5F5F5
310
F5F5F5F5F5F5F5F5F5F5F5F5F5F5F5F5F5F5F5F5F5F5F5F5F5F5F5F5F5F5F5F5F5F5F5F5F5F5F5F5F5F5F5F5F5F5F5F5F5F5F5F5F5F5F5F5F5F5F5F5F5F5F5F5F5F5F5F5F5F5F5F5F5F5F5F5F5F5F5F5F5F5F5F5F5F5F5F5F5F5F5F528F5DCF5F5F5F5F5F5F5F5F5F5F5F5F5F5F5F5F5F5F5E2E2F5F5F5F5F5F5F5F5F5F5F5
310
F5F5F5F5F5F5F5F5DCF528F5F5F5F5F5F5F5F5F5F5F5F5F5F5F52D2D2D2D2D2D2D2D2D2DF5F5F5F5F5F5F5F5F5F5F5F5F5F5F5F5F5F5F5F5F5F5F5F5F5F5F5F5F5F5F5F5F5F5F5F5F5F5F5F5F5F5F5F5F5F5F5F5F5F5F5F5F5F5F5F5F5F5F5F5F5F5F5F5F5F5F5F5F5F5F5F5F5F5F5F5F5F5F5F5F5F5F5F5F5F5F5F5F5F5F5
310
F5F5F5F5F5F5F5F5F5F5F5F5F5F5F5F5F5F528F5DCF5F5F5F5F5F5F5F5F5F5F5F5F5F5F5F5F5F5F5E2E2F5E2F5F5F5F5F5F5F5F5F5F5F5F5F5F5F5F5F5DCF528F5F5F5F5F5F5F5F5F5F5F5F5F5F5F52D2D2D2D2D2D2D2D2D2DF5F5F5F5F5F5F5F5F5F5F5F5F5F5F5F5F5F5F5F5F5F5F5F5F5F5F5F5F5F5F5F5F5F5F5F5F5F5
310
F5F5F5F5F5F5F5F5F5F5F5F5F5F5F5F5F5F5F5F5F5F5F5F5F5F5F5F5F5F5F5F5F5F5F5F5F5F5F5F5F5F5F5F5F5F5F5F5F5F5F5F5F5F5F5F5F5F5F5F5F5F5F5F5F5F5F5F5F5F5F528F5DCF5F5F5F5F5F5F5F5F5F5F5F5F5F5F5F5F5E2F5E2E2F5E2F5F5F5F5F5F5F5F5F5F5F5F5F5F5F5F5F5DCF528F5F5F5F5F5F5F5F5F5F5
310
F5F5F5F5F5F5F5F5F5F5F5F5F5F5F5F5F5F5F5F5F5F5F5F5F5F5F5F5F5F5F5F5F5F5F5F5F5F5F5F5F5F5F5F5F5F5F5F5F5F5F5F5F5F5F5F5F5F5F5F5F5F5F5F5F5F5F5F5F5F5F5F5F5F5F5F5F5F5F5F5F5F5F5F5F5F5F5F5F5F5F5F5F5F5F5F5F5F5F5F5F5F5F5F5F5F5F5F5F5F5F5F5F5F5F5F5F5F5F5F5F5F5F5F528F5DC
310
F5F5F5F5F5F5F5F5F5F5F5F5F5F5F5F5F5E2F5E2E2F5E2F5F5F5F5F5F5F5F5F5F5F5F5F5F5F5F5F5DCF528F5F5F5F5F5F5F5F5F5F5F5F5F5F5F5F5F5F5F5F5F5F5F5F5F5F5F5F5F5F5F5F5F5F5F5F5F5F5F5F5F5F5F5F5F5F5F5F5F5F5F5F5F5F5F5F5F5F5F5F5F5F5F5F5F5F5F5F5F5F5F5F5F5F5F5F5F5F5F5F5F5F5F5F5
310
F5F5F5F5F5F5F5F5F5F5F5F5F5F5F5F5F5F5F5F5F5F5F5F5F5F5F5F5F5F5F5F5F5F5F5F5F5F5F5F5F5F5F5F5F5F5F5F5F5F528F5DCF5F5F5F5F5F5F5F5F5F5F5F5F5F5F5F5F5E2F5E2E2F5E2F5F5F5F5F5F5F5F5F5F5F5F5F5F5F5F5F5DCF528F5F5F5F5F5F5F5F5F5F5F5F5F5F5F5F5F5F5F5F5F5F5F5F5F5F5F5F5F5F5F5
310
F5F5F5F5F5F5F5F5F5F5F5F5F5F5F5F5F5F5F5F5F5F5F5F5F5F5F5F5F5F5F5F5F5F5F5F5F5F5F5F5F5F5F5F5F5F5F5F5F5F5F5F5F5F5F5F5F5F5F5F5F5F5F5F5F5F5F5F5F5F5F5F5F5F5F5F5F5F5F5F5F5F5F5F5F5F5F5F5F5F5F5F5F5F5F5F5F5F5F5F5F5F5F528F5DCF5F5F5F5F5F5F5F5F5F5F5F5F5F5F5F5F5E2F5E2E2
310
F5E2F5F5F5F5F5F5F5F5F5F5F5F5F5F5F5F5F5DCF528F5F5F5F5F5F5F5F5F5F5F5F5F5F5F5F5F5F5F5F5F5F5F5F5F5F5F5F5F5F5F5F5F5F5F5F5F5F5F5F5F5F5F5F5F5F5F5F5F5F5F5F5F5F5F5F5F5F5F5F5F5F5F5F5F5F5F5F5F5F5F5F5F5F5F5F5F5F5F5F5F5F5F5F5F5F5F5F5F5F5F5F5F5F5F5F5F5F5F5F5F5F5F5F5F5
310
F5F5F5F5F5F5F5F5F5F5F5F5F5F5F5F5F5F5F5F5F5F5F5F5F5F5F5F5F528F5DCF5F5F5F5F5F5F5F5F5F5F5F5F5F5F5F5F5E2F5E2E2F5E2F5F5F5F5F5F5F5F5F5F5F5F5F5F5F5F5F5DCF528F5F5F5F5F5F5F5F5F5F5F5F5F5F5F5F5F5F5F5F5F5F5F5F5F5F5F5F5F5F5F5F5F5F5F5F5F5F5F5F5F5F5F5F5F5F5F5F5F5F5F5F5
310
F5F5F5F5F5F5F5F5F5F5F5F5F5F5F5F5F5F5F5F5F5F5F5F5F5F5F5F5F5F5F5F5F5F5F5F5F5F5F5F5F5F5F5F5F5F5F5F5F5F5F5F5F5F5F5F5F5F5F5F5F5F5F5F5F5F5F5F5F5F5F5F5F5F5F5F5F5F5F5F5F5F528F5DCF5F5F5F5F5F5F5F5F5F5F5F5F5F5F5F5F5E2F5E2E2F5E2F5F5F5F5F5F5F5F5F5F5F5F5F5F5F5F5F5DCF5
310
28F5F5F5F5F5F5F5F5F5F5F5F5F5F5F5F5F5F5F5F5F5F5F5F5F5F5F5F5F5F5F5F5F5F5F5F5F5F5F5F5F5F5F5F5F5F5F5F5F5F5F5F5F5F5F5F5F5F5F5F5F5F5F5F5F5F5F5F5F5F5F5F5F5F5F5F5F5F5F5F5F5F5F5F5F5F5F5F5F5F5F5F5F5F5F5F5F5F5F5F5F5F5F5F5F5F5F5F5F5F5F5F5F5F5F5F5F5F5F5F5F5F5F5F5F5F5
310
F5F5F5F5F5F5F5F528F5DCF5F5F5F5F5F5F5F5F5F5F5F5F5F5F5F5F5E2F5E2E2F5E2F5F5F5F5F5F5F5F5F5F5F5F5F5F5F5F5F5DCF528F5F5F5F5F5F5F5F5F5F5F5F5F5F5F5F5F5F5F5F5F5F5F5F5F5F5F5F5F5F5F5F5F5F5F5F5F5F5F5F5F5F5F5F5F5F5F5F5F5F5F5F5F5F5F5F5F5F5F5F5F5F5F5F5F5F5F5F5F5F5F5F5F5
310
F5F5F5F5F5F5F5F5F5F5F5F5F5F5F5F5F5F5F5F5F5F5F5F5F5F5F5F5F5F5F5F5F5F5F5F5F5F5F5F5F5F5F5F5F5F5F5F5F5F5F5F5F5F5F5F5F5F5F5F5F528F5DCF5F5F5F5F5F5F5F5F5F5F5F5F5F5F5F5F5E2F5E2E2F5E2F5F5F5F5F5F5F5F5F5F5F5F5F5F5F5F5F5DCF528F5F5F5F5F5F5F5F5F5F5F5F5F5F5F5F5F5F5F5F5
310
F5F5F5F5F5F5F5F5F5F5F5F5F5F5F5F5F5F5F5F5F5F5F5F5F5F5F5F5F5F5F5F5F5F5F5F5F5F5F5F5F5F5F5F5F5F5F5F5F5F5F5F5F5F5F5F5F5F5F5F5F5F5F5F5F5F5F5F5F5F5F5F5F5F5F5F5F5F5F5F5F5F5F5F5F5F5F5F5F5F5F5F5F5F5F5F5F5F5F5F5F5F5F5F5F5F5F5F5F5F5F5F5F5F528F5DCF5F5F5F5F5F5F5F5F5F5
310
F5F5F5F5F5F5F5E2F5E2E2F5E2F5F5F5F5F5F5F5F5F5F5F5F5F5F5F5F5F5DCF528F5F5F5F5F5F5F5F5F5DCF5F5F5F5F5F5F5F5F5F5F5F5F5F5F5F5F5F5F5F5F5F5F5F5F5F5F5F5F5F5F5F5F5F5F5F5F5F5F5F5F5F5F5F5F5F5F5F5F5F5F5F5F5F5F5F5F5F5F5F5F5F5F5F5F5F5F5F5F5F5F5F5F5F5F5F5F5F5F5F5F5F5F5F5
310
F5F5F5F5F5F5F5F5F5F5F5F5F5F5F5F5F5F5F5F5F5F5F5F5F5F5F5F5F5F5F5F5F5F5F5F5F5F5F5F528F5DCF5F5F5F5F5F5F5F5F5F5F5F5F5F5F5F5F5E2F5E2E2F5E2F5F5F5F5F5F5F5F5F5F5F5F5F5F5F5F5F5DCF528F5F5F5F5F5F5F5F50FDCF5F5F5F5F52D2D2D2D2D2D2D2DF5F5F5F5F50FF5F5F5F5F5F5F5F5F5F5F5F5
310
F5F5F5F5F5F5F5F5F5F5F5F5F5F5F5F5F5F5F5F5F5F5F5F5F5F5F5F5F5F5F5F5F5F5F5F5F5F5F5F5F5F5F5F5F5F5F5F5F5F5F5F5F5F5F5F5F5F5F5F5F5F5F5F5F5F5F5F5F5F5F5F5F5F5F5F5F5F5F5F5F5F5F5F5F5F5F5F5F5F5F5F5F528F5DCF5F5F5F5F5F5F5F5F5F5F5F5F5F5F5F5F5E2F5E2E2F5E2F5F5F5F5F5F5F5F5
310
F5F5F5F5F5F5F5F5F5DCF528F5F5F5F5DCF5F5DC0FDC0F0F0F0F0F2D2D2D2D2D2D2D2D0F0F0F0F0F0F0FF5F5F5F5F5F5F5F5F5F5F5F5F5F5F5F5F5F5F5F5F5F5F5F5F5F5F5F5F5F5F5F5F5F5F5F5F5F5F5F5F5F5F5F5F5F5F5F5F5F5F5F5F5F5F5F5F5F5F5F5F5F5F5F5F5F5F5F5F5F5F5F5F5F5F5F5F5F5F5F5F5F5F5F5F5
310
F5F5F5F5F5F5F5F5F5F5F5F5F5F5F5F5F5F5F528F5DCF5F5F5F5F5F5F5F5F5F5F5F5F5F5F5F5F5E2F5E2E2F5E2F5F5F5F5F5F5F5F5F5F5F5F5F5F5F5F5F5DCF528F5F5F5DCF5F5DCF5F5DCF5F5F5F5F5F5F5F5F5F5F5F5F5F5F5F5F5F50FF5F5F5F5F5F5F5F5F5F5F5F5F5F5F5F5F5F5F5F5F5F5F5F5F5F5F5F5F5F5F5F5F5
310
F5F5F5F5F5F5F5F5F5F5F5F5F5F5F5F5F5F5F5F5F5F5F5F5F5F5F5F5F5F5F5F5F5F5F5F5F5F5F5F5F5F5F5F5F5F5F5F5F5F5F5F5F5F5F5F5F5F5F5F5F5F5F5F5F5F5F5F5F5F5F5F528F5DCF5F5F5F5F5F5F5F5F5F5F5F5F5F5F5F5F5E2F5E2E2F5E2F5F5F5F5F5F5F5F5F5F5F5F5F5F5F5F5F5DCF528F5F5F5F5F5DCF5F5DC
310
DCF5F5F5F5F5F5F5F5F5F5F5F5F5F5F5F5F5F50FF5F5F5F5F5F5F5F5F5F5F5F5F5F5F5F5F5F5F5F5F5F5F5F5F5F5F5F5F5F5F5F5F5F5F5F5F5F5F5F5F5F5F5F5F5F5F5F5F5F5F5F5F5F5F5F5F5F5F5F5F5F5F5F5F5F5F5F5F5F5F5F5F5F5F5F5F5F5F5F5F5F5F5F5F5F5F5F5F5F5F5F5F5F5F5F5F5F5F5F5F5F5F5F5F528F5
310
DCF5F5F5F5F5F5F5F5F5F5F5F5F5F5F5F5F5E2F5E2E2F5E2F5F5F5F5F5F5F5F5F5F5F5F5F5F5F5F5F5DCF528F5F5F5F5DCF5F5DCF5DCF5F5F5F5F5F5F5F5F5F5F5F5F5F5F5F5F5F50FF5F5F5F5F5F5F5F5F5F5F5F5F5F5F5F5F5F5F5F5F5F5F5F5F5F5F5F5F5F5F5F5F5F5F5F5F5F5F5F5F5F5F5F5F5F5F5F5F5F5F5F5F5F5
310
F5F5F5F5F5F5F5F5F5F5F5F5F5F5F5F5F5F5F5F5F5F5F5F5F5F5F5F5F5F5F5F5F5F5F5F5F5F5F5F5F5F5F5F5F5F5F5F5F5F5F528F5DCF5F5F5F5F5F5F5F5F5F5F5F5F5F5F5F5F5E2F5E2E2F5E2F5F5F5F5F5F5F5F5F5F5F5F5F5F5F5F5F5DCF528F5F5F5DCF5F5DCF5F5DCF5F5F5F5F5F5F5F5F5F5F5F5F5F5F5F5F5F50FF5
310
F5F5F5F5F5F5F5F5F5F5F5F5F5F5F5F5F5F5F5F5F5F5F5F5F5F5F5F5F5F5F5F5F5F5F5F5F5F5F5F5F5F5F5F5F5F5F5F5F5F5F5F5F5F5F5F5F5F5F5F5F5F5F5F5F5F5F5F5F5F5F5F5F5F5F5F5F5F5F5F5F5F5F5F5F5F5F5F5F5F5F5F5F5F5F5F5F5F5F5F5F5F5F5F528F5DCF5F5F5F5F5F5F5F5F5F5F5F5F5F5F5F5F5E2F5E2
310
E2F5F5F5F5F5F5F5F5F5F5F5F5F5F5F5F5F5F5F5DCF528F5F5F5F5F5DCF5F5F5DC1B0F0F0F0F0F0F0F0F0F0F0F0F0F0F0F0F0F0F0F0F0F0F0F0F0FF5F5F5F5F5F5F5F5F5F5F5F5F5F5F5F5F5F5F5F5F5F5F5F5F5F5F5F5F5F5F5F5F5F5F5F5F5F5F5F5F5F5F5F5F5F5F5F5F5F5F5F5F5F5F5F5F5F5F5F5F5F5F5F5F5F5F5F5
310
F5F5F5F5F5F5F5F5F5F5F5F5F5F5F5F5F5F5F5F5F5F5F5F5F5F5F5F5F5F528F5DCF5F5F5F5F5F5F5F5F5F5F5F5F5F5F5F5F5F5F5E2E2F5F5F5F5F5F5F5F5F5F5F5F5F5F5F5F5F5F5F5DCF528F5F5F5F5DCF5F5F5DCDCBEF5F5F5F5F5F5F5F5F5F5F5F5F5F5F5F5F50FF5F5F5F5F50FF5F5F5F5F5F5F5F5F5F5F5F5F5F5F5F5
310
F5F5F5F5F5F5F5F5F5F5F5F5F5F5F5F5F5F5F5F5F5F5F5F5F5F5F5F5F5F5F5F5F5F5F5F5F5F5F5F5F5F5F5F5F5F5F5F5F5F5F5F5F5F5F5F5F5F5F5F5F5F5F5F5F5F5F5F5F5F5F5F5F5F5F5F5F5F5F5F5F5F5F528F5DCF5F5F5F5F5F5F5F5F5F5F5F5F5F5F5F5F5F5F5E2E2F5F5F5F5F5F5F5F5F5F5F5F5F5F5F5F5F5F5F5DC
310
F528F5F5F5DCF5F5F5DCF5DCF5BEBEF5F5F5F5F5F5F5F5F5F5F5F5F5F5F50FF5F5F5F5F50FF5F5F5F5F5F5F5F5F5F5F5F5F5F5F5F5F5F5F5F5F5F5F5F5F5F5F5F5F5F5F5F5F5F5F5F5F5F5F5F5F5F5F5F5F5F5F5F5F5F5F5F5F5F5F5F5F5F5F5F5F5F5F5F5F5F5F5F5F5F5F5F5F5F5F5F5F5F5F5F5F5F5F5F5F5F5F5F5F5F5
310
F5F5F5F5F5F5F5F5F528F5DCF5F5F5F5F5F5F5F5F5F5F5F5F5F5F5F5F5F5F5E2E2F5F5F5F5F5F5F5F5F5F5F5F5F5F5F5F5F5F5F5DCF528F5F5F5F5F5DCDCF5F5DCF5F5BEBEF5F5F5F5F5F5F5F5F5F5F5F5F5F50FF5F5F5F5F50FF5F5F5F5F5F5F5F5F5F5F5F5F5F5F5F5F5F5F5F5F5F5F5F5F5F5F5F5F5F5F5F5F5F5F5F5F5
310
F5F5F5F5F5F5F5F5F5F5F5F5F5F5F5F5F5F5F5F5F5F5F5F5F5F5F5F5F5F5F5F5F5F5F5F5F5F5F5F5F5F5F5F5F5F5F5F5F5F5F5F5F5F5F5F5F5F5F5F5F5F528F5DCF5F5F5F5F5F5F5F5F5F5F5F5F5F5F5F5F5F5F5E2E2F5F5F5F5F5F5F5F5F5F5F5F5F5F5F5F5F5F5F5DCF528F5F5F5F5DCF5F5F5DCDCF5F5F5BEF5F5F5F5F5
310
F5F5F5F5F5F5F5F5F50FF5F5F5F5F50FF5F5F5F5F5F5F5F5F5F5F5F5F5F5F5F5F5F5F5F5F5F5F5F5F5F5F5F5F5F5F5F5F5F5F5F5F5F5F5F5F5F5F5F5F5F5F5F5F5F5F5F5F5F5F5F5F5F5F5F5F5F5F5F5F5F5F5F5F5F5F5F5F5F5F5F5F5F5F5F5F5F5F5F5F5F5F5F5F5F5F5F5F5F5F5F5F5F5F528F5DCF5F5F5F5F5F5F5F5F5
310
F5F5F5F5F5F5F5F5F5F5E2E2F5F5F5F5F5F5F5F5F5F5F5F5F5F5F5F5F5F5F5DCF528F5F5F5DCF5F5F5DCF5DCF5F5F5BEBEBEF5F5F5F5F5F5F5F5F5F5F5F50FF5F5F5F5F50FF5F5F5F5F5F5F5F5F5F5F5F5F5F5F5F5F5F5F5F5F5F5F5F5F5F5F5F5F5F5F5F5F5F5F5F5F5F5F5F5F5F5F5F5F5F5F5F5F5F5F5F5F5F5F5F5F5F5
310
F5F5F5F5F5F5F5F5F5F5F5F5F5F5F5F5F5F5F5F5F5F5F5F5F5F5F5F5F5F5F5F5F5F5F5F5F5F5F5F5F528F5DCF5F5F5F5F5F5F5F5F5F5F5F5F5F5F5F5F5F5F5E2E2F5F5F5F5F5F5F5F5F5F5F5F5F5F5F5F5F5F5F5DCF528F5F5F5F5F5DCDCF5F5DCF5F5F5F5BEBEF5F5F5F5F5F5F5F5F5F5F5F50FF5F5F5F5F50FF5F5F5F5F5
310
F5F5F5F5F5F5F5F5F5F5F5F5F5F5F5F5F5F5F5F5F5F5F5F5F5F5F5F5F5F5F5F5F5F5F5F5F5F5F5F5F5F5F5F5F5F5F5F5F5F5F5F5F5F5F5F5F5F5F5F5F5F5F5F5F5F5F5F5F5F5F5F5F5F5F5F5F5F5F5F5F5F5F5F5F5F5F5F5F5F5F5F5F5F528F5DCF5F5F5F5F5F5F5F5F5F5F5F5F5F5F5F5F5F5F5E2E2F5F5F5F5F5F5F5F5F5
310
F5F5F5F5F5F5F5F5F5F5DCF528F5F5F5F5DCF5F5F5DCDCF5F5F5F5BEF5F5F5F5F5F5F5F5F5F5F5F5F50FF5F5F5F5F50FF5F5F5F5F5F5F5F5F5F5F5F5F5F5F5F5F5F5F5F5F5F5F5F5F5F5F5F5F5F5F5F5F5F5F5F5F5F5F5F5F5F5F5F5F5F5F5F5F5F5F5F5F5F5F5F5F5F5F5F5F5F5F5F5F5F5F5F5F5F5F5F5F5F5F5F5F5F5F5
310
F5F5F5F5F5F5F5F5F5F5F5F5F5F5F5F5F5F5F5F528F5DCF5F5F5F5F5F5F5F5F5F5F5F5F5F5F5F5F5F5F5E2E2F5F5F5F5F5F5F5F5F5F5F5F5F5F5F5F5F5F5F5DCF528F5F5F5DCF5F5F5DCF5DCF5F5F5F5BEF5F5F5F5F5F5F5F5F5F5F5F5F50FF5F5F5F5F50FF5F5F5F5F5F5F5F5F5F5F5F5F5F5F5F5F5F5F5F5F5F5F5F5F5F5
310
F5F5F5F5F5F5F5F5F5F5F5F5F5F5F5F5F5F5F5F5F5F5F5F5F5F5F5F5F5F5F5F5F5F5F5F5F5F5F5F5F5F5F5F5F5F5F5F5F5F5F5F5F5F5F5F5F5F5F5F5F5F5F5F5F5F5F5F5F5F5F5F5F528F5DCF5F5F5F5F5F5F5F5F5F5F5F5F5F5F5F5F5F5F5E2E2F5E2F5F5F5F5F5F5F5F5F5F5F5F5F5F5F5F5F5DCF528F5F5F5F5F5F5DCF5
310
F5DCBEBEF5F5BEF5F5F5F5F5F5F5F5F5F5F5F5F50FF5F52D2D2D2D2D2D2D2DF5F5F5F5F5F5F5F5F5F5F5F5F5F5F5F5F5F5F5F5F5F5F5F5F5F5F5F5F5F5F5F5F5F5F5F5F5F5F5F5F5F5F5F5F5F5F5F5F5F5F5F5F5F5F5F5F5F5F5F5F5F5F5F5F5F5F5F5F5F5F5F5F5F5F5F5F5F5F5F5F5F5F5F5F5F5F5F5F5F5F5F5F5F5F528
310
F5DCF5F5F5F5F5F5F5F5F5F5F5F5F5F5F5F5F5E2F5E2E2F5E2F5F5F5F5F5F5F5F5F5F5F5F5F5F5F5F5F5DCF528F5F5F5F5F5DCF5F5DCDCF5BEF5F5BEF5F5F5F5F5F5F5F5F5F5F5F5F50FF5F52D2D2D2D2D2D2D2DF5F5F5F5F5F5F5F5F5F5F5F5F5F5F5F5F5F5F5F5F5F5F5F5F5F5F5F5F5F5F5F5F5F5F5F5F5F5F5F5F5F5F5
310
F5F5F5F5F5F5F5F5F5F5F5F5F5F5F5F5F5F5F5F5F5F5F5F5F5F5F5F5F5F5F5F5F5F5F5F5F5F5F5F5F5F5F5F5F5F5F5F5F5F5F5F528F5DCF5F5F5F5F5F5F5F5F5F5F5F5F5F5F5F5F5E2F5E2E2F5E2F5F5F5F5F5F5F5F5F5F5F5F5F5F5F5F5F5DCF528F5F5F5F5DCF5F5DCF5DCF5BEF5F5BEBEF5F5F5F5F5F5F5F5F5F5F5F50F
310
F5F5F5F5F50FF5F5F5F5F5F5F5F5F5F5F5F5F5F5F5F5F5F5F5F5F5F5F5F5F5F5F5F5F5F5F5F5F5F5F5F5F5F5F5F5F5F5F5F5F5F5F5F5F5F5F5F5F5F5F5F5F5F5F5F5F5F5F5F5F5F5F5F5F5F5F5F5F5F5F5F5F5F5F5F5F5F5F5F5F5F5F5F5F5F5F5F5F5F5F5F5F5F5F528F5DCF5F5F5F5F5F5F5F5F5F5F5F5F5F5F5F5F5E2F5
310
E2E2F5E2F5F5F5F5F5F5F5F5F5F5F5F5F5F5F5F5F5DCF528F5F5F5DCF5F5DCF5F5DCF5F5BEF5F5BEF5F5F5F5F5F5F5F5F5F5F5F50FF5F5F5F5F50FF5F5F5F5F5F5F5F5F5F5F5F5F5F5F5F5F5F5F5F5F5F5F5F5F5F5F5F5F5F5F5F5F5F5F5F5F5F5F5F5F5F5F5F5F5F5F5F5F5F5F5F5F5F5F5F5F5F5F5F5F5F5F5F5F5F5F5F5
310
F5F5F5F5F5F5F5F5F5F5F5F5F5F5F5F5F5F5F5F5F5F5F5F5F5F5F5F5F5F5F528F5DCF5F5F5F5F5F5F5F5F5F5F5F5F5F5F5F5F5E2F5E2E2F5E2F5F5F5F5F5F5F5F5F5F5F5F5F5F5F5F5F5DCF528F5F5F5F5F5DCF5F5DCDCF5F5BEF5F5F5BEBEF5F5F5F5BEBEF5F5F5F50FF5F5F5F5F50FF5F5F5F5F5F5F5F5F5F5F5F5F5F5F5
310
F5F5F5F5F5F5F5F5F5F5F5F5F5F5F5F5F5F5F5F5F5F5F5F5F5F5F5F5F5F5F5F5F5F5F5F5F5F5F5F5F5F5F5F5F5F5F5F5F5F5F5F5F5F5F5F5F5F5F5F5F5F5F5F5F5F5F5F5F5F5F5F5F5F5F5F5F5F5F5F5F5F5F5F528F5DCF5F5F5F5F5F5F5F5F5F5F5F5F5F5F5F5F5E2F5E2E2F5E2F5F5F5F5F5F5F5F5F5F5F5F5F5F5F5F5F5
310
DCF528F5F5F5F5DCF5F5DCF5DCF5F5F5BEF5F5F5BEBEBEBEBEF5BEF5F5F5F50FF5F5F5F5F50FF5F5F5F5F5F5F5F5F5F5F5F5F5F5F5F5F5F5F5F5F5F5F5F5F5F5F5F5F5F5F5F5F5F5F5F5F5F5F5F5F5F5F5F5F5F5F5F5F5F5F5F5F5F5F5F5F5F5F5F5F5F5F5F5F5F5F5F5F5F5F5F5F5F5F5F5F5F5F5F5F5F5F5F5F5F5F5F5F5
310
F5F5F5F5F5F5F5F5F5F528F5DCF5F5F5F5F5F5F5F5F5F5F5F5F5F5F5F5F5E2F5E2E2F5E2F5F5F5F5F5F5F5F5F5F5F5F5F5F5F5F5F5DCF528F5F5F5DCF5F5DCF5F5DCF5F5F5F5BEF5F5F5F5F5F5F5F5BEBEF5F5F50FF5F5F5F5F50FF5F5F5F5F5F5F5F5F5F5F5F5F5F5F5F5F5F5F5F5F5F5F5F5F5F5F5F5F5F5F5F5F5F5F5F5
310
F5F5F5F5F5F5F5F5F5F5F5F5F5F5F5F5F5F5F5F5F5F5F5F5F5F5F5F5F5F5F5F5F5F5F5F5F5F5F5F5F5F5F5F5F5F5F5F5F5F5F5F5F5F5F5F5F5F5F5F5F5F5F528F5DCF5F5F5F5F5F5F5F5F5F5F5F5F5F5F5F5F5E2F5E2E2F5E2F5F5F5F5F5F5F5F5F5F5F5F5F5F5F5F5F5DCF528F5F5F5F5F5DCF5F5F5DCF5F5F5F5F5BEBEBE
310
F5F5F5F5F5F5F5BEBEF50FF5F5F5F5F50FF5F5F5F5F5F5F5F5F5F5F5F5F5F5F5F5F5F5F5F5F5F5F5F5F5F5F5F5F5F5F5F5F5F5F5F5F5F5F5F5F5F5F5F5F5F5F5F5F5F5F5F5F5F5F5F5F5F5F5F5F5F5F5F5F5F5F5F5F5F5F5F5F5F5F5F5F5F5F5F5F5F5F5F5F5F5F5F5F5F5F5F5F5F5F5F5F5F5F528F5DCF5F5F5F5F5F5F5F5
310
F5F5F5F5F5F5F5F5F5E2F5E2E2F5E2F5F5F5F5F5F5F5F5F5F5F5F5F5F5F5F5F5DCF528F5F5F5F5DCF5F5F5DCDCF5F5F5F5F5F5F5F5BEBEF5F5F5F5F5F5BEF50FF5F5F5F5F50FF5F5F5F5F5F5F5F5F5F5F5F5F5F5F5F5F5F5F5F5F5F5F5F5F5F5F5F5F5F5F5F5F5F5F5F5F5F5F5F5F5F5F5F5F5F5F5F5F5F5F5F5F5F5F5F5F5
310
F5F5F5F5F5F5F5F5F5F5F5F5F5F5F5F5F5F5F5F5F5F5F5F5F5F5F5F5F5F5F5F5F5F5F5F5F5F5F5F5F5F528F5DCF5F5F5F5F5F5F5F5F5F5F5F5F5F5F5F5F5E2F5E2E2F5E2F5F5F5F5F5F5F5F5F5F5F5F5F5F5F5F5F5DCF528F5F5F5DCF5F5F5DCF5DCF5F5F5F5F5F5F5F5F5BEBEF5F5F5F5F5F5BE1BF5F5F5F5F50FF5F5F5F5
310
F5F5F5F5F5F5F5F5F5F5F5F5F5F5F5F5F5F5F5F5F5F5F5F5F5F5F5F5F5F5F5F5F5F5F5F5F5F5F5F5F5F5F5F5F5F5F5F5F5F5F5F5F5F5F5F5F5F5F5F5F5F5F5F5F5F5F5F5F5F5F5F5F5F5F5F5F5F5F5F5F5F5F5F5F5F5F5F5F5F5F5F5F5F5F528F5DCF5F5F5F5F5F5F5F5F5F5F5F5F5F5F5F5F5E2F5E2E2F5E2F5F5F5F5F5F5
310
F5F5F5F5F5F5F5F5F5F5F5DCF528F5F5F5F5F5DCDCF5F5DCF5F5F5F5F5F5F5F5F5F5BEF5F5F5F5F5F5F5BEF5F5F5F5F50F0FF5F5F5F5F5F5F5F5F5F5F5F5F5F5F5F5F5F5F5F5F5F5F5F5F5F5F5F5F5F5F5F5F5F5F5F5F5F5F5F5F5F5F5F5F5F5F5F5F5F5F5F5F5F5F5F5F5F5F5F5F5F5F5F5F5F5F5F5F5F5F5F5F5F5F5F5F5
310
F5F5F5F5F5F5F5F5F5F5F5F5F5F5F5F5F5F5F5F5F528F5DCF5F5F5F5F5F5F5F5F5F5F5F5F5F5F5F5F5E2F5E2E2F5E2F5F5F5F5F5F5F5F5F5F5F5F5F5F5F5F5F5DCF528F5F5F5F5DCF5F5F5DCDCDCDCDCDCDCDCDCDCDCDCDCDCDCDCDCDCDCDCDCDCDCDCDCDCDCDCDCF5F5F5F5F5F5F5F5F5F5F5F5F5F5F5F5F5F5F5F5F5F5F5
310
F5F5F5F5F5F5F5F5F5F5F5F5F5F5F5F5F5F5F5F5F5F5F5F5F5F5F5F5F5F5F5F5F5F5F5F5F5F5F5F5F5F5F5F5F5F5F5F5F5F5F5F5F5F5F5F5F5F5F5F5F5F5F5F5F5F5F5F5F5F5F5F5F5F528F5DCF5F5F5F5F5F5F5F5F5F5F5F5F5F5F5F5F5E2F5E2E2F5E2F5F5F5F5F5F5F5F5F5F5F5F5F5F5F5F5F5DCF528F5F5F5DCF5F5F5
310
DCF5F5DCF5F5DCF5F5F5DCF5F5DCF5F5DCF5F5DCF5F5DCF5F5DCF5F5F5F5F5F5F5F5F5F5F5F5F5F5F5F5F5F5F5F5F5F5F5F5F5F5F5F5F5F5F5F5F5F5F5F5F5F5F5F5F5F5F5F5F5F5F5F5F5F5F5F5F5F5F5F5F5F5F5F5F5F5F5F5F5F5F5F5F5F5F5F5F5F5F5F5F5F5F5F5F5F5F5F5F5F5F5F5F5F5F5F5F5F5F5F5F5F5F5F5F5
310
28F5DCF5F5F5F5F5F5F5F5F5F5F5F5F5F5F5F5F5E2F5E2E2F5E2F5F5F5F5F5F5F5F5F5F5F5F5F5F5F5F5F5DCF528F5F5F5F5F5DCDCF5F5DCF5F5DCF5F5F5DCF5F5DCF5F5DCF5F5DCF5F5DCF5F5DCF5F5F5F5F5F5F5F5F5F5F5F5F5F5F5F5F5F5F5F5F5F5F5F5F5F5F5F5F5F5F5F5F5F5F5F5F5F5F5F5F5F5F5F5F5F5F5F5F5
310
F5F5F5F5F5F5F5F5F5F5F5F5F5F5F5F5F5F5F5F5F5F5F5F5F5F5F5F5F5F5F5F5F5F5F5F5F5F5F5F5F5F5F5F5F5F5F5F5F5F5F5F5F528F5DCF5F5F5F5F5F5F5F5F5F5F5F5F5F5F5F5F5E2F5E2E2F5E2F5F5F5F5F5F5F5F5F5F5F5F5F5F5F5F5F5DCF528F5F5F5F5DCF5F5F5DCF5F5DCF5F5DCDCF5DCDCF5DCDCF5F5DCF5F5DC
310
F5F5DCF5F5F5F5F5F5F5F5F5F5F5F5F5F5F5F5F5F5F5F5F5F5F5F5F5F5F5F5F5F5F5F5F5F5F5F5F5F5F5F5F5F5F5F5F5F5F5F5F5F5F5F5F5F5F5F5F5F5F5F5F5F5F5F5F5F5F5F5F5F5F5F5F5F5F5F5F5F5F5F5F5F5F5F5F5F5F5F5F5F5F5F5F5F5F5F5F5F5F5F5F5F5F528F5DCF5F5F5F5F5F5F5F5F5F5F5F5F5F5F5F5F5E2
310
F5E2E2F5E2F5F5F5F5F5F5F5F5F5F5F5F5F5F5F5F5F5DCF528F5F5F5DCF5F5F5DCF5F5DCF5F5DCF5F5DCF5F5DCF5F5F5DCF5F5DCF5F5DCF5F5F5DCF5F5F5F5F5F5F5F5F5F5F5F5F5F5F5F5F5F5F5F5F5F5F5F5F5F5F5F5F5F5F5F5F5F5F5F5F5F5F5F5F5F5F5F5F5F5F5F5F5F5F5F5F5F5F5F5F5F5F5F5F5F5F5F5F5F5F5F5
310
F5F5F5F5F5F5F5F5F5F5F5F5F5F5F5F5F5F5F5F5F5F5F5F5F5F5F5F5F5F5F5F528F5DCF5F5F5F5F5F5F5F5F5F5F5F5F5F5F5F5F5E2F5E2E2F5F5F5F5F5F5F5F5F5F5F5F5F5F5F5F5F5F5F5DCF528F5F5F5F5F5F5DCF5F5DCF5F5DCF5F5DCF5F5DCF5F5F5DCF5F5DCF5F5DCF5F5DCDCF5F5F5F5F5F5F5F5F5F5F5F5F5F5F5F5
310
F5F5F5F5F5F5F5F5F5F5F5F5F5F5F5F5F5F5F5F5F5F5F5F5F5F5F5F5F5F5F5F5F5F5F5F5F5F5F5F5F5F5F5F5F5F5F5F5F5F5F5F5F5F5F5F5F5F5F5F5F5F5F5F5F5F5F5F5F5F5F5F5F5F5F5F5F5F5F5F5F5F5F5F5F528F5DCF5F5F5F5F5F5F5F5F5F5F5F5F5F5F5F5F5F5F5E2E2F5F5F5F5F5F5F5F5F5F5F5F5F5F5F5F5F5F5
310
F5DCF528F5F5F5F5F5F5F5F5F5F5F5F5F5F5F5F5F5F5F5F5F5F5F5F5F5F5F5F5F5F5F5F5F5F5F5F5F5F5F5F5F5F5F5F5F5F5F5F5F5F5F5F5F5F5F5F5F5F5F5F5F5F5F5F5F5F5F5F5F5F5F5F5F5F5F5F5F5F5F5F5F5F5F5F5F5F5F5F5F5F5F5F5F5F5F5F5F5F5F5F5F5F5F5F5F5F5F5F5F5F5F5F5F5F5F5F5F5F5F5F5F5F5F5
310
F5F5F5F5F5F5F5F5F5F5F528F5DCF5F5F5F5F5F5F5F5F5F5F5F5F5F5F5F5F5F5F5E2E2F5F5F5F5F5F5F5F5F5F5F5F5F5F5F5F5F5F5F5DCF528F5F5F5F5F5F5F5F5F5F5F5F5F5F5F5F5F5F5F5F5F5F5F5F5F5F5F5F5F5F5F5F5F5F5F5F5F5F5F5F5F5F5F5F5F5F5F5F5F5F5F5F5F5F5F5F5F5F5F5F5F5F5F5F5F5F5F5F5F5F5
310
F5F5F5F5F5F5F5F5F5F5F5F5F5F5F5F5F5F5F5F5F5F5F5F5F5F5F5F5F5F5F5F5F5F5F5F5F5F5F5F5F5F5F5F5F5F5F5F5F5F5F5F5F5F5F5F5F5F5F5F5F5F5F5F528F5DCF5F5F5F5F5F5F5F5F5F5F5F5F5F5F5F5F5F5F5E2E2F5F5F5F5F5F5F5F5F5F5F5F5F5F5F5F5F5F5F5DCF528F5F5F5F5F5F5F5F5F5F5F5F5F5F5F5F5F5
310
F5F5F5F5F5F5F5F5F5F5F5F5F5F5F5F5F5F5F5F5F5F5F5F5F5F5F5F5F5F5F5F5F5F5F5F5F5F5F5F5F5F5F5F5F5F5F5F5F5F5F5F5F5F5F5F5F5F5F5F5F5F5F5F5F5F5F5F5F5F5F5F5F5F5F5F5F5F5F5F5F5F5F5F5F5F5F5F5F5F5F5F5F5F5F5F5F5F5F5F5F5F5F5F5F5F5F5F5F5F5F5F5F5F5F5F5F528F5DCF5F5F5F5F5F5F5
310
F5F5F5F5F5F5F5F5F5F5F5F5E2E2F5F5F5F5F5F5F5F5F5F5F5F5F5F5F5F5F5F5F5DCF528F5F5F5F5F5F5F5F5F5F5F5F5F5F5F5F5F5F5F5F5F5F5F5F5F5F5F5F5F5F5F5F5F5F5F5F5F5F5F5F5F5F5F5F5F5F5F5F5F5F5F5F5F5F5F5F5F5F5F5F5F5F5F5F5F5F5F5F5F5F5F5F5F5F5F5F5F5F5F5F5F5F5F5F5F5F5F5F5F5F5F5
310
F5F5F5F5F5F5F5F5F5F5F5F5F5F5F5F5F5F5F5F5F5F5F5F5F5F5F5F5F5F5F5F5F5F5F5F5F5F5F5F5F5F5F528F5DCF5F5F5F5F5F5F5F5F5F5F5F5F5F5F5F5F5F5F5E2E2F5F5F5F5F5F5F5F5F5F5F5F5F5F5F5F5F5F5F5DCF528F5F5F5F5F5F5F5F5F5F5F5F5F5F5F5F5F5F5F5F5F5F5F5F5F5F5F5F5F5F5F5F5F5F5F5F5F5F5
310
F5F5F5F5F5F5F5F5F5F5F5F5F5F5F5F5F5F5F5F5F5F5F5F5F5F5F5F5F5F5F5F5F5F5F5F5F5F5F5F5F5F5F5F5F5F5F5F5F5F5F5F5F5F5F5F5F5F5F5F5F5F5F5F5F5F5F5F5F5F5F5F5F5F5F5F5F5F5F5F5F5F5F5F5F5F5F5F5F5F5F5F5F5F5F5F528F5DCF5F5F5F5F5F5F5F5F5F5F5F5F5F5F5F5F5F5F5E2E2F5F5F5F5F5F5F5
310
F5F5F5F5F5F5F5F5F5F5F5F5DCF528F5F5F5F5F5F5F5F5F5F5F5F5F5F5F5F5F5F5F5F5F5F5F5F5F5F5F5F5F5F5F5F5F5F5F5F5F5F5F5F5F5F5F5F5F5F5F5F5F5F5F5F5F5F5F5F5F5F5F5F5F5F5F5F5F5F5F5F5F5F5F5F5F5F5F5F5F5F5F5F5F5F5F5F5F5F5F5F5F5F5F5F5F5F5F5F5F5F5F5F5F5F5F5F5F5F5F5F5F5F5F5F5
310
F5F5F5F5F5F5F5F5F5F5F5F5F5F5F5F5F5F5F5F5F5F528F5DCF5F5F5F5F5F5F5F5F5F5F5F5F5F5F5F5F5F5F5E2E2F5F5F5F5F5F5F5F5F5F5F5F5F5F5F5F5F5F5F5DCF528F5F5F5F5F5F5F5F5F5F5F5F5F5F5F5F5F5F5F5F5F5F5F5F5F5F5F5F5F5F5F5F5F5F5F5F5F5F5F5F5F5F5F5F5F5F5F5F5F5F5F5F5F5F5F5F5F5F5F5
310
F5F5F5F5F5F5F5F5F5F5F5F5F5F5F5F5F5F5F5F5F5F5F5F5F5F5F5F5F5F5F5F5F5F5F5F5F5F5F5F5F5F5F5F5F5F5F5F5F5F5F5F5F5F5F5F5F5F5F5F5F5F5F5F5F5F5F5F5F5F5F5F5F5F5F528F5DCF5F5F5F5F5F5F5F5F5F5F5F5F5F5F5F5F5F5F5E2E2F5E2F5F5F5F5F5F5F5F5F5F5F5F5F5F5F5F5F5DCF528F5F5F5F5F5F5
310
F5F5F5F5F5F5F5F5F5F5F5F5F5F5F5F5F5F5F5F5F5F5F5F5F5F5F5F5F5F5F5F5F5F5F5F5F5F5F5F5F5F5F5F5F5F5F5F5F5F5F5F5F5F5F5F5F5F5F5F5F5F5F5F5F5F5F5F5F5F5F5F5F5F5F5F5F5F5F5F5F5F5F5F5F5F5F5F5F5F5F5F5F5F5F5F5F5F5F5F5F5F5F5F5F5F5F5F5F5F5F5F5F5F5F5F5F5F5F5F5F5F5F5F5F5F5F5
310
F528F5DCF5F5F5F5F5F5F5F5F5F5F5F5F5F5F5F5F5E2F5E2E2F5E2F5F5F5F5F5F5F5F5F5F5F5F5F5F5F5F5F5DCF528F5F5F5F5F5F5F5F5F5F5F5F5F5F5F5F5F5F5F5F5F5F5F5F5F5F5F5F5F5F5F5F5F5F5F5F5F5F5F5F5F5F5F5F5F5F5F5F5F5F5F5F5F5F5F5F5F5F5F5F5F5F5F5F5F5F5F5F5F5F5F5F5F5F5F5F5F5F5F5F5
310
F5F5F5F5F5F5F5F5F5F5F5F5F5F5F5F5F5F5F5F5F5F5F5F5F5F5F5F5F5F5F5F5F5F5F5F5F5F5F5F5F5F5F5F5F5F5F5F5F5F5F5F5F5F528F5DCF5F5F5F5F5F5F5F5F5F5F5F5F5F5F5F5F5E2F5E2E2F5E2F5F5F5F5F5F5F5F5F5F5F5F5F5F5F5F5F5DCF528F5F5F5F5F5F5F5F5F5F5F5F5F5F5F5F5F5F5F5F5F5F5F5F5F5F5F5
310
F5F5F5F5F5F5F5F5F5F5F5F5F5F5F5F5F5F5F5F5F5F5F5F5F5F5F5F5F5F5F5F5F5F5F5F5F5F5F5F5F5F5F5F5F5F5F5F5F5F5F5F5F5F5F5F5F5F5F5F5F5F5F5F5F5F5F5F5F5F5F5F5F5F5F5F5F5F5F5F5F5F5F5F5F5F5F5F5F5F5F5F5F5F5F5F5F5F5F5F5F5F5F5F5F5F5F528F5DCF5F5F5F5F5F5F5F5F5F5F5F5F5F5F5F5F5
310
E2F5E2E2F5E2F5F5F5F5F5F5F5F5F5F5F5F5F5F5F5F5F5DCF528F5F5F5F5F5F5F5F5F5F5F5F5F5F5F5F5F5F5F5F5F5F5F5F5F5F5F5F5F5F5F5F5F5F5F5F5F5F5F5F5F5F5F5F5F5F5F5F5F5F5F5F5F5F5F5F5F5F5F5F5F5F5F5F5F5F5F5F5F5F5F5F5F5F5F5F5F5F5F5F5F5F5F5F5F5F5F5F5F5F5F5F5F5F5F5F5F5F5F5F5F5
310
F5F5F5F5F5F5F5F5F5F5F5F5F5F5F5F5F5F5F5F5F5F5F5F5F5F5F5F5F5F5F5F5F528F5DCF5F5F5F5F5F5F5F5F5F5F5F5F5F5F5F5F5E2F5E2E2F5E2F5F5F5F5F5F5F5F5F5F5F5F5F5F5F5F5F5DCF528F5F5F5F5F5F5F5F5F5F5F5F5F5F5F5F5F5F5F5F5F5F5F5F5F5F5F5F5F5F5F5F5F5F5F5F5F5F5F5F5F5F5F5F5F5F5F5F5
310
F5F5F5F5F5F5F5F5F5F5F5F5F5F5F5F5F5F5F5F5F5F5F5F5F5F5F5F5F5F5F5F5F5F5F5F5F5F5F5F5F5F5F5F5F5F5F5F5F5F5F5F5F5F5F5F5F5F5F5F5F5F5F5F5F5F5F5F5F5F5F5F5F5F5F5F5F5F5F5F5F5F5F5F5F5F528F5DCF5F5F5F5F5F5F5F5F5F5F5F5F5F5F5F5F5E2F5E2E2F5E2F5F5F5F5F5F5F5F5F5F5F5F5F5F5F5
310
F5F5DCF528F5F5F5F5F5F5F5F5F5F5F5F5F5F5F5F5F5F5F5F5F5F5F5F5F5F5F5F5F5F5F5F5F5F5F5F5F5F5F5F5F5F5F5F5F5F5F5F5F5F5F5F5F5F5F5F5F5F5F5F5F5F5F5F5F5F5F5F5F5F5F5F5F5F5F5F5F5F5F5F5F5F5F5F5F5F5F5F5F5F5F5F5F5F5F5F5F5F5F5F5F5F5F5F5F5F5F5F5F5F5F5F5F5F5F5F5F5F5F5F5F5F5
310
F5F5F5F5F5F5F5F5F5F5F5F528F5DCF5F5F5F5F5F5F5F5F5F5F5F5F5F5F5F5F5E2F5E2E2F5E2F5F5F5F5F5F5F5F5F5F5F5F5F5F5F5F5F5DCF528F5F5F5F5F5F5F5F5F5F5F5F5F5F5F5F5F5F5F5F5F5F5F5F5F5F5F5F5F5F5F5F5F5F5F5F5F5F5F5F5F5F5F5F5F5F5F5F5F5F5F5F5F5F5F5F5F5F5F5F5F5F5F5F5F5F5F5F5F5
310
F5F5F5F5F5F5F5F5F5F5F5F5F5F5F5F5F5F5F5F5F5F5F5F5F5F5F5F5F5F5F5F5F5F5F5F5F5F5F5F5F5F5F5F5F5F5F5F5F5F5F5F5F5F5F5F5F5F5F5F5F5F5F5F5F528F5DCF5F5F5F5F5F5F5F5F5F5F5F5F5F5F5F5F5E2F5E2E2F5E2F5F5F5F5F5F5F5F5F5F5F5F5F5F5F5F5F5DCF528F5F5F5F5F5F5F5F5F5F5F5F5F5F5F5F5
310
F5F5F5F5F5F5F5F5F5F5F5F5F5F5F5F5F5F5F5F5F5F5F5F5F5F5F5F5F5F5F5F5F5F5F5F5F5F5F5F5F5F5F5F5F5F5F5F5F5F5F5F5F5F5F5F5F5F5F5F5F5F5F5F5F5F5F5F5F5F5F5F5F5F5F5F5F5F5F5F5F5F5F5F5F5F5F5F5F5F5F5F5F5F5F5F5F5F5F5F5F5F5F5F5F5F5F5F5F5F5F5F5F5F5F5F5F5F528F5DCF5F5F5F5F5F5
310
F5F5F5F5F5F5F5F5F5F5F5E2F5E2E2F5E2F5F5F5F5F5F5F5F5F5F5F5F5F5F5F5F5F5DCF528282828282828282828282828282828282828282828282828282828282828282828282828282828282828282828282828282828282828282828282828282828282828282828282828282828282828282828282828282828282828
310
282828282828282828282828282828282828282828282828282828282828282828282828282828282828282828F5DCF5F5F5F5F5F5F5F5F5F5F5F5F5F5F5F5F5E2F5E2E2F5E2F5F5F5F5F5F5F5F5F5F5F5F5F5F5F5F5F5DCF528F5F5F5F5F5F5F5F5F5F5F5F5F5F5F5F5F5F5F5F5F5F5F5F5F5F5F5F5F5F5F5F5F5F5F5F5F5
310
F5F5F5F5F5F5F5F5F5F5F5F5F5F5F5F5F5F5F5F5F5F5F5F5F5F5F5F5F528F5F5F5F5F5F5F5F5F5F5F5F5F5F5F5F5F5F5F5F5F5F5F5F5F5F5F5F5F5F5F5F5F5F5F5F5F5F5F5F5F5F5F5F5F5F5F5F5F5F5F5F5F5F5F5F5F5F5F5F5F5F5F5F5F5F5F528F5DCF5F5F5F5F5F5F5F5F5F5F5F5F5F5F5F5F5E2F5E2E2F5E2F5F5F5F5
310
F5F5F5F5F5F5F5F5F5F5F5F5F5DCF528F5F5F5F5F5F5F5F5F5F5F5F5F52D2D2D2D2D2D2D2D2D2D2D2D2D2D2D2D2D2D2D2D2D2D2D2D2D2D2D2D2D2D2D2D2D2D2D2D2D2DF5F5F5F5F5F5F5F5F5F5F5F5F5F5F528F5F5F52D2D2D2DF52D2D2D2D2D2DF5F5F5F5F5F5F5F5F5F5F5F5F5F5F5F5F5F5F5F5F5F5F5F5F5F5F5F5F5F5
310
F5F5F5F5F5F5F5F5F5F5F5F5F5F5F5F5F5F5F5F5F5F5F528F5DCF5F5F5F5F5F5F5F5F5F5F5F5F5F5F5F5F5E2F5E2E2F5E2F5F5F5F5F5F5F5F5F5F5F5F5F5F5F5F5F5DCF528F5F5F5F5F5F5F5F5F5F5F5F5F52D2D2D2D2D2D2D2D2D2D2D2D2D2D2D2D2D2D2D2D2D2D2D2D2D2D2D2D2D2D2D2D2D2D2D2D2D2DF5F5F5F5F5F5F5
310
F5F5F5F5F5F5F5F528F5F5F52D2D2D2DF52D2D2D2DF52DF5F5F5F5F5F5F5F5F5F5F5F5F5F5F5F5F5F5F5F5F5F5F5F5F5F5F5F5F5F5F5F5F5F5F5F5F5F5F5F5F5F5F5F5F5F5F5F5F5F5F5F5F528F5DCF5F5F5F5F5F5F5F5F5F5F5F5F5F5F5F5F5E2F5E2E2F5E2F5F5F5F5F5F5F5F5F5F5F5F5F5F5F5F5F5DCF528F5F5F5F5F5
310
F5F5F5F5F5F5F5F5F5F5F5F5F5F5F5F5F5F5F5F5F5F5F5F5F5F5F5F5F5F5F5F5F5F5F5F5F5F5F5F5F5F5F5F5F5F5F5F5F5F5F5F5F5F5F5F5F5F5F5F5F528F5F5F5F5F5F5F5F5F5F5F5F5F5F5F5F5F5F5F5F5F5F5F5F5F5F5F5F5F5F5F5F5F5F5F5F5F5F5F5F5F5F5F5F5F5F5F5F5F5F5F5F5F5F5F5F5F5F5F5F5F5F5F5F5F5
310
F5F528F5DCF5F5F5F5F5F5F5F5F5F5F5F5F5F5F5F5F5E2F5E2E2F5E2F5F5F5F5F5F5F5F5F5F5F5F5F5F5F5F5F5DCF52828282828282828282828282828282828282828282828282828282D2D2D2D2D2D2D2D2D2D2D2D2D28282828282828282828282828282828282828282828282828282828282828282828282828282828
310
2828282828282828282828282828282828282828282828282828282828282828282828282828282828282828282828282828282828282828F5DCF5F5F5F5F5F5F5F5F5F5F5F5F5F5F5F5F5E2F5E2E2F5E2F5F5F5F5F5F5F5F5F5F5F5F5F5F5F5F5F5DCF528F5F5F5F5F5F5F5F5F5F5F5F5F5F5F5F5F5F5F5F5F5F5F5F5F5F5
310
2D2D2D2D2D2D2D2D2D2D2D2D2DF5F5F5F5F5F5F5F5F5F5F5F5F5F5F5F5F5F5F5F5F5F5F5F5F5F5F528F5F5F52D2D2D2D2D2D2D2D2D2D2DF5F52D2D2D2D2D2D2D2D2D2DF5F5F5F5F5F5F5F5F5F5F5F5F5F5F5F5F5F5F5F5F5F5F5F5F5F5F5F5F5F5F5F5F5F5F5F5F5F5F5F5F528F5DCF5F5F5F5F5F5F5F5F5F5F5F5F5F5F5F5
310
F5E2F5E2E2F5E2F5F5F5F5F5F5F5F5F5F5F5F5F5F5F5F5F5DCF528F5F5F5F5F5F5F5F5F5F5F5F5F5F5F5F5F5F5F5F5F5F5F5F5F5F52D2D2D2D2D2D2D2D2D2D2D2D2DF5F5F5F5F5F5F5F5F5F5F5F5F5F5F5F5F5F5F5F5F5F5F5F5F5F5F528F5F5F52D2D2D2D2D2D2D2D2D2D2DF52D2D2D2D2D2D2D2D2D2D2DF5F5F5F5F5F5F5
310
F5F5F5F5F5F5F5F5F5F5F5F5F5F5F5F5F5F5F5F5F5F5F5F5F5F5F5F5F5F5F5F5F5F528F5DCF5F5F5F5F5F5F5F5F5F5F5F5F5F5F5F5F5E2F5E2E2F5F5F5F5F5F5F5F5F5F5F5F5F5F5F5F5F5F5F5DCF528F5F5F5F5F5F5F5F5F5F5F5F5F5F5F5F5F5F5F5F5F5F5F5F5F5F5F5F5F5F5F5F5F5F5F5F5F5F5F5F5F5F5F5F5F5F5F5
310
F5F5F5F5F5F5F5F5F5F5F5F5F5F5F5F5F5F5F528F5F5F5F5F5F5F5F5F5F5F5F5F5F5F5F5F5F5F5F5F5F5F5F5F5F5F5F5F5F5F5F5F5F5F5F5F5F5F5F5F5F5F5F5F5F5F5F5F5F5F5F5F5F5F5F5F5F5F5F5F5F5F5F5F5F5F528F5DCF5F5F5F5F5F5F5F5F5F5F5F5F5F5F5F5F5F5F5E2E2F5F5F5F5F5F5F5F5F5F5F5F5F5F5F5F5
310
F5F5F5DCF52828282828282828282828282828282828282828282828282828282828282828282828282828282828282828282828282828282828282828282828282828282828282828282828282828282828282828282828282828282828282828282828282828282828282828282828282828282828282828282828282828
310
2828282828282828282828282828F5DCF5F5F5F5F5F5F5F5F5F5F5F5F5F5F5F5F5F5F5E2E2F5F5F5F5F5F5F5F5F5F5F5F5F5F5F5F5F5F5F5DCF5F5F5F5F5F5F5F5F5F5F5F5F5F5F5F5F5F5F5F5F5F5F5F5F5F5F5F5F5F5F5F5F5F5F5F5F5F5F5F5F5F5F5F5F5F5F5F5F5F5F5F5F5F5F5F5F5F5F5F5F5F5F5F5F5F5F5F5F5F5
310
F5F5F5F5F5F5F5F5F5F5F5F5F5F5F5F5F5F5F5F5F5F5F5F5F5F5F5F5F5F5F5F5F5F5F5F5F5F5F5F5F5F5F5F5F5F5F5F5F5F5F5F5F5F5F5F5F5F5F5F5F5F5F5F5F5F5F5F5DCF5F5F5F5F5F5F5F5F5F5F5F5F5F5F5F5F5F5F5E2E2F5F5F5F5F5F5F5F5F5F5F5F5F5F5F5F5F5F5F5DCDCDCDCDCDCDCDCDCDCDCDCDCDCDCDCDCDC
310
DCDCDCDCDCDCDCDCDCDCDCDCDCDCDCDCDCDCDCDCDCDCDCDCDCDCDCDCDCDCDCDCDCDCDCDCDCDCDCDCDCDCDCDCDCDCDCDCDCDCDCDCDCDCDCDCDCDCDCDCDCDCDCDCDCDCDCDCDCDCDCDCDCDCDCDCDCDCDCDCDCDCDCDCDCDCDCDCDCDCDCDCDCDCDCDCDCDCDCDCDCDCDCDCDCDCDCDCDCDCDCDCDCDCDCDCDCDCDCDCDCDCF5F5F5F5F5
310
F5F5F5F5F5F5F5F5F5F5F5F5F5F5E2E2F5F5F5F5F5F5F5F5F5F5F5F5F5F5F5F5F5F5F5DCDCDCDCDCDCDCDCDCDCDCDCDCDCDCDCDCDCDCDCDCDCDCDCDCDCDCDCDCDCDCDCDCDCDCDCDCDCDCDCDCDCDCDCDCDCDCDCDCDCDCDCDCDCDCDCDCDCDCDCDCDCDCDCDCDCDCDCDCDCDCDCDCDCDCDCDCDCDCDCDCDCDCDCDCDCDCDCDCDCDCDC
310
DCDCDCDCDCDCDCDCDCDCDCDCDCDCDCDCDCDCDCDCDCDCDCDCDCDCDCDCDCDCDCDCDCDCDCDCDCDCDCDCDCDCDCDCDCDCDCDCF5F5F5F5F5F5F5F5F5F5F5F5F5F5F5F5F5F5F5E2E2F5F5F5F5F5F5F5F5F5F5F5F5F5F5F5F5F5F5F5F5F5F5F5F5F5F5F5F5F5F5F5F5F5F5F5F5F5F5F5F5F5F5F5F5F5F5F5F5F5F5F5F5F5F5F5F5F5F5
310
F5F5F5F5F5F5F5F5F5F5F5F5F5F5F5F5F5F5F5F5F5F5F5F5F5F5F5F5F5F5F5F5F5F5F5F5F5F5F5F5F5F5F5F5F5F5F5F5F5F5F5F5F5F5F5F5F5F5F5F5F5F5F5F5F5F5F5F5F5F5F5F5F5F5F5F5F5F5F5F5F5F5F5F5F5F5F5F5F5F5F5F5F5F5F5F5F5F5F5F5F5F5F5F5F5F5F5F5F5F5F5F5F5F5F5F5F5F5F5F5E2E2F5F5F5F5F5
310
F5F5F5F5F5F5F5F5F5F5F5F5F5F5F5F5F5F5F5F5F5F5F5F5F5F5F5F5F5F5F5F5F5F5F5F5F5F5F5F5F5F5F5F5F5F5F5F5F5F5F5F5F5F5F5F5F5F5F5F5F5F5F5F5F5F5F5F5F5F5F5F5F5F5F5F5F5F5F5F5F5F5F5F5F5F5F5F5F5F5F5F5F5F5F5F5F5F5F5F5F5F5F5F5F5F5F5F5F5F5F5F5F5F5F5F5F5F5F5F5F5F5F5F5F5F5F5
310
F5F5F5F5F5F5F5F5F5F5F5F5F5F5F5F5F5F5F5F5F5F5F5F5F5F5F5F5F5F5F5F5F5F5F5F5F5F5F5F5F5F5F5F5F5F5E2E2F5F5F5F5F5F5F5F5F5F5F5F5F5F5F5F5F5F5F5F5F5F5F5F5F5F5F5F5F5F5F5F5F5F5F5F5F5F5F5F5F5F5F5F5F5F5F5F5F5F5F5F5F5F5F5F5F5F5F5F5F5F5F5F5F5F5F5F5F5F5F5F5F5F5F5F5F5F5F5
310
F5F5F5F5F5F5F5F5F5F5F5F5F5F5F5F5F5F5F5F5F5F5F5F5F5F5F5F5F5F5F5F5F5F5F5F5F5F5F5F5F5F5F5F5F5F5F5F5F5F5F5F5F5F5F5F5F5F5F5F5F5F5F5F5F5F5F5F5F5F5F5F5F5F5F5F5F5F5F5F5F5F5F5F5F5F5F5F5F5F5F5F5F5F5F5F5F5F5F5E2E2F5F5F5F5F5F5F5F5F5F5F5F5F5F5F5F5F5F5F5F5F5F5F5F5F5F5
310
F5F5F5F5F5F5F5F5F5F5F5F5F5F5F5F5F5F5F5F5F5F5F5F5F5F5F5F5F5F5F5F5F5F5F5F5F5F5F5F5F5F5F5F5F5F5F5F5F5F5F5F5F5F5F5F5F5F5F5F5F5F5F5F5F5F5F5F5F5F5F5F5F5F5F5F5F5F5F5F5F5F5F5F5F5F5F5F5F5F5F5F5F5F5F5F5F5F5F5F5F5F5F5F5F5F5F5F5F5F5F5F5F5F5F5F5F5F5F5F5F5F5F5F5F5F5F5
310
F5F5F5F5F5F5F5F5F5F5F5F5F5F5F5F5F5F5F5F5F5F5F5F5F5E2E2F5E2F5F5F5F5F5F5F5F5F5F5F5F5F5F5F5F5F5F5F5F5F5F5F5F5F5F5F5F5F5F5F5F5F5F5F5F5F5F5F5F5F5F5F5F5F5F5F5F5F5F5F5F5F5F5F5F5F5F5F5F5F5F5F5F5F5F5F5F5F5F5F5F5F5F5F5F5F5F5F5F5F5F5F5F5F5F5F5F5F5F5F5F5F5F5F5F5F5F5
310
F5F5F5F5F5F5F5F5F5F5F5F5F5F5F5F5F5F5F5F5F5F5F5F5F5F5F5F5F5F5F5F5F5F5F5F5F5F5F5F5F5F5F5F5F5F5F5F5F5F5F5F5F5F5F5F5F5F5F5F5F5F5F5F5F5F5F5F5F5F5F5F5F5F5F5F5E2F5E2E2F5E2F5F5F5F5F5F5F5F5F5F5F5F5F5F5F5F5F5F5F5F5F5F5F5F5F5F5F5F5F5F5F5F5F5F5F5F5F5F5F5F5F5F5F5F5F5
310
F5F5F5F5F5F5F5F5F5F5F5F5F5F5F5F5F5F5F5F5F5F5F5F5F5F5F5F5F5F5F5F5F5F5F5F5F5F5F5F5F5F5F5F5F5F5F5F5F5F5F5F5F5F5F5F5F5F5F5F5F5F5F5F5F5F5F5F5F5F5F5F5F5F5F5F5F5F5F5F5F5F5F5F5F5F5F5F5F5F5F5F5F5F5F5F5F5F5F5F5F5F5F5F5F5F5F5F5F5F5F5F5F5F5F5F5F5F5F5F5F5F5F5F5F5F5F5
310
F5F5E2F5E2E2F5E2F5F5F5F5F5F5F5F5F5F5F5F5F5F5F5F5F5F5F5F5F5F5F5F5F5F5F5F5F5F5F5F5F5F5F5F5F5F5F5F5F5F5F5F5F5F5F5F5F5F5F5F5F5F5F5F5F5F5F5F5F5F5F5F5F5F5F5F5F5F5F5F5F5F5F5F5F5F5F5F5F5F5F5F5F5F5F5F5F5F5F5F5F5F5F5F5F5F5F5F5F5F5F5F5F5F5F5F5F5F5F5F5F5F5F5F5F5F5F5
310
F5F5F5F5F5F5F5F5F5F5F5F5F5F5F5F5F5F5F5F5F5F5F5F5F5F5F5F5F5F5F5F5F5F5F5F5F5F5F5F5F5F5F5F5F5F5F5F5F5F5F5F5F5F5F5E2F5E2E2F5E2F5F5F5F5F5F5F5F5F5F5F5F5F5F5F5F5F5F5F5F5F5F5F5F5F5F5F5F5F5F5F5F5F5F5F5F5F5F5F5F5F5F5F5F5F5F5F5F5F5F5F5F5F5F5F5F5F5F5F5F5F5F5F5F5F5F5
310
F5F5F5F5F5F5F5F5F5F5F5F5F5F5F5F5F5F5F5F5F5F5F5F5F5F5F5F5F5F5F5F5F5F5F5F5F5F5F5F5F5F5F5F5F5F5F5F5F5F5F5F5F5F5F5F5F5F5F5F5F5F5F5F5F5F5F5F5F5F5F5F5F5F5F5F5F5F5F5F5F5F5F5F5F5F5F5F5F5F5F5F5F5F5F5F5F5F5F5F5F5F5F5F5F5F5F5F5E2F5E2E2F5E2F5F5F5F5F5F5F5F5F5F5F5F5F5
310
F5F5F5F5F5F5F5F5F5F5F5F5F5F5F5F5F5F5F5F5F5F5F5F5F5F5F5F5F5F5F5F5F5F5F5F5F5F5F5F5F5F5F5F5F5F5F5F5F5F5F5F5F5F5F5F5F5F5F5F5F5F5F5F5F5F5F5F5F5F5F5F5F5F5F5F5F5F5F5F5F5F5F5F5F5F5F5F5F5F5F5F5F5F5F5F5F5F5F5F5F5F5F5F5F5F5F5F5F5F5F5F5F5F5F5F5F5F5F5F5F5F5F5F5F5F5F5
310
F5F5F5F5F5F5F5F5F5F5F5F5F5F5F5F5F5F5F5F5F5F5F5F5F5F5F5F5F5F5F5F5F5F5E2F5E2E2F5E2F5F5F5F5F5F5F5F5F5F5F5F5F5F5F5F5F5F5F5F5F5F5F5F5F5F5F5F5F5F5F5F5F5F5F5F5F5F5F5F5F5F5F5F5F5F5F5F5F5F5F5F5F5F5F5F5F5F5F5F5F5F5F5F5F5F5F5F5F5F5F5F5F5F5F5F5F5F5F5F5F5F5F5F5F5F5F5
310
F5F5F5F5F5F5F5F5F5F5F5F5F5F5F5F5F5F5F5F5F5F5F5F5F5F5F5F5F5F5F5F5F5F5F5F5F5F5F5F5F5F5F5F5F5F5F5F5F5F5F5F5F5F5F5F5F5F5F5F5F5F5F5F5F5F5F5F5F5F5F5F5F5F5F5F5F5F5F5F5F5F5F5F5F5F5F5E2F5E2E2F5E2F5F5F5F5F5F5F5F5F5F5F5F5F5F5F5F5F5F5F5F5F5F5F5F5F5F5F5F5F5F5F5F5F5F5
310
F5F5F5F5F5F5F5F5F5F5F5F5F5F5F5F5F5F5F5F5F5F5F5F5F5F5F5F5F5F5F5F5F5F5F5F5F5F5F5F5F5F5F5F5F5F5F5F5F5F5F5F5F5F5F5F5F5F5F5F5F5F5F5F5F5F5F5F5F5F5F5F5F5F5F5F5F5F5F5F5F5F5F5F5F5F5F5F5F5F5F5F5F5F5F5F5F5F5F5F5F5F5F5F5F5F5F5F5F5F5F5F5F5F5F5F5F5F5F5F5F5F5F5F5F5F5F5
310
F5F5F5F5F5F5F5F5F5F5F5F5F5E2F5E2E2F5E2E2E2E2E2E2E2E2E2F5F5F5F5F5F5F5F5F5E2E2E2E2E2E2E2E2E2E2E2E2E2E2E2E2F5F5F5F5F5F5F5F5F5E2E2E2E2E2E2E2E2E2E2E2E2E2E2E2E2F5F5F5F5F5F5F5F5F5E2E2E2E2E2E2E2E2E2E2E2E2E2E2E2E2F5F5F5F5F5F5F5F5F5E2E2E2E2E2E2E2E2E2E2E2E2E2E2E2E2
310
F5F5F5F5F5F5F5F5F5E2E2E2E2E2E2E2E2E2E2E2E2E2E2E2E2F5F5F5F5F5F5F5F5F5E2E2E2E2E2E2E2E2E2E2E2E2E2E2E2E2F5F5F5F5F5F5F5F5F5E2E2E2E2E2E2E2E2F5E2E2F5F5F5F5F5F5F5F5F5F5F5F5F5F5F5F5F5F5F5F5F5F5F5F5F5F5F5F5F5F5F5F5F5F5F5F5F5F5F5F5F5F5F5F5F5F5F5F5F5F5F5F5F5F5F5F5F5
310
F5F5F5F5F5F5F5F5F5F5F5F5F5F5F5F5F5F5F5F5F5F5F5F5F5F5F5F5F5F5F5F5F5F5F5F5F5F5F5F5F5F5F5F5F5F5F5F5F5F5F5F5F5F5F5F5F5F5F5F5F5F5F5F5F5F5F5F5F5F5F5F5F5F5F5F5F5F5F5F5F5F5F5F5F5F5F5F5F5F5F5F5F5F5F5F5F5F5F5F5F5F5F5F5F5F5F5F5F5F5F5F5F5F5F5F5F5F5F5F5F5E2E2E2E2E2E2
310
E2E2E2E2E2E2E2E2E2E2E2E2E2E2E2E2E2E2E2E2E2E2E2E2E2E2E2E2E2E2E2E2E2E2E2E2E2E2E2E2E2E2E2E2E2E2E2E2E2E2E2E2E2E2E2E2E2E2E2E2E2E2E2E2E2E2E2E2E2E2E2E2E2E2E2E2E2E2E2E2E2E2E2E2E2E2E2E2E2E2E2E2E2E2E2E2E2E2E2E2E2E2E2E2E2E2E2E2E2E2E2E2E2E2E2E2E2E2E2E2E2E2E2E2E2E2E2
310
E2E2E2E2E2E2E2E2E2E2E2E2E2E2E2E2E2E2E2E2E2E2E2E2E2E2E2E2E2E2E2E2E2E2E2E2E2E2E2E2E2E2E2E2E2E2E2E2
  0
XRECORD
  5
C8
102
{ACAD_REACTORS
330
C7
102
}
330
C7
100
AcDbXrecord
280
     1
102
MATERIAL
148
0.0
149
0.0
149
0.0
 93
        0
 94
       63
282
     0
 72
     1
 77
     1
171
     1
175
     1
179
     1
273
     0
  0
XRECORD
  5
C6
102
{ACAD_REACTORS
330
C5
102
}
330
C5
100
AcDbXrecord
280
     1
102
MATERIAL
148
0.0
149
0.0
149
0.0
 93
        0
 94
       63
282
     0
 72
     1
 77
     1
171
     1
175
     1
179
     1
273
     0
  0
XRECORD
  5
B2
102
{ACAD_REACTORS
330
B1
102
}
330
B1
100
AcDbXrecord
280
     1
102
MATERIAL
148
0.0
149
0.0
149
0.0
 93
        0
 94
       63
282
     0
 72
     1
 77
     1
171
     1
175
     1
179
     1
273
     0
  0
XRECORD
  5
156
102
{ACAD_REACTORS
330
155
102
}
330
155
100
AcDbXrecord
280
     1
102
ACAD_ROUNDTRIP_PRE2007_TABLESTYLE
 90
        4
 91
        0
  1

 92
        4
 93
        0
  2

 94
        4
 95
        0
  3

  0
ENDSEC
  0
EOF
