  0
SECTION
  2
HEADER
  9
$ACADVER
  1
AC1018
  9
$ACADMAINTVER
 70
    76
  9
$DWGCODEPAGE
  3
ANSI_1252
  9
$LASTSAVEDBY
  1
simone
  9
$INSBASE
 10
0.0
 20
0.0
 30
0.0
  9
$EXTMIN
 10
0.0149999999999999
 20
0.015
 30
0.0
  9
$EXTMAX
 10
0.4050000000000001
 20
0.282
 30
0.0
  9
$LIMMIN
 10
0.0
 20
0.0
  9
$LIMMAX
 10
1.0
 20
0.5
  9
$ORTHOMODE
 70
     0
  9
$REGENMODE
 70
     1
  9
$FILLMODE
 70
     1
  9
$QTEXTMODE
 70
     0
  9
$MIRRTEXT
 70
     0
  9
$LTSCALE
 40
1.0
  9
$ATTMODE
 70
     1
  9
$TEXTSIZE
 40
0.005
  9
$TRACEWID
 40
1.0
  9
$TEXTSTYLE
  7
style1
  9
$CLAYER
  8
Dimensione
  9
$CELTYPE
  6
ByLayer
  9
$CECOLOR
 62
   256
  9
$CELTSCALE
 40
1.0
  9
$DISPSILH
 70
     0
  9
$DIMSCALE
 40
0.001
  9
$DIMASZ
 40
1.5
  9
$DIMEXO
 40
0.0625
  9
$DIMDLI
 40
0.38
  9
$DIMRND
 40
0.0
  9
$DIMDLE
 40
0.0
  9
$DIMEXE
 40
0.18
  9
$DIMTP
 40
0.0
  9
$DIMTM
 40
0.0
  9
$DIMTXT
 40
3.0
  9
$DIMCEN
 40
0.0
  9
$DIMTSZ
 40
0.0
  9
$DIMTOL
 70
     0
  9
$DIMLIM
 70
     0
  9
$DIMTIH
 70
     1
  9
$DIMTOH
 70
     1
  9
$DIMSE1
 70
     0
  9
$DIMSE2
 70
     0
  9
$DIMTAD
 70
     0
  9
$DIMZIN
 70
     0
  9
$DIMBLK
  1
ArchTick
  9
$DIMASO
 70
     1
  9
$DIMSHO
 70
     1
  9
$DIMPOST
  1

  9
$DIMAPOST
  1

  9
$DIMALT
 70
     0
  9
$DIMALTD
 70
     2
  9
$DIMALTF
 40
25.4
  9
$DIMLFAC
 40
1.0
  9
$DIMTOFL
 70
     0
  9
$DIMTVP
 40
0.0
  9
$DIMTIX
 70
     0
  9
$DIMSOXD
 70
     0
  9
$DIMSAH
 70
     0
  9
$DIMBLK1
  1

  9
$DIMBLK2
  1

  9
$DIMSTYLE
  2
Bovelacci
  9
$DIMCLRD
 70
     5
  9
$DIMCLRE
 70
     5
  9
$DIMCLRT
 70
     4
  9
$DIMTFAC
 40
1.0
  9
$DIMGAP
 40
2.0
  9
$DIMJUST
 70
     0
  9
$DIMSD1
 70
     0
  9
$DIMSD2
 70
     0
  9
$DIMTOLJ
 70
     1
  9
$DIMTZIN
 70
     0
  9
$DIMALTZ
 70
     0
  9
$DIMALTTZ
 70
     0
  9
$DIMUPT
 70
     0
  9
$DIMDEC
 70
     2
  9
$DIMTDEC
 70
     2
  9
$DIMALTU
 70
     2
  9
$DIMALTTD
 70
     2
  9
$DIMTXSTY
  7
ROMANS
  9
$DIMAUNIT
 70
     0
  9
$DIMADEC
 70
     0
  9
$DIMALTRND
 40
0.0
  9
$DIMAZIN
 70
     0
  9
$DIMDSEP
 70
    46
  9
$DIMATFIT
 70
     3
  9
$DIMFRAC
 70
     0
  9
$DIMLDRBLK
  1

  9
$DIMLUNIT
 70
     2
  9
$DIMLWD
 70
    -2
  9
$DIMLWE
 70
    -2
  9
$DIMTMOVE
 70
     2
  9
$LUNITS
 70
     2
  9
$LUPREC
 70
     2
  9
$SKETCHINC
 40
1.0
  9
$FILLETRAD
 40
0.0
  9
$AUNITS
 70
     0
  9
$AUPREC
 70
     0
  9
$MENU
  1
.
  9
$ELEVATION
 40
0.0
  9
$PELEVATION
 40
0.0
  9
$THICKNESS
 40
0.0
  9
$LIMCHECK
 70
     0
  9
$CHAMFERA
 40
0.0
  9
$CHAMFERB
 40
0.0
  9
$CHAMFERC
 40
0.0
  9
$CHAMFERD
 40
0.0
  9
$SKPOLY
 70
     0
  9
$TDCREATE
 40
2454297.625402373
  9
$TDUCREATE
 40
2454297.542069039
  9
$TDUPDATE
 40
2454370.776409861
  9
$TDUUPDATE
 40
2454370.693076528
  9
$TDINDWG
 40
0.4627776157
  9
$TDUSRTIMER
 40
0.4627770602
  9
$USRTIMER
 70
     1
  9
$ANGBASE
 50
0.0
  9
$ANGDIR
 70
     0
  9
$PDMODE
 70
     0
  9
$PDSIZE
 40
0.0
  9
$PLINEWID
 40
0.0
  9
$SPLFRAME
 70
     0
  9
$SPLINETYPE
 70
     6
  9
$SPLINESEGS
 70
     8
  9
$HANDSEED
  5
32F4
  9
$SURFTAB1
 70
     6
  9
$SURFTAB2
 70
     6
  9
$SURFTYPE
 70
     6
  9
$SURFU
 70
     6
  9
$SURFV
 70
     6
  9
$UCSBASE
  2

  9
$UCSNAME
  2

  9
$UCSORG
 10
0.0
 20
0.0
 30
0.0
  9
$UCSXDIR
 10
1.0
 20
0.0
 30
0.0
  9
$UCSYDIR
 10
0.0
 20
1.0
 30
0.0
  9
$UCSORTHOREF
  2

  9
$UCSORTHOVIEW
 70
     0
  9
$UCSORGTOP
 10
0.0
 20
0.0
 30
0.0
  9
$UCSORGBOTTOM
 10
0.0
 20
0.0
 30
0.0
  9
$UCSORGLEFT
 10
0.0
 20
0.0
 30
0.0
  9
$UCSORGRIGHT
 10
0.0
 20
0.0
 30
0.0
  9
$UCSORGFRONT
 10
0.0
 20
0.0
 30
0.0
  9
$UCSORGBACK
 10
0.0
 20
0.0
 30
0.0
  9
$PUCSBASE
  2

  9
$PUCSNAME
  2

  9
$PUCSORG
 10
0.0
 20
0.0
 30
0.0
  9
$PUCSXDIR
 10
1.0
 20
0.0
 30
0.0
  9
$PUCSYDIR
 10
0.0
 20
1.0
 30
0.0
  9
$PUCSORTHOREF
  2

  9
$PUCSORTHOVIEW
 70
     0
  9
$PUCSORGTOP
 10
0.0
 20
0.0
 30
0.0
  9
$PUCSORGBOTTOM
 10
0.0
 20
0.0
 30
0.0
  9
$PUCSORGLEFT
 10
0.0
 20
0.0
 30
0.0
  9
$PUCSORGRIGHT
 10
0.0
 20
0.0
 30
0.0
  9
$PUCSORGFRONT
 10
0.0
 20
0.0
 30
0.0
  9
$PUCSORGBACK
 10
0.0
 20
0.0
 30
0.0
  9
$USERI1
 70
     0
  9
$USERI2
 70
     0
  9
$USERI3
 70
     0
  9
$USERI4
 70
     0
  9
$USERI5
 70
     0
  9
$USERR1
 40
0.0
  9
$USERR2
 40
0.0
  9
$USERR3
 40
0.0
  9
$USERR4
 40
0.0
  9
$USERR5
 40
0.0
  9
$WORLDVIEW
 70
     1
  9
$SHADEDGE
 70
     3
  9
$SHADEDIF
 70
    70
  9
$TILEMODE
 70
     1
  9
$MAXACTVP
 70
    64
  9
$PINSBASE
 10
0.0
 20
0.0
 30
0.0
  9
$PLIMCHECK
 70
     0
  9
$PEXTMIN
 10
29.06606628894805
 20
20.36233246326446
 30
0.0
  9
$PEXTMAX
 10
261.5945966005325
 20
183.2609921693802
 30
0.0
  9
$PLIMMIN
 10
-3.17498779296875
 20
-3.174999952316281
  9
$PLIMMAX
 10
293.8356628417969
 20
206.7983276844024
  9
$UNITMODE
 70
     0
  9
$VISRETAIN
 70
     1
  9
$PLINEGEN
 70
     0
  9
$PSLTSCALE
 70
     1
  9
$TREEDEPTH
 70
  3020
  9
$CMLSTYLE
  2
Standard
  9
$CMLJUST
 70
     0
  9
$CMLSCALE
 40
20.0
  9
$PROXYGRAPHICS
 70
     1
  9
$MEASUREMENT
 70
     1
  9
$CELWEIGHT
370
    -1
  9
$ENDCAPS
280
     0
  9
$JOINSTYLE
280
     0
  9
$LWDISPLAY
290
     0
  9
$INSUNITS
 70
     4
  9
$HYPERLINKBASE
  1

  9
$STYLESHEET
  1

  9
$XEDIT
290
     1
  9
$CEPSNTYPE
380
     0
  9
$PSTYLEMODE
290
     1
  9
$FINGERPRINTGUID
  2
{4F38C4E7-9F37-4C76-96D9-79C94F9B03D9}
  9
$VERSIONGUID
  2
{37F0D9D1-2FA4-4185-A8F4-3C534C2BE101}
  9
$EXTNAMES
290
     1
  9
$PSVPSCALE
 40
0.0
  9
$OLESTARTUP
290
     0
  9
$SORTENTS
280
   127
  9
$INDEXCTL
280
     0
  9
$HIDETEXT
280
     1
  9
$XCLIPFRAME
290
     0
  9
$HALOGAP
280
     0
  9
$OBSCOLOR
 70
   257
  9
$OBSLTYPE
280
     0
  9
$INTERSECTIONDISPLAY
280
     0
  9
$INTERSECTIONCOLOR
 70
   257
  9
$DIMASSOC
280
     2
  9
$PROJECTNAME
  1

  0
ENDSEC
  0
SECTION
  2
CLASSES
  0
CLASS
  1
ACDBDICTIONARYWDFLT
  2
AcDbDictionaryWithDefault
  3
ObjectDBX Classes
 90
        0
 91
        1
280
     0
281
     0
  0
CLASS
  1
TABLESTYLE
  2
AcDbTableStyle
  3
ObjectDBX Classes
 90
     2047
 91
        1
280
     0
281
     0
  0
CLASS
  1
SORTENTSTABLE
  2
AcDbSortentsTable
  3
ObjectDBX Classes
 90
        0
 91
        1
280
     0
281
     0
  0
CLASS
  1
DICTIONARYVAR
  2
AcDbDictionaryVar
  3
ObjectDBX Classes
 90
        0
 91
        6
280
     0
281
     0
  0
CLASS
  1
DIMASSOC
  2
AcDbDimAssoc
  3
"AcDbDimAssoc|Product Desc:     AcDim ARX App For Dimension|Company:          Autodesk, Inc.|WEB Address:      www.autodesk.com"
 90
        0
 91
        2
280
     0
281
     0
  0
CLASS
  1
ACDBPLACEHOLDER
  2
AcDbPlaceHolder
  3
ObjectDBX Classes
 90
        0
 91
        1
280
     0
281
     0
  0
CLASS
  1
LAYOUT
  2
AcDbLayout
  3
ObjectDBX Classes
 90
        0
 91
        3
280
     0
281
     0
  0
CLASS
  1
MATERIAL
  2
AcDbMaterial
  3
ObjectDBX Classes
 90
        0
 91
        3
280
     0
281
     0
  0
CLASS
  1
VISUALSTYLE
  2
AcDbVisualStyle
  3
ObjectDBX Classes
 90
     4095
 91
       16
280
     0
281
     0
  0
CLASS
  1
ACAD_EVALUATION_GRAPH
  2
AcDbEvalGraph
  3
ObjectDBX Classes
 90
     1153
 91
        0
280
     0
281
     0
  0
CLASS
  1
ACAECUSTOBJ
  2
AcAeEditorObj
  3
AcAeEditorObj
 90
     1024
 91
        0
280
     0
281
     0
  0
CLASS
  1
ACDB_DYNAMICBLOCKPURGEPREVENTER_VERSION
  2
AcDbDynamicBlockPurgePreventer
  3
ObjectDBX Classes
 90
     1153
 91
        0
280
     0
281
     0
  0
ENDSEC
  0
SECTION
  2
TABLES
  0
TABLE
  2
VPORT
  5
96
330
0
100
AcDbSymbolTable
 70
     3
  0
VPORT
  5
32F3
330
96
100
AcDbSymbolTableRecord
100
AcDbViewportTableRecord
  2
*Active
 70
     0
 10
0.0
 20
0.0
 11
1.0
 21
1.0
 12
0.2221088067480644
 22
0.1800470672058393
 13
0.0
 23
0.0
 14
10.0
 24
10.0
 15
10.0
 25
10.0
 16
0.0
 26
0.0
 36
1.0
 17
0.0
 27
0.0
 37
0.0
 40
0.3385692788567018
 41
1.280471821756225
 42
50.0
 43
0.0
 44
0.0
 50
0.0
 51
0.0
 71
     0
 72
  1000
 73
     1
 74
     3
 75
     0
 76
     0
 77
     0
 78
     0
281
     0
 65
     1
110
0.0
120
0.0
130
0.0
111
1.0
121
0.0
131
0.0
112
0.0
122
1.0
132
0.0
 79
     0
146
0.0
  0
ENDTAB
  0
TABLE
  2
LTYPE
  5
91
330
0
100
AcDbSymbolTable
 70
     1
  0
LTYPE
  5
92
330
91
100
AcDbSymbolTableRecord
100
AcDbLinetypeTableRecord
  2
ByBlock
 70
     0
  3

 72
    65
 73
     0
 40
0.0
  0
LTYPE
  5
93
330
91
100
AcDbSymbolTableRecord
100
AcDbLinetypeTableRecord
  2
ByLayer
 70
     0
  3

 72
    65
 73
     0
 40
0.0
  0
LTYPE
  5
C
330
91
100
AcDbSymbolTableRecord
100
AcDbLinetypeTableRecord
  2
Continuous
 70
     0
  3
Solid line
 72
    65
 73
     0
 40
0.0
  0
ENDTAB
  0
TABLE
  2
LAYER
  5
8A
102
{ACAD_XDICTIONARY
360
8B
102
}
330
0
100
AcDbSymbolTable
 70
     7
  0
LAYER
  5
6
330
8A
100
AcDbSymbolTableRecord
100
AcDbLayerTableRecord
  2
0
 70
     0
 62
     7
  6
Continuous
370
    -3
390
7
  0
LAYER
  5
3F
330
8A
100
AcDbSymbolTableRecord
100
AcDbLayerTableRecord
  2
Defpoints
 70
     0
 62
     7
  6
Continuous
290
     0
370
    -3
390
7
  0
LAYER
  5
2E
330
8A
100
AcDbSymbolTableRecord
100
AcDbLayerTableRecord
  2
Dimensione
 70
     0
 62
   150
  6
Continuous
370
    -3
390
7
1001
AcAecLayerStandard
1000

1000

  0
LAYER
  5
54
330
8A
100
AcDbSymbolTableRecord
100
AcDbLayerTableRecord
  2
Sezione
 70
     0
 62
     2
  6
Continuous
370
    -3
390
7
1001
AcAecLayerStandard
1000

1000

  0
LAYER
  5
E
330
8A
100
AcDbSymbolTableRecord
100
AcDbLayerTableRecord
  2
Table
 70
     0
 62
     3
  6
Continuous
370
    -3
390
7
1001
AcAecLayerStandard
1000

1000

  0
LAYER
  5
19
330
8A
100
AcDbSymbolTableRecord
100
AcDbLayerTableRecord
  2
Text
 70
     0
 62
     4
  6
Continuous
370
    -3
390
7
1001
AcAecLayerStandard
1000

1000

  0
LAYER
  5
25D5
330
8A
100
AcDbSymbolTableRecord
100
AcDbLayerTableRecord
  2
Profilo
 70
     0
 62
     1
  6
Continuous
370
    -3
390
7
1001
AcAecLayerStandard
1000

1000

  0
ENDTAB
  0
TABLE
  2
STYLE
  5
8F
330
0
100
AcDbSymbolTable
 70
     4
  0
STYLE
  5
1A
330
8F
100
AcDbSymbolTableRecord
100
AcDbTextStyleTableRecord
  2
Standard
 70
     0
 40
0.0
 41
1.0
 50
0.0
 71
     0
 42
2.5
  3
txt
  4

  0
STYLE
  5
20
330
8F
100
AcDbSymbolTableRecord
100
AcDbTextStyleTableRecord
  2
ROMANS
 70
     0
 40
0.0
 41
1.0
 50
0.0
 71
     0
 42
2.5
  3
romans
  4

  0
STYLE
  5
28
330
8F
100
AcDbSymbolTableRecord
100
AcDbTextStyleTableRecord
  2
Arial
 70
     0
 40
0.0
 41
1.0
 50
0.0
 71
     0
 42
0.25
  3
ARIAL.TTF
  4

1001
ACAD
1000
Arial
1071
       34
  0
STYLE
  5
26
330
8F
100
AcDbSymbolTableRecord
100
AcDbTextStyleTableRecord
  2
style1
 70
     0
 40
0.0
 41
1.0
 50
0.0
 71
     0
 42
0.005
  3
TIMES.TTF
  4

1001
ACAD
1000
Times New Roman
1071
       18
  0
ENDTAB
  0
TABLE
  2
VIEW
  5
94
330
0
100
AcDbSymbolTable
 70
     0
  0
ENDTAB
  0
TABLE
  2
UCS
  5
95
330
0
100
AcDbSymbolTable
 70
     0
  0
ENDTAB
  0
TABLE
  2
APPID
  5
98
330
0
100
AcDbSymbolTable
 70
    14
  0
APPID
  5
1B
330
98
100
AcDbSymbolTableRecord
100
AcDbRegAppTableRecord
  2
ACAD
 70
     0
  0
APPID
  5
34
330
98
100
AcDbSymbolTableRecord
100
AcDbRegAppTableRecord
  2
ACAD_DSTYLE_DIMJOGGED_JOGANGLE_SYMBOL
 70
     0
  0
APPID
  5
F
330
98
100
AcDbSymbolTableRecord
100
AcDbRegAppTableRecord
  2
AcAecLayerStandard
 70
     0
  0
APPID
  5
85
330
98
100
AcDbSymbolTableRecord
100
AcDbRegAppTableRecord
  2
ACAD_PSEXT
 70
     0
  0
APPID
  5
BA
330
98
100
AcDbSymbolTableRecord
100
AcDbRegAppTableRecord
  2
ACAD_DSTYLE_DIMEXT_LENGTH
 70
     0
  0
APPID
  5
101
330
98
100
AcDbSymbolTableRecord
100
AcDbRegAppTableRecord
  2
ACAD_EXEMPT_FROM_CAD_STANDARDS
 70
     0
  0
APPID
  5
102
330
98
100
AcDbSymbolTableRecord
100
AcDbRegAppTableRecord
  2
ACAD_DSTYLE_DIM_LINETYPE
 70
     0
  0
APPID
  5
103
330
98
100
AcDbSymbolTableRecord
100
AcDbRegAppTableRecord
  2
ACAD_DSTYLE_DIM_EXT1_LINETYPE
 70
     0
  0
APPID
  5
104
330
98
100
AcDbSymbolTableRecord
100
AcDbRegAppTableRecord
  2
ACAD_DSTYLE_DIM_EXT2_LINETYPE
 70
     0
  0
APPID
  5
10D5
330
98
100
AcDbSymbolTableRecord
100
AcDbRegAppTableRecord
  2
ACAUTHENVIRON
 70
     0
  0
APPID
  5
10D9
330
98
100
AcDbSymbolTableRecord
100
AcDbRegAppTableRecord
  2
AcDbDynamicBlockTrueName
 70
     0
  0
APPID
  5
10DA
330
98
100
AcDbSymbolTableRecord
100
AcDbRegAppTableRecord
  2
AcDbDynamicBlockGUID
 70
     0
  0
APPID
  5
10DC
330
98
100
AcDbSymbolTableRecord
100
AcDbRegAppTableRecord
  2
AcDbBlockRepETag
 70
     0
  0
APPID
  5
249F
330
98
100
AcDbSymbolTableRecord
100
AcDbRegAppTableRecord
  2
DCO15
 70
     0
  0
ENDTAB
  0
TABLE
  2
DIMSTYLE
  5
99
330
0
100
AcDbSymbolTable
 70
     2
100
AcDbDimStyleTable
 71
     1
340
2F
  0
DIMSTYLE
105
2F
102
{ACAD_REACTORS
330
3279
330
328D
330
32A7
102
}
330
99
100
AcDbSymbolTableRecord
100
AcDbDimStyleTableRecord
  2
Bovelacci
 70
     0
 40
0.001
 41
1.5
140
3.0
141
0.0
147
2.0
176
     5
177
     5
178
     4
271
     2
272
     2
279
     2
340
20
342
30
1001
ACAD_DSTYLE_DIMJOGGED_JOGANGLE_SYMBOL
1070
   384
1040
0.7853981633974483
1001
ACAD_DSTYLE_DIMEXT_LENGTH
1070
   378
1040
0.18
  0
DIMSTYLE
105
194
330
99
100
AcDbSymbolTableRecord
100
AcDbDimStyleTableRecord
  2
STANDARD
 70
     0
340
1A
  0
ENDTAB
  0
TABLE
  2
BLOCK_RECORD
  5
1
330
0
100
AcDbSymbolTable
 70
     7
  0
BLOCK_RECORD
  5
2
102
{ACAD_XDICTIONARY
360
3
102
}
330
1
100
AcDbSymbolTableRecord
100
AcDbBlockTableRecord
  2
*Model_Space
340
77
  0
BLOCK_RECORD
  5
79
330
1
100
AcDbSymbolTableRecord
100
AcDbBlockTableRecord
  2
*Paper_Space
340
82
  0
BLOCK_RECORD
  5
86
330
1
100
AcDbSymbolTableRecord
100
AcDbBlockTableRecord
  2
*Paper_Space0
340
89
  0
BLOCK_RECORD
  5
30
330
1
100
AcDbSymbolTableRecord
100
AcDbBlockTableRecord
  2
_ArchTick
340
0
310
2800000020000000200000000100080000000000000400000000000000000000000000000000000000000000000080000080000000808000800000008000800080800000C0C0C000C0DCC000F0CAA6000020400000206000002080000020A0000020C0000020E00000400000004020000040400000406000004080000040A0
310
000040C0000040E00000600000006020000060400000606000006080000060A0000060C0000060E00000800000008020000080400000806000008080000080A0000080C0000080E00000A0000000A0200000A0400000A0600000A0800000A0A00000A0C00000A0E00000C0000000C0200000C0400000C0600000C0800000C0
310
A00000C0C00000C0E00000E0000000E0200000E0400000E0600000E0800000E0A00000E0C00000E0E00040000000400020004000400040006000400080004000A0004000C0004000E00040200000402020004020400040206000402080004020A0004020C0004020E000404000004040200040404000404060004040800040
310
40A0004040C0004040E00040600000406020004060400040606000406080004060A0004060C0004060E00040800000408020004080400040806000408080004080A0004080C0004080E00040A0000040A0200040A0400040A0600040A0800040A0A00040A0C00040A0E00040C0000040C0200040C0400040C0600040C08000
310
40C0A00040C0C00040C0E00040E0000040E0200040E0400040E0600040E0800040E0A00040E0C00040E0E00080000000800020008000400080006000800080008000A0008000C0008000E00080200000802020008020400080206000802080008020A0008020C0008020E00080400000804020008040400080406000804080
310
008040A0008040C0008040E00080600000806020008060400080606000806080008060A0008060C0008060E00080800000808020008080400080806000808080008080A0008080C0008080E00080A0000080A0200080A0400080A0600080A0800080A0A00080A0C00080A0E00080C0000080C0200080C0400080C0600080C0
310
800080C0A00080C0C00080C0E00080E0000080E0200080E0400080E0600080E0800080E0A00080E0C00080E0E000C0000000C0002000C0004000C0006000C0008000C000A000C000C000C000E000C0200000C0202000C0204000C0206000C0208000C020A000C020C000C020E000C0400000C0402000C0404000C0406000C0
310
408000C040A000C040C000C040E000C0600000C0602000C0604000C0606000C0608000C060A000C060C000C060E000C0800000C0802000C0804000C0806000C0808000C080A000C080C000C080E000C0A00000C0A02000C0A04000C0A06000C0A08000C0A0A000C0A0C000C0A0E000C0C00000C0C02000C0C04000C0C06000
310
C0C08000C0C0A000F0FBFF00A4A0A000808080000000FF0000FF000000FFFF00FF000000FF00FF00FFFF0000FFFFFF00000000FF000000000000000000000000000000000000000000000000000000000000FF00FF00000000000000000000000000000000000000000000000000000000FF000000FF000000000000000000
310
0000000000000000000000000000000000FF0000000000FF0000000000000000000000000000000000000000000000000000FF0000000000FF0000000000000000000000000000000000000000000000000000FF0000000000FF0000000000000000000000000000000000000000000000000000FF0000000000FF00000000
310
00000000000000000000000000000000000000000000FF0000000000FF0000000000000000000000000000000000000000000000000000FF0000000000FF0000000000000000000000000000000000000000000000000000FF0000000000FF0000000000000000000000000000000000000000000000000000FF0000000000
310
FF0000000000000000000000000000000000000000000000000000FF0000000000FF0000000000000000000000000000000000000000000000000000FF0000000000FF0000000000000000000000000000000000000000000000000000FF0000000000FF0000000000000000000000000000000000000000000000000000FF
310
0000000000FF0000000000000000000000000000000000000000000000000000FF0000000000FF0000000000000000000000000000000000000000000000000000FF0000000000FF0000000000000000000000000000000000000000000000000000FF0000000000FF00000000000000000000000000000000000000000000
310
00000000FF0000000000FF0000000000000000000000000000000000000000000000000000FF0000000000FF0000000000000000000000000000000000000000000000000000FF0000000000FF0000000000000000000000000000000000000000000000000000FF0000000000FF0000000000000000000000000000000000
310
000000000000000000FF0000000000FF0000000000000000000000000000000000000000000000000000FF0000000000FF0000000000000000000000000000000000000000000000000000FF0000000000FF0000000000000000000000000000000000000000000000000000FF0000000000FF000000000000000000000000
310
0000000000000000000000000000FF0000000000FF0000000000000000000000000000000000000000000000000000FF0000000000FF0000000000000000000000000000000000000000000000000000FF0000000000FF0000000000000000000000000000000000000000000000000000FF000000FF000000000000000000
310
00000000000000000000000000000000000000FF00FF000000000000000000000000000000000000000000000000000000000000FF000000
102
{BLKREFS
331
32A0
331
32A1
331
32BA
331
32BB
331
32ED
331
32EE
102
}
  0
BLOCK_RECORD
  5
4E0
330
1
100
AcDbSymbolTableRecord
100
AcDbBlockTableRecord
  2
_Arrivo
340
0
310
2800000020000000200000000100080000000000000400000000000000000000000000000000000000000000000080000080000000808000800000008000800080800000C0C0C000C0DCC000F0CAA6000020400000206000002080000020A0000020C0000020E00000400000004020000040400000406000004080000040A0
310
000040C0000040E00000600000006020000060400000606000006080000060A0000060C0000060E00000800000008020000080400000806000008080000080A0000080C0000080E00000A0000000A0200000A0400000A0600000A0800000A0A00000A0C00000A0E00000C0000000C0200000C0400000C0600000C0800000C0
310
A00000C0C00000C0E00000E0000000E0200000E0400000E0600000E0800000E0A00000E0C00000E0E00040000000400020004000400040006000400080004000A0004000C0004000E00040200000402020004020400040206000402080004020A0004020C0004020E000404000004040200040404000404060004040800040
310
40A0004040C0004040E00040600000406020004060400040606000406080004060A0004060C0004060E00040800000408020004080400040806000408080004080A0004080C0004080E00040A0000040A0200040A0400040A0600040A0800040A0A00040A0C00040A0E00040C0000040C0200040C0400040C0600040C08000
310
40C0A00040C0C00040C0E00040E0000040E0200040E0400040E0600040E0800040E0A00040E0C00040E0E00080000000800020008000400080006000800080008000A0008000C0008000E00080200000802020008020400080206000802080008020A0008020C0008020E00080400000804020008040400080406000804080
310
008040A0008040C0008040E00080600000806020008060400080606000806080008060A0008060C0008060E00080800000808020008080400080806000808080008080A0008080C0008080E00080A0000080A0200080A0400080A0600080A0800080A0A00080A0C00080A0E00080C0000080C0200080C0400080C0600080C0
310
800080C0A00080C0C00080C0E00080E0000080E0200080E0400080E0600080E0800080E0A00080E0C00080E0E000C0000000C0002000C0004000C0006000C0008000C000A000C000C000C000E000C0200000C0202000C0204000C0206000C0208000C020A000C020C000C020E000C0400000C0402000C0404000C0406000C0
310
408000C040A000C040C000C040E000C0600000C0602000C0604000C0606000C0608000C060A000C060C000C060E000C0800000C0802000C0804000C0806000C0808000C080A000C080C000C080E000C0A00000C0A02000C0A04000C0A06000C0A08000C0A0A000C0A0C000C0A0E000C0C00000C0C02000C0C04000C0C06000
310
C0C08000C0C0A000F0FBFF00A4A0A000808080000000FF0000FF000000FFFF00FF000000FF00FF00FFFF0000FFFFFF00000000000000000000000000000000000000000000000000000000000000000000000000000000000000FF0000000000000000000000000000000000000000000000000000000000000000FF000000
310
00000000000000000000000000000000000000000000000000000000FF0000000000000000000000000000000000000000000000000000000000000000FF00000000000000000000000000000000000000000000000000000000000000FF0000000000000000000000000000000000000000000000000000000000000000FF
310
0000000000000000000000000000000000000000000000000000000000000000FF00000000000000000000000000000000000000000000000000000000000000FF0000000000000000000000000000000000000000000000000000000000000000FF0000000000000000000000000000000000000000000000000000000000
310
0000FF0000000000000000000000000000000000000000000000000000000000000000FF00000000000000000000000000000000000000000000000000000000000000FF0000000000000000000000000000000000000000000000000000000000000000FF0000FF0000000000000000000000000000000000000000000000
310
000000000000FFFF000000000000000000000000000000000000000000000000000000000000FFFF00000000000000000000000000000000000000000000000000000000FFFFFFFFFFFF00000000000000000000000000000000000000000000000000000000FFFF0000000000000000000000000000000000000000000000
310
000000000000FF0000FF000000000000000000000000000000000000000000000000000000FF00000000000000000000000000000000000000000000000000000000000000FF000000000000000000000000000000000000000000000000000000000000FF0000000000000000000000000000000000000000000000000000
310
0000000000FF000000000000000000000000000000000000000000000000000000000000FF00000000000000000000000000000000000000000000000000000000000000FF000000000000000000000000000000000000000000000000000000000000FF000000000000000000000000000000000000000000000000000000
310
000000FF00000000000000000000000000000000000000000000000000000000000000FF000000000000000000000000000000000000000000000000000000000000FF00000000000000000000000000000000000000000000000000000000000000FF00000000000000000000000000000000000000000000000000000000
310
0000FF0000000000000000000000000000000000000000000000000000000000000000000000000000000000000000000000000000000000
  0
BLOCK_RECORD
  5
4E6
330
1
100
AcDbSymbolTableRecord
100
AcDbBlockTableRecord
  2
_Partenza
340
0
310
2800000020000000200000000100080000000000000400000000000000000000000000000000000000000000000080000080000000808000800000008000800080800000C0C0C000C0DCC000F0CAA6000020400000206000002080000020A0000020C0000020E00000400000004020000040400000406000004080000040A0
310
000040C0000040E00000600000006020000060400000606000006080000060A0000060C0000060E00000800000008020000080400000806000008080000080A0000080C0000080E00000A0000000A0200000A0400000A0600000A0800000A0A00000A0C00000A0E00000C0000000C0200000C0400000C0600000C0800000C0
310
A00000C0C00000C0E00000E0000000E0200000E0400000E0600000E0800000E0A00000E0C00000E0E00040000000400020004000400040006000400080004000A0004000C0004000E00040200000402020004020400040206000402080004020A0004020C0004020E000404000004040200040404000404060004040800040
310
40A0004040C0004040E00040600000406020004060400040606000406080004060A0004060C0004060E00040800000408020004080400040806000408080004080A0004080C0004080E00040A0000040A0200040A0400040A0600040A0800040A0A00040A0C00040A0E00040C0000040C0200040C0400040C0600040C08000
310
40C0A00040C0C00040C0E00040E0000040E0200040E0400040E0600040E0800040E0A00040E0C00040E0E00080000000800020008000400080006000800080008000A0008000C0008000E00080200000802020008020400080206000802080008020A0008020C0008020E00080400000804020008040400080406000804080
310
008040A0008040C0008040E00080600000806020008060400080606000806080008060A0008060C0008060E00080800000808020008080400080806000808080008080A0008080C0008080E00080A0000080A0200080A0400080A0600080A0800080A0A00080A0C00080A0E00080C0000080C0200080C0400080C0600080C0
310
800080C0A00080C0C00080C0E00080E0000080E0200080E0400080E0600080E0800080E0A00080E0C00080E0E000C0000000C0002000C0004000C0006000C0008000C000A000C000C000C000E000C0200000C0202000C0204000C0206000C0208000C020A000C020C000C020E000C0400000C0402000C0404000C0406000C0
310
408000C040A000C040C000C040E000C0600000C0602000C0604000C0606000C0608000C060A000C060C000C060E000C0800000C0802000C0804000C0806000C0808000C080A000C080C000C080E000C0A00000C0A02000C0A04000C0A06000C0A08000C0A0A000C0A0C000C0A0E000C0C00000C0C02000C0C04000C0C06000
310
C0C08000C0C0A000F0FBFF00A4A0A000808080000000FF0000FF000000FFFF00FF000000FF00FF00FFFF0000FFFFFF0000000000000000000000000000000000000000000000000000000000000000000000000000000000000000000000000000000000000000000000000000000000000000000000000000000000000000
310
000000000000000000000000000000000000000000000000000000000000000000000000000000000000000000000000000000000000000000000000000000000000000000000000000000000000000000000000000000000000000000000000000000000000000000000000000000000000FFFFFFFFFFFFFFFFFFFFFFFFFF
310
FFFFFFFFFFFFFFFFFFFFFFFFFFFFFFFFFF0000000000000000000000000000000000000000000000000000000000000000000000000000000000000000000000000000000000000000000000000000000000000000000000000000000000000000000000000000000000000000000000000000000000000000000000000000
310
00000000000000000000000000000000000000000000000000000000000000000000000000000000000000000000000000000000000000000000000000000000000000000000000000000000000000000000000000000000000000000000000000000000000000000000000000000000000000000000000000000000000000
310
00000000000000000000000000000000000000000000000000000000000000000000000000000000000000000000000000000000000000000000000000000000000000000000000000000000000000000000000000000000000000000000000000000000000000000000000000000000000000000000000000000000000000
310
00000000000000000000000000000000000000000000000000000000000000000000000000000000000000000000000000000000000000000000000000000000000000000000000000000000000000000000000000000000000000000000000000000000000000000000000000000000000000000000000000000000000000
310
000000000000000000000000000000000000000000000000000000000000000000000000000000000000000000000000000000000000000000000000000000000000000000000000000000000000000000000000000000FFFFFFFFFFFFFFFFFFFFFFFFFFFFFFFFFFFFFFFFFFFFFFFFFFFFFFFFFFFF00000000000000000000
310
00000000000000000000000000000000000000000000000000000000000000000000000000000000000000000000000000000000000000000000000000000000000000000000000000000000000000000000000000000000000000000000000000000000000000000000000000000000000000000000000000000000000000
310
0000000000000000000000000000000000000000000000000000000000000000000000000000000000000000000000000000000000000000
  0
BLOCK_RECORD
  5
327A
330
1
100
AcDbSymbolTableRecord
100
AcDbBlockTableRecord
  2
*D4
340
0
  0
BLOCK_RECORD
  5
328E
330
1
100
AcDbSymbolTableRecord
100
AcDbBlockTableRecord
  2
*D5
340
0
  0
BLOCK_RECORD
  5
32A8
330
1
100
AcDbSymbolTableRecord
100
AcDbBlockTableRecord
  2
*D6
340
0
  0
ENDTAB
  0
ENDSEC
  0
SECTION
  2
BLOCKS
  0
BLOCK
  5
5
330
2
100
AcDbEntity
  8
0
100
AcDbBlockBegin
  2
*Model_Space
 70
     0
 10
0.0
 20
0.0
 30
0.0
  3
*Model_Space
  1

  0
ENDBLK
  5
76
330
2
100
AcDbEntity
  8
0
100
AcDbBlockEnd
  0
BLOCK
  5
7A
330
79
100
AcDbEntity
 67
     1
  8
0
100
AcDbBlockBegin
  2
*Paper_Space
 70
     0
 10
0.0
 20
0.0
 30
0.0
  3
*Paper_Space
  1

  0
ENDBLK
  5
81
330
79
100
AcDbEntity
 67
     1
  8
0
100
AcDbBlockEnd
  0
BLOCK
  5
87
330
86
100
AcDbEntity
 67
     1
  8
0
100
AcDbBlockBegin
  2
*Paper_Space0
 70
     0
 10
0.0
 20
0.0
 30
0.0
  3
*Paper_Space0
  1

  0
ENDBLK
  5
88
330
86
100
AcDbEntity
 67
     1
  8
0
100
AcDbBlockEnd
  0
BLOCK
  5
31
330
30
100
AcDbEntity
  8
0
 62
     1
100
AcDbBlockBegin
  2
_ArchTick
 70
     0
 10
0.0
 20
0.0
 30
0.0
  3
_ArchTick
  1

  0
LWPOLYLINE
  5
32
330
30
100
AcDbEntity
  8
0
  6
ByBlock
 62
     0
100
AcDbPolyline
 90
        2
 70
     0
 43
0.15
 10
-0.5
 20
-0.5
 10
0.5
 20
0.5
  0
ENDBLK
  5
33
330
30
100
AcDbEntity
  8
0
 62
     1
100
AcDbBlockEnd
  0
BLOCK
  5
4E1
330
4E0
100
AcDbEntity
  8
0
100
AcDbBlockBegin
  2
_Arrivo
 70
     0
 10
0.0
 20
0.0
 30
0.0
  3
_Arrivo
  1

  0
LINE
  5
4E2
330
4E0
100
AcDbEntity
  8
0
  6
ByBlock
 62
     0
370
    -2
100
AcDbLine
 10
0.025
 20
-0.0433012701891858
 30
0.0
 11
-0.15
 21
0.2598076211353328
 31
0.0
  0
LINE
  5
4E3
330
4E0
100
AcDbEntity
  8
0
  6
ByBlock
 62
     0
370
    -2
100
AcDbLine
 10
0.025
 20
0.0433012701892585
 30
0.0
 11
-0.15
 21
-0.2598076211353328
 31
0.0
  0
LINE
  5
4E4
330
4E0
100
AcDbEntity
  8
0
  6
ByBlock
 62
     0
370
    -2
100
AcDbLine
 10
-0.05
 20
0.0
 30
0.0
 11
0.05
 21
0.0
 31
0.0
  0
ENDBLK
  5
4E5
330
4E0
100
AcDbEntity
  8
0
100
AcDbBlockEnd
  0
BLOCK
  5
4E7
330
4E6
100
AcDbEntity
  8
0
100
AcDbBlockBegin
  2
_Partenza
 70
     0
 10
0.0
 20
0.0
 30
0.0
  3
_Partenza
  1

  0
LINE
  5
4E8
330
4E6
100
AcDbEntity
  8
0
  6
ByBlock
 62
     0
370
    -2
100
AcDbLine
 10
-0.05
 20
0.05
 30
0.0
 11
0.1
 21
0.05
 31
0.0
  0
LINE
  5
4E9
330
4E6
100
AcDbEntity
  8
0
  6
ByBlock
 62
     0
370
    -2
100
AcDbLine
 10
-0.05
 20
-0.05
 30
0.0
 11
0.1
 21
-0.05
 31
0.0
  0
ENDBLK
  5
4EA
330
4E6
100
AcDbEntity
  8
0
100
AcDbBlockEnd
  0
BLOCK
  5
3285
330
327A
100
AcDbEntity
  8
0
100
AcDbBlockBegin
  2
*D4
 70
     1
 10
0.0
 20
0.0
 30
0.0
  3
*D4
  1

  0
LINE
  5
32E9
330
327A
100
AcDbEntity
  8
Dimensione
 62
     5
370
    -2
100
AcDbLine
 10
0.1955190094240307
 20
0.0975548850646888
 30
0.0
 11
0.1271105663848931
 21
0.0975548850646888
 31
0.0
  0
LINE
  5
32EA
330
327A
100
AcDbEntity
  8
Dimensione
 62
     5
370
    -2
100
AcDbLine
 10
0.1946382246284471
 20
0.2305404491857352
 30
0.0
 11
0.1271105663848931
 21
0.2305404491857353
 31
0.0
  0
LINE
  5
32EB
330
327A
100
AcDbEntity
  8
Dimensione
 62
     5
370
    -2
100
AcDbLine
 10
0.1272905663848931
 20
0.0975548850646888
 30
0.0
 11
0.1272905663848931
 21
0.160547667125212
 31
0.0
  0
LINE
  5
32EC
330
327A
100
AcDbEntity
  8
Dimensione
 62
     5
370
    -2
100
AcDbLine
 10
0.1272905663848931
 20
0.2305404491857353
 30
0.0
 11
0.1272905663848931
 21
0.1675476671252121
 31
0.0
  0
INSERT
  5
32ED
330
327A
100
AcDbEntity
  8
Dimensione
 62
     5
370
    -2
100
AcDbBlockReference
  2
_ArchTick
 10
0.1272905663848931
 20
0.0975548850646888
 30
0.0
 41
0.0015
 42
0.0015
 43
0.0015
 50
270.0
  0
INSERT
  5
32EE
330
327A
100
AcDbEntity
  8
Dimensione
 62
     5
370
    -2
100
AcDbBlockReference
  2
_ArchTick
 10
0.1272905663848931
 20
0.2305404491857353
 30
0.0
 41
0.0015
 42
0.0015
 43
0.0015
 50
90.0
  0
MTEXT
  5
32EF
330
327A
100
AcDbEntity
  8
Dimensione
 62
     4
100
AcDbMText
 10
0.1272905663848931
 20
0.1640476671252121
 30
0.0
 40
0.003
 41
0.0
 71
     5
 72
     1
  1
\A1;800 mm
  7
ROMANS
 73
     1
 44
1.0
  0
POINT
  5
32F0
330
327A
100
AcDbEntity
  8
Defpoints
 62
     0
100
AcDbPoint
 10
0.1955815094240307
 20
0.0975548850646888
 30
0.0
  0
POINT
  5
32F1
330
327A
100
AcDbEntity
  8
Defpoints
 62
     0
100
AcDbPoint
 10
0.1947007246284471
 20
0.2305404491857352
 30
0.0
  0
POINT
  5
32F2
330
327A
100
AcDbEntity
  8
Defpoints
 62
     0
100
AcDbPoint
 10
0.1272905663848931
 20
0.2305404491857353
 30
0.0
  0
ENDBLK
  5
3286
330
327A
100
AcDbEntity
  8
0
100
AcDbBlockEnd
  0
BLOCK
  5
3299
330
328E
100
AcDbEntity
  8
0
100
AcDbBlockBegin
  2
*D5
 70
     1
 10
0.0
 20
0.0
 30
0.0
  3
*D5
  1

  0
LINE
  5
329C
330
328E
100
AcDbEntity
  8
Dimensione
 62
     5
370
    -2
100
AcDbLine
 10
0.2575662640297977
 20
0.0878438629143417
 30
0.0
 11
0.2576204839083216
 21
0.0877396206255484
 31
0.0
  0
LINE
  5
329D
330
328E
100
AcDbEntity
  8
Dimensione
 62
     5
370
    -2
100
AcDbLine
 10
0.2811229011501373
 20
0.1000964527018598
 30
0.0
 11
0.2811771210286611
 21
0.0999922104130665
 31
0.0
  0
LINE
  5
329E
330
328E
100
AcDbEntity
  8
Dimensione
 62
     5
370
    -2
100
AcDbLine
 10
0.2575374236688808
 20
0.0878993109402955
 30
0.0
 11
0.2625866970760675
 21
0.0905256058340546
 31
0.0
  0
LINE
  5
329F
330
328E
100
AcDbEntity
  8
Dimensione
 62
     5
370
    -2
100
AcDbLine
 10
0.2810940607892203
 20
0.1001519007278136
 30
0.0
 11
0.2760447873820335
 21
0.0975256058340546
 31
0.0
  0
INSERT
  5
32A0
330
328E
100
AcDbEntity
  8
Dimensione
 62
     5
370
    -2
100
AcDbBlockReference
  2
_ArchTick
 10
0.2575374236688808
 20
0.0878993109402955
 30
0.0
 41
0.0015
 42
0.0015
 43
0.0015
 50
207.4804401145771
  0
INSERT
  5
32A1
330
328E
100
AcDbEntity
  8
Dimensione
 62
     5
370
    -2
100
AcDbBlockReference
  2
_ArchTick
 10
0.2810940607892203
 20
0.1001519007278136
 30
0.0
 41
0.0015
 42
0.0015
 43
0.0015
 50
27.48044011457705
  0
MTEXT
  5
32A2
330
328E
100
AcDbEntity
  8
Dimensione
 62
     4
100
AcDbMText
 10
0.2693157422290505
 20
0.0940256058340546
 30
0.0
 40
0.003
 41
0.0
 71
     5
 72
     1
  1
\A1;350 mm
  7
ROMANS
 73
     1
 44
1.0
  0
POINT
  5
32A3
330
328E
100
AcDbEntity
  8
Defpoints
 62
     0
100
AcDbPoint
 10
0.2575374236688808
 20
0.0878993109402955
 30
0.0
  0
POINT
  5
32A4
330
328E
100
AcDbEntity
  8
Defpoints
 62
     0
100
AcDbPoint
 10
0.2810940607892203
 20
0.1001519007278136
 30
0.0
  0
POINT
  5
32A5
330
328E
100
AcDbEntity
  8
Defpoints
 62
     0
100
AcDbPoint
 10
0.2810940607892203
 20
0.1001519007278136
 30
0.0
  0
ENDBLK
  5
329A
330
328E
100
AcDbEntity
  8
0
100
AcDbBlockEnd
  0
BLOCK
  5
32B3
330
32A8
100
AcDbEntity
  8
0
100
AcDbBlockBegin
  2
*D6
 70
     1
 10
0.0
 20
0.0
 30
0.0
  3
*D6
  1

  0
LINE
  5
32B6
330
32A8
100
AcDbEntity
  8
Dimensione
 62
     5
370
    -2
100
AcDbLine
 10
0.138286024082801
 20
0.0843083481950725
 30
0.0
 11
0.1383040608263406
 21
0.0844244555845121
 31
0.0
  0
LINE
  5
32B7
330
32A8
100
AcDbEntity
  8
Dimensione
 62
     5
370
    -2
100
AcDbLine
 10
0.1883457301033724
 20
0.0765318054313761
 30
0.0
 11
0.1883637668469119
 21
0.0766479128208158
 31
0.0
  0
LINE
  5
32B8
330
32A8
100
AcDbEntity
  8
Dimensione
 62
     5
370
    -2
100
AcDbLine
 10
0.13827643007028
 20
0.0842465889453705
 30
0.0
 11
0.1517348545091371
 21
0.0821558852337319
 31
0.0
  0
LINE
  5
32B9
330
32A8
100
AcDbEntity
  8
Dimensione
 62
     5
370
    -2
100
AcDbLine
 10
0.1883361360908513
 20
0.0764700461816742
 30
0.0
 11
0.1748777116519942
 21
0.0785607498933128
 31
0.0
  0
INSERT
  5
32BA
330
32A8
100
AcDbEntity
  8
Dimensione
 62
     5
370
    -2
100
AcDbBlockReference
  2
_ArchTick
 10
0.13827643007028
 20
0.0842465889453705
 30
0.0
 41
0.0015
 42
0.0015
 43
0.0015
 50
171.1699449233109
  0
INSERT
  5
32BB
330
32A8
100
AcDbEntity
  8
Dimensione
 62
     5
370
    -2
100
AcDbBlockReference
  2
_ArchTick
 10
0.1883361360908513
 20
0.0764700461816742
 30
0.0
 41
0.0015
 42
0.0015
 43
0.0015
 50
351.1699449233109
  0
MTEXT
  5
32BC
330
32A8
100
AcDbEntity
  8
Dimensione
 62
     4
100
AcDbMText
 10
0.1633062830805656
 20
0.0803583175635223
 30
0.0
 40
0.003
 41
0.0
 71
     5
 72
     1
  1
\A1;350 mm
  7
ROMANS
 73
     1
 44
1.0
  0
POINT
  5
32BD
330
32A8
100
AcDbEntity
  8
Defpoints
 62
     0
100
AcDbPoint
 10
0.13827643007028
 20
0.0842465889453705
 30
0.0
  0
POINT
  5
32BE
330
32A8
100
AcDbEntity
  8
Defpoints
 62
     0
100
AcDbPoint
 10
0.1883361360908513
 20
0.0764700461816742
 30
0.0
  0
POINT
  5
32BF
330
32A8
100
AcDbEntity
  8
Defpoints
 62
     0
100
AcDbPoint
 10
0.1883361360908513
 20
0.0764700461816742
 30
0.0
  0
ENDBLK
  5
32B4
330
32A8
100
AcDbEntity
  8
0
100
AcDbBlockEnd
  0
ENDSEC
  0
SECTION
  2
ENTITIES
  0
LINE
  5
D
330
2
100
AcDbEntity
  8
Table
100
AcDbLine
 10
0.02
 20
0.02
 30
0.0
 11
0.4
 21
0.02
 31
0.0
  0
LINE
  5
10
330
2
100
AcDbEntity
  8
Table
100
AcDbLine
 10
0.4
 20
0.02
 30
0.0
 11
0.4
 21
0.2769999999999999
 31
0.0
  0
LINE
  5
11
330
2
100
AcDbEntity
  8
Table
100
AcDbLine
 10
0.4
 20
0.2769999999999999
 30
0.0
 11
0.02
 21
0.277
 31
0.0
  0
LINE
  5
12
330
2
100
AcDbEntity
  8
Table
100
AcDbLine
 10
0.02
 20
0.277
 30
0.0
 11
0.02
 21
0.02
 31
0.0
  0
LINE
  5
13
330
2
100
AcDbEntity
  8
Table
 62
     2
100
AcDbLine
 10
0.015
 20
0.015
 30
0.0
 11
0.4050000000000001
 21
0.015
 31
0.0
  0
LINE
  5
14
330
2
100
AcDbEntity
  8
Table
 62
     2
100
AcDbLine
 10
0.4050000000000001
 20
0.015
 30
0.0
 11
0.4050000000000001
 21
0.2819999999999998
 31
0.0
  0
LINE
  5
15
330
2
100
AcDbEntity
  8
Table
 62
     2
100
AcDbLine
 10
0.4050000000000001
 20
0.2819999999999998
 30
0.0
 11
0.0149999999999999
 21
0.282
 31
0.0
  0
LINE
  5
16
330
2
100
AcDbEntity
  8
Table
 62
     2
100
AcDbLine
 10
0.0149999999999999
 20
0.282
 30
0.0
 11
0.015
 21
0.015
 31
0.0
  0
LINE
  5
17
330
2
100
AcDbEntity
  8
Table
100
AcDbLine
 10
0.21
 20
0.2769999999999999
 30
0.0
 11
0.21
 21
0.2532994226089223
 31
0.0
  0
LINE
  5
1D
330
2
100
AcDbEntity
  8
Table
100
AcDbLine
 10
0.02
 20
0.0528099428524846
 30
0.0
 11
0.4
 21
0.0528099428524846
 31
0.0
  0
MTEXT
  5
1E
330
2
100
AcDbEntity
  8
Text
100
AcDbMText
 10
0.1133313047219695
 20
0.2610796890771976
 30
0.0
 40
0.003
 41
0.1103605678262056
 71
     2
 72
     5
  1
{\fTimes New Roman|b0|i0|c0|p18;Le colonne \fTimes New Roman|b0|i1|c0|p18;      Columns}
 73
     1
 44
1.0
1001
ACAD
1000
ACAD_MTEXT_DEFINED_HEIGHT_BEGIN
1070
    46
1040
0.0141952763113409
1000
ACAD_MTEXT_DEFINED_HEIGHT_END
  0
TEXT
  5
1F
330
2
100
AcDbEntity
  8
Text
100
AcDbText
 10
0.2180556919891047
 20
0.269976982173197
 30
0.0
 40
0.003
  1
Colonna - Column : 350 x 350 x H 800 mm
  7
ROMANS
100
AcDbText
  0
TEXT
  5
21
330
2
100
AcDbEntity
  8
Text
100
AcDbText
 10
0.2184542410678115
 20
0.2576348370183962
 30
0.0
 40
0.003
  1
File : 36SR ( COLONNA CORINZIA RIGATA )
  7
ROMANS
100
AcDbText
  0
LINE
  5
22
330
2
100
AcDbEntity
  8
Table
100
AcDbLine
 10
0.4
 20
0.2654452889427402
 30
0.0
 11
0.02
 21
0.2654452889427403
 31
0.0
  0
LINE
  5
23
330
2
100
AcDbEntity
  8
Table
100
AcDbLine
 10
0.4
 20
0.2532994226089223
 30
0.0
 11
0.02
 21
0.2532994226089225
 31
0.0
  0
LINE
  5
24
330
2
100
AcDbEntity
  8
Table
100
AcDbLine
 10
0.21
 20
0.0528099428524846
 30
0.0
 11
0.21
 21
0.02
 31
0.0
  0
TEXT
  5
25
330
2
100
AcDbEntity
  8
Text
100
AcDbText
 10
0.0947789320547719
 20
0.2687784133392506
 30
0.0
 40
0.005
  1
EUROSTYL
  7
style1
 72
     1
 11
0.1140561490699125
 21
0.2687784133392506
 31
0.0
100
AcDbText
  0
MTEXT
  5
10F
330
2
100
AcDbEntity
  8
Text
100
AcDbMText
 10
0.305
 20
0.0471738284815141
 30
0.0
 40
0.005
 41
0.1900000000000001
 71
     2
 72
     5
  3
\pt0.09;{\fTimes New Roman|b0|i0|c238|p18;\H1.6x;\C4;Bovelacci\P\H0.4375x;\T0.95;via del Commercio, 5  47100 Forli - Italy  \fTimes New Roman|b0|i0|c0|p18;\P\fTimes New Roman|b0|i0|c238|p18;tel.+39-0543721386  fax +39-0543721127\fTimes New Roman|b0|i
  1
0|c0|p18; \fTimes New Roman|b0|i0|c238|p18;www.bovelacci.it\fTimes New Roman|b0|i0|c0|p18; \fTimes New Roman|b0|i0|c238|p18;e-mail: bovelacci@bovelacci\fTimes New Roman|b0|i0|c0|p18;.it}
 73
     1
 44
1.0
1001
ACAD
1000
ACAD_MTEXT_DEFINED_HEIGHT_BEGIN
1070
    46
1040
0.0271738284815141
1000
ACAD_MTEXT_DEFINED_HEIGHT_END
  0
MTEXT
  5
110
330
2
100
AcDbEntity
  8
Text
100
AcDbMText
 10
0.0219676065851835
 20
0.0500313976452307
 30
0.0
 40
0.002
 41
0.1863544980601608
 71
     1
 72
     5
  3
{\fArial|b0|i0|c0|p34;\H1.25x;Le caratteristiche tecniche indicate vengono fornite a titolo indicativo e potranno essere modificate senza preavviso. Non devono quindi essere considerate a scopo di specifica.\P\fArial|b0|i1|c0|p34;The given values are
  3
 indicative and can be changed without notice. They cannot be considered like a state.\PThis lealfet and designs embodied within are protected by copyright law and international treaties. Unauthorized repro- duction of the leaflet or any portion of i
  1
t or reproduction of any of the designs embodied therein may result in severe civil penalties and will be prosecuted to the maximum.\PAll right reserved, Bovelacci Forlì Italy.}
 73
     1
 44
1.0
  0
TEXT
  5
1CA
330
2
100
AcDbEntity
  8
Text
100
AcDbText
 10
0.3020323407045702
 20
0.0905146669607496
 30
0.0
 40
0.005
  1
scala 1:6
  7
Arial
100
AcDbText
  0
LWPOLYLINE
  5
31BF
330
2
100
AcDbEntity
  8
0
  6
Continuous
 62
     1
370
     0
100
AcDbPolyline
 90
       52
 70
   129
 43
0.0
 10
0.1711114654959006
 20
0.101325182026103
 10
0.1711114654959006
 20
0.1137579051478866
 42
0.3265156300498512
 10
0.1747957759528985
 20
0.1175424880642231
 10
0.1856009574146339
 20
0.1205007991806217
 42
-0.5462934308230969
 10
0.1904867784087524
 20
0.1293757318620702
 42
-0.2516488839919457
 10
0.1923659397735016
 20
0.1313948964545215
 10
0.1923659397735016
 20
0.133977549228441
 42
-0.8112812201042446
 10
0.1919901077070897
 20
0.1382506652112659
 10
0.1919901077070897
 20
0.1846039072698546
 42
-0.8007191513799314
 10
0.191796861414714
 20
0.1879963230213706
 42
0.1237552028959039
 10
0.1926765602024997
 20
0.1885042173533045
 10
0.1912052857787727
 20
0.2056452523907694
 10
0.1905531652470018
 20
0.206297372922538
 10
0.1904186215212185
 20
0.2065653052260048
 10
0.1869498150483355
 20
0.2067922492816102
 10
0.1864200338613457
 20
0.2070948415783362
 10
0.1859154803991024
 20
0.2077756737451525
 10
0.1850955808938693
 20
0.2082673859769212
 42
-0.6553769846132642
 10
0.1790990656605512
 20
0.2167145549922632
 42
0.2110199460729311
 10
0.1768992119868599
 20
0.2191958103563486
 42
0.0898395180014138
 10
0.1750809373314884
 20
0.2235610940866568
 42
-0.3017670883996293
 10
0.1729594528737098
 20
0.2280080211317804
 42
-0.4502469052324615
 10
0.1740896526704436
 20
0.2287544144843306
 42
0.0983842267423906
 10
0.2139858995386816
 20
0.2360105884571514
 42
-0.0961326970975885
 10
0.2216267824285131
 20
0.2352387283948054
 42
0.0819904518326952
 10
0.2219150202077724
 20
0.2332544604999802
 42
0.1573962916908429
 10
0.2439526837216915
 20
0.2251360689918643
 42
-0.3005892628028119
 10
0.2420088115751633
 20
0.2206876829095334
 42
0.305244834580756
 10
0.2403718669357811
 20
0.2168528677127596
 42
0.2870890953247791
 10
0.2386326131273496
 20
0.2150632874656649
 42
-0.611374115231746
 10
0.2321239303659421
 20
0.2063510658119815
 42
-0.3776471162807607
 10
0.2293301816216302
 20
0.2051495857341366
 42
0.1237136383636191
 10
0.2275666956071669
 20
0.2052729722035368
 42
0.2497157929641012
 10
0.2273198079988735
 20
0.205079078512439
 42
-0.3700516877096065
 10
0.2277576906227836
 20
0.2035405888858746
 42
0.0842107467564301
 10
0.2266095126255443
 20
0.1992851623101828
 42
-0.1638339888494382
 10
0.2267682266043662
 20
0.1967116650781896
 42
0.0547063321655878
 10
0.2264155289883943
 20
0.1944378207004607
 42
0.1224485929576654
 10
0.2265559353367639
 20
0.1937419708005881
 42
-0.1067932883289089
 10
0.2267499189739138
 20
0.1929135161207328
 42
-0.1121516749707425
 10
0.2258505411375195
 20
0.1886126016395843
 42
-0.8573080321674435
 10
0.2268188576121408
 20
0.1845334040546637
 10
0.2268188576121408
 20
0.1379725359937157
 42
-0.8779639311632411
 10
0.2264161165922842
 20
0.1341749572961094
 10
0.2264999250167726
 20
0.131354697141585
 10
0.2282878477110306
 20
0.1299306053803925
 10
0.2282878477110306
 20
0.1292045978158589
 42
-0.5020096845354747
 10
0.2334603935851205
 20
0.1216807322504496
 10
0.2417295355297183
 20
0.1207313377429895
 42
0.4102902273640335
 10
0.2447278086368114
 20
0.1179298881505029
 10
0.2447278086368114
 20
0.1058012290499248
 10
0.2211711715164719
 20
0.0935486392624067
  0
ARC
  5
31C0
330
2
100
AcDbEntity
  8
0
  6
Continuous
 62
     1
370
     0
100
AcDbCircle
 10
0.2100912465739052
 20
0.2241116577891255
 30
0.0
 40
0.087748283599913
100
AcDbArc
 50
258.0952784808058
 51
280.9896561411341
  0
ARC
  5
31C1
330
2
100
AcDbEntity
  8
0
  6
Continuous
 62
     1
370
     0
100
AcDbCircle
 10
0.2088611897705318
 20
0.2254660927922274
 30
0.0
 40
0.0929636857912127
100
AcDbArc
 50
259.7794593769917
 51
280.8848850379088
  0
LWPOLYLINE
  5
31C2
330
2
100
AcDbEntity
  8
0
  6
Continuous
 62
     1
370
     0
100
AcDbPolyline
 90
        4
 70
   128
 43
0.0
 10
0.1904867784087524
 20
0.1293757318620702
 42
0.3877862425418213
 10
0.1917488844350481
 20
0.1273384478304663
 42
0.0899322622117975
 10
0.2257657692078838
 20
0.1272090101962343
 42
0.2673370115826191
 10
0.2282878477110306
 20
0.1292045978158589
 42
-1.295342744674457
  0
LWPOLYLINE
  5
31C3
330
2
100
AcDbEntity
  8
0
  6
Continuous
 62
     1
370
     0
100
AcDbPolyline
 90
        4
 70
   128
 43
0.0
 10
0.1856009574146339
 20
0.1205007991806217
 42
0.2639550332294433
 10
0.1902727047082693
 20
0.1166791774195849
 42
0.0885242694183054
 10
0.2290337463034179
 20
0.1169539511854441
 42
0.3283394128818273
 10
0.2334603935851205
 20
0.1216807322504496
 42
-16.91194667305209
  0
LWPOLYLINE
  5
31C4
330
2
100
AcDbEntity
  8
0
  6
Continuous
 62
     1
370
     0
100
AcDbPolyline
 90
        3
 70
   128
 43
0.0
 10
0.1747957759528985
 20
0.1175424880642231
 10
0.2200307387374416
 20
0.1126262632046483
 10
0.2417295355297183
 20
0.1207313377429895
  0
LWPOLYLINE
  5
31C5
330
2
100
AcDbEntity
  8
0
  6
Continuous
 62
     1
370
     0
100
AcDbPolyline
 90
        3
 70
   128
 43
0.0
 10
0.1711114654959006
 20
0.1137579051478866
 10
0.2214052433703713
 20
0.108161188007054
 10
0.2447278086368114
 20
0.1179298881505029
  0
LWPOLYLINE
  5
31C6
330
2
100
AcDbEntity
  8
0
  6
Continuous
 62
     1
370
     0
100
AcDbPolyline
 90
        3
 70
   128
 43
0.0
 10
0.2211711715164719
 20
0.0935486392624067
 10
0.2214052433703713
 20
0.108161188007054
 42
-0.2574591619078772
 10
0.2200307387374416
 20
0.1126262632046483
 42
-0.8131799407212312
  0
ARC
  5
31C7
330
2
100
AcDbEntity
  8
0
  6
Continuous
 62
     1
370
     0
100
AcDbCircle
 10
0.2091817792297008
 20
0.0745526508175911
 30
0.0
 40
0.1113859623851364
100
AcDbArc
 50
80.88932572748138
 51
98.87870894693833
  0
ARC
  5
31C8
330
2
100
AcDbEntity
  8
0
  6
Continuous
 62
     1
370
     0
100
AcDbCircle
 10
0.2096788974903423
 20
0.0614301331408369
 30
0.0
 40
0.1282064832669817
100
AcDbArc
 50
82.75355102995925
 51
97.62083515459726
  0
LWPOLYLINE
  5
31C9
330
2
100
AcDbEntity
  8
0
  6
Continuous
 62
     1
370
     0
100
AcDbPolyline
 90
        4
 70
   128
 43
0.0
 10
0.1908221023747253
 20
0.1301611402174875
 42
0.3944747122529336
 10
0.1924366990543537
 20
0.1282920585214128
 42
0.0642726241848362
 10
0.2257073826549449
 20
0.1284337313678636
 42
0.1658446072113343
 10
0.2282878477110306
 20
0.1299306053803925
 42
-0.3007332763893182
  0
LWPOLYLINE
  5
31CA
330
2
100
AcDbEntity
  8
0
  6
Continuous
 62
     1
370
     0
100
AcDbPolyline
 90
       39
 70
   129
 43
0.0
 10
0.1973601814301829
 20
0.2230207548492515
 10
0.1971900664901586
 20
0.2220734076681318
 10
0.196363791121297
 20
0.2217090436758983
 10
0.1952701931604219
 20
0.2219276622047898
 10
0.1946626375902739
 20
0.2225106453936713
 10
0.1943224066775309
 20
0.2232879556444249
 10
0.1941036868788174
 20
0.2243567574896192
 10
0.1933746212273342
 20
0.2247939952151539
 10
0.1925240444618239
 20
0.2254498508018282
 10
0.1920623024350512
 20
0.2260814155892397
 10
0.1920380000057054
 20
0.2265186526470273
 10
0.1923296270924561
 20
0.2269315989055427
 10
0.1924025333477942
 20
0.2271016358359041
 10
0.19242683577714
 20
0.227854655287395
 10
0.1928399729452235
 20
0.2282918923451778
 10
0.1934232260860258
 20
0.2284619292755392
 10
0.1936905497107338
 20
0.2285105108740692
 10
0.1939092695094473
 20
0.2293121125918421
 10
0.194225197992847
 20
0.2300408412440657
 10
0.1946626375902739
 20
0.2304294967033184
 10
0.1954160056711005
 20
0.2305509513673979
 10
0.1963394897246482
 20
0.2303809144370365
 10
0.1970928578054747
 20
0.2298465135144417
 10
0.1977733185982663
 20
0.2294578587229361
 10
0.1980649456850148
 20
0.2292878217925748
 10
0.1987697089071521
 20
0.2293606948581241
 10
0.1997417967866921
 20
0.2292635309933121
 10
0.2007624895249237
 20
0.2286562570051679
 10
0.2015401590023991
 20
0.2276603275577663
 10
0.2015644614317449
 20
0.2267615626429333
 10
0.2011756266930048
 20
0.2257656331955363
 10
0.2011270218343155
 20
0.2252069414736741
 10
0.2012485329483452
 20
0.2243081758910892
 10
0.2010541155789776
 20
0.2231422101810781
 10
0.200640978410894
 20
0.2224134815288545
 10
0.1998633079007217
 20
0.2223163176640425
 10
0.1987940113364955
 20
0.2223406084633099
 10
0.1981864557663474
 20
0.2225106453936713
 10
0.1976761099135801
 20
0.2227778455210927
  0
LWPOLYLINE
  5
31CB
330
2
100
AcDbEntity
  8
0
  6
Continuous
 62
     1
370
     0
100
AcDbPolyline
 90
       12
 70
   129
 43
0.0
 10
0.1952701931604219
 20
0.2267372711759187
 10
0.1959506539532135
 20
0.2271016358359041
 10
0.196436698409332
 20
0.2271502174344341
 10
0.1973601814301829
 20
0.2269073081062801
 10
0.1977490172016174
 20
0.2262757433188685
 10
0.1978219234569555
 20
0.2253769777362836
 10
0.1974330876855208
 20
0.2247697037481394
 10
0.1967526268927317
 20
0.2245267944199806
 10
0.1959749563825593
 20
0.22464824908406
 10
0.1954403081004462
 20
0.2250126137440454
 10
0.1950514733617086
 20
0.2255470146666449
 10
0.1949542636443278
 20
0.2262271610525865
  0
LWPOLYLINE
  5
31CC
330
2
100
AcDbEntity
  8
0
  6
Continuous
 62
     1
370
     0
100
AcDbPolyline
 90
        2
 70
   128
 43
0.0
 10
0.1953430994157623
 20
0.2270044719710921
 10
0.1939821757647877
 20
0.2282190199473804
  0
LWPOLYLINE
  5
31CD
330
2
100
AcDbEntity
  8
0
  6
Continuous
 62
     1
370
     0
100
AcDbPolyline
 90
        2
 70
   128
 43
0.0
 10
0.195829142839184
 20
0.2274174182296122
 10
0.1948570549596439
 20
0.22880200246851
  0
LWPOLYLINE
  5
31CE
330
2
100
AcDbEntity
  8
0
  6
Continuous
 62
     1
370
     0
100
AcDbPolyline
 90
        2
 70
   128
 43
0.0
 10
0.196436698409332
 20
0.2276117459592362
 10
0.1959263515238677
 20
0.2291420763292327
  0
LWPOLYLINE
  5
31CF
330
2
100
AcDbEntity
  8
0
  6
Continuous
 62
     1
370
     0
100
AcDbPolyline
 90
        4
 70
   128
 43
0.0
 10
0.197068555376129
 20
0.2273688359633255
 10
0.1970442529467832
 20
0.2284862200748065
 10
0.1973115776041882
 20
0.2289963301981387
 10
0.1977733185982663
 20
0.2291663671285001
  0
LWPOLYLINE
  5
31D0
330
2
100
AcDbEntity
  8
0
  6
Continuous
 62
     1
370
     0
100
AcDbPolyline
 90
        2
 70
   128
 43
0.0
 10
0.1978462258863013
 20
0.22464824908406
 10
0.1988669175918359
 20
0.2233851195092368
  0
LWPOLYLINE
  5
31D1
330
2
100
AcDbEntity
  8
0
  6
Continuous
 62
     1
370
     0
100
AcDbPolyline
 90
        2
 70
   128
 43
0.0
 10
0.1969956491207885
 20
0.2241867212270098
 10
0.1973601814301829
 20
0.2231422101810781
  0
LWPOLYLINE
  5
31D2
330
2
100
AcDbEntity
  8
0
  6
Continuous
 62
     1
370
     0
100
AcDbPolyline
 90
        2
 70
   128
 43
0.0
 10
0.1966797196046943
 20
0.2241381389607278
 10
0.1964853022353267
 20
0.2228021363203553
  0
LWPOLYLINE
  5
31D3
330
2
100
AcDbEntity
  8
0
  6
Continuous
 62
     1
370
     0
100
AcDbPolyline
 90
        2
 70
   128
 43
0.0
 10
0.1959506539532135
 20
0.2244053397559012
 10
0.1954403081004462
 20
0.2232636648451575
  0
LWPOLYLINE
  5
31D4
330
2
100
AcDbEntity
  8
0
  6
Continuous
 62
     1
370
     0
100
AcDbPolyline
 90
        2
 70
   128
 43
0.0
 10
0.1952215883017327
 20
0.2249883222770308
 10
0.1945411264762442
 20
0.2242110120262724
  0
LWPOLYLINE
  5
31D5
330
2
100
AcDbEntity
  8
0
  6
Continuous
 62
     1
370
     0
100
AcDbPolyline
 90
        2
 70
   128
 43
0.0
 10
0.1950271709323628
 20
0.2252069414736741
 10
0.1943224066775309
 20
0.224696831350342
  0
LWPOLYLINE
  5
31D6
330
2
100
AcDbEntity
  8
0
  6
Continuous
 62
     1
370
     0
100
AcDbPolyline
 90
        2
 70
   128
 43
0.0
 10
0.1945897313349358
 20
0.2262271610525865
 10
0.1926941594018481
 20
0.2261299971877698
  0
LWPOLYLINE
  5
31D7
330
2
100
AcDbEntity
  8
0
  6
Continuous
 62
     1
370
     0
100
AcDbPolyline
 90
       55
 70
   128
 43
0.0
 10
0.1974950990005825
 20
0.2219213105517482
 10
0.1981172352021809
 20
0.2190452617558814
 10
0.1972229144769255
 20
0.2192007236724828
 10
0.1966396623688201
 20
0.2189286649845557
 10
0.1968340797381878
 20
0.2185400101930501
 10
0.1972617985704186
 20
0.2178404302328476
 10
0.1973006816312124
 20
0.2172185818986906
 10
0.1973395646920086
 20
0.2160137503756568
 10
0.1973395646920086
 20
0.2148866504786778
 10
0.1969118468924746
 20
0.2147700537073521
 10
0.1963637229633768
 20
0.2144655402893264
 10
0.1961492496096325
 20
0.2139831986154959
 10
0.1961090364366971
 20
0.2134204663288154
 10
0.1961626550333055
 20
0.2126835557164683
 10
0.1963637229633768
 20
0.2123217992941563
 10
0.1968060750945406
 20
0.2118260591848508
 10
0.196966929851674
 20
0.2114643027625388
 10
0.1972785633534024
 20
0.2100986045416072
 10
0.1980506666007269
 20
0.209283983003505
 10
0.1987155347202212
 20
0.2088123600780546
 10
0.1981579037939463
 20
0.2085979857782111
 10
0.1973643524883626
 20
0.2077833642401089
 10
0.1966351432921697
 20
0.2069473052052514
 10
0.1964206699384254
 20
0.2063684954637527
 10
0.1965493541572095
 20
0.2057253732319789
 10
0.1971284321090514
 20
0.2055324364288954
 10
0.1974930367071466
 20
0.2057253732319789
 10
0.1980506666007269
 20
0.2057039357352189
 10
0.198651192610828
 20
0.2055109989321354
 10
0.1991230333694505
 20
0.2052537503065237
 10
0.1991659284532766
 20
0.2050608135034401
 10
0.1991659284532766
 20
0.2042676294621027
 10
0.1982222459033395
 20
0.2048464392035966
 10
0.1973643524883626
 20
0.2048035648778333
 10
0.1968067215620853
 20
0.204331941952378
 10
0.1966351432921697
 20
0.2037531315431275
 10
0.1967209324271275
 20
0.2028741981825019
 10
0.1972571163278378
 20
0.2025955113923831
 10
0.1980506666007269
 20
0.202531199569855
 10
0.1984152711988222
 20
0.2027241357051866
 10
0.1981994904522454
 20
0.202329693510732
 10
0.198242384503377
 20
0.2016436969531899
 10
0.1978240208620472
 20
0.2011502138442263
 10
0.1967259172495655
 20
0.2016990114909102
 10
0.1960670552886168
 20
0.2031807649366353
 10
0.1958474349791988
 20
0.205924753170064
 10
0.1954630986631962
 20
0.2113578498054793
 10
0.1944403446642281
 20
0.2150489628587494
 10
0.1929389072645247
 20
0.2173193162312103
 10
0.1919379503749834
 20
0.2184352526572571
 10
0.1910909859792442
 20
0.2193203059611285
 10
0.1909754903180233
 20
0.2195896696036713
 10
0.1925154255830024
 20
0.2202053592649952
 10
0.1945558392927522
 20
0.2208210482585625
 10
0.197327722769717
 20
0.2213982567317719
  0
LWPOLYLINE
  5
31D8
330
2
100
AcDbEntity
  8
0
  6
Continuous
 62
     1
370
     0
100
AcDbPolyline
 90
      105
 70
   128
 43
0.0
 10
0.1984826731857551
 20
0.221783061935407
 10
0.1990986472917468
 20
0.2190894221711917
 10
0.199759767758326
 20
0.219724786465099
 10
0.200370270642177
 20
0.2199237710942548
 10
0.2008480566302938
 20
0.2198309115561298
 10
0.2012196670364323
 20
0.2194196760771653
 10
0.2012462104155797
 20
0.2188359864071093
 10
0.2010073179378673
 20
0.2178012639316104
 10
0.2007418820810101
 20
0.2170981836176133
 10
0.2010471335229356
 20
0.2174430913320303
 10
0.2015249184783578
 20
0.2174430913320303
 10
0.2016841797859314
 20
0.2169655267530098
 10
0.2016181461208821
 20
0.2161391955231846
 10
0.2014721570192295
 20
0.2156483660590056
 10
0.201405798055014
 20
0.2151575359270746
 10
0.2018968541836603
 20
0.2156085687325223
 10
0.2024011835509245
 20
0.2157810229236091
 10
0.202932055264639
 20
0.2157677567029467
 10
0.2032771222916325
 20
0.2153830523297985
 10
0.2033302100826193
 20
0.2147860971068368
 10
0.2030792371298979
 20
0.2139184567609483
 10
0.2027208978969834
 20
0.2128837349532013
 10
0.2023094719057767
 20
0.2122337168508459
 10
0.2019245892937147
 20
0.2112785883605569
 10
0.2015529788875762
 20
0.2104826485084394
 10
0.2011017373113012
 20
0.2096203795562706
 10
0.2007699424902309
 20
0.2089703621216671
 10
0.2013671731681584
 20
0.2086785172866392
 10
0.2018051435712094
 20
0.2080815620636775
 10
0.2021502105982007
 20
0.2074448101819845
 10
0.2025350932102602
 20
0.2071396997940508
 10
0.2030394215448298
 20
0.2071264335733884
 10
0.2035039353270257
 20
0.2069805111558744
 10
0.2034642199134452
 20
0.2065777948515796
 10
0.2032651430208034
 20
0.2062594189107307
 10
0.2029333481997307
 20
0.206153293151948
 10
0.2021503107696908
 20
0.2061267620461272
 10
0.2018450593277654
 20
0.2062063560313417
 10
0.201526535679919
 20
0.2061930904784313
 10
0.2010620229304176
 20
0.2062859500165516
 10
0.2004117044615009
 20
0.206100230940311
 10
0.2003320732913668
 20
0.2060604336138277
 10
0.2000533652285863
 20
0.2055696041496487
 10
0.1998542883359445
 20
0.2051053057912906
 10
0.1998410161300237
 20
0.2045614127799659
 10
0.200239170948004
 20
0.2050920395706282
 10
0.2006771403183581
 20
0.2052114308823213
 10
0.2013274587872749
 20
0.2052512282088045
 10
0.2021104951846226
 20
0.2049991800325079
 10
0.2024953777966822
 20
0.2045481472270555
 10
0.2025617367608976
 20
0.2038052695865798
 10
0.2023095731099613
 20
0.2033277056753112
 10
0.2017256125725607
 20
0.2031419865990659
 10
0.2012345564439145
 20
0.2032746427959176
 10
0.2009555220492754
 20
0.2033766478596949
 10
0.2007962597090049
 20
0.2032307254421809
 10
0.2009024342582863
 20
0.2031246003511501
 10
0.2010882399777041
 20
0.2030980692453292
 10
0.2011147833568514
 20
0.2019174243523163
 10
0.2009422498433545
 20
0.2018643614729226
 10
0.2011545989419195
 20
0.2016653768437716
 10
0.2019110919601177
 20
0.2017582363818919
 10
0.2028135751126676
 20
0.2023817227106744
 10
0.2034904369607316
 20
0.2036419615889019
 10
0.2038885917787145
 20
0.2048624031406462
 10
0.2042614837602927
 20
0.2068710125838558
 10
0.2045401918230709
 20
0.2086353464791729
 10
0.2049396044644895
 20
0.2124472183993737
 10
0.205271400318257
 20
0.2147289135324378
 10
0.2057242487691354
 20
0.2170020721292919
 10
0.2066947772780769
 20
0.2201106714230438
 10
0.2077432505649766
 20
0.2219811310771435
 10
0.2087651794400318
 20
0.2232811666140976
 10
0.2098800116911469
 20
0.2238117934047598
 10
0.2109682995304177
 20
0.2239444502693634
 10
0.2121627629516668
 20
0.2236128081078569
 10
0.2130121583132276
 20
0.2228301338086499
 10
0.2138748258807095
 20
0.2215300982716911
 10
0.2144069244369869
 20
0.2198679777786443
 10
0.2145529135386419
 20
0.2179179241393348
 10
0.2143505206599091
 20
0.2154159017010794
 10
0.2137961768042416
 20
0.213897763139451
 10
0.2131522992587851
 20
0.2128338866299205
 10
0.2123638783857407
 20
0.2125317984856384
 10
0.2112995088129921
 20
0.2127025439004299
 10
0.2102482813264984
 20
0.2136088090010186
 10
0.2094598594207594
 20
0.2150141763401323
 10
0.209196262795051
 20
0.2161215174678292
 10
0.2090911395300555
 20
0.217697630221725
 10
0.2091831227741876
 20
0.2188403127696048
 10
0.2094459293876368
 20
0.2197334431965966
 10
0.2098269992869473
 20
0.2201274713850729
 10
0.2102343502606812
 20
0.22028508279401
 10
0.2106942633832627
 20
0.2201143373792232
 10
0.2110490522081494
 20
0.2193919516992663
 10
0.2113118598542956
 20
0.21826240449274
 10
0.2113512809495827
 20
0.2172510653421074
 10
0.2112592977054482
 20
0.2164236056121066
 10
0.2109833510711356
 20
0.2158851006882948
 10
0.2106154211926886
 20
0.2158325633293968
 10
0.2102737713559684
 20
0.2160427120972319
 10
0.209892701456658
 20
0.216607485700495
 10
0.2098269992869473
 20
0.2175531534863847
 10
0.2099846836680954
 20
0.2184200159016819
 10
0.2102343502606812
 20
0.2186827013606629
  0
LWPOLYLINE
  5
31D9
330
2
100
AcDbEntity
  8
0
  6
Continuous
 62
     1
370
     0
100
AcDbPolyline
 90
        2
 70
   128
 43
0.0
 10
0.2104840168532671
 20
0.220337619485156
 10
0.2120477196111896
 20
0.2206528423030397
  0
LWPOLYLINE
  5
31DA
330
2
100
AcDbEntity
  8
0
  6
Continuous
 62
     1
370
     0
100
AcDbPolyline
 90
       11
 70
   128
 43
0.0
 10
0.2109176489014248
 20
0.2156486839087603
 10
0.2122316840340646
 20
0.215005104267148
 10
0.2127572982936599
 20
0.2152415210466824
 10
0.2131515092465283
 20
0.215674951920455
 10
0.2134011758391141
 20
0.2165418143357521
 10
0.2134537369552645
 20
0.2176319588569821
 10
0.213361754743827
 20
0.2189191181401973
 10
0.2131777892882574
 20
0.219654637826004
 10
0.212980683811822
 20
0.2201406053909179
 10
0.2126915961239492
 20
0.2204558282088016
 10
0.2121397018226271
 20
0.2206659769766366
  0
LWPOLYLINE
  5
31DB
330
2
100
AcDbEntity
  8
0
  6
Continuous
 62
     1
370
     0
100
AcDbPolyline
 90
       12
 70
   128
 43
0.0
 10
0.212839644420949
 20
0.2205264442740043
 10
0.2122574766433916
 20
0.2213463924664669
 10
0.211437149602113
 20
0.2220605400951679
 10
0.2106962089820763
 20
0.2220869904030451
 10
0.2097435708944992
 20
0.221716691434756
 10
0.2087644710107414
 20
0.2207644937061536
 10
0.2077324454692277
 20
0.218727849380566
 10
0.2071238158954895
 20
0.2169821537673783
 10
0.206618658306224
 20
0.2148842552537561
 10
0.2063011115885687
 20
0.2129005108761709
 10
0.2060100276997887
 20
0.2107316163466916
 10
0.2055072463434733
 20
0.2072666760959548
  0
LWPOLYLINE
  5
31DC
330
2
100
AcDbEntity
  8
0
  6
Continuous
 62
     1
370
     0
100
AcDbPolyline
 90
        3
 70
   128
 43
0.0
 10
0.2064598844310479
 20
0.2078485741885113
 10
0.207386060722444
 20
0.2130063107721853
 10
0.2089737912126373
 20
0.2166035012268138
  0
LWPOLYLINE
  5
31DD
330
2
100
AcDbEntity
  8
0
  6
Continuous
 62
     1
370
     0
100
AcDbPolyline
 90
       11
 70
   128
 43
0.0
 10
0.2053387517030962
 20
0.2060261045050444
 10
0.2049432416189592
 20
0.2041951156469032
 10
0.2044228342113918
 20
0.2028426809756262
 10
0.2036734461400279
 20
0.2016566994119742
 10
0.2030281403763359
 20
0.2010324992567508
 10
0.2023412014830344
 20
0.2006579787629695
 10
0.2015501823474546
 20
0.2004291049052943
 10
0.2009048755510657
 20
0.2005331385983725
 10
0.2003636520950432
 20
0.2008244318705943
 10
0.1999889580593612
 20
0.2013445996682384
 10
0.1998640597032366
 20
0.2017399266335385
  0
LWPOLYLINE
  5
31DE
330
2
100
AcDbEntity
  8
0
  6
Continuous
 62
     1
370
     0
100
AcDbPolyline
 90
        8
 70
   128
 43
0.0
 10
0.2019665084800493
 20
0.2004291049052943
 10
0.2026326302921988
 20
0.200470718516074
 10
0.2035069156869905
 20
0.2008036253990756
 10
0.2040481401757099
 20
0.2012197595036463
 10
0.2046101807128844
 20
0.2019271868804339
 10
0.2051722212500588
 20
0.2028426809756262
 10
0.2055677313341984
 20
0.2037165621277906
 10
0.2057550778356909
 20
0.2043823758937938
  0
LWPOLYLINE
  5
31DF
330
2
100
AcDbEntity
  8
0
  6
Continuous
 62
     1
370
     0
100
AcDbPolyline
 90
       29
 70
   128
 43
0.0
 10
0.197704772384429
 20
0.2175959663790099
 10
0.1981468983552221
 20
0.2179396828246044
 10
0.1983925240092942
 20
0.2179724180103649
 10
0.1983433986719408
 20
0.2177269057865434
 10
0.1982123981165611
 20
0.2162865689648829
 10
0.197868522820477
 20
0.2154518280716452
 10
0.197704772384429
 20
0.2148134969574619
 10
0.1981141484745514
 20
0.2151244788850527
 10
0.1986217742066836
 20
0.2153536231821157
 10
0.1988346499800849
 20
0.2152390510335842
 10
0.1988346499800849
 20
0.2149117018469916
 10
0.1986872750007196
 20
0.2144206773993531
 10
0.1984743992273181
 20
0.2139296536194619
 10
0.1982615234539168
 20
0.2136514068776317
 10
0.1984743992273181
 20
0.2136186716918712
 10
0.1986381496633662
 20
0.2132422200605162
 10
0.1984580237706356
 20
0.2129312381329255
 10
0.1981796482358904
 20
0.2126038889463329
 10
0.1980650231371958
 20
0.2122110693882194
 10
0.1979831479191717
 20
0.2115072685702718
 10
0.1980322732565274
 20
0.2110817144941496
 10
0.1983106487912701
 20
0.2108198350113261
 10
0.1986053997826955
 20
0.2108034677523194
 10
0.1988182745234024
 20
0.21098350960462
 10
0.198932900654794
 20
0.2111799193836791
 10
0.1989820249594504
 20
0.2117691480530953
 10
0.198916525198109
 20
0.2123420094635094
 10
0.1986872750007196
 20
0.2126857259091039
 10
0.1985726488693302
 20
0.2127839307986335
  0
LWPOLYLINE
  5
31E0
330
2
100
AcDbEntity
  8
0
  6
Continuous
 62
     1
370
     0
100
AcDbPolyline
 90
        4
 70
   128
 43
0.0
 10
0.1990802756341594
 20
0.2152881534783513
 10
0.1994405263869262
 20
0.2153863583678762
 10
0.1997680272590223
 20
0.2151081109582988
 10
0.2001282780117914
 20
0.2143388404365774
  0
LWPOLYLINE
  5
31E1
330
2
100
AcDbEntity
  8
0
  6
Continuous
 62
     1
370
     0
100
AcDbPolyline
 90
        8
 70
   128
 43
0.0
 10
0.1993750266255848
 20
0.2155172977754143
 10
0.1990311502968037
 20
0.2163847738544125
 10
0.1987855246427317
 20
0.2170231049685957
 10
0.1986053997826955
 20
0.2176450681560204
 10
0.1987855246427317
 20
0.2180378877141341
 10
0.198932900654794
 20
0.2180215204551274
 10
0.199014775872818
 20
0.2182342974931884
 10
0.1990475257534887
 20
0.2187416885320816
  0
LWPOLYLINE
  5
31E2
330
2
100
AcDbEntity
  8
0
  6
Continuous
 62
     1
370
     0
100
AcDbPolyline
 90
        5
 70
   128
 43
0.0
 10
0.2014790512961305
 20
0.2112544017305359
 10
0.2012170512180704
 20
0.213087557442558
 10
0.2007978500604763
 20
0.2144493306196956
 10
0.2007716495363244
 20
0.2156016000770248
 10
0.2006668495050989
 20
0.2166753058898313
  0
LWPOLYLINE
  5
31E3
330
2
100
AcDbEntity
  8
0
  6
Continuous
 62
     1
370
     0
100
AcDbPolyline
 90
        6
 70
   128
 43
0.0
 10
0.198978863877726
 20
0.2087530176627929
 10
0.1992823432137259
 20
0.2086519047151274
 10
0.1995858225497236
 20
0.2088541312782103
 10
0.2001349760764977
 20
0.2089985779647286
 10
0.2003372956338301
 20
0.2089841331625254
 10
0.2005396151911627
 20
0.2089841331625254
  0
LWPOLYLINE
  5
31E4
330
2
100
AcDbEntity
  8
0
  6
Continuous
 62
     1
370
     0
100
AcDbPolyline
 90
        4
 70
   128
 43
0.0
 10
0.1988921556435399
 20
0.2061385231547285
 10
0.1988054463766591
 20
0.2069040936649372
 10
0.1988343494656194
 20
0.2076696641751412
 10
0.1990800236563934
 20
0.2082907866633278
  0
LWPOLYLINE
  5
31E5
330
2
100
AcDbEntity
  8
0
  6
Continuous
 62
     1
370
     0
100
AcDbPolyline
 90
        2
 70
   128
 43
0.0
 10
0.1981262310149543
 20
0.207337435059996
 10
0.1982851959388476
 20
0.2081318951746063
  0
LWPOLYLINE
  5
31E6
330
2
100
AcDbEntity
  8
0
  6
Continuous
 62
     1
370
     0
100
AcDbPolyline
 90
        5
 70
   128
 43
0.0
 10
0.200655226514309
 20
0.2067018677696063
 10
0.2003661987227904
 20
0.2073085461233416
 10
0.2001638791654579
 20
0.2075974401641301
 10
0.2000916214430561
 20
0.207915223809325
 10
0.2000916214430561
 20
0.208305231465531
  0
LWPOLYLINE
  5
31E7
330
2
100
AcDbEntity
  8
0
  6
Continuous
 62
     1
370
     0
100
AcDbPolyline
 90
        4
 70
   128
 43
0.0
 10
0.1991608341650879
 20
0.2032363719495517
 10
0.1988930055521509
 20
0.2037080422853692
 10
0.1984593786674731
 20
0.204013990701538
 10
0.1982553190177826
 20
0.2041287217749445
  0
LWPOLYLINE
  5
31E8
330
2
100
AcDbEntity
  8
0
  6
Continuous
 62
     1
370
     0
100
AcDbPolyline
 90
        2
 70
   128
 43
0.0
 10
0.1992373569209826
 20
0.2032363719495517
 10
0.1991735879577362
 20
0.2039884952784194
  0
LWPOLYLINE
  5
31E9
330
2
100
AcDbEntity
  8
0
  6
Continuous
 62
     1
370
     0
100
AcDbPolyline
 90
        3
 70
   128
 43
0.0
 10
0.1995689544971636
 20
0.2032746154181033
 10
0.1996582310457067
 20
0.2040012433238571
 10
0.1998367831100981
 20
0.2043709306316961
  0
LWPOLYLINE
  5
31EA
330
2
100
AcDbEntity
  8
0
  6
Continuous
 62
     1
370
     0
100
AcDbPolyline
 90
        3
 70
   128
 43
0.0
 10
0.1984976400454205
 20
0.2029431715788158
 10
0.19872720728041
 20
0.2031088934984595
 10
0.2005765010183549
 20
0.2031598850124487
  0
LWPOLYLINE
  5
31EB
330
2
100
AcDbEntity
  8
0
  6
Continuous
 62
     1
370
     0
100
AcDbPolyline
 90
        2
 70
   128
 43
0.0
 10
0.1984593786674731
 20
0.2017321259595684
 10
0.2007295454974497
 20
0.2018213609421091
  0
LWPOLYLINE
  5
31EC
330
2
100
AcDbEntity
  8
0
  6
Continuous
 62
     1
370
     0
100
AcDbPolyline
 90
       17
 70
   128
 43
0.0
 10
0.2139524907981147
 20
0.2357853805556602
 10
0.2138660479667407
 20
0.2343453408834546
 10
0.2141541897052954
 20
0.2330205043850219
 10
0.2147016578725855
 20
0.2314940623324831
 10
0.2148745425026415
 20
0.2309468472570443
 10
0.2149033567797662
 20
0.230226826753192
 10
0.215191498518321
 20
0.2297948148515261
 10
0.2155948952999853
 20
0.2282683727989873
 10
0.215796594207166
 20
0.2255610982152426
 10
0.2179864679090238
 20
0.2255610982152426
 10
0.2183610514462604
 20
0.2277211577235486
 10
0.2186780074619399
 20
0.2288155878744261
 10
0.2197441295193956
 20
0.2299676196121925
 10
0.2197729437965203
 20
0.2306876401160495
 10
0.2206373679794923
 20
0.2312924567783724
 10
0.2213000922225867
 20
0.2321276797882551
 10
0.221703490036948
 20
0.2331069067653551
  0
LWPOLYLINE
  5
31ED
330
2
100
AcDbEntity
  8
0
  6
Continuous
 62
     1
370
     0
100
AcDbPolyline
 90
       14
 70
   128
 43
0.0
 10
0.179608988108056
 20
0.217574221716521
 10
0.1792857264520601
 20
0.2186081816197179
 10
0.1786392021073687
 20
0.2191897838983281
 10
0.1778956993691473
 20
0.2195128968688911
 10
0.1773784798933943
 20
0.2197390750134301
 10
0.1769259133684575
 20
0.2221301077903867
 10
0.1766026517124593
 20
0.2232610011841037
 10
0.1758268224988296
 20
0.2239072264574729
 10
0.1758268224988296
 20
0.224553451063095
 10
0.1750833197606082
 20
0.2250704310146935
 10
0.1745014483667333
 20
0.2258459009420911
 10
0.1742105131861454
 20
0.2269121720087962
 10
0.1742751651042649
 20
0.2279784430754966
 10
0.1742751651042649
 20
0.2285277341906033
  0
LWPOLYLINE
  5
31EE
330
2
100
AcDbEntity
  8
0
  6
Continuous
 62
     1
370
     0
100
AcDbPolyline
 90
        5
 70
   128
 43
0.0
 10
0.1760309833527048
 20
0.2244776338808301
 10
0.1786342296772775
 20
0.2245132784602256
 10
0.1819685244291943
 20
0.22469150068947
 10
0.1885551075626431
 20
0.225262020962839
 10
0.1920142159896322
 20
0.2256897539123718
  0
LWPOLYLINE
  5
31EF
330
2
100
AcDbEntity
  8
0
  6
Continuous
 62
     1
370
     0
100
AcDbPolyline
 90
        5
 70
   128
 43
0.0
 10
0.2018955850005698
 20
0.2273649857077126
 10
0.2054144844467341
 20
0.2281186869335667
 10
0.2087897555337558
 20
0.2292312932824812
 10
0.2125349485693437
 20
0.2304037922739549
 10
0.2145348971283945
 20
0.2309540382738202
  0
LWPOLYLINE
  5
31F0
330
2
100
AcDbEntity
  8
0
  6
Continuous
 62
     1
370
     0
100
AcDbPolyline
 90
        4
 70
   128
 43
0.0
 10
0.2017519566414271
 20
0.2266112844818586
 10
0.2057017411650243
 20
0.2275444386031188
 10
0.210836462491473
 20
0.2290877313668036
 10
0.2143194551060254
 20
0.2300926661120267
  0
LWPOLYLINE
  5
31F1
330
2
100
AcDbEntity
  8
0
  6
Continuous
 62
     1
370
     0
100
AcDbPolyline
 90
        2
 70
   128
 43
0.0
 10
0.2152776666526247
 20
0.2301755080409261
 10
0.2195675509366043
 20
0.2300166966823964
  0
LWPOLYLINE
  5
31F2
330
2
100
AcDbEntity
  8
0
  6
Continuous
 62
     1
370
     0
100
AcDbPolyline
 90
        2
 70
   128
 43
0.0
 10
0.215136436213037
 20
0.2309695634980802
 10
0.2194263204970166
 20
0.2307048781231115
  0
LWPOLYLINE
  5
31F3
330
2
100
AcDbEntity
  8
0
  6
Continuous
 62
     1
370
     0
100
AcDbPolyline
 90
        5
 70
   128
 43
0.0
 10
0.198875299983329
 20
0.2214904485183097
 10
0.2008519323374832
 20
0.2217726937566066
 10
0.2029854404720075
 20
0.2220549389949034
 10
0.20536994944204
 20
0.2221490211861719
 10
0.2076289579943173
 20
0.2221176602331635
  0
LWPOLYLINE
  5
31F4
330
2
100
AcDbEntity
  8
0
  6
Continuous
 62
     1
370
     0
100
AcDbPolyline
 90
        5
 70
   128
 43
0.0
 10
0.2009774327552385
 20
0.2223685451862039
 10
0.2052130736616723
 20
0.2230271178540661
 10
0.2082250857531732
 20
0.2235916089984117
 10
0.2115194730100978
 20
0.2244697056663059
 10
0.2155982381361638
 20
0.2255046057637287
  0
LWPOLYLINE
  5
31F5
330
2
100
AcDbEntity
  8
0
  6
Continuous
 62
     1
370
     0
100
AcDbPolyline
 90
        6
 70
   128
 43
0.0
 10
0.1775587513962262
 20
0.2197659433338018
 10
0.1818257676652725
 20
0.2199854680015857
 10
0.1854339064829325
 20
0.2203617947633991
 10
0.1900460486426296
 20
0.2208008434312246
 10
0.1943444402742883
 20
0.2212398920990452
 10
0.1962269475733022
 20
0.2215534982903505
  0
LWPOLYLINE
  5
31F6
330
2
100
AcDbEntity
  8
0
  6
Continuous
 62
     1
370
     0
100
AcDbPolyline
 90
       18
 70
   128
 43
0.0
 10
0.1992595216701007
 20
0.2014347728417493
 42
-0.6969890211612863
 10
0.1957615859478867
 20
0.2009510055182931
 42
-0.0031023912712712
 10
0.1939339612650943
 20
0.208105289280609
 42
0.2042074380527084
 10
0.1888053152878083
 20
0.2169499621314058
 42
0.2103675733677307
 10
0.1842513996132057
 20
0.218005454352087
 42
0.4712843350415534
 10
0.1811054582411483
 20
0.2122882060476126
 42
0.3581351055493958
 10
0.1844053972704878
 20
0.210463084054865
 42
0.2709800826645485
 10
0.1864953586901588
 20
0.2122662163202992
 42
0.4461401655355897
 10
0.1851313834232082
 20
0.2147070419971516
 42
0.7646613859064245
 10
0.1849333877630282
 20
0.2143332219747774
 42
-0.5302436139951089
 10
0.184705555456919
 20
0.211997155836969
 42
-1.282212929955851
 10
0.1850213858342201
 20
0.2162463008735372
 42
-0.4412979024662583
 10
0.1874193415357561
 20
0.2112547035542495
 42
-0.6699211494341299
 10
0.1794774887606267
 20
0.2126840151295577
 42
-0.1956855568393625
 10
0.1803794720884279
 20
0.2178075494772409
 42
-0.4124404183914951
 10
0.1894213048842352
 20
0.2183352955875816
 42
-0.1575891902831175
 10
0.1947708031769846
 20
0.209290815437683
 42
-0.018704303524191
 10
0.1958927827154588
 20
0.2032657149572803
 42
0.8630923180374331
  0
LWPOLYLINE
  5
31F7
330
2
100
AcDbEntity
  8
0
  6
Continuous
 62
     1
370
     0
100
AcDbPolyline
 90
       44
 70
   128
 43
0.0
 10
0.1963574772194143
 20
0.1890354539928077
 10
0.1968755806827375
 20
0.1898018919123216
 10
0.1972071658665693
 20
0.1904233282437515
 10
0.197041372758306
 20
0.1913140527617956
 10
0.1968548565442063
 20
0.1916869145606517
 10
0.1964610979120794
 20
0.191873345460082
 10
0.1956735806478257
 20
0.1914176257062854
 10
0.1962124082496823
 20
0.1921012056708539
 10
0.1965854427432756
 20
0.1927226413345318
 10
0.1967097875744742
 20
0.1935512228871844
 10
0.1964818220506106
 20
0.193758368108412
 10
0.1959637185872874
 20
0.1937376537866148
 10
0.195549236849324
 20
0.1935926521985307
 10
0.1963160289423473
 20
0.194131229907268
 10
0.1964196496350125
 20
0.1947112369273515
 10
0.1964610979120794
 20
0.1954569605250682
 10
0.1961502358340842
 20
0.1958505366457214
 10
0.1954248920181254
 20
0.1957676780230289
 10
0.1954870644337235
 20
0.1959748239120084
 10
0.1959637185872874
 20
0.1964719723093993
 10
0.1962538565267493
 20
0.1973212681838491
 10
0.1959637185872874
 20
0.1976941299827052
 10
0.195507788572257
 20
0.1977148449722542
 10
0.1950933058015967
 20
0.1975698427164229
 10
0.1957772013404908
 20
0.1981498497365017
 10
0.1961502358340842
 20
0.1987920003897287
 10
0.1959637185872874
 20
0.1991027185554413
 10
0.196004113514677
 20
0.1997771483200989
 10
0.1957346997137488
 20
0.2003985839837768
 10
0.1952787696987184
 20
0.2007300164712865
 10
0.1944912524344646
 20
0.2007093021494894
 10
0.1939731500038361
 20
0.2005228712500637
 10
0.1936622879258407
 20
0.2001292951294058
 10
0.1940767706965012
 20
0.2010200203152066
 10
0.1942218396662308
 20
0.2013721671245135
 10
0.1947606662353929
 20
0.2018278868783102
 10
0.1950508041748546
 20
0.2024078938983937
 10
0.1950922524519216
 20
0.2030914738629669
 10
0.1948435627895244
 20
0.2035471936167636
 10
0.1942011155276974
 20
0.2036300515717043
 10
0.1946777696812613
 20
0.203982199048763
 10
0.1946570455427278
 20
0.2044172038130106
 10
0.194366908635963
 20
0.2048729242345591
 10
0.1945948731271296
 20
0.2052250710438661
  0
LWPOLYLINE
  5
31F8
330
2
100
AcDbEntity
  8
0
  6
Continuous
 62
     1
370
     0
100
AcDbPolyline
 90
       34
 70
   128
 43
0.0
 10
0.1941596672506327
 20
0.2066958032497456
 10
0.193931701726769
 20
0.2067579468828891
 10
0.1933099775707808
 20
0.2067993755264835
 10
0.1930405648025472
 20
0.2066958032497456
 10
0.1934343224019771
 20
0.2072136666366858
 10
0.1936001155102427
 20
0.2077729586672202
 10
0.1933928741249125
 20
0.2082908220541603
 10
0.1930405648025472
 20
0.2084358243099963
 10
0.192936944109882
 20
0.208663683853021
 10
0.192936944109882
 20
0.2091815472399611
 10
0.1927089785860183
 20
0.209782269249589
 10
0.1920665302914967
 20
0.210175845370247
 10
0.1916727726920667
 20
0.2099894144708166
 10
0.1911546692287412
 20
0.209409407450733
 10
0.1909474278434111
 20
0.2094508360943274
 10
0.1908023588736813
 20
0.2096579819833068
 10
0.1904086012742491
 20
0.2092022622295055
 10
0.1904086012742491
 20
0.2089536876969364
 10
0.1900977391962537
 20
0.2091815472399611
 10
0.1897454288411938
 20
0.2095129797274708
 10
0.1891237057179003
 20
0.209782269249589
 10
0.1883983608692446
 20
0.2096994106269012
 10
0.187963153960053
 20
0.2093679781393868
 10
0.1876522929147547
 20
0.2090365456518771
 10
0.1875279480835561
 20
0.2086222552094266
 10
0.1874864998064891
 20
0.2090365456518771
 10
0.1871134653128957
 20
0.2090158313300799
 10
0.1869683963431661
 20
0.2087879711193032
 10
0.1869476722046326
 20
0.2086429695312238
 10
0.186823327373434
 20
0.2088086854411004
 10
0.1863673973584036
 20
0.2087258274861597
 10
0.1860565352804107
 20
0.2085601115762832
 10
0.1857871214794799
 20
0.2082908220541603
 10
0.1857249490638818
 20
0.208145820466081
  0
LWPOLYLINE
  5
31F9
330
2
100
AcDbEntity
  8
0
  6
Continuous
 62
     1
370
     0
100
AcDbPolyline
 90
        4
 70
   128
 43
0.0
 10
0.1876315687762212
 20
0.2075865284355465
 10
0.1871756377284962
 20
0.2078143879785665
 10
0.1870305687587641
 20
0.2081872497774272
 10
0.1869062239275656
 20
0.2084565386317935
  0
LWPOLYLINE
  5
31FA
330
2
100
AcDbEntity
  8
0
  6
Continuous
 62
     1
370
     0
100
AcDbPolyline
 90
        4
 70
   128
 43
0.0
 10
0.1899319460879906
 20
0.2071100936922007
 10
0.1886263263931083
 20
0.2074415261797105
 10
0.1879424308542165
 20
0.2077315300236258
 10
0.1876315687762212
 20
0.2083736806768528
  0
LWPOLYLINE
  5
31FB
330
2
100
AcDbEntity
  8
0
  6
Continuous
 62
     1
370
     0
100
AcDbPolyline
 90
        3
 70
   128
 43
0.0
 10
0.1906365657654158
 20
0.2070686650486064
 10
0.1908230830122125
 20
0.2078143879785665
 10
0.1905951174883511
 20
0.2088708290742439
  0
LWPOLYLINE
  5
31FC
330
2
100
AcDbEntity
  8
0
  6
Continuous
 62
     1
370
     0
100
AcDbPolyline
 90
        3
 70
   128
 43
0.0
 10
0.1924188406465566
 20
0.2074000975361161
 10
0.1926260820318868
 20
0.2080008188779968
 10
0.1928747716942839
 20
0.2082493934105659
  0
LWPOLYLINE
  5
31FD
330
2
100
AcDbEntity
  8
0
  6
Continuous
 62
     1
370
     0
100
AcDbPolyline
 90
        2
 70
   128
 43
0.0
 10
0.1918178416617964
 20
0.2076072427573437
 10
0.1917763933847294
 20
0.2088086854411004
  0
LWPOLYLINE
  5
31FE
330
2
100
AcDbEntity
  8
0
  6
Continuous
 62
     1
370
     0
100
AcDbPolyline
 90
        4
 70
   128
 43
0.0
 10
0.1927912596534781
 20
0.2014717215399886
 10
0.1928948803461432
 20
0.203646748032234
 10
0.1932679148397366
 20
0.205303911137544
 10
0.1935787769177318
 20
0.2058424888462812
  0
LWPOLYLINE
  5
31FF
330
2
100
AcDbEntity
  8
0
  6
Continuous
 62
     1
370
     0
100
AcDbPolyline
 90
        3
 70
   128
 43
0.0
 10
0.1921280882531174
 20
0.2044546152630941
 10
0.1922731572228495
 20
0.2057182015799943
 10
0.1924803975754827
 20
0.2062360649669344
  0
LWPOLYLINE
  5
3200
330
2
100
AcDbEntity
  8
0
  6
Continuous
 62
     1
370
     0
100
AcDbPolyline
 90
        4
 70
   128
 43
0.0
 10
0.1931021217314733
 20
0.2010988604088798
 10
0.1934129838094662
 20
0.2025074483138688
 10
0.1937445689932982
 20
0.2034396028110112
 10
0.1939518103786283
 20
0.2036260337104368
  0
LWPOLYLINE
  5
3201
330
2
100
AcDbEntity
  8
0
  6
Continuous
 62
     1
370
     0
100
AcDbPolyline
 90
        5
 70
   128
 43
0.0
 10
0.1934756818672085
 20
0.1949428418889954
 10
0.1937243715296033
 20
0.1966207193160979
 10
0.194055957746132
 20
0.1978221626676112
 10
0.1946362325923587
 20
0.199044320340917
 10
0.1947191291464927
 20
0.1992721798839418
  0
LWPOLYLINE
  5
3202
330
2
100
AcDbEntity
  8
0
  6
Continuous
 62
     1
370
     0
100
AcDbPolyline
 90
        5
 70
   128
 43
0.0
 10
0.1945129235550107
 20
0.1890964564384986
 10
0.1944093028623457
 20
0.1909193354536899
 10
0.1945129235550107
 20
0.1928872160569605
 10
0.1948652339100707
 20
0.194482235529127
 10
0.1952382684036641
 20
0.1951243861823493
  0
LWPOLYLINE
  5
3203
330
2
100
AcDbEntity
  8
0
  6
Continuous
 62
     1
370
     0
100
AcDbPolyline
 90
        3
 70
   128
 43
0.0
 10
0.1947823373559391
 20
0.1917272020167934
 10
0.1950724752954008
 20
0.1929907890014503
 10
0.1953626132348627
 20
0.1934257944334497
  0
LWPOLYLINE
  5
3204
330
2
100
AcDbEntity
  8
0
  6
Continuous
 62
     1
370
     0
100
AcDbPolyline
 90
        3
 70
   128
 43
0.0
 10
0.1927713069386777
 20
0.1949416466136615
 10
0.1930199966010749
 20
0.1985045473568506
 10
0.1931443414322711
 20
0.2001617097944087
  0
LWPOLYLINE
  5
3205
330
2
100
AcDbEntity
  8
0
  6
Continuous
 62
     1
370
     0
100
AcDbPolyline
 90
        2
 70
   128
 43
0.0
 10
0.1921496870849604
 20
0.1996905963634128
 10
0.1920667915635232
 20
0.2021970553431726
  0
LWPOLYLINE
  5
3206
330
2
100
AcDbEntity
  8
0
  6
Continuous
 62
     1
370
     0
100
AcDbPolyline
 90
        3
 70
   128
 43
0.0
 10
0.1924812733014891
 20
0.1957134051777733
 10
0.1925434457170871
 20
0.1987377275444733
 10
0.1926056181326853
 20
0.2010370413030055
  0
LWPOLYLINE
  5
3207
330
2
100
AcDbEntity
  8
0
  6
Continuous
 62
     1
370
     0
100
AcDbPolyline
 90
       37
 70
   128
 43
0.0
 10
0.2017202890259128
 20
0.2000670967406338
 10
0.2027810844386344
 20
0.1996283498965267
 10
0.2033663513361705
 20
0.1994455388784173
 10
0.2036589842685914
 20
0.1990067920343101
 10
0.203585826035485
 20
0.1985132014173405
 10
0.2034577986112032
 20
0.1981292976783392
 10
0.2037504325763211
 20
0.1975260208511579
 10
0.2038784589679058
 20
0.1968313381810482
 10
0.2036772743432147
 20
0.1965022782149046
 10
0.2032566139865122
 20
0.1963925913369411
 10
0.2026896361309047
 20
0.1963925913369411
 10
0.2023970031984841
 20
0.1963925913369411
 10
0.2022689757742023
 20
0.1962646234239422
 10
0.2019214736506039
 20
0.1962646234239422
 10
0.2018117363009479
 20
0.1959538444928339
 10
0.2016837099093608
 20
0.1953322859628654
 10
0.2015373924104558
 20
0.1951311939097207
 10
0.2012996286692104
 20
0.1951311939097207
 10
0.2011350221283767
 20
0.195149474944756
 10
0.201080152937199
 20
0.1944547922746464
 10
0.2009704155875429
 20
0.1939063585525709
 10
0.2005680453054638
 20
0.1934310489706413
 10
0.2000376465664084
 20
0.1933213627604249
 10
0.19969014444281
 20
0.1934493306734285
 10
0.1992694840861076
 20
0.1940891695706804
 10
0.1990134302702411
 20
0.1946193222577158
 10
0.1989585610790634
 20
0.194856977048683
 10
0.198739086379749
 20
0.1949118201537888
 10
0.1986293490300907
 20
0.1952957238927901
 10
0.198537900722361
 20
0.1956430648939737
 10
0.1983001369811179
 20
0.1956979086668315
 10
0.1977514492001338
 20
0.1957893138420079
 10
0.1976051327339234
 20
0.1958990007199714
 10
0.1973673679599833
 20
0.1959172817550068
 10
0.1970015757617616
 20
0.1958258765798303
 10
0.1967272318712695
 20
0.1958258765798303
 10
0.1964711780554031
 20
0.1958624386499009
  0
LWPOLYLINE
  5
3208
330
2
100
AcDbEntity
  8
0
  6
Continuous
 62
     1
370
     0
100
AcDbPolyline
 90
        4
 70
   128
 43
0.0
 10
0.1995621180512253
 20
0.2011091210796742
 10
0.1992146159276268
 20
0.1986228882953088
 10
0.1987756654963011
 20
0.1974163339731943
 10
0.1983184260230466
 20
0.1958990007199714
  0
LWPOLYLINE
  5
3209
330
2
100
AcDbEntity
  8
0
  6
Continuous
 62
     1
370
     0
100
AcDbPolyline
 90
        3
 70
   128
 43
0.0
 10
0.1970930240694912
 20
0.1975991456590556
 10
0.1980989513237299
 20
0.1984949203823052
 10
0.198537900722361
 20
0.1992261651224901
  0
LWPOLYLINE
  5
320A
330
2
100
AcDbEntity
  8
0
  6
Continuous
 62
     1
370
     0
100
AcDbPolyline
 90
        3
 70
   128
 43
0.0
 10
0.1968735493701769
 20
0.1985314824523805
 10
0.1978794755917185
 20
0.1988971051563465
 10
0.1981355304402842
 20
0.1992444461575254
  0
LWPOLYLINE
  5
320B
330
2
100
AcDbEntity
  8
0
  6
Continuous
 62
     1
370
     0
100
AcDbPolyline
 90
        6
 70
   128
 43
0.0
 10
0.2017202890259128
 20
0.1962829044589775
 10
0.2010252847787183
 20
0.1968313381810482
 10
0.2006594925804965
 20
0.1974528960432649
 10
0.2002571222984197
 20
0.1983121093642005
 10
0.199964488333302
 20
0.1994455388784173
 10
0.1997998828251652
 20
0.2003413136016716
  0
LWPOLYLINE
  5
320C
330
2
100
AcDbEntity
  8
0
  6
Continuous
 62
     1
370
     0
100
AcDbPolyline
 90
        2
 70
   128
 43
0.0
 10
0.2007692299301549
 20
0.1998477236524586
 10
0.202707926205528
 20
0.1983852335043416
  0
LWPOLYLINE
  5
320D
330
2
100
AcDbEntity
  8
0
  6
Continuous
 62
     1
370
     0
100
AcDbPolyline
 90
       13
 70
   128
 43
0.0
 10
0.2025250306227657
 20
0.199427257843382
 10
0.2030737173710553
 20
0.1990433541043806
 10
0.2030188492125722
 20
0.198641169330344
 10
0.2028542426717385
 20
0.1985314824523805
 10
0.2027993734805632
 20
0.1981475793811263
 10
0.2029456909794681
 20
0.1979647676952697
 10
0.2030005591379489
 20
0.1975808639562684
 10
0.2029639800213968
 20
0.1972700850251601
 10
0.202707926205528
 20
0.1969410250590165
 10
0.2023787131238607
 20
0.1968861812861541
 10
0.2019946318837102
 20
0.1970507119369801
 10
0.2017385780678416
 20
0.1970872740070507
 10
0.2016837099093608
 20
0.1967033702680494
  0
LWPOLYLINE
  5
320E
330
2
100
AcDbEntity
  8
0
  6
Continuous
 62
     1
370
     0
100
AcDbPolyline
 90
        2
 70
   128
 43
0.0
 10
0.2009155474290623
 20
0.195149474944756
 10
0.2004765969977341
 20
0.1956065028238984
  0
LWPOLYLINE
  5
320F
330
2
100
AcDbEntity
  8
0
  6
Continuous
 62
     1
370
     0
100
AcDbPolyline
 90
       59
 70
   128
 43
0.0
 10
0.2039146177772837
 20
0.1896867828915165
 10
0.2032591193064288
 20
0.1906695763298128
 10
0.2032122979133173
 20
0.1913247715101757
 10
0.2033527620926495
 20
0.1919799666905385
 10
0.2036336904513163
 20
0.19230756428072
 10
0.2036805118444255
 20
0.1928691607219585
 10
0.2036336904513163
 20
0.1935243559023213
 10
0.2040082605635068
 20
0.1937583547533784
 10
0.2039614391703952
 20
0.1942263511199936
 10
0.2040082605635068
 20
0.1951155451514182
 10
0.2042891889221712
 20
0.1959579391455289
 10
0.2050383301792469
 20
0.1957239409622189
 10
0.205506543077658
 20
0.1961451379592719
 10
0.2047574018205824
 20
0.197081131360254
 10
0.2046169376412502
 20
0.1978767253170553
 10
0.2052724361121052
 20
0.1982043235749839
 10
0.2057874714363224
 20
0.1982043235749839
 10
0.2052724361121052
 20
0.1988127193857893
 10
0.2047574018205824
 20
0.1989999175317804
 10
0.204804223213694
 20
0.1996551133798952
 10
0.2050383301792469
 20
0.1999827109700767
 10
0.2048510446068032
 20
0.2004039079671343
 10
0.2050851515723584
 20
0.2016206995887357
 10
0.2054597216845488
 20
0.2018078984024834
 10
0.2060215784018777
 20
0.2017142989956072
 10
0.2063493271209568
 20
0.2021354959926649
 10
0.2062556843347361
 20
0.2025566929897179
 10
0.206489791300289
 20
0.2029778899867708
 10
0.2071921111642554
 20
0.2031182887632092
 10
0.2074730395229198
 20
0.2032586882073948
 10
0.2071921111642554
 20
0.2036798852044478
 10
0.2058811142225455
 20
0.2040074827946292
 10
0.2057406500432133
 20
0.2047094780123014
 10
0.206162041548513
 20
0.2049902762329254
 10
0.2065366126934005
 20
0.2052242744162306
 10
0.2063691383564365
 20
0.2054899440570325
 10
0.2062238690437289
 20
0.2057158137003436
 10
0.2056427917928939
 20
0.2061514201087625
 10
0.2052715479937497
 20
0.2065547594252852
 10
0.2053683942022222
 20
0.2069419651958575
 10
0.2056912148971314
 20
0.2072807703285736
 10
0.2063852793911823
 20
0.2076679760991459
 10
0.2072407542326891
 20
0.2081197160535199
 10
0.2085481780470666
 20
0.2079906476859116
 10
0.2084228356317618
 20
0.2084410147430373
 10
0.2082113880765983
 20
0.2087580391546802
 10
0.2080763383211411
 20
0.2091662176669124
 10
0.2081760533584362
 20
0.2095506516006682
 10
0.2083612363623105
 20
0.2099350855344287
 10
0.2083897263729659
 20
0.210248328468868
 10
0.2082900123683654
 20
0.2107751457367605
 10
0.2082187873417258
 20
0.2114585841379943
 10
0.2084467053615844
 20
0.2118999712718573
 10
0.2088455624126832
 20
0.2120993078060917
 10
0.2097714805301387
 20
0.2121562610061941
 10
0.2105976846429915
 20
0.2120565924052033
 10
0.2109680516834348
 20
0.2119996392051008
 10
0.2111674796926357
 20
0.2121420225392329
 10
0.2111532346873091
 20
0.212597648140057
  0
LWPOLYLINE
  5
3210
330
2
100
AcDbEntity
  8
0
  6
Continuous
 62
     1
370
     0
100
AcDbPolyline
 90
       10
 70
   128
 43
0.0
 10
0.2129070164597061
 20
0.2123800265642758
 10
0.2137493068744305
 20
0.2122041074102364
 10
0.2143904529395972
 20
0.212241804657997
 10
0.2149938839228761
 20
0.2119025314314212
 10
0.2157230311573233
 20
0.2117643088573857
 10
0.2164647483645731
 20
0.2117391773588802
 10
0.2173070387792975
 20
0.2118648341836606
 10
0.2177218974512152
 20
0.2119276622621748
 10
0.218224757292411
 20
0.2119653595099307
 10
0.21845104468566
 20
0.2120156225069464
  0
LWPOLYLINE
  5
3211
330
2
100
AcDbEntity
  8
0
  6
Continuous
 62
     1
370
     0
100
AcDbPolyline
 90
       71
 70
   128
 43
0.0
 10
0.2176972955400984
 20
0.2117277000447048
 10
0.218251096197795
 20
0.2115220973296313
 10
0.2187416049976897
 20
0.2113639423709061
 10
0.2190422392568662
 20
0.2111267089311883
 10
0.2188840106450525
 20
0.2105731649062635
 10
0.2186308452792292
 20
0.2099405424003461
 10
0.2184093248096111
 20
0.2096400475113397
 10
0.2182352732333439
 20
0.2092446584451447
 10
0.2183618559162579
 20
0.2088809007713413
 10
0.2183460329518069
 20
0.2083748031672613
 10
0.2189973985742264
 20
0.2078294471122226
 10
0.2194720844096677
 20
0.2077187379065903
 10
0.2199309472806579
 20
0.2073707959289873
 10
0.219978416174011
 20
0.2071019317646252
 10
0.2200100621029133
 20
0.2067856205116664
 10
0.2196303130214814
 20
0.20602647443942
 10
0.2194562614452167
 20
0.2058050566958979
 10
0.2196461359859325
 20
0.2056469010694208
 10
0.2197252497754909
 20
0.2053938526012544
 10
0.2196144900570304
 20
0.20501427923126
 10
0.219313855797854
 20
0.2045714437442156
 10
0.2194879073741187
 20
0.2043025795798535
 10
0.2196936048792857
 20
0.2039071905136586
 10
0.2197885416332952
 20
0.2035592485360556
 10
0.2196303130214814
 20
0.2032113065584526
 10
0.2193929695874124
 20
0.202958257422539
 10
0.2191714501504912
 20
0.2024363447900105
 10
0.2185227127387828
 20
0.2021991113502925
 10
0.2184119519876253
 20
0.2020251400276151
 10
0.2186492954216944
 20
0.2016613830215636
 10
0.2188767425322855
 20
0.2013221264887762
 10
0.2189433111337395
 20
0.2012334096814649
 10
0.2192761510429212
 20
0.2013775739090658
 10
0.2195091385662703
 20
0.2013775739090658
 10
0.2200083994627385
 20
0.2011890516116829
 10
0.2204189022239364
 20
0.2009672612627822
 10
0.2206186059629045
 20
0.2006678434570731
 10
0.2206629850305422
 20
0.2002686201613018
 10
0.2205409431108908
 20
0.1998028594269768
 10
0.2205631326447071
 20
0.1994147254817083
 10
0.2204743755421312
 20
0.1991153076760039
 10
0.2203523336224823
 20
0.1988491592573213
 10
0.2197536344511809
 20
0.1984023513161254
 10
0.2195983097798456
 20
0.1981472922479501
 10
0.2199089601552109
 20
0.1981472922479501
 10
0.2203416524502251
 20
0.1980253067213644
 10
0.2206190190412094
 20
0.1975262779355168
 10
0.2205080724048147
 20
0.1971492333407559
 10
0.220175232495633
 20
0.1967167413257101
 10
0.2197536344511809
 20
0.196439502888768
 10
0.2196870668824214
 20
0.1962620706096446
 10
0.2199755287566648
 20
0.19622880189037
 10
0.2203194629164062
 20
0.1962398912408776
 10
0.2207743447452393
 20
0.196084637662774
 10
0.2209074809154503
 20
0.1956743250164905
 10
0.2209298955769453
 20
0.195259710046771
 10
0.2208189489405506
 20
0.194771769943679
 10
0.2204528242142936
 20
0.1943060092093587
 10
0.2206192441688854
 20
0.1941507562990023
 10
0.2208966117925668
 20
0.1939733233521317
 10
0.2210741259977185
 20
0.1935962787573708
 10
0.2209964631457024
 20
0.1930307125329789
 10
0.2207856651561721
 20
0.1927978321658188
 10
0.2207080023041583
 20
0.1926425785877104
 10
0.220180851393269
 20
0.1918551772750633
 10
0.220690678832766
 20
0.1921736720756913
 10
0.2212642349603713
 20
0.1916003813010096
 10
0.2214235561643014
 20
0.1908996922054275
 10
0.2210730499287343
 20
0.190103454536108
 10
0.2207544075208765
 20
0.1895620135085893
 10
0.2206588150050569
 20
0.1892435180402094
  0
LWPOLYLINE
  5
3212
330
2
100
AcDbEntity
  8
0
  6
Continuous
 62
     1
370
     0
100
AcDbPolyline
 90
        4
 70
   128
 43
0.0
 10
0.2053543268205669
 20
0.1896935405375181
 10
0.2051019370092574
 20
0.1910179703752342
 10
0.2045025128855333
 20
0.1918378551312981
 10
0.2039030897945039
 20
0.1922162632747853
  0
LWPOLYLINE
  5
3213
330
2
100
AcDbEntity
  8
0
  6
Continuous
 62
     1
370
     0
100
AcDbPolyline
 90
        5
 70
   128
 43
0.0
 10
0.2064269796460152
 20
0.1897881429072671
 10
0.2060799443009014
 20
0.1915540486898032
 10
0.2056382644546773
 20
0.1928469446268552
 10
0.2049126459416459
 20
0.1935722270131702
 10
0.2045025128855333
 20
0.1938875673553292
  0
LWPOLYLINE
  5
3214
330
2
100
AcDbEntity
  8
0
  6
Continuous
 62
     1
370
     0
100
AcDbPolyline
 90
       14
 70
   128
 43
0.0
 10
0.2088877728192202
 20
0.1900404154480931
 10
0.2085722863296068
 20
0.1920901276721242
 10
0.2086984807189141
 20
0.1928154100584392
 10
0.2080990565951878
 20
0.1932253527703471
 10
0.2083198975509966
 20
0.1939821697250781
 10
0.2083198975509966
 20
0.1949597246522191
 10
0.2076258278934657
 20
0.1955904053365371
 10
0.2071525981590443
 20
0.1955904053365371
 10
0.2067109172801258
 20
0.1952119971930452
 10
0.2065216251798199
 20
0.1946128504093961
 10
0.2063954307905147
 20
0.1948966568508862
 10
0.2063007852567078
 20
0.1955904053365371
 10
0.2060799443009014
 20
0.1959372795793602
 10
0.2057013611329839
 20
0.1961264836511062
  0
LWPOLYLINE
  5
3215
330
2
100
AcDbEntity
  8
0
  6
Continuous
 62
     1
370
     0
100
AcDbPolyline
 90
        6
 70
   128
 43
0.0
 10
0.2091401615978326
 20
0.1909233680054852
 10
0.2087615784299151
 20
0.1937929656533321
 10
0.2084460919403017
 20
0.1951804626246292
 10
0.2078151189610748
 20
0.1961895521201863
 10
0.2068686605249337
 20
0.1973563111190733
 10
0.2060799443009014
 20
0.1979869918033913
  0
LWPOLYLINE
  5
3216
330
2
100
AcDbEntity
  8
0
  6
Continuous
 62
     1
370
     0
100
AcDbPolyline
 90
        4
 70
   128
 43
0.0
 10
0.2080990565951878
 20
0.1963472222912681
 10
0.2075311813269642
 20
0.1977347199303124
 10
0.2067424661356263
 20
0.1987122748574581
 10
0.2055436178881759
 20
0.1996267619832663
  0
LWPOLYLINE
  5
3217
330
2
100
AcDbEntity
  8
0
  6
Continuous
 62
     1
370
     0
100
AcDbPolyline
 90
        4
 70
   128
 43
0.0
 10
0.2102443632787816
 20
0.1916486510595522
 10
0.2098657801108641
 20
0.1948966568508862
 10
0.2092979048426382
 20
0.1968202328045043
 10
0.2089193216747207
 20
0.1978608562007302
  0
LWPOLYLINE
  5
3218
330
2
100
AcDbEntity
  8
0
  6
Continuous
 62
     1
370
     0
100
AcDbPolyline
 90
        7
 70
   128
 43
0.0
 10
0.2106860441577001
 20
0.1921216615727883
 10
0.2105598497683951
 20
0.1971671070473273
 10
0.2102128154559757
 20
0.1996267619832663
 10
0.209486287137979
 20
0.2015295494946626
 10
0.20901305740356
 20
0.2025071044218036
 10
0.2079404045781115
 20
0.2042099424030116
 10
0.2070570428202745
 20
0.2049982932584067
  0
LWPOLYLINE
  5
3219
330
2
100
AcDbEntity
  8
0
  6
Continuous
 62
     1
370
     0
100
AcDbPolyline
 90
       10
 70
   128
 43
0.0
 10
0.2096440303827869
 20
0.1984707477750698
 10
0.2094547382824785
 20
0.1998897793147875
 10
0.2088868630142549
 20
0.2008673342419286
 10
0.2082243422122245
 20
0.2014980149262418
 10
0.2077195646549995
 20
0.2012772769538317
 10
0.207561821410194
 20
0.2007727325399316
 10
0.207782661333306
 20
0.1997951769450386
 10
0.2072463349205805
 20
0.2010250044130057
 10
0.2069939461419681
 20
0.2015295494946626
 10
0.2064260708737446
 20
0.2017187535664085
  0
LWPOLYLINE
  5
321A
330
2
100
AcDbEntity
  8
0
  6
Continuous
 62
     1
370
     0
100
AcDbPolyline
 90
        2
 70
   128
 43
0.0
 10
0.2084767309908369
 20
0.2018448898368216
 10
0.2076249180884981
 20
0.2028855125652908
  0
LWPOLYLINE
  5
321B
330
2
100
AcDbEntity
  8
0
  6
Continuous
 62
     1
370
     0
100
AcDbPolyline
 90
        3
 70
   128
 43
0.0
 10
0.2114902353277106
 20
0.191472986318864
 10
0.2114902353277106
 20
0.1971089258520662
 10
0.210974029959196
 20
0.2009985173787922
  0
LWPOLYLINE
  5
321C
330
2
100
AcDbEntity
  8
0
  6
Continuous
 62
     1
370
     0
100
AcDbPolyline
 90
        2
 70
   128
 43
0.0
 10
0.211450527143004
 20
0.2014351040465329
 10
0.2107357818836392
 20
0.2046102815116769
  0
LWPOLYLINE
  5
321D
330
2
100
AcDbEntity
  8
0
  6
Continuous
 62
     1
370
     0
100
AcDbPolyline
 90
        5
 70
   128
 43
0.0
 10
0.2097827875160254
 20
0.2041736948439315
 10
0.209068042256663
 20
0.2056819039395491
 10
0.2084724205187305
 20
0.2063566288504058
 10
0.2083532969973005
 20
0.207428251278278
 10
0.2084327133667161
 20
0.2076663895213893
  0
LWPOLYLINE
  5
321E
330
2
100
AcDbEntity
  8
0
  6
Continuous
 62
     1
370
     0
100
AcDbPolyline
 90
        8
 70
   128
 43
0.0
 10
0.2124829368473386
 20
0.1995696879201291
 10
0.2122446887717819
 20
0.2033005208406934
 10
0.2118078997726852
 20
0.2060788007888173
 10
0.2111725708827383
 20
0.2073488716413236
 10
0.2105372409600968
 20
0.2081823558260892
 10
0.2098622038854433
 20
0.2085395628568754
 10
0.209107750441372
 20
0.2085792526753526
 10
0.2087900859963974
 20
0.2084204940691957
  0
LWPOLYLINE
  5
321F
330
2
100
AcDbEntity
  8
0
  6
Continuous
 62
     1
370
     0
100
AcDbPolyline
 90
        3
 70
   128
 43
0.0
 10
0.2108151972203625
 20
0.2081823558260892
 10
0.2100607437762887
 20
0.2092936674046866
 10
0.2089489177025361
 20
0.210047771952493
  0
LWPOLYLINE
  5
3220
330
2
100
AcDbEntity
  8
0
  6
Continuous
 62
     1
370
     0
100
AcDbPolyline
 90
        3
 70
   128
 43
0.0
 10
0.2135550557690793
 20
0.1900838460109261
 10
0.2135550557690793
 20
0.1997681363447631
 10
0.2137535956599271
 20
0.2086189424938299
  0
LWPOLYLINE
  5
3221
330
2
100
AcDbEntity
  8
0
  6
Continuous
 62
     1
370
     0
100
AcDbPolyline
 90
        3
 70
   128
 43
0.0
 10
0.2142698010284417
 20
0.1916714347434981
 10
0.2141903846590238
 20
0.2001650331940266
 10
0.2143889245498717
 20
0.2045705916931997
  0
LWPOLYLINE
  5
3222
330
2
100
AcDbEntity
  8
0
  6
Continuous
 62
     1
370
     0
100
AcDbPolyline
 90
        4
 70
   128
 43
0.0
 10
0.2154213352869033
 20
0.1918698831681322
 10
0.2150639626572222
 20
0.1978630303998773
 10
0.2152227943633609
 20
0.2027051748990392
 10
0.215143377993943
 20
0.2069122849735781
  0
LWPOLYLINE
  5
3223
330
2
100
AcDbEntity
  8
0
  6
Continuous
 62
     1
370
     0
100
AcDbPolyline
 90
        5
 70
   128
 43
0.0
 10
0.211450527143004
 20
0.2088173909184639
 10
0.211450527143004
 20
0.2095714954662752
 10
0.2116093588491404
 20
0.2100874617709702
 10
0.2114902353277106
 20
0.2106034280756701
 10
0.2112916944041681
 20
0.2115559810481106
  0
LWPOLYLINE
  5
3224
330
2
100
AcDbEntity
  8
0
  6
Continuous
 62
     1
370
     0
100
AcDbPolyline
 90
        4
 70
   128
 43
0.0
 10
0.212760894140299
 20
0.2099287031648133
 10
0.2126020614014656
 20
0.2105637382571929
 10
0.2126814777708811
 20
0.2111987740173196
 10
0.212760894140299
 20
0.2117147403220195
  0
LWPOLYLINE
  5
3225
330
2
100
AcDbEntity
  8
0
  6
Continuous
 62
     1
370
     0
100
AcDbPolyline
 90
        7
 70
   128
 43
0.0
 10
0.2138330120293427
 20
0.2088173909184639
 10
0.2144683409192896
 20
0.2094524266785954
 10
0.2152227943633609
 20
0.2094921164970726
 10
0.2158581242860025
 20
0.2097302547401792
 10
0.216493453175947
 20
0.2102065312264018
 10
0.2169302421750461
 20
0.2109209459557358
 10
0.2170096585444639
 20
0.2113575326234765
  0
LWPOLYLINE
  5
3226
330
2
100
AcDbEntity
  8
0
  6
Continuous
 62
     1
370
     0
100
AcDbPolyline
 90
        3
 70
   128
 43
0.0
 10
0.2162552051003925
 20
0.1919492628050866
 10
0.2164140368065315
 20
0.1959579237872396
 10
0.2168111176209217
 20
0.1983393068860952
  0
LWPOLYLINE
  5
3227
330
2
100
AcDbEntity
  8
0
  6
Continuous
 62
     1
370
     0
100
AcDbPolyline
 90
        4
 70
   128
 43
0.0
 10
0.2162949132851015
 20
0.2011175868342238
 10
0.2171287820658939
 20
0.2038561769638704
 10
0.2178832365426598
 20
0.205165937634854
 10
0.2189156462469969
 20
0.2063566288504058
  0
LWPOLYLINE
  5
3228
330
2
100
AcDbEntity
  8
0
  6
Continuous
 62
     1
370
     0
100
AcDbPolyline
 90
        5
 70
   128
 43
0.0
 10
0.217049366729173
 20
0.2052056267855792
 10
0.217565571064993
 20
0.2067535256996741
 10
0.217565571064993
 20
0.2073885614598007
 10
0.2170890749138818
 20
0.2078251481275462
 10
0.2167317012515038
 20
0.2080235965521803
  0
LWPOLYLINE
  5
3229
330
2
100
AcDbEntity
  8
0
  6
Continuous
 62
     1
370
     0
100
AcDbPolyline
 90
        3
 70
   128
 43
0.0
 10
0.2162552051003925
 20
0.2083808042507186
 10
0.2173273229894362
 20
0.2098493235278589
 10
0.2180420682487987
 20
0.2103652898325588
  0
LWPOLYLINE
  5
322A
330
2
100
AcDbEntity
  8
0
  6
Continuous
 62
     1
370
     0
100
AcDbPolyline
 90
        2
 70
   128
 43
0.0
 10
0.2172081984353118
 20
0.1985774451292065
 10
0.2174067393588541
 20
0.2007206893172037
  0
LWPOLYLINE
  5
322B
330
2
100
AcDbEntity
  8
0
  6
Continuous
 62
     1
370
     0
100
AcDbPolyline
 90
        4
 70
   128
 43
0.0
 10
0.2174067393588541
 20
0.1957197855441282
 10
0.2182406091723434
 20
0.1977042711259685
 10
0.2191141861378447
 20
0.1990934114339064
 10
0.2197892242451951
 20
0.1997284465262859
  0
LWPOLYLINE
  5
322C
330
2
100
AcDbEntity
  8
0
  6
Continuous
 62
     1
370
     0
100
AcDbPolyline
 90
        5
 70
   128
 43
0.0
 10
0.2179229436946742
 20
0.1958388549995598
 10
0.218836229877579
 20
0.1961563722118737
 10
0.2190744789858303
 20
0.1955610269379714
 10
0.2191936025072603
 20
0.1943306459039423
 10
0.2189950626164148
 20
0.1933384024452726
  0
LWPOLYLINE
  5
322D
330
2
100
AcDbEntity
  8
0
  6
Continuous
 62
     1
370
     0
100
AcDbPolyline
 90
        3
 70
   128
 43
0.0
 10
0.2186376899867336
 20
0.1896472593431854
 10
0.219471558767526
 20
0.1928224361405728
 10
0.2200274723207496
 20
0.1944894045100992
  0
LWPOLYLINE
  5
322E
330
2
100
AcDbEntity
  8
0
  6
Continuous
 62
     1
370
     0
100
AcDbPolyline
 90
        2
 70
   128
 43
0.0
 10
0.2194318516155116
 20
0.1895281905555057
 10
0.2198289324299018
 20
0.1910363996511233
  0
LWPOLYLINE
  5
322F
330
2
100
AcDbEntity
  8
0
  6
Continuous
 62
     1
370
     0
100
AcDbPolyline
 90
       20
 70
   128
 43
0.0
 10
0.2197802831652935
 20
0.2148836950101797
 10
0.21929843558475
 20
0.2132199024671741
 10
0.2188165890368988
 20
0.2122128696464842
 10
0.2184880565017375
 20
0.2121034098040576
 10
0.2182909376002584
 20
0.2129790898789784
 10
0.2182471337441616
 20
0.2163942439073339
 10
0.2184442526456407
 20
0.219481017740658
 10
0.2189041977817896
 20
0.2213856228718547
 10
0.2193203380291471
 20
0.2227429274554149
 10
0.2196926744204052
 20
0.2232245519640497
 10
0.2200869132560603
 20
0.2230931998860325
 10
0.2204592496473209
 20
0.22195481498733
 10
0.2205906622483061
 20
0.2200064260527131
 10
0.2206563685487999
 20
0.2147523429321624
 10
0.220810982725451
 20
0.2074720591207576
 10
0.2211395142279175
 20
0.2031812243497248
 10
0.2216651656645579
 20
0.2014298635321267
 10
0.2221689156895007
 20
0.2007949953776452
 10
0.2228478821715256
 20
0.2006855355352187
 10
0.2230669035174016
 20
0.2009044552200717
  0
LWPOLYLINE
  5
3230
330
2
100
AcDbEntity
  8
0
  6
Continuous
 62
     1
370
     0
100
AcDbPolyline
 90
       10
 70
   128
 43
0.0
 10
0.2235049462091536
 20
0.2006636432996279
 10
0.2233516311637715
 20
0.19996309910614
 10
0.2228040772827342
 20
0.1997879625569553
 10
0.2219936981997217
 20
0.1999849906739741
 10
0.2212928292732998
 20
0.2007074271030528
 10
0.2207233739805602
 20
0.2019552718441818
 10
0.2203729400336965
 20
0.2041006888958223
 10
0.2202196249883144
 20
0.2072312465325619
 10
0.2202409325999523
 20
0.2117910396209294
 10
0.2201533238550639
 20
0.2150967331391066
  0
LWPOLYLINE
  5
3231
330
2
100
AcDbEntity
  8
0
  6
Continuous
 62
     1
370
     0
100
AcDbPolyline
 90
        6
 70
   128
 43
0.0
 10
0.2188172933354087
 20
0.2148559212186675
 10
0.2199343025091879
 20
0.2151186253746926
 10
0.2201752262994585
 20
0.2153156534917115
 10
0.2203504437892376
 20
0.2171326903483205
 10
0.2203504437892376
 20
0.219234323596536
 10
0.2191020209817784
 20
0.2194532439491458
  0
LWPOLYLINE
  5
3232
330
2
100
AcDbEntity
  8
0
  6
Continuous
 62
     1
370
     0
100
AcDbPolyline
 90
       13
 70
   128
 43
0.0
 10
0.2194305535169421
 20
0.2148340289830814
 10
0.2190801195700784
 20
0.2138926728691497
 10
0.2188391957798056
 20
0.2137613207911371
 10
0.2186639782900265
 20
0.2138488883979775
 10
0.2185982719895326
 20
0.2154032217663086
 10
0.218729498705283
 20
0.2183012582862378
 10
0.218970422495556
 20
0.2200526191038358
 10
0.2192332487302234
 20
0.2210158681211054
 10
0.2194741714878018
 20
0.2213880321195619
 10
0.2196493889775809
 20
0.2213880321195619
 10
0.2197589001668661
 20
0.2210158681211054
 10
0.2198903127678538
 20
0.2202277556530253
 10
0.2199560190683453
 20
0.2194834269883605
  0
LWPOLYLINE
  5
3233
330
2
100
AcDbEntity
  8
0
  6
Continuous
 62
     1
370
     0
100
AcDbPolyline
 90
        6
 70
   128
 43
0.0
 10
0.2138887177040877
 20
0.2243162049361002
 10
0.2148348900835038
 20
0.2228450620629972
 10
0.2151853240303651
 20
0.2223546806601298
 10
0.2148348900835038
 20
0.2234405241934229
 10
0.215080193536498
 20
0.2243162049361002
 10
0.215921236454744
 20
0.2252269125879605
  0
LWPOLYLINE
  5
3234
330
2
100
AcDbEntity
  8
0
  6
Continuous
 62
     1
370
     0
100
AcDbPolyline
 90
        5
 70
   128
 43
0.0
 10
0.2174981907646699
 20
0.2251918856787728
 10
0.2178135812135763
 20
0.224491340817533
 10
0.2179187117074457
 20
0.2237557697148575
 10
0.2178135812135763
 20
0.2226699255138124
 10
0.2177084507197093
 20
0.2220044082295076
  0
LWPOLYLINE
  5
3235
330
2
100
AcDbEntity
  8
0
  6
Continuous
 62
     1
370
     0
100
AcDbPolyline
 90
        4
 70
   128
 43
0.0
 10
0.2180238422013127
 20
0.2240710145685401
 10
0.2186195806338675
 20
0.2240359869916005
 10
0.2191802755684651
 20
0.22382582420098
 10
0.2194606225194167
 20
0.2233704703750523
  0
LWPOLYLINE
  5
3236
330
2
100
AcDbEntity
  8
0
  6
Continuous
 62
     1
370
     0
100
AcDbPolyline
 90
        6
 70
   128
 43
0.0
 10
0.2181640151604399
 20
0.2253670215602103
 10
0.2189349710827739
 20
0.2242811780269126
 10
0.2197059259724109
 20
0.2237207421379179
 10
0.2210025333313876
 20
0.2227049530907474
 10
0.2221940101964948
 20
0.2219693813203199
 10
0.2239461809635053
 20
0.221268837126832
  0
LWPOLYLINE
  5
3237
330
2
100
AcDbEntity
  8
0
  6
Continuous
 62
     1
370
     0
100
AcDbPolyline
 90
        5
 70
   128
 43
0.0
 10
0.2199785690129838
 20
0.2304392999642791
 10
0.2205337101097797
 20
0.2291908101751233
 10
0.2213317257591397
 20
0.2283238028577367
 10
0.2223726159610661
 20
0.2275261569003316
 10
0.2240727357636325
 20
0.2267285102751747
  0
LWPOLYLINE
  5
3238
330
2
100
AcDbEntity
  8
0
  6
Continuous
 62
     1
370
     0
100
AcDbPolyline
 90
        5
 70
   128
 43
0.0
 10
0.2197009979482387
 20
0.2296763336852417
 10
0.2202561390450345
 20
0.2285665646127935
 10
0.2209153696783691
 20
0.2276301972709243
 10
0.2218868668559355
 20
0.2267631906212896
 10
0.2234135051302954
 20
0.2258961833039029
  0
LWPOLYLINE
  5
3239
330
2
100
AcDbEntity
  8
0
  6
Continuous
 62
     1
370
     0
100
AcDbPolyline
 90
        5
 70
   128
 43
0.0
 10
0.2303586216434599
 20
0.2232932535854672
 10
0.2338629507851315
 20
0.2220794434746744
 10
0.2366039607896218
 20
0.2213858378878668
 10
0.2388592216889842
 20
0.2210043547483457
 10
0.2414961421569335
 20
0.2205535115843421
  0
LWPOLYLINE
  5
323A
330
2
100
AcDbEntity
  8
0
  6
Continuous
 62
     1
370
     0
100
AcDbPolyline
 90
        5
 70
   128
 43
0.0
 10
0.2308096742364116
 20
0.2238134574417005
 10
0.233481291216542
 20
0.2227730490614867
 10
0.2364304792614178
 20
0.2220447631285595
 10
0.2389980067050072
 20
0.2215592396184411
 10
0.2418084097338599
 20
0.2211430761328052
  0
LWPOLYLINE
  5
323B
330
2
100
AcDbEntity
  8
0
  6
Continuous
 62
     1
370
     0
100
AcDbPolyline
 90
        5
 70
   128
 43
0.0
 10
0.2267502039979442
 20
0.2202413891370555
 10
0.2306014961960263
 20
0.2190275790262627
 10
0.2335853797203863
 20
0.2182299330688576
 10
0.2368815308216725
 20
0.2174669667898156
 10
0.2400042003947547
 20
0.2168774022413525
  0
LWPOLYLINE
  5
323C
330
2
100
AcDbEntity
  8
0
  6
Continuous
 62
     1
370
     0
100
AcDbPolyline
 90
       40
 70
   129
 43
0.0
 10
0.2259521883485842
 20
0.2210043547483457
 10
0.2248419051222978
 20
0.2208309536855185
 10
0.2242520685460179
 20
0.220969675069978
 10
0.2240091939934538
 20
0.2216632806567904
 10
0.2237663194408873
 20
0.2232585732393523
 10
0.2239398009690938
 20
0.2253047096536652
 10
0.2245296385780685
 20
0.2264491584044764
 10
0.2251541726992243
 20
0.2269000022362318
 10
0.2258827953242243
 20
0.2276282881691543
 10
0.2267848994774284
 20
0.2278710499242112
 10
0.2272359520703802
 20
0.2277323292075037
 10
0.2271404907069234
 20
0.2282642841560597
 10
0.227284024058056
 20
0.2286468624081702
 10
0.2278222743829827
 20
0.2288261957760453
 10
0.2284083674371287
 20
0.2288381512003542
 10
0.2291858396697146
 20
0.2287066401974619
 10
0.2298915447103846
 20
0.2284077505832561
 10
0.2301546890153493
 20
0.2279175721768664
 10
0.2303101830487872
 20
0.2273556605568808
 10
0.2303819502407032
 20
0.2270448155183661
 10
0.2303460661283979
 20
0.2267100596312338
 10
0.2304178333203115
 20
0.2263035705305055
 10
0.2307886278968003
 20
0.2258253475484246
 10
0.2311474607582868
 20
0.2254905916612969
 10
0.2312551099971165
 20
0.2249884578305982
 10
0.231123538360984
 20
0.2245819680621181
 10
0.230764705499495
 20
0.2240200564421325
 10
0.2302025338099599
 20
0.2235298780357427
 10
0.2293772167827632
 20
0.2231472997836322
 10
0.2293400159833625
 20
0.2225450085577833
 10
0.2291247164730085
 20
0.2219830969377977
 10
0.2289094169626569
 20
0.2213614075285204
 10
0.2284668551942521
 20
0.2209070953950526
 10
0.2279525282993253
 20
0.2205842949322338
 10
0.2272587839409605
 20
0.2204527839293415
 10
0.2267324953310338
 20
0.2204408285050326
 10
0.2264813127410715
 20
0.2204408285050326
 10
0.226206206721107
 20
0.2204408285050326
 10
0.2263377793899366
 20
0.2207636289678561
 10
0.226349740072242
 20
0.2210744733386188
  0
LWPOLYLINE
  5
323D
330
2
100
AcDbEntity
  8
0
  6
Continuous
 62
     1
370
     0
100
AcDbPolyline
 90
        6
 70
   128
 43
0.0
 10
0.2264693510260693
 20
0.2210625179143099
 10
0.2268521062848634
 20
0.2212538073742459
 10
0.2270913292252172
 20
0.2215287854720866
 10
0.2271630953844363
 20
0.2218754967835232
 10
0.2272468232586552
 20
0.2224971861928005
 10
0.2272229008613499
 20
0.2231188762698298
  0
LWPOLYLINE
  5
323E
330
2
100
AcDbEntity
  8
0
  6
Continuous
 62
     1
370
     0
100
AcDbPolyline
 90
       17
 70
   128
 43
0.0
 10
0.2266846515691201
 20
0.2237286102547981
 10
0.2269358341590824
 20
0.2233460320026877
 10
0.2274501620867038
 20
0.2232384318484132
 10
0.2282994004785088
 20
0.2233818989433615
 10
0.2287778442938273
 20
0.2236329655248325
 10
0.2292443274268381
 20
0.2243144333911535
 10
0.2294117831752784
 20
0.2248165672218521
 10
0.2292443274268381
 20
0.2251035007439971
 10
0.228753921896522
 20
0.2254023896904508
 10
0.2283352835581195
 20
0.2256534569396785
 10
0.2278927228224117
 20
0.225569768301769
 10
0.2276654615970577
 20
0.225318701052546
 10
0.2274621227690092
 20
0.2250078560140315
 10
0.2272587839409605
 20
0.2247089670675777
 10
0.2269477958740823
 20
0.2244698552426589
 10
0.2266966122514231
 20
0.224182921720514
 10
0.2266128843772042
 20
0.2237883880440899
  0
LWPOLYLINE
  5
323F
330
2
100
AcDbEntity
  8
0
  6
Continuous
 62
     1
370
     0
100
AcDbPolyline
 90
        2
 70
   128
 43
0.0
 10
0.2277020541386558
 20
0.2211737399531611
 10
0.2276063655821315
 20
0.2230483730546436
  0
LWPOLYLINE
  5
3240
330
2
100
AcDbEntity
  8
0
  6
Continuous
 62
     1
370
     0
100
AcDbPolyline
 90
        3
 70
   128
 43
0.0
 10
0.2286015290484519
 20
0.2219388964573916
 10
0.2285249784097727
 20
0.2224171194394677
 10
0.22821877378966
 20
0.2227805686120384
  0
LWPOLYLINE
  5
3241
330
2
100
AcDbEntity
  8
0
  6
Continuous
 62
     1
370
     0
100
AcDbPolyline
 90
        4
 70
   128
 43
0.0
 10
0.2289460249946903
 20
0.2255592492111118
 10
0.2294436067278516
 20
0.2260566012727371
 10
0.2298454999044863
 20
0.2263435347948819
 10
0.2302473930811233
 20
0.2267643705383342
  0
LWPOLYLINE
  5
3242
330
2
100
AcDbEntity
  8
0
  6
Continuous
 62
     1
370
     0
100
AcDbPolyline
 90
        3
 70
   128
 43
0.0
 10
0.2286589582924203
 20
0.2258653118128011
 10
0.2294818825635373
 20
0.2264774370161845
 10
0.2299220505431678
 20
0.2272425935204102
  0
LWPOLYLINE
  5
3243
330
2
100
AcDbEntity
  8
0
  6
Continuous
 62
     1
370
     0
100
AcDbPolyline
 90
        7
 70
   128
 43
0.0
 10
0.2281231007235733
 20
0.22578879616238
 10
0.2281422386414161
 20
0.2260948587640693
 10
0.2283336167871617
 20
0.2265348242548179
 10
0.2283527547050046
 20
0.227089562219568
 10
0.2281805144771042
 20
0.2274912695512229
 10
0.2277403454647791
 20
0.227606042692981
 10
0.2275489683517304
 20
0.2276634299316144
  0
LWPOLYLINE
  5
3244
330
2
100
AcDbEntity
  8
0
  6
Continuous
 62
     1
370
     0
100
AcDbPolyline
 90
        5
 70
   128
 43
0.0
 10
0.2264198404931978
 20
0.2237993892513874
 10
0.2259605335630299
 20
0.2236654870300895
 10
0.2253672632733442
 20
0.2236846161096293
 10
0.2249270942610191
 20
0.2238567764900207
 10
0.2247357171479705
 20
0.2239715496317788
  0
LWPOLYLINE
  5
3245
330
2
100
AcDbEntity
  8
0
  6
Continuous
 62
     1
370
     0
100
AcDbPolyline
 90
        4
 70
   128
 43
0.0
 10
0.2243529618891786
 20
0.2222690769106878
 10
0.2246400275587516
 20
0.2227664283045565
 10
0.2250993344889195
 20
0.2229959752558247
 10
0.2255777783042356
 20
0.2232063931275531
  0
LWPOLYLINE
  5
3246
330
2
100
AcDbEntity
  8
0
  6
Continuous
 62
     1
370
     0
100
AcDbPolyline
 90
        4
 70
   128
 43
0.0
 10
0.2271470751750958
 20
0.2265922108256945
 10
0.2266686313597772
 20
0.2266113392374871
 10
0.2261710485939213
 20
0.2265922108256945
 10
0.2255969162220809
 20
0.2266878548879083
  0
LWPOLYLINE
  5
3247
330
2
100
AcDbEntity
  8
0
  6
Continuous
 62
     1
370
     0
100
AcDbPolyline
 90
       10
 70
   128
 43
0.0
 10
0.2243998411132528
 20
0.20083737957375
 10
0.224482739732776
 20
0.2005177769732509
 10
0.2246959067263823
 20
0.2004585908118613
 10
0.2249682874622316
 20
0.2007663568478354
 10
0.2251340836685833
 20
0.2013700516875064
 10
0.2259512258761339
 20
0.205442031545584
 10
0.2265407175320294
 20
0.2085673366483877
 42
-0.1877626103121123
 10
0.2318102252765172
 20
0.217046816827238
 42
-0.2975275848848335
 10
0.2362498865902026
 20
0.2173366143359161
 42
-0.1126695967390892
 10
0.238571502322995
 20
0.2152270315051246
 42
0.5218682246024878
  0
LWPOLYLINE
  5
3248
330
2
100
AcDbEntity
  8
0
  6
Continuous
 62
     1
370
     0
100
AcDbPolyline
 90
       20
 70
   128
 43
0.0
 10
0.2239432563691093
 20
0.2006258325341034
 10
0.2242531714650918
 20
0.1996522640838993
 10
0.2245926020386204
 20
0.1992834882569681
 10
0.2248877599121761
 20
0.1992834882569681
 10
0.2251681595306103
 20
0.1996375134514759
 10
0.2255223483592603
 20
0.2004930735035091
 10
0.2260093573532207
 20
0.2026614759000694
 10
0.2268523190201904
 20
0.2064292535123663
 10
0.2274131182570588
 20
0.2086566604418903
 42
-0.146957342712426
 10
0.2311090362144115
 20
0.214867504705345
 42
-0.3428041273319609
 10
0.2367609573953949
 20
0.2153301851016208
 42
-0.4500336093659536
 10
0.2366680839675135
 20
0.2087577807348221
 42
-0.4721297501046006
 10
0.2336027021590816
 20
0.2094217989168238
 42
-0.2784131734806048
 10
0.2337211761148783
 20
0.2124370879401362
 42
-0.4993260735605439
 10
0.2364451869144482
 20
0.2125638338677435
 42
0.8536964465549932
 10
0.2344257658441275
 20
0.2101435969753854
 42
0.2140394811897069
 10
0.2355654778015159
 20
0.2098222889373507
 42
0.6683126709382457
 10
0.2362222908940748
 20
0.2142719163698691
 42
0.3074607588483795
 10
0.2318943848175647
 20
0.2141605193801018
 42
0.138495124126138
 10
0.2284387348886796
 20
0.2106359542551857
 42
1.173477404645987
  0
LWPOLYLINE
  5
3249
330
2
100
AcDbEntity
  8
0
  6
Continuous
 62
     1
370
     0
100
AcDbPolyline
 90
        8
 70
   128
 43
0.0
 10
0.2276499835529913
 20
0.2086254897980827
 10
0.2285498777372668
 20
0.2080858029539705
 10
0.2288327021253504
 20
0.2078288094094669
 10
0.2296554621978399
 20
0.2081629015515237
 10
0.2305810674084808
 20
0.2082142997262247
 10
0.2314295395400303
 20
0.2078288094094669
 10
0.2319180531717126
 20
0.20728912256535
 10
0.2320466093362245
 20
0.2066723377914366
  0
LWPOLYLINE
  5
324A
330
2
100
AcDbEntity
  8
0
  6
Continuous
 62
     1
370
     0
100
AcDbPolyline
 90
        2
 70
   128
 43
0.0
 10
0.2277014066384142
 20
0.2056443629456605
 10
0.2284213215727572
 20
0.2074947179351573
  0
LWPOLYLINE
  5
324B
330
2
100
AcDbEntity
  8
0
  6
Continuous
 62
     1
370
     0
100
AcDbPolyline
 90
        2
 70
   128
 43
0.0
 10
0.2281642092437334
 20
0.2060812527726233
 10
0.2287298569872015
 20
0.207340521407803
  0
LWPOLYLINE
  5
324C
330
2
100
AcDbEntity
  8
0
  6
Continuous
 62
     1
370
     0
100
AcDbPolyline
 90
        8
 70
   128
 43
0.0
 10
0.2288069910989874
 20
0.206338246317127
 10
0.2295783280860564
 20
0.2069550310910451
 10
0.230323955079457
 20
0.2071863255482006
 10
0.231121004125586
 20
0.2070321290208463
 10
0.2314552505663933
 20
0.2067494357212378
 10
0.2307096235729928
 20
0.2065952398616354
 10
0.2297583073359889
 20
0.2064924421767341
 10
0.2292697937043067
 20
0.2064667430893812
  0
LWPOLYLINE
  5
324D
330
2
100
AcDbEntity
  8
0
  6
Continuous
 62
     1
370
     0
100
AcDbPolyline
 90
       11
 70
   128
 43
0.0
 10
0.2239240265413423
 20
0.2009834682614053
 10
0.2234702083891443
 20
0.2010061484438615
 10
0.2231071549000815
 20
0.2010061484438615
 10
0.2227214099870594
 20
0.2010061484438615
 10
0.2225171923349184
 20
0.2012329522716313
 10
0.2224945019436562
 20
0.2018906829047467
 10
0.222653337780578
 20
0.2022762493451849
 10
0.222653337780578
 20
0.20241233110765
 10
0.2221995206610746
 20
0.2023896509251986
 10
0.2219272297697553
 20
0.2023896509251986
 10
0.2216322484871762
 20
0.2023896509251986
  0
LWPOLYLINE
  5
324E
330
2
100
AcDbEntity
  8
0
  6
Continuous
 62
     1
370
     0
100
AcDbPolyline
 90
        9
 70
   128
 43
0.0
 10
0.2237878810956827
 20
0.2023896509251986
 10
0.2233567543674415
 20
0.20241233110765
 10
0.2234702083891443
 20
0.2027752173656368
 10
0.223606353834804
 20
0.2032741853860886
 10
0.2235609720195849
 20
0.2036370709763235
 10
0.2231979185305197
 20
0.2039999572343102
 10
0.222607955965359
 20
0.2042494412445361
 10
0.2221314474218987
 20
0.2041360389967705
 10
0.2214507222589921
 20
0.2038638748040932
  0
LWPOLYLINE
  5
324F
330
2
100
AcDbEntity
  8
0
  6
Continuous
 62
     1
370
     0
100
AcDbPolyline
 90
        7
 70
   128
 43
0.0
 10
0.2238559533021641
 20
0.2025937739027698
 10
0.2237878810956827
 20
0.2034329479987523
 10
0.2240374805630452
 20
0.2039092358367527
 10
0.2244232254760648
 20
0.204045317599213
 10
0.225013188041228
 20
0.2039545962016555
 10
0.2253308597150717
 20
0.2037731534065357
 10
0.22542162334551
 20
0.2035009892138583
  0
LWPOLYLINE
  5
3250
330
2
100
AcDbEntity
  8
0
  6
Continuous
 62
     1
370
     0
100
AcDbPolyline
 90
        2
 70
   128
 43
0.0
 10
0.2254670051607314
 20
0.2038865549865493
 10
0.2254443137367722
 20
0.2079690218832065
  0
LWPOLYLINE
  5
3251
330
2
100
AcDbEntity
  8
0
  6
Continuous
 62
     1
370
     0
100
AcDbPolyline
 90
       10
 70
   128
 43
0.0
 10
0.2243097704216676
 20
0.2023669707427472
 10
0.224400534052108
 20
0.2027525365154334
 10
0.2245820613129867
 20
0.2030700617407655
 10
0.2249224244107875
 20
0.2030020205256594
 10
0.2249678062260089
 20
0.2027071761505307
 10
0.2249451148020497
 20
0.2022535684949816
 10
0.2248543511716091
 20
0.2020494455174151
 10
0.224763587541171
 20
0.201981404302309
 10
0.2243097704216676
 20
0.2021855272798755
 10
0.2239694073238669
 20
0.2022535684949816
  0
LWPOLYLINE
  5
3252
330
2
100
AcDbEntity
  8
0
  6
Continuous
 62
     1
370
     0
100
AcDbPolyline
 90
        3
 70
   128
 43
0.0
 10
0.2245139880738085
 20
0.2009154270462992
 10
0.224763587541171
 20
0.2011875912389765
 10
0.2248316607803492
 20
0.201663879076977
  0
LWPOLYLINE
  5
3253
330
2
100
AcDbEntity
  8
0
  6
Continuous
 62
     1
370
     0
100
AcDbPolyline
 90
        8
 70
   128
 43
0.0
 10
0.2231217985259721
 20
0.2046096291183838
 10
0.2230016464395655
 20
0.2051900942160482
 10
0.2222607109830065
 20
0.2051500618410097
 10
0.2216599526163577
 20
0.2055703987740284
 10
0.2213395473968351
 20
0.2061308473503048
 10
0.2213595734330334
 20
0.2067713600089015
 10
0.2217801036700698
 20
0.2064110713045622
 10
0.2224008880729168
 20
0.2060307674143339
  0
LWPOLYLINE
  5
3254
330
2
100
AcDbEntity
  8
0
  6
Continuous
 62
     1
370
     0
100
AcDbPolyline
 90
       23
 70
   128
 43
0.0
 10
0.2219202807599801
 20
0.206511151908285
 10
0.2220003818066871
 20
0.2071716804205227
 10
0.2225811151698322
 20
0.2077321289967942
 10
0.2221605849327958
 20
0.2089931384603468
 10
0.2215998765731521
 20
0.2109346929575347
 10
0.2211392952964161
 20
0.2125559904576698
 10
0.2212994973898301
 20
0.2139170805249404
 10
0.2217200286595611
 20
0.214477529101212
 10
0.2223408120297134
 20
0.2143974650188915
 10
0.2223206847893305
 20
0.2157260769847606
 10
0.2226410900088531
 20
0.2163866061647502
 10
0.2228213171057686
 20
0.2164866861007211
 10
0.2227812670987634
 20
0.2171672311343564
 10
0.2227211910555578
 20
0.2178477755002398
 10
0.2228813931489719
 20
0.2183481765155791
 10
0.2235622525623277
 20
0.2185283205338751
 10
0.2241429859254727
 20
0.2186083846162003
 10
0.2245034411520004
 20
0.2191688331924718
 10
0.2246836692816126
 20
0.2196692335400639
 10
0.2248038203353246
 20
0.2199694740157189
 10
0.2249039474182299
 20
0.220289730345015
 10
0.2246836692816126
 20
0.2205299225919905
 10
0.2247036942851164
 20
0.2207701148389661
  0
LWPOLYLINE
  5
3255
330
2
100
AcDbEntity
  8
0
  6
Continuous
 62
     1
370
     0
100
AcDbPolyline
 90
       16
 70
   128
 43
0.0
 10
0.2261054641515274
 20
0.2203898102809858
 10
0.2256849328817965
 20
0.2191087849637876
 10
0.2255247307883824
 20
0.2186284004698412
 10
0.2254646547451791
 20
0.21822808005822
 10
0.2259452620581135
 20
0.2181680318295358
 10
0.2263457672916485
 20
0.2179678719575988
 10
0.2265259954212608
 20
0.2175875673996233
 10
0.2264659193780552
 20
0.2169870864483084
 10
0.2262055902017381
 20
0.2163866061647502
 10
0.2260053381013192
 20
0.2157661093597992
 10
0.2259052110184139
 20
0.2138645872376498
 10
0.2259652870616171
 20
0.2129238341033981
 10
0.2262066765976776
 20
0.2114517249937539
 10
0.2261265755509706
 20
0.2100305873655558
 10
0.2260664995077672
 20
0.2089497219202946
 10
0.2256259432345326
 20
0.2081290652434065
  0
LWPOLYLINE
  5
3256
330
2
100
AcDbEntity
  8
0
  6
Continuous
 62
     1
370
     0
100
AcDbPolyline
 90
        8
 70
   128
 43
0.0
 10
0.2254256901014165
 20
0.2096102511002889
 10
0.2251853869612979
 20
0.2101907155302062
 10
0.2251853869612979
 20
0.2109713404998076
 10
0.2254056650979153
 20
0.2115518049297248
 10
0.2256459682380363
 20
0.2113516450577878
 10
0.2257060442812395
 20
0.2108712605638415
 10
0.2257460953209391
 20
0.2103908760698903
 10
0.2255458421878256
 20
0.2097903951185802
  0
LWPOLYLINE
  5
3257
330
2
100
AcDbEntity
  8
0
  6
Continuous
 62
     1
370
     0
100
AcDbPolyline
 90
       10
 70
   128
 43
0.0
 10
0.2249450838211768
 20
0.2079489212251152
 10
0.2242642233751264
 20
0.2080089687860427
 10
0.2235232879185673
 20
0.208389273344023
 10
0.2230627066418291
 20
0.2095101704965708
 10
0.2228224035017079
 20
0.2103508436948517
 10
0.2228224035017079
 20
0.2119721418627436
 10
0.2231828587282381
 20
0.2133132154086166
 10
0.2232028837317394
 20
0.2138936798385339
 10
0.2228224035017079
 20
0.2142539685428684
 10
0.2225220243183836
 20
0.2143540484788393
  0
LWPOLYLINE
  5
3258
330
2
100
AcDbEntity
  8
0
  6
Continuous
 62
     1
370
     0
100
AcDbPolyline
 90
        4
 70
   128
 43
0.0
 10
0.223304485504193
 20
0.2143405118187844
 10
0.223484713633803
 20
0.2153613290353614
 10
0.223684966766919
 20
0.2160819057762833
 10
0.2230842073675756
 20
0.2166623702062006
  0
LWPOLYLINE
  5
3259
330
2
100
AcDbEntity
  8
0
  6
Continuous
 62
     1
370
     0
100
AcDbPolyline
 90
       11
 70
   128
 43
0.0
 10
0.2255873689497705
 20
0.2140202554894884
 10
0.2249665845469234
 20
0.2141203354254545
 10
0.2247463064103061
 20
0.2141003195718135
 10
0.224666205363599
 20
0.2143405118187844
 10
0.2249465595434197
 20
0.2149409927700992
 10
0.2251468126765333
 20
0.2153613290353614
 10
0.2252269137232404
 20
0.2159818258403172
 10
0.2252269137232404
 20
0.2165222585629478
 10
0.225006635586623
 20
0.2174029634685201
 10
0.2247062564032987
 20
0.2180835078344035
 10
0.2242256490903643
 20
0.2184437965387381
  0
LWPOLYLINE
  5
325A
330
2
100
AcDbEntity
  8
0
  6
Continuous
 62
     1
370
     0
100
AcDbPolyline
 90
        2
 70
   128
 43
0.0
 10
0.2253470647769524
 20
0.2180234602734711
 10
0.2251468126765333
 20
0.21762313986185
  0
LWPOLYLINE
  5
325B
330
2
100
AcDbEntity
  8
0
  6
Continuous
 62
     1
370
     0
100
AcDbPolyline
 90
        7
 70
   128
 43
0.0
 10
0.2254271658236595
 20
0.216922578974569
 10
0.2256073939532718
 20
0.2167224184348848
 10
0.2257475710431821
 20
0.2167024025812391
 10
0.2259478241762981
 20
0.2170426747641808
 10
0.2260078991868069
 20
0.2174029634685201
 10
0.2259077731365962
 20
0.2175831074868114
 10
0.2257275460396808
 20
0.2178032838801413
  0
LWPOLYLINE
  5
325C
330
2
100
AcDbEntity
  8
0
  6
Continuous
 62
     1
370
     0
100
AcDbPolyline
 90
        2
 70
   128
 43
0.0
 10
0.2255473179100684
 20
0.2142003995077797
 10
0.2254471918598577
 20
0.2160618899226424
  0
LWPOLYLINE
  5
325D
330
2
100
AcDbEntity
  8
0
  6
Continuous
 62
     1
370
     0
100
AcDbPolyline
 90
        4
 70
   128
 43
0.0
 10
0.2233016011849305
 20
0.2058038226909766
 10
0.2237822084978671
 20
0.2064043036422867
 10
0.2240225116379882
 20
0.2070848480081748
 10
0.2240425366414895
 20
0.2074451367125094
  0
LWPOLYLINE
  5
325E
330
2
100
AcDbEntity
  8
0
  6
Continuous
 62
     1
370
     0
100
AcDbPolyline
 90
        4
 70
   128
 43
0.0
 10
0.2246833460478403
 20
0.2050231977213751
 10
0.224963700227661
 20
0.2058638709196608
 10
0.224963700227661
 20
0.2066044635142237
 10
0.2246633210443365
 20
0.2074251208588684
  0
LWPOLYLINE
  5
325F
330
2
100
AcDbEntity
  8
0
  6
Continuous
 62
     1
370
     0
100
AcDbPolyline
 90
       29
 70
   128
 43
0.0
 10
0.2230006447246763
 20
0.1995673494540915
 10
0.2227803665880589
 20
0.1989068209418491
 10
0.2223398103148242
 20
0.1986466128412326
 10
0.2218792290380858
 20
0.198606580466194
 10
0.2216789759049722
 20
0.1984864846765822
 10
0.2218191529948825
 20
0.198086164264961
 10
0.2218592040345845
 20
0.1976858438533351
 10
0.2213986217251491
 20
0.1969852829660588
 10
0.2213785967216478
 20
0.1960445298318071
 10
0.2218592040345845
 20
0.195764305209793
 10
0.2225200384444366
 20
0.1959244333744433
 10
0.2223798613545262
 20
0.1953840006518127
 10
0.2222797342716209
 20
0.1947034562859293
 10
0.2224799874047345
 20
0.1939828795450074
 10
0.2227002655413519
 20
0.1930621422643965
 10
0.22302066972818
 20
0.1925817577704502
 10
0.223801656224441
 20
0.1926818377064163
 10
0.2240419593645597
 20
0.1931021739716832
 10
0.224302288540879
 20
0.1939428471699688
 10
0.2245425916810001
 20
0.1945633439749247
 10
0.2247027937744117
 20
0.1951638249262348
 10
0.2249631229507311
 20
0.1952839207158466
 10
0.2253235781772588
 20
0.1953439689445261
 10
0.2254237042274695
 20
0.1959644657494819
 10
0.2254036792239658
 20
0.1965048984721077
 10
0.2252234521270504
 20
0.197085362902025
 10
0.2252635021340554
 20
0.1981462118258886
 10
0.2248229458608208
 20
0.1984464523015437
 10
0.2247428448141138
 20
0.1989668691705333
  0
LWPOLYLINE
  5
3260
330
2
100
AcDbEntity
  8
0
  6
Continuous
 62
     1
370
     0
100
AcDbPolyline
 90
        4
 70
   128
 43
0.0
 10
0.222980619721175
 20
0.1957042569811135
 10
0.2233010239080007
 20
0.1962647062251369
 10
0.223681504138032
 20
0.1974256350849667
 10
0.2237215551777341
 20
0.1986666286948735
  0
LWPOLYLINE
  5
3261
330
2
100
AcDbEntity
  8
0
  6
Continuous
 62
     1
370
     0
100
AcDbPolyline
 90
        4
 70
   128
 43
0.0
 10
0.2225801134549452
 20
0.1962847220787779
 10
0.2230807457713833
 20
0.1972855234417139
 10
0.2233010239080007
 20
0.1982062600545728
 10
0.2234211759944096
 20
0.1991670290424656
  0
LWPOLYLINE
  5
3262
330
2
100
AcDbEntity
  8
0
  6
Continuous
 62
     1
370
     0
100
AcDbPolyline
 90
        3
 70
   128
 43
0.0
 10
0.2246026677242034
 20
0.1953639847981717
 10
0.224302288540879
 20
0.1968852023623361
 10
0.223981884354051
 20
0.1983864047406161
  0
LWPOLYLINE
  5
3263
330
2
100
AcDbEntity
  8
0
  6
Continuous
 62
     1
370
     0
100
AcDbPolyline
 90
        3
 70
   128
 43
0.0
 10
0.2261309934234363
 20
0.1947348239164521
 10
0.2259737303821589
 20
0.1970477631459965
 10
0.2256592053323012
 20
0.1979684476742298
  0
LWPOLYLINE
  5
3264
330
2
100
AcDbEntity
  8
0
  6
Continuous
 62
     1
370
     0
100
AcDbPolyline
 90
        5
 70
   128
 43
0.0
 10
0.2256592053323012
 20
0.1998322725486231
 10
0.2263556543208635
 20
0.1997873609127792
 10
0.2264005869134272
 20
0.2001691084819255
 10
0.2263107227609967
 20
0.2007305012589345
 10
0.2261085271271557
 20
0.2009550587703883
  0
LWPOLYLINE
  5
3265
330
2
100
AcDbEntity
  8
0
  6
Continuous
 62
     1
370
     0
100
AcDbPolyline
 90
        3
 70
   128
 43
0.0
 10
0.2263331890572774
 20
0.2009775145883103
 10
0.2263107227609967
 20
0.2022125792319287
 10
0.2261085271271557
 20
0.2026616935870892
  0
LWPOLYLINE
  5
3266
330
2
100
AcDbEntity
  8
0
  6
Continuous
 62
     1
370
     0
100
AcDbPolyline
 90
       14
 70
   128
 43
0.0
 10
0.2243782753276744
 20
0.1889103747731487
 10
0.2243108764388276
 20
0.189875970937226
 10
0.2243782753276744
 20
0.1907292880116982
 10
0.2246029362251015
 20
0.1908864780693907
 10
0.2246029362251015
 20
0.1912233140026931
 10
0.2246029362251015
 20
0.191829618415546
 10
0.2246029362251015
 20
0.1923011885886237
 10
0.2246254025213823
 20
0.1925482019179947
 10
0.2245580036325379
 20
0.1933341522064575
 10
0.2246928003775321
 20
0.1941425576450904
 10
0.2250297917236729
 20
0.1944120267923881
 10
0.2254566482549435
 20
0.1945018493963147
 10
0.2259958352349253
 20
0.1943895709744662
 10
0.2264451570297796
 20
0.1941425576450904
  0
LWPOLYLINE
  5
3267
330
2
100
AcDbEntity
  8
0
  6
Continuous
 62
     1
370
     0
100
AcDbPolyline
 90
        3
 70
   128
 43
0.0
 10
0.2257711743374982
 20
0.1895840466397582
 10
0.2258835047862116
 20
0.1916275173897614
 10
0.2258610384899287
 20
0.1928176703975406
  0
LWPOLYLINE
  5
3268
330
2
100
AcDbEntity
  8
0
  6
Continuous
 62
     1
370
     0
100
AcDbPolyline
 90
        3
 70
   128
 43
0.0
 10
0.2248725297150924
 20
0.1924359228283942
 10
0.225254453653797
 20
0.1926155687040088
 10
0.2254566482549435
 20
0.1922562776205316
  0
LWPOLYLINE
  5
3269
330
2
100
AcDbEntity
  8
0
  6
Continuous
 62
     1
370
     0
100
AcDbPolyline
 90
        4
 70
   128
 43
0.0
 10
0.224782664529965
 20
0.1909538455231519
 10
0.2251421232050834
 20
0.1910212123091613
 10
0.2254566482549435
 20
0.1907741996475374
 10
0.2254791145512241
 20
0.1907068321937762
  0
LWPOLYLINE
  5
326A
330
2
100
AcDbEntity
  8
0
  6
Continuous
 62
     1
370
     0
100
AcDbPolyline
 90
        2
 70
   128
 43
0.0
 10
0.226040767827489
 20
0.1932892405706183
 10
0.2261755635397887
 20
0.194097646677003
  0
LWPOLYLINE
  5
326B
330
2
100
AcDbEntity
  8
0
  6
Continuous
 62
     1
370
     0
100
AcDbPolyline
 90
        5
 70
   128
 43
0.0
 10
0.2159873527354543
 20
0.2124511621402071
 10
0.2164949227020153
 20
0.2148356355933859
 10
0.216596436695328
 20
0.2175245096145643
 10
0.2164949227020153
 20
0.2203655849213729
 10
0.2163934087087027
 20
0.2222427234267861
  0
LWPOLYLINE
  5
326C
330
2
100
AcDbEntity
  8
0
  6
Continuous
 62
     1
370
     0
100
AcDbPolyline
 90
        2
 70
   128
 43
0.0
 10
0.1978322875916125
 20
0.2269792429808545
 10
0.1983960837115828
 20
0.2273737172273867
  0
LWPOLYLINE
  5
326D
330
2
100
AcDbEntity
  8
0
  6
Continuous
 62
     1
370
     0
100
AcDbPolyline
 90
        3
 70
   128
 43
0.0
 10
0.1985652227541129
 20
0.2258521731326927
 10
0.1995800549438978
 20
0.2256267595637115
 10
0.2006512661260648
 20
0.2256831131228937
  0
LWPOLYLINE
  5
326E
330
2
100
AcDbEntity
  8
0
  6
Continuous
 62
     1
370
     0
100
AcDbPolyline
 90
        2
 70
   128
 43
0.0
 10
0.1985652227541129
 20
0.224894163962082
 10
0.19941091590137
 20
0.2245560432747366
  0
LINE
  5
326F
330
2
100
AcDbEntity
  8
0
  6
Continuous
 62
     1
370
     0
100
AcDbLine
 10
0.1947606789629083
 20
0.1377129600474622
 30
0.0
 11
0.1947606789629083
 21
0.1850011206284398
 31
0.0
  0
LINE
  5
3270
330
2
100
AcDbEntity
  8
0
  6
Continuous
 62
     1
370
     0
100
AcDbLine
 10
0.1990045839235743
 20
0.1370665707019792
 30
0.0
 11
0.1990045839235767
 21
0.1854727000069224
 31
0.0
  0
LINE
  5
3271
330
2
100
AcDbEntity
  8
0
  6
Continuous
 62
     1
370
     0
100
AcDbLine
 10
0.2047395892208943
 20
0.1365267216510721
 30
0.0
 11
0.204739589220892
 21
0.1858499983349006
 31
0.0
  0
LINE
  5
3272
330
2
100
AcDbEntity
  8
0
  6
Continuous
 62
     1
370
     0
100
AcDbLine
 10
0.2109333957990045
 20
0.1363674154742401
 30
0.0
 11
0.2109333957990045
 21
0.1859248396973003
 31
0.0
  0
LINE
  5
3273
330
2
100
AcDbEntity
  8
0
  6
Continuous
 62
     1
370
     0
100
AcDbLine
 10
0.2171272013568661
 20
0.1366459124083032
 30
0.0
 11
0.2171272013568661
 21
0.1856548689938471
 31
0.0
  0
LINE
  5
3274
330
2
100
AcDbEntity
  8
0
  6
Continuous
 62
     1
370
     0
100
AcDbLine
 10
0.2222887068386274
 20
0.1372152640905283
 30
0.0
 11
0.2222887068386274
 21
0.1851647707010716
 31
0.0
  0
LINE
  5
3275
330
2
100
AcDbEntity
  8
0
  6
Continuous
 62
     1
370
     0
100
AcDbLine
 10
0.225557659970324
 20
0.1377371746857134
 30
0.0
 11
0.2255576599703264
 21
0.1847282522292998
 31
0.0
  0
DIMENSION
  5
3279
330
2
100
AcDbEntity
  8
Dimensione
100
AcDbDimension
  2
*D4
 10
0.1272905663848931
 20
0.2305404491857353
 30
0.0
 11
0.1272905663848931
 21
0.1640476671252121
 31
0.0
 70
    32
  1
800 mm
 71
     5
 42
0.1329855641210464
  3
Bovelacci
100
AcDbAlignedDimension
 13
0.1955815094240307
 23
0.0975548850646888
 33
0.0
 14
0.1947007246284471
 24
0.2305404491857352
 34
0.0
 50
90.0
100
AcDbRotatedDimension
  0
LINE
  5
3288
102
{ACAD_REACTORS
330
32C0
102
}
330
2
100
AcDbEntity
  8
Dimensione
100
AcDbLine
 10
0.2211711715164719
 20
0.0935486392624067
 30
0.0
 11
0.1883361360908513
 21
0.0764700461816742
 31
0.0
  0
LINE
  5
3289
102
{ACAD_REACTORS
330
32C0
102
}
330
2
100
AcDbEntity
  8
Dimensione
100
AcDbLine
 10
0.1711114654959006
 20
0.101325182026103
 30
0.0
 11
0.13827643007028
 21
0.0842465889453705
 31
0.0
  0
LINE
  5
328A
102
{ACAD_REACTORS
330
32A6
102
}
330
2
100
AcDbEntity
  8
Dimensione
100
AcDbLine
 10
0.2211711715164719
 20
0.0935486392624067
 30
0.0
 11
0.2575374236688808
 21
0.0878993109402955
 31
0.0
  0
LINE
  5
328C
102
{ACAD_REACTORS
330
32A6
102
}
330
2
100
AcDbEntity
  8
Dimensione
100
AcDbLine
 10
0.2447278086368114
 20
0.1058012290499248
 30
0.0
 11
0.2810940607892203
 21
0.1001519007278136
 31
0.0
  0
DIMENSION
  5
328D
102
{ACAD_XDICTIONARY
360
329B
102
}
102
{ACAD_REACTORS
330
32A6
102
}
330
2
100
AcDbEntity
  8
Dimensione
100
AcDbDimension
  2
*D5
 10
0.2810940607892203
 20
0.1001519007278136
 30
0.0
 11
0.2693157422290505
 21
0.0940256058340546
 31
0.0
 70
    33
  1
350 mm
 71
     5
 42
0.0265526102091782
  3
Bovelacci
100
AcDbAlignedDimension
 13
0.2575374236688808
 23
0.0878993109402955
 33
0.0
 14
0.2810940607892203
 24
0.1001519007278136
 34
0.0
  0
DIMENSION
  5
32A7
102
{ACAD_XDICTIONARY
360
32B5
102
}
102
{ACAD_REACTORS
330
32C0
102
}
330
2
100
AcDbEntity
  8
Dimensione
100
AcDbDimension
  2
*D6
 10
0.1883361360908513
 20
0.0764700461816742
 30
0.0
 11
0.1633062830805656
 21
0.0803583175635223
 31
0.0
 70
    33
  1
350 mm
 71
     5
 42
0.0506601301244047
  3
Bovelacci
100
AcDbAlignedDimension
 13
0.13827643007028
 23
0.0842465889453705
 33
0.0
 14
0.1883361360908513
 24
0.0764700461816742
 34
0.0
  0
VIEWPORT
  5
7B
330
79
100
AcDbEntity
 67
     1
  8
0
100
AcDbViewport
 10
145.330337524414
 20
101.8116638660431
 30
0.0
 40
351.1337450215151
 41
222.1517806396485
 68
     1
 69
     1
 12
145.330337524414
 22
101.8116638660431
 13
0.0
 23
0.0
 14
10.0
 24
10.0
 15
10.0
 25
10.0
 16
0.0
 26
0.0
 36
1.0
 17
0.0
 27
0.0
 37
0.0
 42
50.0
 43
0.0
 44
0.0
 45
222.1517806396485
 50
0.0
 51
0.0
 72
  1000
 90
    32800
  1

281
     0
 71
     1
 74
     0
110
0.0
120
0.0
130
0.0
111
1.0
121
0.0
131
0.0
112
0.0
122
1.0
132
0.0
 79
     0
146
0.0
170
     0
  0
VIEWPORT
  5
80
330
79
100
AcDbEntity
 67
     1
  8
Sezione
100
AcDbViewport
 10
145.3303314447403
 20
101.8116623163223
 30
0.0
 40
232.5285303115845
 41
162.8986597061157
 68
     2
 69
     2
 12
0.2100067158578973
 22
0.1484909068076998
 13
0.0
 23
0.0
 14
10.0
 24
10.0
 15
10.0
 25
10.0
 16
0.0
 26
0.0
 36
1.0
 17
0.0
 27
0.0
 37
0.0
 42
50.0
 43
0.0
 44
0.0
 45
0.2752830087467564
 50
0.0
 51
0.0
 72
  1000
 90
    32864
  1

281
     0
 71
     1
 74
     0
110
0.0
120
0.0
130
0.0
111
1.0
121
0.0
131
0.0
112
0.0
122
1.0
132
0.0
 79
     0
146
0.0
170
     0
  0
ENDSEC
  0
SECTION
  2
OBJECTS
  0
DICTIONARY
  5
9
330
0
100
AcDbDictionary
281
     1
  3
ACAD_2007HEADERVARS_RT
350
14A
  3
ACAD_COLOR
350
A1
  3
ACAD_GROUP
350
9C
  3
ACAD_LAYOUT
350
78
  3
ACAD_MATERIAL
350
B
  3
ACAD_MLINESTYLE
350
9D
  3
ACAD_PLOTSETTINGS
350
9E
  3
ACAD_PLOTSTYLENAME
350
8
  3
ACAD_TABLESTYLE
350
A2
  3
ACAD_VISUALSTYLE
350
7F
  3
AcDbVariableDictionary
350
A9
  3
AEC_CLASSIFICATION_SYSTEM_DEFS
350
1217
  3
AEC_PROPERTY_SET_DEFS
350
10D
  3
ASE_INDEX_DICTIONARY
350
249E
  0
DICTIONARY
  5
8B
330
8A
100
AcDbDictionary
280
     1
281
     1
  3
ACAD_LAYERFILTERS
360
25D9
  3
ACAD_LAYERSTATES
360
8D
  3
ACLYDICTIONARY
360
25D8
  0
DICTIONARY
  5
3
330
2
100
AcDbDictionary
280
     1
281
     1
  3
ACAD_SORTENTS
360
A8
  0
DICTIONARY
  5
329B
330
328D
100
AcDbDictionary
280
     1
281
     1
  3
ACAD_DIMASSOC
360
32A6
  0
DICTIONARY
  5
32B5
330
32A7
100
AcDbDictionary
280
     1
281
     1
  3
ACAD_DIMASSOC
360
32C0
  0
DICTIONARY
  5
14A
102
{ACAD_REACTORS
330
9
102
}
330
9
100
AcDbDictionary
281
     1
  3
DIMFXL
350
14B
  0
DICTIONARY
  5
A1
102
{ACAD_REACTORS
330
9
102
}
330
9
100
AcDbDictionary
281
     1
  0
DICTIONARY
  5
9C
102
{ACAD_REACTORS
330
9
102
}
330
9
100
AcDbDictionary
281
     1
  0
DICTIONARY
  5
78
102
{ACAD_REACTORS
330
9
102
}
330
9
100
AcDbDictionary
281
     1
  3
Layout1
350
82
  3
Layout2
350
89
  3
Model
350
77
  0
DICTIONARY
  5
B
102
{ACAD_REACTORS
330
9
102
}
330
9
100
AcDbDictionary
281
     1
  3
ByBlock
350
A0
  3
ByLayer
350
9F
  3
Global
350
A
  0
DICTIONARY
  5
9D
102
{ACAD_REACTORS
330
9
102
}
330
9
100
AcDbDictionary
281
     1
  3
Standard
350
A3
  0
DICTIONARY
  5
9E
102
{ACAD_REACTORS
330
9
102
}
330
9
100
AcDbDictionary
281
     1
  0
ACDBDICTIONARYWDFLT
  5
8
102
{ACAD_REACTORS
330
9
102
}
330
9
100
AcDbDictionary
281
     1
  3
Normal
350
7
100
AcDbDictionaryWithDefault
340
7
  0
DICTIONARY
  5
A2
102
{ACAD_REACTORS
330
9
102
}
330
9
100
AcDbDictionary
281
     1
  3
Standard
350
A4
  0
DICTIONARY
  5
7F
102
{ACAD_REACTORS
330
9
102
}
330
9
100
AcDbDictionary
281
     1
  3
2dWireframe
350
7E
  3
3D Hidden
350
D8
  3
3dWireframe
350
A6
  3
Basic
350
D7
  3
Brighten
350
DB
  3
ColorChange
350
DF
  3
Conceptual
350
D9
  3
Dim
350
DA
  3
Facepattern
350
DE
  3
Flat
350
D3
  3
FlatWithEdges
350
D4
  3
Gouraud
350
D5
  3
GouraudWithEdges
350
D6
  3
Linepattern
350
DD
  3
Realistic
350
A5
  3
Thicken
350
DC
  0
DICTIONARY
  5
A9
102
{ACAD_REACTORS
330
9
102
}
330
9
100
AcDbDictionary
281
     1
  3
CTABLESTYLE
350
AA
  3
DIMASSOC
350
AE
  3
HIDETEXT
350
AD
  3
INDEXCTL
350
AC
  3
PROJECTNAME
350
16A
  3
SORTENTS
350
AB
  0
DICTIONARY
  5
1217
102
{ACAD_REACTORS
330
9
102
}
330
9
100
AcDbDictionary
281
     1
  0
DICTIONARY
  5
10D
102
{ACAD_REACTORS
330
9
102
}
330
9
100
AcDbDictionary
281
     1
  0
DICTIONARY
  5
249E
102
{ACAD_REACTORS
330
9
102
}
330
9
100
AcDbDictionary
281
     1
  3
ASEBlockHierarchyIndexRecord
350
24A0
1001
DCO15
1040
1602050354.187
  0
DICTIONARY
  5
25D9
102
{ACAD_REACTORS
330
8B
102
}
330
8B
100
AcDbDictionary
281
     1
  0
DICTIONARY
  5
8D
102
{ACAD_REACTORS
330
8B
102
}
330
8B
100
AcDbDictionary
281
     1
  0
DICTIONARY
  5
25D8
102
{ACAD_REACTORS
330
8B
102
}
330
8B
100
AcDbDictionary
281
     1
1001
ACAD
1000
<All
  0
SORTENTSTABLE
  5
A8
102
{ACAD_REACTORS
330
3
102
}
330
3
100
AcDbSortentsTable
330
2
331
22
  5
23
331
13
  5
D
331
110
  5
110
331
1D
  5
1E
331
1CA
  5
1CA
331
11
  5
15
331
16
  5
12
331
25
  5
25
331
23
  5
24
331
1E
  5
1F
331
14
  5
10
331
21
  5
22
331
12
  5
16
331
17
  5
17
331
10F
  5
10F
331
D
  5
13
331
10
  5
14
331
1F
  5
21
331
15
  5
11
331
24
  5
18
  0
DIMASSOC
  5
32A6
102
{ACAD_REACTORS
330
329B
102
}
330
329B
100
AcDbDimAssoc
330
328D
 90
        3
 70
     0
 71
     0
  1
AcDbOsnapPointRef
 72
     1
331
328A
 73
     2
 91
        0
 40
0.9999999999999998
 10
0.0
 20
0.0
 30
2.000000000000000E+50
 75
     0
  1
AcDbOsnapPointRef
 72
     1
331
328C
 73
     2
 91
        0
 40
0.9999999999999998
 10
0.0
 20
0.0
 30
2.000000000000000E+50
 75
     0
  0
DIMASSOC
  5
32C0
102
{ACAD_REACTORS
330
32B5
102
}
330
32B5
100
AcDbDimAssoc
330
32A7
 90
        3
 70
     0
 71
     0
  1
AcDbOsnapPointRef
 72
     1
331
3289
 73
     2
 91
        0
 40
1.0
 10
0.0
 20
0.0
 30
2.000000000000000E+50
 75
     0
  1
AcDbOsnapPointRef
 72
     1
331
3288
 73
     2
 91
        0
 40
1.0
 10
0.0
 20
0.0
 30
2.000000000000000E+50
 75
     0
  0
XRECORD
  5
14B
102
{ACAD_REACTORS
330
14A
102
}
330
14A
100
AcDbXrecord
280
     1
 40
0.18
  0
LAYOUT
  5
82
102
{ACAD_XDICTIONARY
360
83
102
}
102
{ACAD_REACTORS
330
78
102
}
330
78
100
AcDbPlotSettings
  1

  2
C:\Documents and Settings\All Users\Dati applicazioni\Autodesk\ADT 2006\enu\Plotters\Default Windows System Printer.pc3
  4
A4
  6

 40
3.174999952316281
 41
3.174999952316281
 42
3.175003051757812
 43
3.17498779296875
 44
209.9733276367186
 45
297.0106506347656
 46
0.0
 47
0.0
 48
0.0
 49
0.0
140
0.0
141
0.0
142
1.0
143
1.0
 70
   688
 72
     1
 73
     1
 74
     5
  7

 75
    16
147
1.0
 76
     0
 77
     2
 78
   300
148
0.0
149
0.0
100
AcDbLayout
  1
Layout1
 70
     1
 71
     1
 10
-3.17498779296875
 20
-3.174999952316281
 11
293.8356628417969
 21
206.7983276844024
 12
0.0
 22
0.0
 32
0.0
 14
29.06606628894805
 24
20.36233246326446
 34
0.0
 15
261.5945966005325
 25
183.2609921693802
 35
0.0
146
0.0
 13
0.0
 23
0.0
 33
0.0
 16
1.0
 26
0.0
 36
0.0
 17
0.0
 27
1.0
 37
0.0
 76
     0
330
79
331
7B
1001
ACAD_PSEXT
1000
C:\Documents and Settings\All Users\Dati applicazioni\Autodesk\ADT 2006\enu\Plotters\Default Windows System Printer.pc3
1000
Microsoft Office Document Image Writer Driver
1000
Microsoft Document Imaging Writer Port:
1000

1070
     0
  0
LAYOUT
  5
89
102
{ACAD_REACTORS
330
78
102
}
330
78
100
AcDbPlotSettings
  1

  2
C:\Documents and Settings\All Users\Dati applicazioni\Autodesk\ADT 2006\enu\Plotters\Default Windows System Printer.pc3
  4

  6

 40
0.0
 41
0.0
 42
0.0
 43
0.0
 44
0.0
 45
0.0
 46
0.0
 47
0.0
 48
0.0
 49
0.0
140
0.0
141
0.0
142
1.0
143
1.0
 70
   688
 72
     0
 73
     0
 74
     5
  7

 75
    16
147
1.0
 76
     0
 77
     2
 78
   300
148
0.0
149
0.0
100
AcDbLayout
  1
Layout2
 70
     1
 71
     2
 10
0.0
 20
0.0
 11
12.0
 21
9.0
 12
0.0
 22
0.0
 32
0.0
 14
0.0
 24
0.0
 34
0.0
 15
0.0
 25
0.0
 35
0.0
146
0.0
 13
0.0
 23
0.0
 33
0.0
 16
1.0
 26
0.0
 36
0.0
 17
0.0
 27
1.0
 37
0.0
 76
     0
330
86
  0
LAYOUT
  5
77
102
{ACAD_REACTORS
330
78
102
}
330
78
100
AcDbPlotSettings
  1

  2
C:\Documents and Settings\All Users\Dati applicazioni\Autodesk\ADT 2006\enu\Plotters\Default Windows System Printer.pc3
  4

  6

 40
0.0
 41
0.0
 42
0.0
 43
0.0
 44
0.0
 45
0.0
 46
0.0
 47
0.0
 48
0.0
 49
0.0
140
0.0
141
0.0
142
1.0
143
1.0
 70
  1712
 72
     0
 73
     0
 74
     0
  7

 75
     0
147
1.0
 76
     0
 77
     2
 78
   300
148
0.0
149
0.0
100
AcDbLayout
  1
Model
 70
     1
 71
     0
 10
0.0
 20
0.0
 11
12.0
 21
9.0
 12
0.0
 22
0.0
 32
0.0
 14
0.0
 24
0.0
 34
0.0
 15
0.0
 25
0.0
 35
0.0
146
0.0
 13
0.0
 23
0.0
 33
0.0
 16
1.0
 26
0.0
 36
0.0
 17
0.0
 27
1.0
 37
0.0
 76
     0
330
2
  0
MATERIAL
  5
A0
102
{ACAD_XDICTIONARY
360
C7
102
}
102
{ACAD_REACTORS
330
B
102
}
330
B
100
AcDbMaterial
  1
ByBlock
  0
MATERIAL
  5
9F
102
{ACAD_XDICTIONARY
360
C5
102
}
102
{ACAD_REACTORS
330
B
102
}
330
B
100
AcDbMaterial
  1
ByLayer
  0
MATERIAL
  5
A
102
{ACAD_XDICTIONARY
360
B1
102
}
102
{ACAD_REACTORS
330
B
102
}
330
B
100
AcDbMaterial
  1
Global
  0
MLINESTYLE
  5
A3
102
{ACAD_REACTORS
330
9D
102
}
330
9D
100
AcDbMlineStyle
  2
STANDARD
 70
     0
  3

 62
   256
 51
90.0
 52
90.0
 71
     2
 49
0.5
 62
   256
  6
BYLAYER
 49
-0.5
 62
   256
  6
BYLAYER
  0
ACDBPLACEHOLDER
  5
7
102
{ACAD_REACTORS
330
8
102
}
330
8
  0
TABLESTYLE
  5
A4
102
{ACAD_XDICTIONARY
360
155
102
}
102
{ACAD_REACTORS
330
A2
102
}
330
A2
100
AcDbTableStyle
  3
Standard
 70
     0
 71
     0
 40
1.5
 41
1.5
280
     0
281
     0
  7
Standard
140
4.5
170
     2
 62
     0
 63
     7
283
     0
274
    -2
284
     1
 64
     0
275
    -2
285
     1
 65
     0
276
    -2
286
     1
 66
     0
277
    -2
287
     1
 67
     0
278
    -2
288
     1
 68
     0
279
    -2
289
     1
 69
     0
  7
Standard
140
6.0
170
     5
 62
     0
 63
     7
283
     0
274
    -2
284
     1
 64
     0
275
    -2
285
     1
 65
     0
276
    -2
286
     1
 66
     0
277
    -2
287
     1
 67
     0
278
    -2
288
     1
 68
     0
279
    -2
289
     1
 69
     0
  7
Standard
140
4.5
170
     5
 62
     0
 63
     7
283
     0
274
    -2
284
     1
 64
     0
275
    -2
285
     1
 65
     0
276
    -2
286
     1
 66
     0
277
    -2
287
     1
 67
     0
278
    -2
288
     1
 68
     0
279
    -2
289
     1
 69
     0
  0
ACAD_PROXY_OBJECT
  5
7E
102
{ACAD_REACTORS
330
7F
102
}
330
7F
100
AcDbProxyObject
 90
      499
 91
      508
 95
  1310743
 70
     1
100
AcDbVisualStyle
  2
2dWireframe
 70
     4
 71
     0
 72
     2
 73
     0
 90
        0
 40
-0.6
 41
-30.0
 62
     5
 63
     7
 74
     1
 91
        4
 64
     7
 65
   257
 75
     1
175
     1
 42
1.0
 92
        0
 66
   257
 43
1.0
 76
     1
 77
     6
 78
     2
 67
     7
 79
     5
170
     0
171
     0
290
     0
174
     0
 93
        1
 44
0.0
173
     0
291
     0
 45
0.0
1001
ACAD
1000
AcDbSavedByObjectVersion
1070
     0
1000
AcDbSavedByObjectVersion
1070
     0
1000
AcDbSavedByObjectVersion
1070
     0
  0
ACAD_PROXY_OBJECT
  5
D8
102
{ACAD_REACTORS
330
7F
102
}
330
7F
100
AcDbProxyObject
 90
      499
 91
      508
 95
  1310743
 70
     1
100
AcDbVisualStyle
  2
3D Hidden
 70
     6
 71
     1
 72
     2
 73
     2
 90
        0
 40
-0.6
 41
-30.0
 62
     5
 63
     7
 74
     2
 91
        2
 64
     7
 65
   257
 75
     2
175
     1
 42
40.0
 92
        0
 66
   257
 43
1.0
 76
     1
 77
     6
 78
     2
 67
     7
 79
     3
170
     0
171
     0
290
     0
174
     0
 93
        1
 44
0.0
173
     0
291
     0
 45
0.0
1001
ACAD
1000
AcDbSavedByObjectVersion
1070
     0
1000
AcDbSavedByObjectVersion
1070
     0
  0
ACAD_PROXY_OBJECT
  5
A6
102
{ACAD_REACTORS
330
7F
102
}
330
7F
100
AcDbProxyObject
 90
      499
 91
      508
 95
  1310743
 70
     1
100
AcDbVisualStyle
  2
3dWireframe
 70
     5
 71
     0
 72
     2
 73
     0
 90
        0
 40
-0.6
 41
-30.0
 62
     5
 63
     7
 74
     1
 91
        4
 64
     7
 65
   257
 75
     1
175
     1
 42
1.0
 92
        0
 66
   257
 43
1.0
 76
     1
 77
     6
 78
     2
 67
     7
 79
     5
170
     0
171
     0
290
     0
174
     0
 93
        1
 44
0.0
173
     0
291
     0
 45
0.0
1001
ACAD
1000
AcDbSavedByObjectVersion
1070
     0
1000
AcDbSavedByObjectVersion
1070
     0
1000
AcDbSavedByObjectVersion
1070
     0
  0
ACAD_PROXY_OBJECT
  5
D7
102
{ACAD_REACTORS
330
7F
102
}
330
7F
100
AcDbProxyObject
 90
      499
 91
      508
 95
  1310743
 70
     1
100
AcDbVisualStyle
  2
Basic
 70
     7
 71
     1
 72
     0
 73
     1
 90
        0
 40
-0.6
 41
-30.0
 62
     5
 63
     7
 74
     0
 91
        4
 64
     7
 65
   257
 75
     1
175
     1
 42
1.0
 92
        8
 66
     7
 43
1.0
 76
     1
 77
     6
 78
     2
 67
     7
 79
     5
170
     0
171
     0
290
     0
174
     0
 93
        1
 44
0.0
173
     0
291
     1
 45
0.0
1001
ACAD
1000
AcDbSavedByObjectVersion
1070
     0
1000
AcDbSavedByObjectVersion
1070
     0
  0
ACAD_PROXY_OBJECT
  5
DB
102
{ACAD_REACTORS
330
7F
102
}
330
7F
100
AcDbProxyObject
 90
      499
 91
      508
 95
  1310743
 70
     1
100
AcDbVisualStyle
  2
Brighten
 70
    12
 71
     2
 72
     2
 73
     0
 90
        0
 40
-0.6
 41
-30.0
 62
     5
 63
     7
 74
     1
 91
        4
 64
     7
 65
   257
 75
     1
175
     1
 42
1.0
 92
        8
 66
     7
 43
1.0
 76
     1
 77
     6
 78
     2
 67
     7
 79
     5
170
     0
171
     0
290
     0
174
     0
 93
        1
 44
50.0
173
     0
291
     1
 45
0.0
1001
ACAD
1000
AcDbSavedByObjectVersion
1070
     0
1000
AcDbSavedByObjectVersion
1070
     0
  0
ACAD_PROXY_OBJECT
  5
DF
102
{ACAD_REACTORS
330
7F
102
}
330
7F
100
AcDbProxyObject
 90
      499
 91
      508
 95
  1310743
 70
     1
100
AcDbVisualStyle
  2
ColorChange
 70
    16
 71
     2
 72
     2
 73
     3
 90
        0
 40
-0.6
 41
-30.0
 62
     5
 63
     8
 74
     1
 91
        4
 64
     7
 65
   257
 75
     1
175
     1
 42
1.0
 92
        8
 66
     8
 43
1.0
 76
     1
 77
     6
 78
     2
 67
     7
 79
     5
170
     0
171
     0
290
     0
174
     0
 93
        1
 44
0.0
173
     0
291
     1
 45
0.0
1001
ACAD
1000
AcDbSavedByObjectVersion
1070
     0
1000
AcDbSavedByObjectVersion
1070
     0
  0
ACAD_PROXY_OBJECT
  5
D9
102
{ACAD_REACTORS
330
7F
102
}
330
7F
100
AcDbProxyObject
 90
      499
 91
      508
 95
  1310743
 70
     1
100
AcDbVisualStyle
  2
Conceptual
 70
     9
 71
     3
 72
     2
 73
     0
 90
        0
 40
-0.6
 41
-30.0
 62
     5
 63
     7
 74
     2
 91
        2
 64
     7
 65
   257
 75
     1
175
     1
 42
40.0
 92
        8
 66
     7
 43
1.0
 76
     1
 77
     6
 78
     2
 67
     7
 79
     3
170
     0
171
     0
290
     0
174
     0
 93
        1
 44
0.0
173
     0
291
     0
 45
0.0
1001
ACAD
1000
AcDbSavedByObjectVersion
1070
     0
1000
AcDbSavedByObjectVersion
1070
     0
  0
ACAD_PROXY_OBJECT
  5
DA
102
{ACAD_REACTORS
330
7F
102
}
330
7F
100
AcDbProxyObject
 90
      499
 91
      508
 95
  1310743
 70
     1
100
AcDbVisualStyle
  2
Dim
 70
    11
 71
     2
 72
     2
 73
     0
 90
        0
 40
-0.6
 41
-30.0
 62
     5
 63
     7
 74
     1
 91
        4
 64
     7
 65
   257
 75
     1
175
     1
 42
1.0
 92
        8
 66
     7
 43
1.0
 76
     1
 77
     6
 78
     2
 67
     7
 79
     5
170
     0
171
     0
290
     0
174
     0
 93
        1
 44
-50.0
173
     0
291
     1
 45
0.0
1001
ACAD
1000
AcDbSavedByObjectVersion
1070
     0
1000
AcDbSavedByObjectVersion
1070
     0
  0
ACAD_PROXY_OBJECT
  5
DE
102
{ACAD_REACTORS
330
7F
102
}
330
7F
100
AcDbProxyObject
 90
      499
 91
      508
 95
  1310743
 70
     1
100
AcDbVisualStyle
  2
Facepattern
 70
    15
 71
     2
 72
     2
 73
     0
 90
        0
 40
-0.6
 41
-30.0
 62
     5
 63
     7
 74
     1
 91
        4
 64
     7
 65
   257
 75
     1
175
     1
 42
1.0
 92
        8
 66
     7
 43
1.0
 76
     1
 77
     6
 78
     2
 67
     7
 79
     5
170
     0
171
     0
290
     0
174
     0
 93
        1
 44
0.0
173
     0
291
     1
 45
0.0
1001
ACAD
1000
AcDbSavedByObjectVersion
1070
     0
1000
AcDbSavedByObjectVersion
1070
     0
  0
ACAD_PROXY_OBJECT
  5
D3
102
{ACAD_REACTORS
330
7F
102
}
330
7F
100
AcDbProxyObject
 90
      499
 91
      508
 95
  1310743
 70
     1
100
AcDbVisualStyle
  2
Flat
 70
     0
 71
     2
 72
     1
 73
     1
 90
        2
 40
-0.6
 41
30.0
 62
     5
 63
     7
 74
     0
 91
        4
 64
     7
 65
   257
 75
     1
175
     1
 42
1.0
 92
        8
 66
     7
 43
1.0
 76
     1
 77
     6
 78
     2
 67
     7
 79
     5
170
     0
171
     0
290
     0
174
     0
 93
       13
 44
0.0
173
     0
291
     1
 45
0.0
1001
ACAD
1000
AcDbSavedByObjectVersion
1070
     0
1000
AcDbSavedByObjectVersion
1070
     0
  0
ACAD_PROXY_OBJECT
  5
D4
102
{ACAD_REACTORS
330
7F
102
}
330
7F
100
AcDbProxyObject
 90
      499
 91
      508
 95
  1310743
 70
     1
100
AcDbVisualStyle
  2
FlatWithEdges
 70
     1
 71
     2
 72
     1
 73
     1
 90
        2
 40
-0.6
 41
30.0
 62
     5
 63
     7
 74
     1
 91
        4
 64
     7
 65
   257
 75
     1
175
     1
 42
1.0
 92
        0
 66
   257
 43
1.0
 76
     1
 77
     6
 78
     2
 67
     7
 79
     5
170
     0
171
     0
290
     0
174
     0
 93
       13
 44
0.0
173
     0
291
     1
 45
0.0
1001
ACAD
1000
AcDbSavedByObjectVersion
1070
     0
1000
AcDbSavedByObjectVersion
1070
     0
  0
ACAD_PROXY_OBJECT
  5
D5
102
{ACAD_REACTORS
330
7F
102
}
330
7F
100
AcDbProxyObject
 90
      499
 91
      508
 95
  1310743
 70
     1
100
AcDbVisualStyle
  2
Gouraud
 70
     2
 71
     2
 72
     2
 73
     1
 90
        2
 40
-0.6
 41
30.0
 62
     5
 63
     7
 74
     0
 91
        4
 64
     7
 65
   257
 75
     1
175
     1
 42
1.0
 92
        0
 66
     7
 43
1.0
 76
     1
 77
     6
 78
     2
 67
     7
 79
     5
170
     0
171
     0
290
     0
174
     0
 93
       13
 44
0.0
173
     0
291
     1
 45
0.0
1001
ACAD
1000
AcDbSavedByObjectVersion
1070
     0
1000
AcDbSavedByObjectVersion
1070
     0
  0
ACAD_PROXY_OBJECT
  5
D6
102
{ACAD_REACTORS
330
7F
102
}
330
7F
100
AcDbProxyObject
 90
      499
 91
      508
 95
  1310743
 70
     1
100
AcDbVisualStyle
  2
GouraudWithEdges
 70
     3
 71
     2
 72
     2
 73
     1
 90
        2
 40
-0.6
 41
30.0
 62
     5
 63
     7
 74
     1
 91
        4
 64
     7
 65
   257
 75
     1
175
     1
 42
1.0
 92
        0
 66
   257
 43
1.0
 76
     1
 77
     6
 78
     2
 67
     7
 79
     5
170
     0
171
     0
290
     0
174
     0
 93
       13
 44
0.0
173
     0
291
     1
 45
0.0
1001
ACAD
1000
AcDbSavedByObjectVersion
1070
     0
1000
AcDbSavedByObjectVersion
1070
     0
  0
ACAD_PROXY_OBJECT
  5
DD
102
{ACAD_REACTORS
330
7F
102
}
330
7F
100
AcDbProxyObject
 90
      499
 91
      508
 95
  1310743
 70
     1
100
AcDbVisualStyle
  2
Linepattern
 70
    14
 71
     2
 72
     2
 73
     0
 90
        0
 40
-0.6
 41
-30.0
 62
     5
 63
     7
 74
     1
 91
        4
 64
     7
 65
   257
 75
     7
175
     7
 42
1.0
 92
        8
 66
     7
 43
1.0
 76
     1
 77
     6
 78
     2
 67
     7
 79
     5
170
     0
171
     0
290
     0
174
     0
 93
        1
 44
0.0
173
     0
291
     1
 45
0.0
1001
ACAD
1000
AcDbSavedByObjectVersion
1070
     0
1000
AcDbSavedByObjectVersion
1070
     0
  0
ACAD_PROXY_OBJECT
  5
A5
102
{ACAD_REACTORS
330
7F
102
}
330
7F
100
AcDbProxyObject
 90
      499
 91
      508
 95
  1310743
 70
     1
100
AcDbVisualStyle
  2
Realistic
 70
     8
 71
     2
 72
     2
 73
     0
 90
        0
 40
-0.6
 41
-30.0
 62
     5
 63
     7
 74
     1
 91
        0
 64
     7
 65
   257
 75
     1
175
     1
 42
1.0
 92
        8
 66
     8
 43
1.0
 76
     1
 77
     6
 78
     2
 67
     7
 79
     5
170
     0
171
     0
290
     0
174
     0
 93
       13
 44
0.0
173
     0
291
     0
 45
0.0
1001
ACAD
1000
AcDbSavedByObjectVersion
1070
     0
1000
AcDbSavedByObjectVersion
1070
     0
1000
AcDbSavedByObjectVersion
1070
     0
  0
ACAD_PROXY_OBJECT
  5
DC
102
{ACAD_REACTORS
330
7F
102
}
330
7F
100
AcDbProxyObject
 90
      499
 91
      508
 95
  1310743
 70
     1
100
AcDbVisualStyle
  2
Thicken
 70
    13
 71
     2
 72
     2
 73
     0
 90
        0
 40
-0.6
 41
-30.0
 62
     5
 63
     7
 74
     1
 91
        4
 64
     7
 65
   257
 75
     1
175
     1
 42
1.0
 92
       12
 66
     7
 43
1.0
 76
     1
 77
     6
 78
     2
 67
     7
 79
     5
170
     0
171
     0
290
     0
174
     0
 93
        1
 44
0.0
173
     0
291
     1
 45
0.0
1001
ACAD
1000
AcDbSavedByObjectVersion
1070
     0
1000
AcDbSavedByObjectVersion
1070
     0
  0
DICTIONARYVAR
  5
AA
102
{ACAD_REACTORS
330
A9
102
}
330
A9
100
DictionaryVariables
280
     0
  1
STANDARD
  0
DICTIONARYVAR
  5
AE
102
{ACAD_REACTORS
330
A9
102
}
330
A9
100
DictionaryVariables
280
     0
  1
2
  0
DICTIONARYVAR
  5
AD
102
{ACAD_REACTORS
330
A9
102
}
330
A9
100
DictionaryVariables
280
     0
  1
1
  0
DICTIONARYVAR
  5
AC
102
{ACAD_REACTORS
330
A9
102
}
330
A9
100
DictionaryVariables
280
     0
  1
0
  0
DICTIONARYVAR
  5
16A
102
{ACAD_REACTORS
330
A9
102
}
330
A9
100
DictionaryVariables
280
     0
  1

  0
DICTIONARYVAR
  5
AB
102
{ACAD_REACTORS
330
A9
102
}
330
A9
100
DictionaryVariables
280
     0
  1
127
  0
XRECORD
  5
24A0
102
{ACAD_REACTORS
330
249E
102
}
330
249E
100
AcDbXrecord
280
     1
330
0
330
0
330
0
330
0
330
0
330
0
330
0
330
0
330
0
330
0
330
0
330
0
330
0
330
0
330
0
330
0
330
0
330
0
330
0
330
0
330
0
330
0
330
0
330
0
330
0
330
0
  0
DICTIONARY
  5
83
330
82
100
AcDbDictionary
280
     1
281
     1
  3
ADSK_XREC_LAYOUTTHUMBNAIL
360
84
  0
DICTIONARY
  5
C7
330
A0
100
AcDbDictionary
280
     1
281
     1
  3
ACAD_XREC_ROUNDTRIP
360
C8
  0
DICTIONARY
  5
C5
330
9F
100
AcDbDictionary
280
     1
281
     1
  3
ACAD_XREC_ROUNDTRIP
360
C6
  0
DICTIONARY
  5
B1
330
A
100
AcDbDictionary
280
     1
281
     1
  3
ACAD_XREC_ROUNDTRIP
360
B2
  0
DICTIONARY
  5
155
330
A4
100
AcDbDictionary
280
     1
281
     1
  3
ACAD_XREC_ROUNDTRIP
360
156
  0
XRECORD
  5
84
102
{ACAD_REACTORS
330
83
102
}
330
83
100
AcDbXrecord
280
     1
310
28000000B40000007F00000001000800000000004C59000000000000000000000001000000000000FFFFFF0000000000FFFFFF000000000000000000000000000000000000000000000000000000000000000000330000006600000099000000CC000000FF00000000330000333300006633000099330000CC330000FF3300
310
0000660000336600006666000099660000CC660000FF66000000990000339900006699000099990000CC990000FF99000000CC000033CC000066CC000099CC0000CCCC0000FFCC000000FF000033FF000066FF000099FF0000CCFF0000FFFF000000003300330033006600330099003300CC003300FF003300003333003333
310
33006633330099333300CC333300FF33330000663300336633006666330099663300CC663300FF66330000993300339933006699330099993300CC993300FF99330000CC330033CC330066CC330099CC3300CCCC3300FFCC330000FF330033FF330066FF330099FF3300CCFF3300FFFF330000006600330066006600660099
310
006600CC006600FF00660000336600333366006633660099336600CC336600FF33660000666600336666006666660099666600CC666600FF66660000996600339966006699660099996600CC996600FF99660000CC660033CC660066CC660099CC6600CCCC6600FFCC660000FF660033FF660066FF660099FF6600CCFF6600
310
FFFF660000009900330099006600990099009900CC009900FF00990000339900333399006633990099339900CC339900FF33990000669900336699006666990099669900CC669900FF66990000999900339999006699990099999900CC999900FF99990000CC990033CC990066CC990099CC9900CCCC9900FFCC990000FF99
310
0033FF990066FF990099FF9900CCFF9900FFFF99000000CC003300CC006600CC009900CC00CC00CC00FF00CC000033CC003333CC006633CC009933CC00CC33CC00FF33CC000066CC003366CC006666CC009966CC00CC66CC00FF66CC000099CC003399CC006699CC009999CC00CC99CC00FF99CC0000CCCC0033CCCC0066CC
310
CC0099CCCC00CCCCCC00FFCCCC0000FFCC0033FFCC0066FFCC0099FFCC00CCFFCC00FFFFCC000000FF003300FF006600FF009900FF00CC00FF00FF00FF000033FF003333FF006633FF009933FF00CC33FF00FF33FF000066FF003366FF006666FF009966FF00CC66FF00FF66FF000099FF003399FF006699FF009999FF00CC
310
99FF00FF99FF0000CCFF0033CCFF0066CCFF0099CCFF00CCCCFF00FFCCFF0000FFFF0033FFFF0066FFFF0099FFFF00CCFFFF00FFFFFF00000000000D0D0D001A1A1A00282828003535350043434300505050005D5D5D006B6B6B00787878008686860093939300A1A1A100AEAEAE00BBBBBB00C9C9C900D6D6D600E4E4E400
310
F1F1F100FFFFFF0000000000000000000000000000000000000000000000000000000000000000000000000000000000E2E2E2E2E2E2E2E2E2E2E2E2E2E2E2E2E2E2E2E2E2E2E2E2E2E2E2E2E2E2E2E2E2E2E2E2E2E2E2E2E2E2E2E2E2E2E2E2E2E2E2E2E2E2E2E2E2E2E2E2E2E2E2E2E2E2E2E2E2E2E2E2E2E2E2E2E2E2E2
310
E2E2E2E2E2E2E2E2E2E2E2E2E2E2E2E2E2E2E2E2E2E2E2E2E2E2E2E2E2E2E2E2E2E2E2E2E2E2E2E2E2E2E2E2E2E2E2E2E2E2E2E2E2E2E2E2E2E2E2E2E2E2E2E2E2E2E2E2E2E2E2E2E2E2E2E2E2E2E2E2E2E2E2E2E2E2E2E2E2E2E2E2E2E2E2E2E2E2E2E2E2E2F5F5F5F5F5F5F5F5F5F5F5F5F5F5F5F5F5F5F5F5F5F5F5F5F5
310
F5F5F5F5F5F5F5F5F5F5F5F5F5F5F5F5F5F5F5F5F5F5F5F5F5F5F5F5F5F5F5F5F5F5F5F5F5F5F5F5F5F5F5F5F5F5F5F5F5F5F5F5F5F5F5F5F5F5F5F5F5F5F5F5F5F5F5F5F5F5F5F5F5F5F5F5F5F5F5F5F5F5F5F5F5F5F5F5F5F5F5F5F5F5F5F5F5F5F5F5F5F5F5F5F5F5F5F5F5F5F5F5F5F5F5F5F5F5F5F5F5F5F5F5F5F5F5
310
F5F5F5F5F5F5F5F5F5F5F5F5F5F5F5F5F5F5F5F5F5F5F5F5F5F5E2E2F5E2E2E2E2E2E2E2E2E2F5F5F5F5F5F5F5F5F5E2E2E2E2E2E2E2E2E2E2E2E2E2E2E2E2F5F5F5F5F5F5F5F5F5E2E2E2E2E2E2E2E2E2E2E2E2E2E2E2E2F5F5F5F5F5F5F5F5F5E2E2E2E2E2E2E2E2E2E2E2E2E2E2E2E2F5F5F5F5F5F5F5F5F5E2E2E2E2E2
310
E2E2E2E2E2E2E2E2E2E2E2F5F5F5F5F5F5F5F5F5E2E2E2E2E2E2E2E2E2E2E2E2E2E2E2E2F5F5F5F5F5F5F5F5F5E2E2E2E2E2E2E2E2E2E2E2E2E2E2E2E2F5F5F5F5F5F5F5F5F5E2E2E2E2E2E2E2E2F5E2E2F5E2F5F5F5F5F5F5F5F5F5F5F5F5F5F5F5F5F5F5F5F5F5F5F5F5F5F5F5F5F5F5F5F5F5F5F5F5F5F5F5F5F5F5F5F5
310
F5F5F5F5F5F5F5F5F5F5F5F5F5F5F5F5F5F5F5F5F5F5F5F5F5F5F5F5F5F5F5F5F5F5F5F5F5F5F5F5F5F5F5F5F5F5F5F5F5F5F5F5F5F5F5F5F5F5F5F5F5F5F5F5F5F5F5F5F5F5F5F5F5F5F5F5F5F5F5F5F5F5F5F5F5F5F5F5F5F5F5F5F5F5F5F5F5F5F5F5F5F5F5F5F5F5F5F5F5F5F5F5F5F5F5F5F5F5F5F5F5F5F5F5F5F5F5
310
F5F5F5E2F5E2E2F5E2F5F5F5F5F5F5F5F5F5F5F5F5F5F5F5F5F5F5F5F5F5F5F5F5F5F5F5F5F5F5F5F5F5F5F5F5F5F5F5F5F5F5F5F5F5F5F5F5F5F5F5F5F5F5F5F5F5F5F5F5F5F5F5F5F5F5F5F5F5F5F5F5F5F5F5F5F5F5F5F5F5F5F5F5F5F5F5F5F5F5F5F5F5F5F5F5F5F5F5F5F5F5F5F5F5F5F5F5F5F5F5F5F5F5F5F5F5F5
310
F5F5F5F5F5F5F5F5F5F5F5F5F5F5F5F5F5F5F5F5F5F5F5F5F5F5F5F5F5F5F5F5F5F5F5F5F5F5F5F5F5F5F5F5F5F5F5F5F5F5F5F5F5F5F5F5E2F5E2E2F5E2F5F5F5F5F5F5F5F5F5F5F5F5F5F5F5F5F5F5F5F5F5F5F5F5F5F5F5F5F5F5F5F5F5F5F5F5F5F5F5F5F5F5F5F5F5F5F5F5F5F5F5F5F5F5F5F5F5F5F5F5F5F5F5F5F5
310
F5F5F5F5F5F5F5F5F5F5F5F5F5F5F5F5F5F5F5F5F5F5F5F5F5F5F5F5F5F5F5F5F5F5F5F5F5F5F5F5F5F5F5F5F5F5F5F5F5F5F5F5F5F5F5F5F5F5F5F5F5F5F5F5F5F5F5F5F5F5F5F5F5F5F5F5F5F5F5F5F5F5F5F5F5F5F5F5F5F5F5F5F5F5F5F5F5F5F5F5F5F5F5F5F5F5F5F5F5E2F5E2E2F5E2F5F5F5F5F5F5F5F5F5F5F5F5
310
F5F5F5F5F5F5F5F5F5F5F5F5F5F5F5F5F5F5F5F5F5F5F5F5F5F5F5F5F5F5F5F5F5F5F5F5F5F5F5F5F5F5F5F5F5F5F5F5F5F5F5F5F5F5F5F5F5F5F5F5F5F5F5F5F5F5F5F5F5F5F5F5F5F5F5F5F5F5F5F5F5F5F5F5F5F5F5F5F5F5F5F5F5F5F5F5F5F5F5F5F5F5F5F5F5F5F5F5F5F5F5F5F5F5F5F5F5F5F5F5F5F5F5F5F5F5F5
310
F5F5F5F5F5F5F5F5F5F5F5F5F5F5F5F5F5F5F5F5F5F5F5F5F5F5F5F5F5F5F5F5F5F5F5E2F5E2E2F5E2F5F5F5F5F5F5F5F5F5F5F5F5F5F5F5F5F5F5F5F5F5F5F5F5F5F5F5F5F5F5F5F5F5F5F5F5F5F5F5F5F5F5F5F5F5F5F5F5F5F5F5F5F5F5F5F5F5F5F5F5F5F5F5F5F5F5F5F5F5F5F5F5F5F5F5F5F5F5F5F5F5F5F5F5F5F5
310
F5F5F5F5F5F5F5F5F5F5F5F5F5F5F5F5F5F5F5F5F5F5F5F5F5F5F5F5F5F5F5F5F5F5F5F5F5F5F5F5F5F5F5F5F5F5F5F5F5F5F5F5F5F5F5F5F5F5F5F5F5F5F5F5F5F5F5F5F5F5F5F5F5F5F5F5F5F5F5F5F5F5F5F5F5F5F5F5E2F5E2E2F5E2F5F5F5F5F5F5F5F5F5F5F5F5F5F5F5F5F5F5F5F5F5F5F5F5F5F5F5F5F5F5F5F5F5
310
F5F5F5F5F5F5F5F5F5F5F5F5F5F5F5F5F5F5F5F5F5F5F5F5F5F5F5F5F5F5F5F5F5F5F5F5F5F5F5F5F5F5F5F5F5F5F5F5F5F5F5F5F5F5F5F5F5F5F5F5F5F5F5F5F5F5F5F5F5F5F5F5F5F5F5F5F5F5F5F5F5F5F5F5F5F5F5F5F5F5F5F5F5F5F5F5F5F5F5F5F5F5F5F5F5F5F5F5F5F5F5F5F5F5F5F5F5F5F5F5F5F5F5F5F5F5F5
310
F5F5F5F5F5F5F5F5F5F5F5F5F5F5E2F5E2E2F5E2F5F5F5F5F5F5F5F5F5F5F5F5F5F5F5F5F5F5F5F5F5F5F5F5F5F5F5F5F5F5F5F5F5F5F5F5F5F5F5F5F5F5F5F5F5F5F5F5F5F5F5F5F5F5F5F5F5F5F5F5F5F5F5F5F5F5F5F5F5F5F5F5F5F5F5F5F5F5F5F5F5F5F5F5F5F5F5F5F5F5F5F5F5F5F5F5F5F5F5F5F5F5F5F5F5F5F5
310
F5F5F5F5F5F5F5F5F5F5F5F5F5F5F5F5F5F5F5F5F5F5F5F5F5F5F5F5F5F5F5F5F5F5F5F5F5F5F5F5F5F5F5F5F5F5F5F5F5F5F5F5F5F5F5F5F5F5F5F5F5F5F5F5F5F5F5E2F5E2E2F5F5F5F5F5F5F5F5F5F5F5F5F5F5F5F5F5F5F5F5F5F5F5F5F5F5F5F5F5F5F5F5F5F5F5F5F5F5F5F5F5F5F5F5F5F5F5F5F5F5F5F5F5F5F5F5
310
F5F5F5F5F5F5F5F5F5F5F5F5F5F5F5F5F5F5F5F5F5F5F5F5F5F5F5F5F5F5F5F5F5F5F5F5F5F5F5F5F5F5F5F5F5F5F5F5F5F5F5F5F5F5F5F5F5F5F5F5F5F5F5F5F5F5F5F5F5F5F5F5F5F5F5F5F5F5F5F5F5F5F5F5F5F5F5F5F5F5F5F5F5F5F5F5F5F5F5F5F5F5F5F5F5F5F5F5F5F5F5F5F5F5F5F5F5F5F5F5F5F5E2E2F5F5F5
310
F5F5F5F5F5F5F5F5F5F5F5F5F5F5F5F5F5F5F5F5F5F5F5F5F5F5F5F5F5F5F5F5F5F5F5F5F5F5F5F5F5F5F5F5F5F5F5F5F5F5F5F5F5F5F5F5F5F5F5F5F5F5F5F5F5F5F5F5F5F5F5F5F5F5F5F5F5F5F5F5F5F5F5F5F5F5F5F5F5F5F5F5F5F5F5F5F5F5F5F5F5F5F5F5F5F5F5F5F5F5F5F5F5F5F5F5F5F5F5F5F5F5F5F5F5F5F5
310
F5F5F5F5F5F5F5F5F5F5F5F5F5F5F5F5F5F5F5F5F5F5F5F5F5F5F5F5F5F5F5F5F5F5F5F5F5F5F5F5F5F5F5F5F5F5F5F5E2E2F5F5F5F5F5F5F5F5F5F5F5F5F5F5F5F5F5F5F5F5F5F5F5F5F5F5F5F5F5F5F5F5F5F5F5F5F5F5F5F5F5F5F5F5F5F5F5F5F5F5F5F5F5F5F5F5F5F5F5F5F5F5F5F5F5F5F5F5F5F5F5F5F5F5F5F5F5
310
F5F5F5F5F5F5F5F5F5F5F5F5F5F5F5F5F5F5F5F5F5F5F5F5F5F5F5F5F5F5F5F5F5F5F5F5F5F5F5F5F5F5F5F5F5F5F5F5F5F5F5F5F5F5F5F5F5F5F5F5F5F5F5F5F5F5F5F5F5F5F5F5F5F5F5F5F5F5F5F5F5F5F5F5F5F5F5F5F5F5F5F5F5F5F5F5F5F5F5F5F5E2E2F5F5F5F5F5F5F5F5F5F5F5F5F5F5F5F5F5F5F5F5F5F5F5F5
310
F5F5F5F5F5F5F5F5F5F5F5F5F5F5F5F5F5F5F5F5F5F5F5F5F5F5F5F5F5F5F5F5F5F5F5F5F5F5F5F5F5F5F5F5F5F5F5F5F5F5F5F5F5F5F5F5F5F5F5F5F5F5F5F5F5F5F5F5F5F5F5F5F5F5F5F5F5F5F5F5F5F5F5F5F5F5F5F5F5F5F5F5F5F5F5F5F5F5F5F5F5F5F5F5F5F5F5F5F5F5F5F5F5F5F5F5F5F5F5F5F5F5F5F5F5F5F5
310
F5F5F5F5F5F5F5F5F5F5F5F5F5F5F5F5F5F5F5F5F5F5F5F5F5F5F5E2E2F5F5F5F5F5F5F5F5F5F5F5F5F5F5F5F5F5F5F5DCDCDCDCDCDCDCDCDCDCDCDCDCDCDCDCDCDCDCDCDCDCDCDCDCDCDCDCDCDCDCDCDCDCDCDCDCDCDCDCDCDCDCDCDCDCDCDCDCDCDCDCDCDCDCDCDCDCDCDCDCDCDCDCDCDCDCDCDCDCDCDCDCDCDCDCDCDCDC
310
DCDCDCDCDCDCDCDCDCDCDCDCDCDCDCDCDCDCDCDCDCDCDCDCDCDCDCDCDCDCDCDCDCDCDCDCDCDCDCDCDCDCDCDCDCDCDCDCDCDCDCDCDCDCDCDCDCDCDCDCDCF5F5F5F5F5F5F5F5F5F5F5F5F5F5F5F5F5F5F5E2E2F5F5F5F5F5F5F5F5F5F5F5F5F5F5F5F5F5F5F5DCDCDCDCDCDCDCDCDCDCDCDCDCDCDCDCDCDCDCDCDCDCDCDCDCDC
310
DCDCDCDCDCDCDCDCDCDCDCDCDCDCDCDCDCDCDCDCDCDCDCDCDCDCDCDCDCDCDCDCDCDCDCDCDCDCDCDCDCDCDCDCDCDCDCDCDCDCDCDCDCDCDCDCDCDCDCDCDCDCDCDCDCDCDCDCDCDCDCDCDCDCDCDCDCDCDCDCDCDCDCDCDCDCDCDCDCDCDCDCDCDCDCDCDCDCDCDCDCDCDCDCDCDCDCDCDCDCDCDCDCDCF5F5F5F5F5F5F5F5F5F5F5F5F5
310
F5F5F5F5F5F5E2E2F5F5F5F5F5F5F5F5F5F5F5F5F5F5F5F5F5F5F5DCF5F5F5F5F5F5F5F5F5F5F5F5F5F5F5F5F5F5F5F5F5F5F5F5F5F5F5F5F5F5F5F5F5F5F5F5F5F5F5F5F5F5F5F5F5F5F5F5F5F5F5F5F5F5F5F5F5F5F5F5F5F5F5F5F5F5F5F5F5F5F5F5F5F5F5F5F5F5F5F5F5F5F5F5F5F5F5F5F5F5F5F5F5F5F5F5F5F5F5
310
F5F5F5F5F5F5F5F5F5F5F5F5F5F5F5F5F5F5F5F5F5F5F5F5F5F5F5F5F5F5F5F5F5F5F5F5F5F5F5DCF5F5F5F5F5F5F5F5F5F5F5F5F5F5F5F5F5F5F5E2E2F5F5F5F5F5F5F5F5F5F5F5F5F5F5F5F5F5F5F5DCF5282828282828282828282828282828282828282828282828282828282828282828282828282828282828282828
310
28282828282828282828282828282828282828282828282828282828282828282828282828282828282828282828282828282828282828282828282828282828282828282828282828282828282828282828282828282828282828F5DCF5F5F5F5F5F5F5F5F5F5F5F5F5F5F5F5F5F5F5E2E2F5F5F5F5F5F5F5F5F5F5F5F5F5
310
F5F5F5F5F5F5DCF5282D2D2D2D2D2D2D2D2D2D2D2D2D2D2D2D2D2D2D2D2DF5F5F5F5F5F5F5F5F5F5F5F5F5F5F5F5F5F5F5F5F5F5F5F5F5F5F5F5F5F5F5F5F5F5F5F5F5F5F5F5F5F5F5F5F528F5F5F5F5F5F5F5F5F5F5F5F5F5F5F5F5F5F5F5F5F5F5F5F5F5F5F5F5F5F5F5F5F5F5F5F5F5F5F5F5F5F5F5F5F5F5F5F5F5F5F5
310
F5F5F5F5F5F5F5F5F5F5F5F5F5F5F5F528F5DCF5F5F5F5F5F5F5F5F5F5F5F5F5F5F5F5F5F5F5E2E2F5E2F5F5F5F5F5F5F5F5F5F5F5F5F5F5F5F5F5DCF5282D2D2D2D2D2D2D2D2D2D2D2D2D2D2D2D2D2D2D2D2D2D2D2D2D2D2D2D2DF5F5F5F5F5F5F5F5F5F5F5F5F5F5F5F5F5F5F5F5F5F5F5F5F5F5F5F5F5F5F5F5F5F5F5F5
310
F528F5F5F5F5F5F5F5F5F5F5F5F5F5F5F5F5F5F5F5F5F5F5F5F5F5F5F5F5F5F5F5F5F5F5F5F5F5F5F5F5F5F5F5F5F5F5F5F5F5F5F5F5F5F5F5F5F5F5F5F5F5F5F5F5F5F5F528F5DCF5F5F5F5F5F5F5F5F5F5F5F5F5F5F5F5F5E2F5E2E2F5E2F5F5F5F5F5F5F5F5F5F5F5F5F5F5F5F5F5DCF5282D2D2D2D2D2D2D2D2D2D2D2D
310
2D2D2D2D2D2D2D2D2D2D2D2D2D2D2D2D2DF5F5F5F5F5F5F5F5F5F5F5F5F5F5F5F5F5F5F5F5F5F5F5F5F5F5F5F5F5F5F5F5F5F5F5F5F528F5F5F5F5F5F5F5F52D2D2D2D2D2D2D2D2D2D2D2D2D2D2D2D2D2D2D2D2D2D2D2D2D2D2D2D2D2D2D2D2D2D2D2D2D2D2D2D2D2D2D2D2D2D2D2D2D2D2DF5F5F5F5F5F5F5F528F5DCF5F5
310
F5F5F5F5F5F5F5F5F5F5F5F5F5F5F5E2F5E2E2F5E2F5F5F5F5F5F5F5F5F5F5F5F5F5F5F5F5F5DCF5282D2D2D2D2D2D2D2D2D2D2D2D2D2D2D2D2D2D2D2D2D2D2D2D2D2D2D2D2D2D2D2D2D2D2D2D2D2D2D2D2D2D2D2D2D2D2D2D2D2D2D2D2D2D2D2D2D2D2D2D2D2D2D2D2D2D28F5F5F5F5F5F5F5F52D2D2D2D2D2D2D2D2D2D2D
310
2D2D2D2D2D2D2D2D2D2D2D2D2D2D2D2D2D2D2D2D2D2D2D2D2D2D2D2D2D2D2D2D2D2D2D2D2D2D2D2DF5F5F5F5F5F5F5F528F5DCF5F5F5F5F5F5F5F5F5F5F5F5F5F5F5F5F5E2F5E2E2F5E2F5F5F5F5F5F5F5F5F5F5F5F5F5F5F5F5F5DCF5282D2D2D2D2D2D2D2D2D2D2D2D2D2D2D2D2D2D2D2D2D2D2D2D2D2D2D2D2D2D2D2D2D
310
2D2D2D2D2D2D2D2D2D2D2D2D2D2D2D2D2D2D2D2D2D2D2D2D2D2D2D2D2DF5F5F5F528F5F5F5F5F5F5F5F5F5F5F5F52D2D2D2D2D2D2D2D2D2D2D2D2D2D2D2D2D2D2D2D2D2D2D2D2D2D2D2D2D2D2D2D2D2D2D2D2D2D2D2D2D2DF5F5F5F5F5F5F5F5F5F5F5F5F528F5DCF5F5F5F5F5F5F5F5F5F5F5F5F5F5F5F5F5E2F5E2E2F5E2
310
F5F5F5F5F5F5F5F5F5F5F5F5F5F5F5F5F5DCF5282D2D2D2D2D2D2D2D2D2D2D2D2D2D2D2D2D2D2D2D2D2D2D2D2D2D2D2D2D2D2D2D2D2D2D2D2D2D2D2D2D2D2D2D2D2D2D2D2D2D2D2D2D2D2D2D2D2D2D2D2D2DF5F5F5F528F5F5F5F5F5F5F5F5F5F5F5F52D2D2D2D2D2D2D2D2D2D2D2D2D2D2D2D2D2D2D2D2D2D2D2D2D2D2D2D
310
2D2D2D2D2D2D2D2D2D2D2D2D2D2DF5F5F5F5F5F5F5F5F5F5F5F5F528F5DCF5F5F5F5F5F5F5F5F5F5F5F5F5F5F5F5F5E2F5E2E2F5E2F5F5F5F5F5F5F5F5F5F5F5F5F5F5F5F5F5DCF5282D2D2D2D2D2D2D2D2D2D2D2D2D2D2D2D2D2D2D2D2D2D2D2D2D2D2D2D2D2D2D2D2D2D2D2D2D2D2D2D2D2D2D2D2D2D2D2D2D2D2D2D2D2D
310
2D2D2D2D2DF5F5F5F5F5F5F528F5F5F5F5F5F5F5F5F5F5F5F5F5F5F5F5F5F5F5F5F5F5F5F5F5F5F5F52D2D2D2D2D2D2D2D2D2DF5F5F5F5F5F5F5F5F5F5F5F5F5F5F5F5F5F5F5F5F5F5F5F5F5F5F5F5F528F5DCF5F5F5F5F5F5F5F5F5F5F5F5F5F5F5F5F5E2F5E2E2F5E2F5F5F5F5F5F5F5F5F5F5F5F5F5F5F5F5F5DCF5282D
310
2D2D2D2D2D2D2D2D2D2D2D2D2D2D2D2D2D2D2D2D2D2D2D2D2D2D2D2D2D2D2DF5F5F5F5F5F5F5F5F5F5F5F5F5F5F5F5F5F5F5F5F5F5F5F5F5F5F5F5F5F5F5F5F5F528F5F5F5F5F5F5F5F5F5F5F5F5F5F5F5F5F5F5F5F5F5F5F5F5F5F5F5F52D2D2D2D2D2D2D2D2D2DF5F5F5F5F5F5F5F5F5F5F5F5F5F5F5F5F5F5F5F5F5F5F5
310
F5F5F5F5F5F528F5DCF5F5F5F5F5F5F5F5F5F5F5F5F5F5F5F5F5E2F5E2E2F5E2F5F5F5F5F5F5F5F5F5F5F5F5F5F5F5F5F5DCF5282D2D2D2D2D2D2D2D2D2D2D2D2D2D2D2D2D2D2D2D2D2D2D2D2D2D2D2D2D2D2D2DF5F5F5F5F5F5F5F5F5F5F5F5F5F5F5F5F5F5F5F5F5F5F5F5F5F5F5F5F5F5F5F5F5F528F5F5F5F5F5F5F5F5
310
F5F5F5F5F5F5F5F5F5F5F5F5F5F5F5F5F5F5F5F52D2D2D2D2D2D2D2D2D2DF5F5F5F5F5F5F5F5F5F5F5F5F5F5F5F5F5F5F5F5F5F5F5F5F5F5F5F5F528F5DCF5F5F5F5F5F5F5F5F5F5F5F5F5F5F5F5F5E2F5E2E2F5E2F5F5F5F5F5F5F5F5F5F5F5F5F5F5F5F5F5DCF5282D2D2D2D2D2D2D2D2D2D2D2D2D2D2D2D2D2D2D2D2D2D
310
2D2D2D2D2D2D2D2D2D2D2D2D2D2D2D2D2D2D2D2D2D2D2D2D2D2D2D2D2D2D2D2D2D2D2D2D2D2D2D2D2D2DF5F528F5F5F5F5F5F5F5F5F5F5F5F5F5F5F5F5F5F5F5F5F5F5F5F5F5F5F5F5F5F5F5F5F5F5F5F5F5F5F5F5F5F5F5F5F5F5F5F5F5F5F5F5F5F5F5F5F5F5F5F5F5F5F5F5F5F5F528F5DCF5F5F5F5F5F5F5F5F5F5F5F5
310
F5F5F5F5F5E2F5E2E2F5E2F5F5F5F5F5F5F5F5F5F5F5F5F5F5F5F5F5DCF528F5F5F5F5F5F5F5F5F5F5F5F5F5F5F5F5F5F5F5F5F5F5F5F5F5F5F5F5F5F5F5F5F5F5F5F5F5F5F5F5F5F5F5F5F5F5F5F5F5F5F5F5F5F5F5F5F5F5F5F5F5F5F5F5F5F528F5F5F5F5F5F5F5F5F5F5F5F5F5F5F5F5F5F5F5F5F5F5F5F5F5F5F5F5F5
310
F5F5F5F5F5F5F5F5F5F5F5F5F5F5F5F5F5F5F5F5F5F5F5F5F5F5F5F5F5F5F5F5F5F5F5F5F5F528F5DCF5F5F5F5F5F5F5F5F5F5F5F5F5F5F5F5F5E2F5E2E2F5E2F5F5F5F5F5F5F5F5F5F5F5F5F5F5F5F5F5DCF52828282828282828282828282828282828282828282828282828282828282828282828282828282828282828
310
2828282828282828282828282828282828282828282828282828282828282828282828282828282828282828282828282828282828282828282828282828282828282828282828282828282828282828282828282828282828282828F5DCF5F5F5F5F5F5F5F5F5F5F5F5F5F5F5F5F5E2F5E2E2F5E2F5F5F5F5F5F5F5F5F5F5
310
F5F5F5F5F5F5F5DCF528F5F5F5F5F5F5F5F5F5F5F5F5F5F5F5F5F5F5F5F5F5F5F5F5F5F5F5F5F5F5F5F5F5F5F5F5F5F5F5F5F5F5F5F5F5F5F5F5F5F5F5F5F5F5F5F5F5F5F5F5F5F5F5F5F5F5F5F5F5F5F5F5F5F5F5F5F5F5F5F5F5F5F5F5F5F5F5F5F5F5F5F5F5F5F5F5F5F5F5F5F5F5F5F5F5F5F5F5F5F5F5F5F5F5F5F5F5
310
F5F5F5F5F5F5F5F5F5F5F5F5F5F5F5F5F528F5DCF5F5F5F5F5F5F5F5F5F5F5F5F5F5F5F5F5E2F5E2E2F5E2F5F5F5F5F5F5F5F5F5F5F5F5F5F5F5F5F5DCF528F5F5F5F5F5F5F5F5F5F5F5F5F5F5F5F5F5F5F5F5F5F5F5F5F5F5F5F5F5F5F5F5F5F5F5F5F5F5F5F5F5F5F5F5F5F5F5F5F5F5F5F5F5F5F5F5F5F5F5F5F5F5F5F5
310
F5F5F5F5F5F5F5F5F5F5F5F5F5F5F5F5F5F5F5F5F5F5F5F5F5F5F5F5F5F5F5F5F5F5F5F5F5F5F5F5F5F5F5F5F5F5F5F5F5F5F5F5F5F5F5F5F5F5F5F5F5F5F5F5F5F5F5F5F5F528F5DCF5F5F5F5F5F5F5F5F5F5F5F5F5F5F5F5F5E2F5E2E2F5E2F5F5F5F5F5F5F5F5F5F5F5F5F5F5F5F5F5DCF528F5F5F5F5F5F5F5F5F5F5F5
310
F5F5F5F5F5F5F5F5F5F5F5F5F5F5F5F5F5F5F5F5F5F5F5F5F5F5F5F5F5F5F5F5F5F5F5F5F5F5F5F5F5F5F5F5F5F5F5F5F5F5F5F5F5F5F5F5F5F5F5F5F5F5F5F5F5F5F5F5F5F5F5F5F5F5F5F5F5F5F5F5F5F5F5F5F5F5F5F5F5F5F5F5F5F5F5F5F5F5F5F5F5F5F5F5F5F5F5F5F5F5F5F5F5F5F5F5F5F5F5F5F5F5F528F5DCF5
310
F5F5F5F5F5F5F5F5F5F5F5F5F5F5F5F5E2F5E2E2F5E2F5F5F5F5F5F5F5F5F5F5F5F5F5F5F5F5F5DCF528F5F5F5F5F5F5F5F5F5F5F5F5F5F5F5F5F5F5F5F5F5F5F5F5F5F5F5F5F5F5F5F5F5F5F5F5F5F5F5F5F5F5F5F5F5F5F5F5F5F5F5F5F5F5F5F5F5F5F5F5F5F5F5F5F5F5F5F5F5F5F5F5F5F5F5F5F5F5F5F5F5F5F5F5F5
310
F5F5F5F5F5F5F5F5F5F5F5F5F5F5F5F5F5F5F5F5F5F5F5F5F5F5F5F5F5F5F5F5F5F5F5F5F5F5F5F5F5F5F5F5F5F5F5F5F528F5DCF5F5F5F5F5F5F5F5F5F5F5F5F5F5F5F5F5E2F5E2E2F5E2F5F5F5F5F5F5F5F5F5F5F5F5F5F5F5F5F5DCF528F5F5F5F5F5F5F5F5F5F5F5F5F5F5F5F5F5F5F5F5F5F5F5F5F5F5F5F5F5F5F5F5
310
F5F5F5F5F5F5F5F5F5F5F5F5F5F5F5F5F5F5F5F5F5F5F5F5F5F5F5F5F5F5F5F5F5F5F5F5F5F5F5F5F5F5F5F5F5F5F5F5F5F5F5F5F5F5F5F5F5F5F5F5F5F5F5F5F5F5F5F5F5F5F5F5F5F5F5F5F5F5F5F5F5F5F5F5F5F5F5F5F5F5F5F5F5F5F5F5F5F5F5F5F5F528F5DCF5F5F5F5F5F5F5F5F5F5F5F5F5F5F5F5F5E2F5E2E2F5
310
F5F5F5F5F5F5F5F5F5F5F5F5F5F5F5F5F5F5DCF528F5F5F5F5F5F5F5F5F5F5F5F5F5F5F5F5F5F5F5F5F5F5F5F5F5F5F5F5F5F5F5F5F5F5F5F5F5F5F5F5F5F5F5F5F5F5F5F5F5F5F5F5F5F5F5F5F5F5F5F5F5F5F5F5F5F5F5F5F5F5F5F5F5F5F5F5F5F5F5F5F5F5F5F5F5F5F5F5F5F5F5F5F5F5F5F5F5F5F5F5F5F5F5F5F5F5
310
F5F5F5F5F5F5F5F5F5F5F5F5F5F5F5F5F5F5F5F5F5F5F5F5F5F5F5F528F5DCF5F5F5F5F5F5F5F5F5F5F5F5F5F5F5F5F5F5F5E2E2F5F5F5F5F5F5F5F5F5F5F5F5F5F5F5F5F5F5F5DCF528F5F5F5F5F5F5F5F5F5F5F5F5F5F5F5F5F5F5F5F5F5F5F5F5F5F5F5F5F5F5F5F5F5F5F5F5F5F5F5F5F5F5F5F5F5F5F5F5F5F5F5F5F5
310
F5F5F5F5F5F5F5F5F5F5F5F5F5F5F5F5F5F5F5F5F5F5F5F5F5F5F5F5F5F5F5F5F5F5F5F5F5F5F5F5F5F5F5F5F5F5F5F5F5F5F5F5F5F5F5F5F5F5F5F5F5F5F5F5F5F5F5F5F5F5F5F5F5F5F5F5F5F5F5F5F528F5DCF5F5F5F5F5F5F5F5F5F5F5F5F5F5F5F5F5F5F5E2E2F5F5F5F5F5F5F5F5F5F5F5F5F5F5F5F5F5F5F5DCF528
310
F5F5F5F5F5F5F5F5F5F5F5F5F5F5F5F5F5F5F5F5F5F5F5F5F5F5F5F5F5F5F5F5F5F5F5F5F5F5F5F5F5F5F5F5F5F5F5F5F5F5F5F5F5F5F5F5F5F5F5F5F5F5F5F5F5F5F5F5F5F5F5F5F5F5F5F5F5F5F5F5F5F5F5F5F5F5F5F5F5F5F5F5F5F5F5F5F5F5F5F5F5F5F5F5F5F5F5F5F5F5F5F5F5F5F5F5F5F5F5F5F5F5F5F5F5F5F5
310
F5F5F5F5F5F5F528F5DCF5F5F5F5F5F5F5F5F5F5F5F5F5F5F5F5F5F5F5E2E2F5F5F5F5F5F5F5F5F5F5F5F5F5F5F5F5F5F5F5DCF528F5F5F5F5F5F5F5F5F5F5F5F5F5F5F5F5F5F5F5F5F5F5F5F5F5F5F5F5F5F5F5F5F5F5F5F5F5F5F5F5F5F5F5F5F5F5F5F5F5F5F5F5F5F5F5F5F5F5F5F5F5F5F5F5F5F5F5F5F5F5F5F5F5F5
310
F5F5F5F5F5F5F5F5F5F5F5F5F5F5F5F5F5F5F5F5F5F5F5F5F5F5F5F5F5F5F5F5F5F5F5F5F5F5F5F5F5F5F5F5F5F5F5F5F5F5F5F5F5F5F5F5F5F5F5F528F5DCF5F5F5F5F5F5F5F5F5F5F5F5F5F5F5F5F5F5F5E2E2F5F5F5F5F5F5F5F5F5F5F5F5F5F5F5F5F5F5F5DCF528F5F5F5F5F5F5F5F5F5F5F5F5F5F5F5F5F5F5F5F5F5
310
F5F5F5F5F5F5F5F5F5F5F5F5F5F5F5F5F5F5F5F5F5F5F5F5F5F5F5F5F5F5F5F5F5F5F5F5F5F5F5F5F5F5F5F5F5F5F5F5F5F5F5F5F5F5F5F5F5F5F5F5F5F5F5F5F5F5F5F5F5F5F5F5F5F5F5F5F5F5F5F5F5F5F5F5F5F5F5F5F5F5F5F5F5F5F5F5F5F5F5F5F5F5F5F5F5F5F5F5F5F5F5F5F528F5DCF5F5F5F5F5F5F5F5F5F5F5
310
F5F5F5F5F5F5F5F5E2E2F5F5F5F5F5F5F5F5F5F5F5F5F5F5F5F5F5F5F5DCF528F5F5F5F5F5F5F5F5F5F5F5F5F5F5F5F5F5F5F5F5F5F5F5F5F5F5F5F5F5F5F5F5F5F5F5F5F5F5F5F5F5F5F5F5F5F5F5F5F5F5F5F5F5F5F5F5F5F5F5F5F5F5F5F5F5F5F5F5F5F5F5F5F5F5F5F5F5F5F5F5F5F5F5F5F5F5F5F5F5F5F5F5F5F5F5
310
F5F5F5F5F5F5F5F5F5F5F5F5F5F5F5F5F5F5F5F5F5F5F5F5F5F5F5F5F5F5F5F5F5F5F5F5F5F5F528F5DCF5F5F5F5F5F5F5F5F5F5F5F5F5F5F5F5F5F5F5E2E2F5F5F5F5F5F5F5F5F5F5F5F5F5F5F5F5F5F5F5DCF528F5F5F5F5F5F5F5F5F5F5F5F5F5F5F5F5F5F5F5F5F5F5F5F5F5F5F5F5F5F5F5F5F5F5F5F5F5F5F5F5F5F5
310
F5F5F5F5F5F5F5F5F5F5F5F5F5F5F5F5F5F5F5F5F5F5F5F5F5F5F5F5F5F5F5F5F5F5F5F5F5F5F5F5F5F5F5F5F5F5F5F5F5F5F5F5F5F5F5F5F5F5F5F5F5F5F5F5F5F5F5F5F5F5F5F5F5F5F5F5F5F5F5F5F5F5F5F5F5F5F5F5F5F5F5F528F5DCF5F5F5F5F5F5F5F5F5F5F5F5F5F5F5F5F5F5F5E2E2F5F5F5F5F5F5F5F5F5F5F5
310
F5F5F5F5F5F5F5F5DCF528F5F5F5F5F5F5F5F5F5F5F5F5F5F5F52D2D2D2D2D2D2D2D2D2DF5F5F5F5F5F5F5F5F5F5F5F5F5F5F5F5F5F5F5F5F5F5F5F5F5F5F5F5F5F5F5F5F5F5F5F5F5F5F5F5F5F5F5F5F5F5F5F5F5F5F5F5F5F5F5F5F5F5F5F5F5F5F5F5F5F5F5F5F5F5F5F5F5F5F5F5F5F5F5F5F5F5F5F5F5F5F5F5F5F5F5
310
F5F5F5F5F5F5F5F5F5F5F5F5F5F5F5F5F5F528F5DCF5F5F5F5F5F5F5F5F5F5F5F5F5F5F5F5F5F5F5E2E2F5E2F5F5F5F5F5F5F5F5F5F5F5F5F5F5F5F5F5DCF528F5F5F5F5F5F5F5F5F5F5F5F5F5F5F52D2D2D2D2D2D2D2D2D2DF5F5F5F5F5F5F5F5F5F5F5F5F5F5F5F5F5F5F5F5F5F5F5F5F5F5F5F5F5F5F5F5F5F5F5F5F5F5
310
F5F5F5F5F5F5F5F5F5F5F5F5F5F5F5F5F5F5F5F5F5F5F5F5F5F5F5F5F5F5F5F5F5F5F5F5F5F5F5F5F5F5F5F5F5F5F5F5F5F5F5F5F5F5F5F5F5F5F5F5F5F5F5F5F5F5F5F5F5F5F528F5DCF5F5F5F5F5F5F5F5F5F5F5F5F5F5F5F5F5E2F5E2E2F5E2F5F5F5F5F5F5F5F5F5F5F5F5F5F5F5F5F5DCF528F5F5F5F5F5F5F5F5F5F5
310
F5F5F5F5F5F5F5F5F5F5F5F5F5F5F5F5F5F5F5F5F5F5F5F5F5F5F5F5F5F5F5F5F5F5F5F5F5F5F5F5F5F5F5F5F5F5F5F5F5F5F5F5F5F5F5F5F5F5F5F5F5F5F5F5F5F5F5F5F5F5F5F5F5F5F5F5F5F5F5F5F5F5F5F5F5F5F5F5F5F5F5F5F5F5F5F5F5F5F5F5F5F5F5F5F5F5F5F5F5F5F5F5F5F5F5F5F5F5F5F5F5F5F5F528F5DC
310
F5F5F5F5F5F5F5F5F5F5F5F5F5F5F5F5F5E2F5E2E2F5E2F5F5F5F5F5F5F5F5F5F5F5F5F5F5F5F5F5DCF528F5F5F5F5F5F5F5F5F5F5F5F5F5F5F5F5F5F5F5F5F5F5F5F5F5F5F5F5F5F5F5F5F5F5F5F5F5F5F5F5F5F5F5F5F5F5F5F5F5F5F5F5F5F5F5F5F5F5F5F5F5F5F5F5F5F5F5F5F5F5F5F5F5F5F5F5F5F5F5F5F5F5F5F5
310
F5F5F5F5F5F5F5F5F5F5F5F5F5F5F5F5F5F5F5F5F5F5F5F5F5F5F5F5F5F5F5F5F5F5F5F5F5F5F5F5F5F5F5F5F5F5F5F5F5F528F5DCF5F5F5F5F5F5F5F5F5F5F5F5F5F5F5F5F5E2F5E2E2F5E2F5F5F5F5F5F5F5F5F5F5F5F5F5F5F5F5F5DCF528F5F5F5F5F5F5F5F5F5F5F5F5F5F5F5F5F5F5F5F5F5F5F5F5F5F5F5F5F5F5F5
310
F5F5F5F5F5F5F5F5F5F5F5F5F5F5F5F5F5F5F5F5F5F5F5F5F5F5F5F5F5F5F5F5F5F5F5F5F5F5F5F5F5F5F5F5F5F5F5F5F5F5F5F5F5F5F5F5F5F5F5F5F5F5F5F5F5F5F5F5F5F5F5F5F5F5F5F5F5F5F5F5F5F5F5F5F5F5F5F5F5F5F5F5F5F5F5F5F5F5F5F5F5F5F528F5DCF5F5F5F5F5F5F5F5F5F5F5F5F5F5F5F5F5E2F5E2E2
310
F5E2F5F5F5F5F5F5F5F5F5F5F5F5F5F5F5F5F5DCF528F5F5F5F5F5F5F5F5F5F5F5F5F5F5F5F5F5F5F5F5F5F5F5F5F5F5F5F5F5F5F5F5F5F5F5F5F5F5F5F5F5F5F5F5F5F5F5F5F5F5F5F5F5F5F5F5F5F5F5F5F5F5F5F5F5F5F5F5F5F5F5F5F5F5F5F5F5F5F5F5F5F5F5F5F5F5F5F5F5F5F5F5F5F5F5F5F5F5F5F5F5F5F5F5F5
310
F5F5F5F5F5F5F5F5F5F5F5F5F5F5F5F5F5F5F5F5F5F5F5F5F5F5F5F5F528F5DCF5F5F5F5F5F5F5F5F5F5F5F5F5F5F5F5F5E2F5E2E2F5E2F5F5F5F5F5F5F5F5F5F5F5F5F5F5F5F5F5DCF528F5F5F5F5F5F5F5F5F5F5F5F5F5F5F5F5F5F5F5F5F5F5F5F5F5F5F5F5F5F5F5F5F5F5F5F5F5F5F5F5F5F5F5F5F5F5F5F5F5F5F5F5
310
F5F5F5F5F5F5F5F5F5F5F5F5F5F5F5F5F5F5F5F5F5F5F5F5F5F5F5F5F5F5F5F5F5F5F5F5F5F5F5F5F5F5F5F5F5F5F5F5F5F5F5F5F5F5F5F5F5F5F5F5F5F5F5F5F5F5F5F5F5F5F5F5F5F5F5F5F5F5F5F5F5F528F5DCF5F5F5F5F5F5F5F5F5F5F5F5F5F5F5F5F5E2F5E2E2F5E2F5F5F5F5F5F5F5F5F5F5F5F5F5F5F5F5F5DCF5
310
28F5F5F5F5F5F5F5F5F5F5F5F5F5F5F5F5F5F5F5F5F5F5F5F5F5F5F5F5F5F5F5F5F5F5F5F5F5F5F5F5F5F5F5F5F5F5F5F5F5F5F5F5F5F5F5F5F5F5F5F5F5F5F5F5F5F5F5F5F5F5F5F5F5F5F5F5F5F5F5F5F5F5F5F5F5F5F5F5F5F5F5F5F5F5F5F5F5F5F5F5F5F5F5F5F5F5F5F5F5F5F5F5F5F5F5F5F5F5F5F5F5F5F5F5F5F5
310
F5F5F5F5F5F5F5F528F5DCF5F5F5F5F5F5F5F5F5F5F5F5F5F5F5F5F5E2F5E2E2F5E2F5F5F5F5F5F5F5F5F5F5F5F5F5F5F5F5F5DCF528F5F5F5F5F5F5F5F5F5F5F5F5F5F5F5F5F5F5F5F5F5F5F5F5F5F5F5F5F5F5F5F5F5F5F5F5F5F5F5F5F5F5F5F5F5F5F5F5F5F5F5F5F5F5F5F5F5F5F5F5F5F5F5F5F5F5F5F5F5F5F5F5F5
310
F5F5F5F5F5F5F5F5F5F5F5F5F5F5F5F5F5F5F5F5F5F5F5F5F5F5F5F5F5F5F5F5F5F5F5F5F5F5F5F5F5F5F5F5F5F5F5F5F5F5F5F5F5F5F5F5F5F5F5F5F528F5DCF5F5F5F5F5F5F5F5F5F5F5F5F5F5F5F5F5E2F5E2E2F5E2F5F5F5F5F5F5F5F5F5F5F5F5F5F5F5F5F5DCF528F5F5F5F5F5F5F5F5F5F5F5F5F5F5F5F5F5F5F5F5
310
F5F5F5F5F5F5F5F5F5F5F5F5F5F5F5F5F5F5F5F5F5F5F5F5F5F5F5F5F5F5F5F5F5F5F5F5F5F5F5F5F5F5F5F5F5F5F5F5F5F5F5F5F5F5F5F5F5F5F5F5F5F5F5F5F5F5F5F5F5F5F5F5F5F5F5F5F5F5F5F5F5F5F5F5F5F5F5F5F5F5F5F5F5F5F5F5F5F5F5F5F5F5F5F5F5F5F5F5F5F5F5F5F5F528F5DCF5F5F5F5F5F5F5F5F5F5
310
F5F5F5F5F5F5F5E2F5E2E2F5E2F5F5F5F5F5F5F5F5F5F5F5F5F5F5F5F5F5DCF528F5F5F5F5F5F5F5F5F5DCF5F5F5F5F5F5F5F5F5F5F5F5F5F5F5F5F5F5F5F5F5F5F5F5F5F5F5F5F5F5F5F5F5F5F5F5F5F5F5F5F5F5F5F5F5F5F5F5F5F5F5F5F5F5F5F5F5F5F5F5F5F5F5F5F5F5F5F5F5F5F5F5F5F5F5F5F5F5F5F5F5F5F5F5
310
F5F5F5F5F5F5F5F5F5F5F5F5F5F5F5F5F5F5F5F5F5F5F5F5F5F5F5F5F5F5F5F5F5F5F5F5F5F5F5F528F5DCF5F5F5F5F5F5F5F5F5F5F5F5F5F5F5F5F5E2F5E2E2F5E2F5F5F5F5F5F5F5F5F5F5F5F5F5F5F5F5F5DCF528F5F5F5F5F5F5F5F50FDCF5F5F5F5F52D2D2D2D2D2D2D2DF5F5F5F5F50FF5F5F5F5F5F5F5F5F5F5F5F5
310
F5F5F5F5F5F5F5F5F5F5F5F5F5F5F5F5F5F5F5F5F5F5F5F5F5F5F5F5F5F5F5F5F5F5F5F5F5F5F5F5F5F5F5F5F5F5F5F5F5F5F5F5F5F5F5F5F5F5F5F5F5F5F5F5F5F5F5F5F5F5F5F5F5F5F5F5F5F5F5F5F5F5F5F5F5F5F5F5F5F5F5F5F528F5DCF5F5F5F5F5F5F5F5F5F5F5F5F5F5F5F5F5E2F5E2E2F5E2F5F5F5F5F5F5F5F5
310
F5F5F5F5F5F5F5F5F5DCF528F5F5F5F5DCF5F5DC0FDC0F0F0F0F0F2D2D2D2D2D2D2D2D0F0F0F0F0F0F0FF5F5F5F5F5F5F5F5F5F5F5F5F5F5F5F5F5F5F5F5F5F5F5F5F5F5F5F5F5F5F5F5F5F5F5F5F5F5F5F5F5F5F5F5F5F5F5F5F5F5F5F5F5F5F5F5F5F5F5F5F5F5F5F5F5F5F5F5F5F5F5F5F5F5F5F5F5F5F5F5F5F5F5F5F5
310
F5F5F5F5F5F5F5F5F5F5F5F5F5F5F5F5F5F5F528F5DCF5F5F5F5F5F5F5F5F5F5F5F5F5F5F5F5F5E2F5E2E2F5E2F5F5F5F5F5F5F5F5F5F5F5F5F5F5F5F5F5DCF528F5F5F5DCF5F5DCF5F5DCF5F5F5F5F5F5F5F5F5F5F5F5F5F5F5F5F5F50FF5F5F5F5F5F5F5F5F5F5F5F5F5F5F5F5F5F5F5F5F5F5F5F5F5F5F5F5F5F5F5F5F5
310
F5F5F5F5F5F5F5F5F5F5F5F5F5F5F5F5F5F5F5F5F5F5F5F5F5F5F5F5F5F5F5F5F5F5F5F5F5F5F5F5F5F5F5F5F5F5F5F5F5F5F5F5F5F5F5F5F5F5F5F5F5F5F5F5F5F5F5F5F5F5F5F528F5DCF5F5F5F5F5F5F5F5F5F5F5F5F5F5F5F5F5E2F5E2E2F5E2F5F5F5F5F5F5F5F5F5F5F5F5F5F5F5F5F5DCF528F5F5F5F5F5DCF5F5DC
310
DCF5F5F5F5F5F5F5F5F5F5F5F5F5F5F5F5F5F50FF5F5F5F5F5F5F5F5F5F5F5F5F5F5F5F5F5F5F5F5F5F5F5F5F5F5F5F5F5F5F5F5F5F5F5F5F5F5F5F5F5F5F5F5F5F5F5F5F5F5F5F5F5F5F5F5F5F5F5F5F5F5F5F5F5F5F5F5F5F5F5F5F5F5F5F5F5F5F5F5F5F5F5F5F5F5F5F5F5F5F5F5F5F5F5F5F5F5F5F5F5F5F5F5F528F5
310
DCF5F5F5F5F5F5F5F5F5F5F5F5F5F5F5F5F5E2F5E2E2F5E2F5F5F5F5F5F5F5F5F5F5F5F5F5F5F5F5F5DCF528F5F5F5F5DCF5F5DCF5DCF5F5F5F5F5F5F5F5F5F5F5F5F5F5F5F5F5F50FF5F5F5F5F5F5F5F5F5F5F5F5F5F5F5F5F5F5F5F5F5F5F5F5F5F5F5F5F5F5F5F5F5F5F5F5F5F5F5F5F5F5F5F5F5F5F5F5F5F5F5F5F5F5
310
F5F5F5F5F5F5F5F5F5F5F5F5F5F5F5F5F5F5F5F5F5F5F5F5F5F5F5F5F5F5F5F5F5F5F5F5F5F5F5F5F5F5F5F5F5F5F5F5F5F5F528F5DCF5F5F5F5F5F5F5F5F5F5F5F5F5F5F5F5F5E2F5E2E2F5E2F5F5F5F5F5F5F5F5F5F5F5F5F5F5F5F5F5DCF528F5F5F5DCF5F5DCF5F5DCF5F5F5F5F5F5F5F5F5F5F5F5F5F5F5F5F5F50FF5
310
F5F5F5F5F5F5F5F5F5F5F5F5F5F5F5F5F5F5F5F5F5F5F5F5F5F5F5F5F5F5F5F5F5F5F5F5F5F5F5F5F5F5F5F5F5F5F5F5F5F5F5F5F5F5F5F5F5F5F5F5F5F5F5F5F5F5F5F5F5F5F5F5F5F5F5F5F5F5F5F5F5F5F5F5F5F5F5F5F5F5F5F5F5F5F5F5F5F5F5F5F5F5F5F528F5DCF5F5F5F5F5F5F5F5F5F5F5F5F5F5F5F5F5E2F5E2
310
E2F5F5F5F5F5F5F5F5F5F5F5F5F5F5F5F5F5F5F5DCF528F5F5F5F5F5DCF5F5F5DC1B0F0F0F0F0F0F0F0F0F0F0F0F0F0F0F0F0F0F0F0F0F0F0F0F0FF5F5F5F5F5F5F5F5F5F5F5F5F5F5F5F5F5F5F5F5F5F5F5F5F5F5F5F5F5F5F5F5F5F5F5F5F5F5F5F5F5F5F5F5F5F5F5F5F5F5F5F5F5F5F5F5F5F5F5F5F5F5F5F5F5F5F5F5
310
F5F5F5F5F5F5F5F5F5F5F5F5F5F5F5F5F5F5F5F5F5F5F5F5F5F5F5F5F5F528F5DCF5F5F5F5F5F5F5F5F5F5F5F5F5F5F5F5F5F5F5E2E2F5F5F5F5F5F5F5F5F5F5F5F5F5F5F5F5F5F5F5DCF528F5F5F5F5DCF5F5F5DCDCBEF5F5F5F5F5F5F5F5F5F5F5F5F5F5F5F5F50FF5F5F5F5F50FF5F5F5F5F5F5F5F5F5F5F5F5F5F5F5F5
310
F5F5F5F5F5F5F5F5F5F5F5F5F5F5F5F5F5F5F5F5F5F5F5F5F5F5F5F5F5F5F5F5F5F5F5F5F5F5F5F5F5F5F5F5F5F5F5F5F5F5F5F5F5F5F5F5F5F5F5F5F5F5F5F5F5F5F5F5F5F5F5F5F5F5F5F5F5F5F5F5F5F5F528F5DCF5F5F5F5F5F5F5F5F5F5F5F5F5F5F5F5F5F5F5E2E2F5F5F5F5F5F5F5F5F5F5F5F5F5F5F5F5F5F5F5DC
310
F528F5F5F5DCF5F5F5DCF5DCF5BEBEF5F5F5F5F5F5F5F5F5F5F5F5F5F5F50FF5F5F5F5F50FF5F5F5F5F5F5F5F5F5F5F5F5F5F5F5F5F5F5F5F5F5F5F5F5F5F5F5F5F5F5F5F5F5F5F5F5F5F5F5F5F5F5F5F5F5F5F5F5F5F5F5F5F5F5F5F5F5F5F5F5F5F5F5F5F5F5F5F5F5F5F5F5F5F5F5F5F5F5F5F5F5F5F5F5F5F5F5F5F5F5
310
F5F5F5F5F5F5F5F5F528F5DCF5F5F5F5F5F5F5F5F5F5F5F5F5F5F5F5F5F5F5E2E2F5F5F5F5F5F5F5F5F5F5F5F5F5F5F5F5F5F5F5DCF528F5F5F5F5F5DCDCF5F5DCF5F5BEBEF5F5F5F5F5F5F5F5F5F5F5F5F5F50FF5F5F5F5F50FF5F5F5F5F5F5F5F5F5F5F5F5F5F5F5F5F5F5F5F5F5F5F5F5F5F5F5F5F5F5F5F5F5F5F5F5F5
310
F5F5F5F5F5F5F5F5F5F5F5F5F5F5F5F5F5F5F5F5F5F5F5F5F5F5F5F5F5F5F5F5F5F5F5F5F5F5F5F5F5F5F5F5F5F5F5F5F5F5F5F5F5F5F5F5F5F5F5F5F5F528F5DCF5F5F5F5F5F5F5F5F5F5F5F5F5F5F5F5F5F5F5E2E2F5F5F5F5F5F5F5F5F5F5F5F5F5F5F5F5F5F5F5DCF528F5F5F5F5DCF5F5F5DCDCF5F5F5BEF5F5F5F5F5
310
F5F5F5F5F5F5F5F5F50FF5F5F5F5F50FF5F5F5F5F5F5F5F5F5F5F5F5F5F5F5F5F5F5F5F5F5F5F5F5F5F5F5F5F5F5F5F5F5F5F5F5F5F5F5F5F5F5F5F5F5F5F5F5F5F5F5F5F5F5F5F5F5F5F5F5F5F5F5F5F5F5F5F5F5F5F5F5F5F5F5F5F5F5F5F5F5F5F5F5F5F5F5F5F5F5F5F5F5F5F5F5F5F5F528F5DCF5F5F5F5F5F5F5F5F5
310
F5F5F5F5F5F5F5F5F5F5E2E2F5F5F5F5F5F5F5F5F5F5F5F5F5F5F5F5F5F5F5DCF528F5F5F5DCF5F5F5DCF5DCF5F5F5BEBEBEF5F5F5F5F5F5F5F5F5F5F5F50FF5F5F5F5F50FF5F5F5F5F5F5F5F5F5F5F5F5F5F5F5F5F5F5F5F5F5F5F5F5F5F5F5F5F5F5F5F5F5F5F5F5F5F5F5F5F5F5F5F5F5F5F5F5F5F5F5F5F5F5F5F5F5F5
310
F5F5F5F5F5F5F5F5F5F5F5F5F5F5F5F5F5F5F5F5F5F5F5F5F5F5F5F5F5F5F5F5F5F5F5F5F5F5F5F5F528F5DCF5F5F5F5F5F5F5F5F5F5F5F5F5F5F5F5F5F5F5E2E2F5F5F5F5F5F5F5F5F5F5F5F5F5F5F5F5F5F5F5DCF528F5F5F5F5F5DCDCF5F5DCF5F5F5F5BEBEF5F5F5F5F5F5F5F5F5F5F5F50FF5F5F5F5F50FF5F5F5F5F5
310
F5F5F5F5F5F5F5F5F5F5F5F5F5F5F5F5F5F5F5F5F5F5F5F5F5F5F5F5F5F5F5F5F5F5F5F5F5F5F5F5F5F5F5F5F5F5F5F5F5F5F5F5F5F5F5F5F5F5F5F5F5F5F5F5F5F5F5F5F5F5F5F5F5F5F5F5F5F5F5F5F5F5F5F5F5F5F5F5F5F5F5F5F5F528F5DCF5F5F5F5F5F5F5F5F5F5F5F5F5F5F5F5F5F5F5E2E2F5F5F5F5F5F5F5F5F5
310
F5F5F5F5F5F5F5F5F5F5DCF528F5F5F5F5DCF5F5F5DCDCF5F5F5F5BEF5F5F5F5F5F5F5F5F5F5F5F5F50FF5F5F5F5F50FF5F5F5F5F5F5F5F5F5F5F5F5F5F5F5F5F5F5F5F5F5F5F5F5F5F5F5F5F5F5F5F5F5F5F5F5F5F5F5F5F5F5F5F5F5F5F5F5F5F5F5F5F5F5F5F5F5F5F5F5F5F5F5F5F5F5F5F5F5F5F5F5F5F5F5F5F5F5F5
310
F5F5F5F5F5F5F5F5F5F5F5F5F5F5F5F5F5F5F5F528F5DCF5F5F5F5F5F5F5F5F5F5F5F5F5F5F5F5F5F5F5E2E2F5F5F5F5F5F5F5F5F5F5F5F5F5F5F5F5F5F5F5DCF528F5F5F5DCF5F5F5DCF5DCF5F5F5F5BEF5F5F5F5F5F5F5F5F5F5F5F5F50FF5F5F5F5F50FF5F5F5F5F5F5F5F5F5F5F5F5F5F5F5F5F5F5F5F5F5F5F5F5F5F5
310
F5F5F5F5F5F5F5F5F5F5F5F5F5F5F5F5F5F5F5F5F5F5F5F5F5F5F5F5F5F5F5F5F5F5F5F5F5F5F5F5F5F5F5F5F5F5F5F5F5F5F5F5F5F5F5F5F5F5F5F5F5F5F5F5F5F5F5F5F5F5F5F5F528F5DCF5F5F5F5F5F5F5F5F5F5F5F5F5F5F5F5F5F5F5E2E2F5E2F5F5F5F5F5F5F5F5F5F5F5F5F5F5F5F5F5DCF528F5F5F5F5F5F5DCF5
310
F5DCBEBEF5F5BEF5F5F5F5F5F5F5F5F5F5F5F5F50FF5F52D2D2D2D2D2D2D2DF5F5F5F5F5F5F5F5F5F5F5F5F5F5F5F5F5F5F5F5F5F5F5F5F5F5F5F5F5F5F5F5F5F5F5F5F5F5F5F5F5F5F5F5F5F5F5F5F5F5F5F5F5F5F5F5F5F5F5F5F5F5F5F5F5F5F5F5F5F5F5F5F5F5F5F5F5F5F5F5F5F5F5F5F5F5F5F5F5F5F5F5F5F5F528
310
F5DCF5F5F5F5F5F5F5F5F5F5F5F5F5F5F5F5F5E2F5E2E2F5E2F5F5F5F5F5F5F5F5F5F5F5F5F5F5F5F5F5DCF528F5F5F5F5F5DCF5F5DCDCF5BEF5F5BEF5F5F5F5F5F5F5F5F5F5F5F5F50FF5F52D2D2D2D2D2D2D2DF5F5F5F5F5F5F5F5F5F5F5F5F5F5F5F5F5F5F5F5F5F5F5F5F5F5F5F5F5F5F5F5F5F5F5F5F5F5F5F5F5F5F5
310
F5F5F5F5F5F5F5F5F5F5F5F5F5F5F5F5F5F5F5F5F5F5F5F5F5F5F5F5F5F5F5F5F5F5F5F5F5F5F5F5F5F5F5F5F5F5F5F5F5F5F5F528F5DCF5F5F5F5F5F5F5F5F5F5F5F5F5F5F5F5F5E2F5E2E2F5E2F5F5F5F5F5F5F5F5F5F5F5F5F5F5F5F5F5DCF528F5F5F5F5DCF5F5DCF5DCF5BEF5F5BEBEF5F5F5F5F5F5F5F5F5F5F5F50F
310
F5F5F5F5F50FF5F5F5F5F5F5F5F5F5F5F5F5F5F5F5F5F5F5F5F5F5F5F5F5F5F5F5F5F5F5F5F5F5F5F5F5F5F5F5F5F5F5F5F5F5F5F5F5F5F5F5F5F5F5F5F5F5F5F5F5F5F5F5F5F5F5F5F5F5F5F5F5F5F5F5F5F5F5F5F5F5F5F5F5F5F5F5F5F5F5F5F5F5F5F5F5F5F5F528F5DCF5F5F5F5F5F5F5F5F5F5F5F5F5F5F5F5F5E2F5
310
E2E2F5E2F5F5F5F5F5F5F5F5F5F5F5F5F5F5F5F5F5DCF528F5F5F5DCF5F5DCF5F5DCF5F5BEF5F5BEF5F5F5F5F5F5F5F5F5F5F5F50FF5F5F5F5F50FF5F5F5F5F5F5F5F5F5F5F5F5F5F5F5F5F5F5F5F5F5F5F5F5F5F5F5F5F5F5F5F5F5F5F5F5F5F5F5F5F5F5F5F5F5F5F5F5F5F5F5F5F5F5F5F5F5F5F5F5F5F5F5F5F5F5F5F5
310
F5F5F5F5F5F5F5F5F5F5F5F5F5F5F5F5F5F5F5F5F5F5F5F5F5F5F5F5F5F5F528F5DCF5F5F5F5F5F5F5F5F5F5F5F5F5F5F5F5F5E2F5E2E2F5E2F5F5F5F5F5F5F5F5F5F5F5F5F5F5F5F5F5DCF528F5F5F5F5F5DCF5F5DCDCF5F5BEF5F5F5BEBEF5F5F5F5BEBEF5F5F5F50FF5F5F5F5F50FF5F5F5F5F5F5F5F5F5F5F5F5F5F5F5
310
F5F5F5F5F5F5F5F5F5F5F5F5F5F5F5F5F5F5F5F5F5F5F5F5F5F5F5F5F5F5F5F5F5F5F5F5F5F5F5F5F5F5F5F5F5F5F5F5F5F5F5F5F5F5F5F5F5F5F5F5F5F5F5F5F5F5F5F5F5F5F5F5F5F5F5F5F5F5F5F5F5F5F5F528F5DCF5F5F5F5F5F5F5F5F5F5F5F5F5F5F5F5F5E2F5E2E2F5E2F5F5F5F5F5F5F5F5F5F5F5F5F5F5F5F5F5
310
DCF528F5F5F5F5DCF5F5DCF5DCF5F5F5BEF5F5F5BEBEBEBEBEF5BEF5F5F5F50FF5F5F5F5F50FF5F5F5F5F5F5F5F5F5F5F5F5F5F5F5F5F5F5F5F5F5F5F5F5F5F5F5F5F5F5F5F5F5F5F5F5F5F5F5F5F5F5F5F5F5F5F5F5F5F5F5F5F5F5F5F5F5F5F5F5F5F5F5F5F5F5F5F5F5F5F5F5F5F5F5F5F5F5F5F5F5F5F5F5F5F5F5F5F5
310
F5F5F5F5F5F5F5F5F5F528F5DCF5F5F5F5F5F5F5F5F5F5F5F5F5F5F5F5F5E2F5E2E2F5E2F5F5F5F5F5F5F5F5F5F5F5F5F5F5F5F5F5DCF528F5F5F5DCF5F5DCF5F5DCF5F5F5F5BEF5F5F5F5F5F5F5F5BEBEF5F5F50FF5F5F5F5F50FF5F5F5F5F5F5F5F5F5F5F5F5F5F5F5F5F5F5F5F5F5F5F5F5F5F5F5F5F5F5F5F5F5F5F5F5
310
F5F5F5F5F5F5F5F5F5F5F5F5F5F5F5F5F5F5F5F5F5F5F5F5F5F5F5F5F5F5F5F5F5F5F5F5F5F5F5F5F5F5F5F5F5F5F5F5F5F5F5F5F5F5F5F5F5F5F5F5F5F5F528F5DCF5F5F5F5F5F5F5F5F5F5F5F5F5F5F5F5F5E2F5E2E2F5E2F5F5F5F5F5F5F5F5F5F5F5F5F5F5F5F5F5DCF528F5F5F5F5F5DCF5F5F5DCF5F5F5F5F5BEBEBE
310
F5F5F5F5F5F5F5BEBEF50FF5F5F5F5F50FF5F5F5F5F5F5F5F5F5F5F5F5F5F5F5F5F5F5F5F5F5F5F5F5F5F5F5F5F5F5F5F5F5F5F5F5F5F5F5F5F5F5F5F5F5F5F5F5F5F5F5F5F5F5F5F5F5F5F5F5F5F5F5F5F5F5F5F5F5F5F5F5F5F5F5F5F5F5F5F5F5F5F5F5F5F5F5F5F5F5F5F5F5F5F5F5F5F5F528F5DCF5F5F5F5F5F5F5F5
310
F5F5F5F5F5F5F5F5F5E2F5E2E2F5E2F5F5F5F5F5F5F5F5F5F5F5F5F5F5F5F5F5DCF528F5F5F5F5DCF5F5F5DCDCF5F5F5F5F5F5F5F5BEBEF5F5F5F5F5F5BEF50FF5F5F5F5F50FF5F5F5F5F5F5F5F5F5F5F5F5F5F5F5F5F5F5F5F5F5F5F5F5F5F5F5F5F5F5F5F5F5F5F5F5F5F5F5F5F5F5F5F5F5F5F5F5F5F5F5F5F5F5F5F5F5
310
F5F5F5F5F5F5F5F5F5F5F5F5F5F5F5F5F5F5F5F5F5F5F5F5F5F5F5F5F5F5F5F5F5F5F5F5F5F5F5F5F5F528F5DCF5F5F5F5F5F5F5F5F5F5F5F5F5F5F5F5F5E2F5E2E2F5E2F5F5F5F5F5F5F5F5F5F5F5F5F5F5F5F5F5DCF528F5F5F5DCF5F5F5DCF5DCF5F5F5F5F5F5F5F5F5BEBEF5F5F5F5F5F5BE1BF5F5F5F5F50FF5F5F5F5
310
F5F5F5F5F5F5F5F5F5F5F5F5F5F5F5F5F5F5F5F5F5F5F5F5F5F5F5F5F5F5F5F5F5F5F5F5F5F5F5F5F5F5F5F5F5F5F5F5F5F5F5F5F5F5F5F5F5F5F5F5F5F5F5F5F5F5F5F5F5F5F5F5F5F5F5F5F5F5F5F5F5F5F5F5F5F5F5F5F5F5F5F5F5F5F528F5DCF5F5F5F5F5F5F5F5F5F5F5F5F5F5F5F5F5E2F5E2E2F5E2F5F5F5F5F5F5
310
F5F5F5F5F5F5F5F5F5F5F5DCF528F5F5F5F5F5DCDCF5F5DCF5F5F5F5F5F5F5F5F5F5BEF5F5F5F5F5F5F5BEF5F5F5F5F50F0FF5F5F5F5F5F5F5F5F5F5F5F5F5F5F5F5F5F5F5F5F5F5F5F5F5F5F5F5F5F5F5F5F5F5F5F5F5F5F5F5F5F5F5F5F5F5F5F5F5F5F5F5F5F5F5F5F5F5F5F5F5F5F5F5F5F5F5F5F5F5F5F5F5F5F5F5F5
310
F5F5F5F5F5F5F5F5F5F5F5F5F5F5F5F5F5F5F5F5F528F5DCF5F5F5F5F5F5F5F5F5F5F5F5F5F5F5F5F5E2F5E2E2F5E2F5F5F5F5F5F5F5F5F5F5F5F5F5F5F5F5F5DCF528F5F5F5F5DCF5F5F5DCDCDCDCDCDCDCDCDCDCDCDCDCDCDCDCDCDCDCDCDCDCDCDCDCDCDCDCDCF5F5F5F5F5F5F5F5F5F5F5F5F5F5F5F5F5F5F5F5F5F5F5
310
F5F5F5F5F5F5F5F5F5F5F5F5F5F5F5F5F5F5F5F5F5F5F5F5F5F5F5F5F5F5F5F5F5F5F5F5F5F5F5F5F5F5F5F5F5F5F5F5F5F5F5F5F5F5F5F5F5F5F5F5F5F5F5F5F5F5F5F5F5F5F5F5F5F528F5DCF5F5F5F5F5F5F5F5F5F5F5F5F5F5F5F5F5E2F5E2E2F5E2F5F5F5F5F5F5F5F5F5F5F5F5F5F5F5F5F5DCF528F5F5F5DCF5F5F5
310
DCF5F5DCF5F5DCF5F5F5DCF5F5DCF5F5DCF5F5DCF5F5DCF5F5DCF5F5F5F5F5F5F5F5F5F5F5F5F5F5F5F5F5F5F5F5F5F5F5F5F5F5F5F5F5F5F5F5F5F5F5F5F5F5F5F5F5F5F5F5F5F5F5F5F5F5F5F5F5F5F5F5F5F5F5F5F5F5F5F5F5F5F5F5F5F5F5F5F5F5F5F5F5F5F5F5F5F5F5F5F5F5F5F5F5F5F5F5F5F5F5F5F5F5F5F5F5
310
28F5DCF5F5F5F5F5F5F5F5F5F5F5F5F5F5F5F5F5E2F5E2E2F5E2F5F5F5F5F5F5F5F5F5F5F5F5F5F5F5F5F5DCF528F5F5F5F5F5DCDCF5F5DCF5F5DCF5F5F5DCF5F5DCF5F5DCF5F5DCF5F5DCF5F5DCF5F5F5F5F5F5F5F5F5F5F5F5F5F5F5F5F5F5F5F5F5F5F5F5F5F5F5F5F5F5F5F5F5F5F5F5F5F5F5F5F5F5F5F5F5F5F5F5F5
310
F5F5F5F5F5F5F5F5F5F5F5F5F5F5F5F5F5F5F5F5F5F5F5F5F5F5F5F5F5F5F5F5F5F5F5F5F5F5F5F5F5F5F5F5F5F5F5F5F5F5F5F5F528F5DCF5F5F5F5F5F5F5F5F5F5F5F5F5F5F5F5F5E2F5E2E2F5E2F5F5F5F5F5F5F5F5F5F5F5F5F5F5F5F5F5DCF528F5F5F5F5DCF5F5F5DCF5F5DCF5F5DCDCF5DCDCF5DCDCF5F5DCF5F5DC
310
F5F5DCF5F5F5F5F5F5F5F5F5F5F5F5F5F5F5F5F5F5F5F5F5F5F5F5F5F5F5F5F5F5F5F5F5F5F5F5F5F5F5F5F5F5F5F5F5F5F5F5F5F5F5F5F5F5F5F5F5F5F5F5F5F5F5F5F5F5F5F5F5F5F5F5F5F5F5F5F5F5F5F5F5F5F5F5F5F5F5F5F5F5F5F5F5F5F5F5F5F5F5F5F5F5F528F5DCF5F5F5F5F5F5F5F5F5F5F5F5F5F5F5F5F5E2
310
F5E2E2F5E2F5F5F5F5F5F5F5F5F5F5F5F5F5F5F5F5F5DCF528F5F5F5DCF5F5F5DCF5F5DCF5F5DCF5F5DCF5F5DCF5F5F5DCF5F5DCF5F5DCF5F5F5DCF5F5F5F5F5F5F5F5F5F5F5F5F5F5F5F5F5F5F5F5F5F5F5F5F5F5F5F5F5F5F5F5F5F5F5F5F5F5F5F5F5F5F5F5F5F5F5F5F5F5F5F5F5F5F5F5F5F5F5F5F5F5F5F5F5F5F5F5
310
F5F5F5F5F5F5F5F5F5F5F5F5F5F5F5F5F5F5F5F5F5F5F5F5F5F5F5F5F5F5F5F528F5DCF5F5F5F5F5F5F5F5F5F5F5F5F5F5F5F5F5E2F5E2E2F5F5F5F5F5F5F5F5F5F5F5F5F5F5F5F5F5F5F5DCF528F5F5F5F5F5F5DCF5F5DCF5F5DCF5F5DCF5F5DCF5F5F5DCF5F5DCF5F5DCF5F5DCDCF5F5F5F5F5F5F5F5F5F5F5F5F5F5F5F5
310
F5F5F5F5F5F5F5F5F5F5F5F5F5F5F5F5F5F5F5F5F5F5F5F5F5F5F5F5F5F5F5F5F5F5F5F5F5F5F5F5F5F5F5F5F5F5F5F5F5F5F5F5F5F5F5F5F5F5F5F5F5F5F5F5F5F5F5F5F5F5F5F5F5F5F5F5F5F5F5F5F5F5F5F5F528F5DCF5F5F5F5F5F5F5F5F5F5F5F5F5F5F5F5F5F5F5E2E2F5F5F5F5F5F5F5F5F5F5F5F5F5F5F5F5F5F5
310
F5DCF528F5F5F5F5F5F5F5F5F5F5F5F5F5F5F5F5F5F5F5F5F5F5F5F5F5F5F5F5F5F5F5F5F5F5F5F5F5F5F5F5F5F5F5F5F5F5F5F5F5F5F5F5F5F5F5F5F5F5F5F5F5F5F5F5F5F5F5F5F5F5F5F5F5F5F5F5F5F5F5F5F5F5F5F5F5F5F5F5F5F5F5F5F5F5F5F5F5F5F5F5F5F5F5F5F5F5F5F5F5F5F5F5F5F5F5F5F5F5F5F5F5F5F5
310
F5F5F5F5F5F5F5F5F5F5F528F5DCF5F5F5F5F5F5F5F5F5F5F5F5F5F5F5F5F5F5F5E2E2F5F5F5F5F5F5F5F5F5F5F5F5F5F5F5F5F5F5F5DCF528F5F5F5F5F5F5F5F5F5F5F5F5F5F5F5F5F5F5F5F5F5F5F5F5F5F5F5F5F5F5F5F5F5F5F5F5F5F5F5F5F5F5F5F5F5F5F5F5F5F5F5F5F5F5F5F5F5F5F5F5F5F5F5F5F5F5F5F5F5F5
310
F5F5F5F5F5F5F5F5F5F5F5F5F5F5F5F5F5F5F5F5F5F5F5F5F5F5F5F5F5F5F5F5F5F5F5F5F5F5F5F5F5F5F5F5F5F5F5F5F5F5F5F5F5F5F5F5F5F5F5F5F5F5F5F528F5DCF5F5F5F5F5F5F5F5F5F5F5F5F5F5F5F5F5F5F5E2E2F5F5F5F5F5F5F5F5F5F5F5F5F5F5F5F5F5F5F5DCF528F5F5F5F5F5F5F5F5F5F5F5F5F5F5F5F5F5
310
F5F5F5F5F5F5F5F5F5F5F5F5F5F5F5F5F5F5F5F5F5F5F5F5F5F5F5F5F5F5F5F5F5F5F5F5F5F5F5F5F5F5F5F5F5F5F5F5F5F5F5F5F5F5F5F5F5F5F5F5F5F5F5F5F5F5F5F5F5F5F5F5F5F5F5F5F5F5F5F5F5F5F5F5F5F5F5F5F5F5F5F5F5F5F5F5F5F5F5F5F5F5F5F5F5F5F5F5F5F5F5F5F5F5F5F5F528F5DCF5F5F5F5F5F5F5
310
F5F5F5F5F5F5F5F5F5F5F5F5E2E2F5F5F5F5F5F5F5F5F5F5F5F5F5F5F5F5F5F5F5DCF528F5F5F5F5F5F5F5F5F5F5F5F5F5F5F5F5F5F5F5F5F5F5F5F5F5F5F5F5F5F5F5F5F5F5F5F5F5F5F5F5F5F5F5F5F5F5F5F5F5F5F5F5F5F5F5F5F5F5F5F5F5F5F5F5F5F5F5F5F5F5F5F5F5F5F5F5F5F5F5F5F5F5F5F5F5F5F5F5F5F5F5
310
F5F5F5F5F5F5F5F5F5F5F5F5F5F5F5F5F5F5F5F5F5F5F5F5F5F5F5F5F5F5F5F5F5F5F5F5F5F5F5F5F5F5F528F5DCF5F5F5F5F5F5F5F5F5F5F5F5F5F5F5F5F5F5F5E2E2F5F5F5F5F5F5F5F5F5F5F5F5F5F5F5F5F5F5F5DCF528F5F5F5F5F5F5F5F5F5F5F5F5F5F5F5F5F5F5F5F5F5F5F5F5F5F5F5F5F5F5F5F5F5F5F5F5F5F5
310
F5F5F5F5F5F5F5F5F5F5F5F5F5F5F5F5F5F5F5F5F5F5F5F5F5F5F5F5F5F5F5F5F5F5F5F5F5F5F5F5F5F5F5F5F5F5F5F5F5F5F5F5F5F5F5F5F5F5F5F5F5F5F5F5F5F5F5F5F5F5F5F5F5F5F5F5F5F5F5F5F5F5F5F5F5F5F5F5F5F5F5F5F5F5F5F528F5DCF5F5F5F5F5F5F5F5F5F5F5F5F5F5F5F5F5F5F5E2E2F5F5F5F5F5F5F5
310
F5F5F5F5F5F5F5F5F5F5F5F5DCF528F5F5F5F5F5F5F5F5F5F5F5F5F5F5F5F5F5F5F5F5F5F5F5F5F5F5F5F5F5F5F5F5F5F5F5F5F5F5F5F5F5F5F5F5F5F5F5F5F5F5F5F5F5F5F5F5F5F5F5F5F5F5F5F5F5F5F5F5F5F5F5F5F5F5F5F5F5F5F5F5F5F5F5F5F5F5F5F5F5F5F5F5F5F5F5F5F5F5F5F5F5F5F5F5F5F5F5F5F5F5F5F5
310
F5F5F5F5F5F5F5F5F5F5F5F5F5F5F5F5F5F5F5F5F5F528F5DCF5F5F5F5F5F5F5F5F5F5F5F5F5F5F5F5F5F5F5E2E2F5F5F5F5F5F5F5F5F5F5F5F5F5F5F5F5F5F5F5DCF528F5F5F5F5F5F5F5F5F5F5F5F5F5F5F5F5F5F5F5F5F5F5F5F5F5F5F5F5F5F5F5F5F5F5F5F5F5F5F5F5F5F5F5F5F5F5F5F5F5F5F5F5F5F5F5F5F5F5F5
310
F5F5F5F5F5F5F5F5F5F5F5F5F5F5F5F5F5F5F5F5F5F5F5F5F5F5F5F5F5F5F5F5F5F5F5F5F5F5F5F5F5F5F5F5F5F5F5F5F5F5F5F5F5F5F5F5F5F5F5F5F5F5F5F5F5F5F5F5F5F5F5F5F5F5F528F5DCF5F5F5F5F5F5F5F5F5F5F5F5F5F5F5F5F5F5F5E2E2F5E2F5F5F5F5F5F5F5F5F5F5F5F5F5F5F5F5F5DCF528F5F5F5F5F5F5
310
F5F5F5F5F5F5F5F5F5F5F5F5F5F5F5F5F5F5F5F5F5F5F5F5F5F5F5F5F5F5F5F5F5F5F5F5F5F5F5F5F5F5F5F5F5F5F5F5F5F5F5F5F5F5F5F5F5F5F5F5F5F5F5F5F5F5F5F5F5F5F5F5F5F5F5F5F5F5F5F5F5F5F5F5F5F5F5F5F5F5F5F5F5F5F5F5F5F5F5F5F5F5F5F5F5F5F5F5F5F5F5F5F5F5F5F5F5F5F5F5F5F5F5F5F5F5F5
310
F528F5DCF5F5F5F5F5F5F5F5F5F5F5F5F5F5F5F5F5E2F5E2E2F5E2F5F5F5F5F5F5F5F5F5F5F5F5F5F5F5F5F5DCF528F5F5F5F5F5F5F5F5F5F5F5F5F5F5F5F5F5F5F5F5F5F5F5F5F5F5F5F5F5F5F5F5F5F5F5F5F5F5F5F5F5F5F5F5F5F5F5F5F5F5F5F5F5F5F5F5F5F5F5F5F5F5F5F5F5F5F5F5F5F5F5F5F5F5F5F5F5F5F5F5
310
F5F5F5F5F5F5F5F5F5F5F5F5F5F5F5F5F5F5F5F5F5F5F5F5F5F5F5F5F5F5F5F5F5F5F5F5F5F5F5F5F5F5F5F5F5F5F5F5F5F5F5F5F5F528F5DCF5F5F5F5F5F5F5F5F5F5F5F5F5F5F5F5F5E2F5E2E2F5E2F5F5F5F5F5F5F5F5F5F5F5F5F5F5F5F5F5DCF528F5F5F5F5F5F5F5F5F5F5F5F5F5F5F5F5F5F5F5F5F5F5F5F5F5F5F5
310
F5F5F5F5F5F5F5F5F5F5F5F5F5F5F5F5F5F5F5F5F5F5F5F5F5F5F5F5F5F5F5F5F5F5F5F5F5F5F5F5F5F5F5F5F5F5F5F5F5F5F5F5F5F5F5F5F5F5F5F5F5F5F5F5F5F5F5F5F5F5F5F5F5F5F5F5F5F5F5F5F5F5F5F5F5F5F5F5F5F5F5F5F5F5F5F5F5F5F5F5F5F5F5F5F5F5F528F5DCF5F5F5F5F5F5F5F5F5F5F5F5F5F5F5F5F5
310
E2F5E2E2F5E2F5F5F5F5F5F5F5F5F5F5F5F5F5F5F5F5F5DCF528F5F5F5F5F5F5F5F5F5F5F5F5F5F5F5F5F5F5F5F5F5F5F5F5F5F5F5F5F5F5F5F5F5F5F5F5F5F5F5F5F5F5F5F5F5F5F5F5F5F5F5F5F5F5F5F5F5F5F5F5F5F5F5F5F5F5F5F5F5F5F5F5F5F5F5F5F5F5F5F5F5F5F5F5F5F5F5F5F5F5F5F5F5F5F5F5F5F5F5F5F5
310
F5F5F5F5F5F5F5F5F5F5F5F5F5F5F5F5F5F5F5F5F5F5F5F5F5F5F5F5F5F5F5F5F528F5DCF5F5F5F5F5F5F5F5F5F5F5F5F5F5F5F5F5E2F5E2E2F5E2F5F5F5F5F5F5F5F5F5F5F5F5F5F5F5F5F5DCF528F5F5F5F5F5F5F5F5F5F5F5F5F5F5F5F5F5F5F5F5F5F5F5F5F5F5F5F5F5F5F5F5F5F5F5F5F5F5F5F5F5F5F5F5F5F5F5F5
310
F5F5F5F5F5F5F5F5F5F5F5F5F5F5F5F5F5F5F5F5F5F5F5F5F5F5F5F5F5F5F5F5F5F5F5F5F5F5F5F5F5F5F5F5F5F5F5F5F5F5F5F5F5F5F5F5F5F5F5F5F5F5F5F5F5F5F5F5F5F5F5F5F5F5F5F5F5F5F5F5F5F5F5F5F5F528F5DCF5F5F5F5F5F5F5F5F5F5F5F5F5F5F5F5F5E2F5E2E2F5E2F5F5F5F5F5F5F5F5F5F5F5F5F5F5F5
310
F5F5DCF528F5F5F5F5F5F5F5F5F5F5F5F5F5F5F5F5F5F5F5F5F5F5F5F5F5F5F5F5F5F5F5F5F5F5F5F5F5F5F5F5F5F5F5F5F5F5F5F5F5F5F5F5F5F5F5F5F5F5F5F5F5F5F5F5F5F5F5F5F5F5F5F5F5F5F5F5F5F5F5F5F5F5F5F5F5F5F5F5F5F5F5F5F5F5F5F5F5F5F5F5F5F5F5F5F5F5F5F5F5F5F5F5F5F5F5F5F5F5F5F5F5F5
310
F5F5F5F5F5F5F5F5F5F5F5F528F5DCF5F5F5F5F5F5F5F5F5F5F5F5F5F5F5F5F5E2F5E2E2F5E2F5F5F5F5F5F5F5F5F5F5F5F5F5F5F5F5F5DCF528F5F5F5F5F5F5F5F5F5F5F5F5F5F5F5F5F5F5F5F5F5F5F5F5F5F5F5F5F5F5F5F5F5F5F5F5F5F5F5F5F5F5F5F5F5F5F5F5F5F5F5F5F5F5F5F5F5F5F5F5F5F5F5F5F5F5F5F5F5
310
F5F5F5F5F5F5F5F5F5F5F5F5F5F5F5F5F5F5F5F5F5F5F5F5F5F5F5F5F5F5F5F5F5F5F5F5F5F5F5F5F5F5F5F5F5F5F5F5F5F5F5F5F5F5F5F5F5F5F5F5F5F5F5F5F528F5DCF5F5F5F5F5F5F5F5F5F5F5F5F5F5F5F5F5E2F5E2E2F5E2F5F5F5F5F5F5F5F5F5F5F5F5F5F5F5F5F5DCF528F5F5F5F5F5F5F5F5F5F5F5F5F5F5F5F5
310
F5F5F5F5F5F5F5F5F5F5F5F5F5F5F5F5F5F5F5F5F5F5F5F5F5F5F5F5F5F5F5F5F5F5F5F5F5F5F5F5F5F5F5F5F5F5F5F5F5F5F5F5F5F5F5F5F5F5F5F5F5F5F5F5F5F5F5F5F5F5F5F5F5F5F5F5F5F5F5F5F5F5F5F5F5F5F5F5F5F5F5F5F5F5F5F5F5F5F5F5F5F5F5F5F5F5F5F5F5F5F5F5F5F5F5F5F5F528F5DCF5F5F5F5F5F5
310
F5F5F5F5F5F5F5F5F5F5F5E2F5E2E2F5E2F5F5F5F5F5F5F5F5F5F5F5F5F5F5F5F5F5DCF528282828282828282828282828282828282828282828282828282828282828282828282828282828282828282828282828282828282828282828282828282828282828282828282828282828282828282828282828282828282828
310
282828282828282828282828282828282828282828282828282828282828282828282828282828282828282828F5DCF5F5F5F5F5F5F5F5F5F5F5F5F5F5F5F5F5E2F5E2E2F5E2F5F5F5F5F5F5F5F5F5F5F5F5F5F5F5F5F5DCF528F5F5F5F5F5F5F5F5F5F5F5F5F5F5F5F5F5F5F5F5F5F5F5F5F5F5F5F5F5F5F5F5F5F5F5F5F5
310
F5F5F5F5F5F5F5F5F5F5F5F5F5F5F5F5F5F5F5F5F5F5F5F5F5F5F5F5F528F5F5F5F5F5F5F5F5F5F5F5F5F5F5F5F5F5F5F5F5F5F5F5F5F5F5F5F5F5F5F5F5F5F5F5F5F5F5F5F5F5F5F5F5F5F5F5F5F5F5F5F5F5F5F5F5F5F5F5F5F5F5F5F5F5F5F528F5DCF5F5F5F5F5F5F5F5F5F5F5F5F5F5F5F5F5E2F5E2E2F5E2F5F5F5F5
310
F5F5F5F5F5F5F5F5F5F5F5F5F5DCF528F5F5F5F5F5F5F5F5F5F5F5F5F52D2D2D2D2D2D2D2D2D2D2D2D2D2D2D2D2D2D2D2D2D2D2D2D2D2D2D2D2D2D2D2D2D2D2D2D2D2DF5F5F5F5F5F5F5F5F5F5F5F5F5F5F528F5F5F52D2D2D2DF52D2D2D2D2D2DF5F5F5F5F5F5F5F5F5F5F5F5F5F5F5F5F5F5F5F5F5F5F5F5F5F5F5F5F5F5
310
F5F5F5F5F5F5F5F5F5F5F5F5F5F5F5F5F5F5F5F5F5F5F528F5DCF5F5F5F5F5F5F5F5F5F5F5F5F5F5F5F5F5E2F5E2E2F5E2F5F5F5F5F5F5F5F5F5F5F5F5F5F5F5F5F5DCF528F5F5F5F5F5F5F5F5F5F5F5F5F52D2D2D2D2D2D2D2D2D2D2D2D2D2D2D2D2D2D2D2D2D2D2D2D2D2D2D2D2D2D2D2D2D2D2D2D2D2DF5F5F5F5F5F5F5
310
F5F5F5F5F5F5F5F528F5F5F52D2D2D2DF52D2D2D2DF52DF5F5F5F5F5F5F5F5F5F5F5F5F5F5F5F5F5F5F5F5F5F5F5F5F5F5F5F5F5F5F5F5F5F5F5F5F5F5F5F5F5F5F5F5F5F5F5F5F5F5F5F5F528F5DCF5F5F5F5F5F5F5F5F5F5F5F5F5F5F5F5F5E2F5E2E2F5E2F5F5F5F5F5F5F5F5F5F5F5F5F5F5F5F5F5DCF528F5F5F5F5F5
310
F5F5F5F5F5F5F5F5F5F5F5F5F5F5F5F5F5F5F5F5F5F5F5F5F5F5F5F5F5F5F5F5F5F5F5F5F5F5F5F5F5F5F5F5F5F5F5F5F5F5F5F5F5F5F5F5F5F5F5F5F528F5F5F5F5F5F5F5F5F5F5F5F5F5F5F5F5F5F5F5F5F5F5F5F5F5F5F5F5F5F5F5F5F5F5F5F5F5F5F5F5F5F5F5F5F5F5F5F5F5F5F5F5F5F5F5F5F5F5F5F5F5F5F5F5F5
310
F5F528F5DCF5F5F5F5F5F5F5F5F5F5F5F5F5F5F5F5F5E2F5E2E2F5E2F5F5F5F5F5F5F5F5F5F5F5F5F5F5F5F5F5DCF52828282828282828282828282828282828282828282828282828282D2D2D2D2D2D2D2D2D2D2D2D2D28282828282828282828282828282828282828282828282828282828282828282828282828282828
310
2828282828282828282828282828282828282828282828282828282828282828282828282828282828282828282828282828282828282828F5DCF5F5F5F5F5F5F5F5F5F5F5F5F5F5F5F5F5E2F5E2E2F5E2F5F5F5F5F5F5F5F5F5F5F5F5F5F5F5F5F5DCF528F5F5F5F5F5F5F5F5F5F5F5F5F5F5F5F5F5F5F5F5F5F5F5F5F5F5
310
2D2D2D2D2D2D2D2D2D2D2D2D2DF5F5F5F5F5F5F5F5F5F5F5F5F5F5F5F5F5F5F5F5F5F5F5F5F5F5F528F5F5F52D2D2D2D2D2D2D2D2D2D2DF5F52D2D2D2D2D2D2D2D2D2DF5F5F5F5F5F5F5F5F5F5F5F5F5F5F5F5F5F5F5F5F5F5F5F5F5F5F5F5F5F5F5F5F5F5F5F5F5F5F5F5F528F5DCF5F5F5F5F5F5F5F5F5F5F5F5F5F5F5F5
310
F5E2F5E2E2F5E2F5F5F5F5F5F5F5F5F5F5F5F5F5F5F5F5F5DCF528F5F5F5F5F5F5F5F5F5F5F5F5F5F5F5F5F5F5F5F5F5F5F5F5F5F52D2D2D2D2D2D2D2D2D2D2D2D2DF5F5F5F5F5F5F5F5F5F5F5F5F5F5F5F5F5F5F5F5F5F5F5F5F5F5F528F5F5F52D2D2D2D2D2D2D2D2D2D2DF52D2D2D2D2D2D2D2D2D2D2DF5F5F5F5F5F5F5
310
F5F5F5F5F5F5F5F5F5F5F5F5F5F5F5F5F5F5F5F5F5F5F5F5F5F5F5F5F5F5F5F5F5F528F5DCF5F5F5F5F5F5F5F5F5F5F5F5F5F5F5F5F5E2F5E2E2F5F5F5F5F5F5F5F5F5F5F5F5F5F5F5F5F5F5F5DCF528F5F5F5F5F5F5F5F5F5F5F5F5F5F5F5F5F5F5F5F5F5F5F5F5F5F5F5F5F5F5F5F5F5F5F5F5F5F5F5F5F5F5F5F5F5F5F5
310
F5F5F5F5F5F5F5F5F5F5F5F5F5F5F5F5F5F5F528F5F5F5F5F5F5F5F5F5F5F5F5F5F5F5F5F5F5F5F5F5F5F5F5F5F5F5F5F5F5F5F5F5F5F5F5F5F5F5F5F5F5F5F5F5F5F5F5F5F5F5F5F5F5F5F5F5F5F5F5F5F5F5F5F5F5F528F5DCF5F5F5F5F5F5F5F5F5F5F5F5F5F5F5F5F5F5F5E2E2F5F5F5F5F5F5F5F5F5F5F5F5F5F5F5F5
310
F5F5F5DCF52828282828282828282828282828282828282828282828282828282828282828282828282828282828282828282828282828282828282828282828282828282828282828282828282828282828282828282828282828282828282828282828282828282828282828282828282828282828282828282828282828
310
2828282828282828282828282828F5DCF5F5F5F5F5F5F5F5F5F5F5F5F5F5F5F5F5F5F5E2E2F5F5F5F5F5F5F5F5F5F5F5F5F5F5F5F5F5F5F5DCF5F5F5F5F5F5F5F5F5F5F5F5F5F5F5F5F5F5F5F5F5F5F5F5F5F5F5F5F5F5F5F5F5F5F5F5F5F5F5F5F5F5F5F5F5F5F5F5F5F5F5F5F5F5F5F5F5F5F5F5F5F5F5F5F5F5F5F5F5F5
310
F5F5F5F5F5F5F5F5F5F5F5F5F5F5F5F5F5F5F5F5F5F5F5F5F5F5F5F5F5F5F5F5F5F5F5F5F5F5F5F5F5F5F5F5F5F5F5F5F5F5F5F5F5F5F5F5F5F5F5F5F5F5F5F5F5F5F5F5DCF5F5F5F5F5F5F5F5F5F5F5F5F5F5F5F5F5F5F5E2E2F5F5F5F5F5F5F5F5F5F5F5F5F5F5F5F5F5F5F5DCDCDCDCDCDCDCDCDCDCDCDCDCDCDCDCDCDC
310
DCDCDCDCDCDCDCDCDCDCDCDCDCDCDCDCDCDCDCDCDCDCDCDCDCDCDCDCDCDCDCDCDCDCDCDCDCDCDCDCDCDCDCDCDCDCDCDCDCDCDCDCDCDCDCDCDCDCDCDCDCDCDCDCDCDCDCDCDCDCDCDCDCDCDCDCDCDCDCDCDCDCDCDCDCDCDCDCDCDCDCDCDCDCDCDCDCDCDCDCDCDCDCDCDCDCDCDCDCDCDCDCDCDCDCDCDCDCDCDCDCDCF5F5F5F5F5
310
F5F5F5F5F5F5F5F5F5F5F5F5F5F5E2E2F5F5F5F5F5F5F5F5F5F5F5F5F5F5F5F5F5F5F5DCDCDCDCDCDCDCDCDCDCDCDCDCDCDCDCDCDCDCDCDCDCDCDCDCDCDCDCDCDCDCDCDCDCDCDCDCDCDCDCDCDCDCDCDCDCDCDCDCDCDCDCDCDCDCDCDCDCDCDCDCDCDCDCDCDCDCDCDCDCDCDCDCDCDCDCDCDCDCDCDCDCDCDCDCDCDCDCDCDCDCDC
310
DCDCDCDCDCDCDCDCDCDCDCDCDCDCDCDCDCDCDCDCDCDCDCDCDCDCDCDCDCDCDCDCDCDCDCDCDCDCDCDCDCDCDCDCDCDCDCDCF5F5F5F5F5F5F5F5F5F5F5F5F5F5F5F5F5F5F5E2E2F5F5F5F5F5F5F5F5F5F5F5F5F5F5F5F5F5F5F5F5F5F5F5F5F5F5F5F5F5F5F5F5F5F5F5F5F5F5F5F5F5F5F5F5F5F5F5F5F5F5F5F5F5F5F5F5F5F5
310
F5F5F5F5F5F5F5F5F5F5F5F5F5F5F5F5F5F5F5F5F5F5F5F5F5F5F5F5F5F5F5F5F5F5F5F5F5F5F5F5F5F5F5F5F5F5F5F5F5F5F5F5F5F5F5F5F5F5F5F5F5F5F5F5F5F5F5F5F5F5F5F5F5F5F5F5F5F5F5F5F5F5F5F5F5F5F5F5F5F5F5F5F5F5F5F5F5F5F5F5F5F5F5F5F5F5F5F5F5F5F5F5F5F5F5F5F5F5F5F5E2E2F5F5F5F5F5
310
F5F5F5F5F5F5F5F5F5F5F5F5F5F5F5F5F5F5F5F5F5F5F5F5F5F5F5F5F5F5F5F5F5F5F5F5F5F5F5F5F5F5F5F5F5F5F5F5F5F5F5F5F5F5F5F5F5F5F5F5F5F5F5F5F5F5F5F5F5F5F5F5F5F5F5F5F5F5F5F5F5F5F5F5F5F5F5F5F5F5F5F5F5F5F5F5F5F5F5F5F5F5F5F5F5F5F5F5F5F5F5F5F5F5F5F5F5F5F5F5F5F5F5F5F5F5F5
310
F5F5F5F5F5F5F5F5F5F5F5F5F5F5F5F5F5F5F5F5F5F5F5F5F5F5F5F5F5F5F5F5F5F5F5F5F5F5F5F5F5F5F5F5F5F5E2E2F5F5F5F5F5F5F5F5F5F5F5F5F5F5F5F5F5F5F5F5F5F5F5F5F5F5F5F5F5F5F5F5F5F5F5F5F5F5F5F5F5F5F5F5F5F5F5F5F5F5F5F5F5F5F5F5F5F5F5F5F5F5F5F5F5F5F5F5F5F5F5F5F5F5F5F5F5F5F5
310
F5F5F5F5F5F5F5F5F5F5F5F5F5F5F5F5F5F5F5F5F5F5F5F5F5F5F5F5F5F5F5F5F5F5F5F5F5F5F5F5F5F5F5F5F5F5F5F5F5F5F5F5F5F5F5F5F5F5F5F5F5F5F5F5F5F5F5F5F5F5F5F5F5F5F5F5F5F5F5F5F5F5F5F5F5F5F5F5F5F5F5F5F5F5F5F5F5F5F5E2E2F5F5F5F5F5F5F5F5F5F5F5F5F5F5F5F5F5F5F5F5F5F5F5F5F5F5
310
F5F5F5F5F5F5F5F5F5F5F5F5F5F5F5F5F5F5F5F5F5F5F5F5F5F5F5F5F5F5F5F5F5F5F5F5F5F5F5F5F5F5F5F5F5F5F5F5F5F5F5F5F5F5F5F5F5F5F5F5F5F5F5F5F5F5F5F5F5F5F5F5F5F5F5F5F5F5F5F5F5F5F5F5F5F5F5F5F5F5F5F5F5F5F5F5F5F5F5F5F5F5F5F5F5F5F5F5F5F5F5F5F5F5F5F5F5F5F5F5F5F5F5F5F5F5F5
310
F5F5F5F5F5F5F5F5F5F5F5F5F5F5F5F5F5F5F5F5F5F5F5F5F5E2E2F5E2F5F5F5F5F5F5F5F5F5F5F5F5F5F5F5F5F5F5F5F5F5F5F5F5F5F5F5F5F5F5F5F5F5F5F5F5F5F5F5F5F5F5F5F5F5F5F5F5F5F5F5F5F5F5F5F5F5F5F5F5F5F5F5F5F5F5F5F5F5F5F5F5F5F5F5F5F5F5F5F5F5F5F5F5F5F5F5F5F5F5F5F5F5F5F5F5F5F5
310
F5F5F5F5F5F5F5F5F5F5F5F5F5F5F5F5F5F5F5F5F5F5F5F5F5F5F5F5F5F5F5F5F5F5F5F5F5F5F5F5F5F5F5F5F5F5F5F5F5F5F5F5F5F5F5F5F5F5F5F5F5F5F5F5F5F5F5F5F5F5F5F5F5F5F5F5E2F5E2E2F5E2F5F5F5F5F5F5F5F5F5F5F5F5F5F5F5F5F5F5F5F5F5F5F5F5F5F5F5F5F5F5F5F5F5F5F5F5F5F5F5F5F5F5F5F5F5
310
F5F5F5F5F5F5F5F5F5F5F5F5F5F5F5F5F5F5F5F5F5F5F5F5F5F5F5F5F5F5F5F5F5F5F5F5F5F5F5F5F5F5F5F5F5F5F5F5F5F5F5F5F5F5F5F5F5F5F5F5F5F5F5F5F5F5F5F5F5F5F5F5F5F5F5F5F5F5F5F5F5F5F5F5F5F5F5F5F5F5F5F5F5F5F5F5F5F5F5F5F5F5F5F5F5F5F5F5F5F5F5F5F5F5F5F5F5F5F5F5F5F5F5F5F5F5F5
310
F5F5E2F5E2E2F5E2F5F5F5F5F5F5F5F5F5F5F5F5F5F5F5F5F5F5F5F5F5F5F5F5F5F5F5F5F5F5F5F5F5F5F5F5F5F5F5F5F5F5F5F5F5F5F5F5F5F5F5F5F5F5F5F5F5F5F5F5F5F5F5F5F5F5F5F5F5F5F5F5F5F5F5F5F5F5F5F5F5F5F5F5F5F5F5F5F5F5F5F5F5F5F5F5F5F5F5F5F5F5F5F5F5F5F5F5F5F5F5F5F5F5F5F5F5F5F5
310
F5F5F5F5F5F5F5F5F5F5F5F5F5F5F5F5F5F5F5F5F5F5F5F5F5F5F5F5F5F5F5F5F5F5F5F5F5F5F5F5F5F5F5F5F5F5F5F5F5F5F5F5F5F5F5E2F5E2E2F5E2F5F5F5F5F5F5F5F5F5F5F5F5F5F5F5F5F5F5F5F5F5F5F5F5F5F5F5F5F5F5F5F5F5F5F5F5F5F5F5F5F5F5F5F5F5F5F5F5F5F5F5F5F5F5F5F5F5F5F5F5F5F5F5F5F5F5
310
F5F5F5F5F5F5F5F5F5F5F5F5F5F5F5F5F5F5F5F5F5F5F5F5F5F5F5F5F5F5F5F5F5F5F5F5F5F5F5F5F5F5F5F5F5F5F5F5F5F5F5F5F5F5F5F5F5F5F5F5F5F5F5F5F5F5F5F5F5F5F5F5F5F5F5F5F5F5F5F5F5F5F5F5F5F5F5F5F5F5F5F5F5F5F5F5F5F5F5F5F5F5F5F5F5F5F5F5E2F5E2E2F5E2F5F5F5F5F5F5F5F5F5F5F5F5F5
310
F5F5F5F5F5F5F5F5F5F5F5F5F5F5F5F5F5F5F5F5F5F5F5F5F5F5F5F5F5F5F5F5F5F5F5F5F5F5F5F5F5F5F5F5F5F5F5F5F5F5F5F5F5F5F5F5F5F5F5F5F5F5F5F5F5F5F5F5F5F5F5F5F5F5F5F5F5F5F5F5F5F5F5F5F5F5F5F5F5F5F5F5F5F5F5F5F5F5F5F5F5F5F5F5F5F5F5F5F5F5F5F5F5F5F5F5F5F5F5F5F5F5F5F5F5F5F5
310
F5F5F5F5F5F5F5F5F5F5F5F5F5F5F5F5F5F5F5F5F5F5F5F5F5F5F5F5F5F5F5F5F5F5E2F5E2E2F5E2F5F5F5F5F5F5F5F5F5F5F5F5F5F5F5F5F5F5F5F5F5F5F5F5F5F5F5F5F5F5F5F5F5F5F5F5F5F5F5F5F5F5F5F5F5F5F5F5F5F5F5F5F5F5F5F5F5F5F5F5F5F5F5F5F5F5F5F5F5F5F5F5F5F5F5F5F5F5F5F5F5F5F5F5F5F5F5
310
F5F5F5F5F5F5F5F5F5F5F5F5F5F5F5F5F5F5F5F5F5F5F5F5F5F5F5F5F5F5F5F5F5F5F5F5F5F5F5F5F5F5F5F5F5F5F5F5F5F5F5F5F5F5F5F5F5F5F5F5F5F5F5F5F5F5F5F5F5F5F5F5F5F5F5F5F5F5F5F5F5F5F5F5F5F5F5E2F5E2E2F5E2F5F5F5F5F5F5F5F5F5F5F5F5F5F5F5F5F5F5F5F5F5F5F5F5F5F5F5F5F5F5F5F5F5F5
310
F5F5F5F5F5F5F5F5F5F5F5F5F5F5F5F5F5F5F5F5F5F5F5F5F5F5F5F5F5F5F5F5F5F5F5F5F5F5F5F5F5F5F5F5F5F5F5F5F5F5F5F5F5F5F5F5F5F5F5F5F5F5F5F5F5F5F5F5F5F5F5F5F5F5F5F5F5F5F5F5F5F5F5F5F5F5F5F5F5F5F5F5F5F5F5F5F5F5F5F5F5F5F5F5F5F5F5F5F5F5F5F5F5F5F5F5F5F5F5F5F5F5F5F5F5F5F5
310
F5F5F5F5F5F5F5F5F5F5F5F5F5E2F5E2E2F5E2E2E2E2E2E2E2E2E2F5F5F5F5F5F5F5F5F5E2E2E2E2E2E2E2E2E2E2E2E2E2E2E2E2F5F5F5F5F5F5F5F5F5E2E2E2E2E2E2E2E2E2E2E2E2E2E2E2E2F5F5F5F5F5F5F5F5F5E2E2E2E2E2E2E2E2E2E2E2E2E2E2E2E2F5F5F5F5F5F5F5F5F5E2E2E2E2E2E2E2E2E2E2E2E2E2E2E2E2
310
F5F5F5F5F5F5F5F5F5E2E2E2E2E2E2E2E2E2E2E2E2E2E2E2E2F5F5F5F5F5F5F5F5F5E2E2E2E2E2E2E2E2E2E2E2E2E2E2E2E2F5F5F5F5F5F5F5F5F5E2E2E2E2E2E2E2E2F5E2E2F5F5F5F5F5F5F5F5F5F5F5F5F5F5F5F5F5F5F5F5F5F5F5F5F5F5F5F5F5F5F5F5F5F5F5F5F5F5F5F5F5F5F5F5F5F5F5F5F5F5F5F5F5F5F5F5F5
310
F5F5F5F5F5F5F5F5F5F5F5F5F5F5F5F5F5F5F5F5F5F5F5F5F5F5F5F5F5F5F5F5F5F5F5F5F5F5F5F5F5F5F5F5F5F5F5F5F5F5F5F5F5F5F5F5F5F5F5F5F5F5F5F5F5F5F5F5F5F5F5F5F5F5F5F5F5F5F5F5F5F5F5F5F5F5F5F5F5F5F5F5F5F5F5F5F5F5F5F5F5F5F5F5F5F5F5F5F5F5F5F5F5F5F5F5F5F5F5F5F5E2E2E2E2E2E2
310
E2E2E2E2E2E2E2E2E2E2E2E2E2E2E2E2E2E2E2E2E2E2E2E2E2E2E2E2E2E2E2E2E2E2E2E2E2E2E2E2E2E2E2E2E2E2E2E2E2E2E2E2E2E2E2E2E2E2E2E2E2E2E2E2E2E2E2E2E2E2E2E2E2E2E2E2E2E2E2E2E2E2E2E2E2E2E2E2E2E2E2E2E2E2E2E2E2E2E2E2E2E2E2E2E2E2E2E2E2E2E2E2E2E2E2E2E2E2E2E2E2E2E2E2E2E2E2
310
E2E2E2E2E2E2E2E2E2E2E2E2E2E2E2E2E2E2E2E2E2E2E2E2E2E2E2E2E2E2E2E2E2E2E2E2E2E2E2E2E2E2E2E2E2E2E2E2
  0
XRECORD
  5
C8
102
{ACAD_REACTORS
330
C7
102
}
330
C7
100
AcDbXrecord
280
     1
102
MATERIAL
148
0.0
149
0.0
149
0.0
 93
        0
 94
       63
282
     0
 72
     1
 77
     1
171
     1
175
     1
179
     1
273
     0
  0
XRECORD
  5
C6
102
{ACAD_REACTORS
330
C5
102
}
330
C5
100
AcDbXrecord
280
     1
102
MATERIAL
148
0.0
149
0.0
149
0.0
 93
        0
 94
       63
282
     0
 72
     1
 77
     1
171
     1
175
     1
179
     1
273
     0
  0
XRECORD
  5
B2
102
{ACAD_REACTORS
330
B1
102
}
330
B1
100
AcDbXrecord
280
     1
102
MATERIAL
148
0.0
149
0.0
149
0.0
 93
        0
 94
       63
282
     0
 72
     1
 77
     1
171
     1
175
     1
179
     1
273
     0
  0
XRECORD
  5
156
102
{ACAD_REACTORS
330
155
102
}
330
155
100
AcDbXrecord
280
     1
102
ACAD_ROUNDTRIP_PRE2007_TABLESTYLE
 90
        4
 91
        0
  1

 92
        4
 93
        0
  2

 94
        4
 95
        0
  3

  0
ENDSEC
  0
EOF
