  0
SECTION
  2
HEADER
  9
$ACADVER
  1
AC1021
  9
$ACADMAINTVER
 70
     1
  9
$DWGCODEPAGE
  3
ANSI_1252
  9
$LASTSAVEDBY
  1
Simone
  9
$INSBASE
 10
0.0
 20
0.0
 30
0.0
  9
$EXTMIN
 10
0.0149999999999999
 20
0.015
 30
0.0
  9
$EXTMAX
 10
0.4050000000000001
 20
0.282
 30
0.0
  9
$LIMMIN
 10
0.0
 20
0.0
  9
$LIMMAX
 10
1.0
 20
0.5
  9
$ORTHOMODE
 70
     0
  9
$REGENMODE
 70
     1
  9
$FILLMODE
 70
     1
  9
$QTEXTMODE
 70
     0
  9
$MIRRTEXT
 70
     0
  9
$LTSCALE
 40
1.0
  9
$ATTMODE
 70
     1
  9
$TEXTSIZE
 40
0.005
  9
$TRACEWID
 40
1.0
  9
$TEXTSTYLE
  7
style1
  9
$CLAYER
  8
Sezione
  9
$CELTYPE
  6
ByLayer
  9
$CECOLOR
 62
     6
  9
$CELTSCALE
 40
1.0
  9
$DISPSILH
 70
     0
  9
$DIMSCALE
 40
0.001
  9
$DIMASZ
 40
1.5
  9
$DIMEXO
 40
0.0625
  9
$DIMDLI
 40
0.38
  9
$DIMRND
 40
0.0
  9
$DIMDLE
 40
0.0
  9
$DIMEXE
 40
0.18
  9
$DIMTP
 40
0.0
  9
$DIMTM
 40
0.0
  9
$DIMTXT
 40
3.0
  9
$DIMCEN
 40
0.0
  9
$DIMTSZ
 40
0.0
  9
$DIMTOL
 70
     0
  9
$DIMLIM
 70
     0
  9
$DIMTIH
 70
     1
  9
$DIMTOH
 70
     1
  9
$DIMSE1
 70
     0
  9
$DIMSE2
 70
     0
  9
$DIMTAD
 70
     0
  9
$DIMZIN
 70
     0
  9
$DIMBLK
  1
ArchTick
  9
$DIMASO
 70
     1
  9
$DIMSHO
 70
     1
  9
$DIMPOST
  1

  9
$DIMAPOST
  1

  9
$DIMALT
 70
     0
  9
$DIMALTD
 70
     2
  9
$DIMALTF
 40
25.4
  9
$DIMLFAC
 40
1.0
  9
$DIMTOFL
 70
     0
  9
$DIMTVP
 40
0.0
  9
$DIMTIX
 70
     0
  9
$DIMSOXD
 70
     0
  9
$DIMSAH
 70
     0
  9
$DIMBLK1
  1

  9
$DIMBLK2
  1

  9
$DIMSTYLE
  2
Bovelacci
  9
$DIMCLRD
 70
     5
  9
$DIMCLRE
 70
     5
  9
$DIMCLRT
 70
     4
  9
$DIMTFAC
 40
1.0
  9
$DIMGAP
 40
2.0
  9
$DIMJUST
 70
     0
  9
$DIMSD1
 70
     0
  9
$DIMSD2
 70
     0
  9
$DIMTOLJ
 70
     1
  9
$DIMTZIN
 70
     0
  9
$DIMALTZ
 70
     0
  9
$DIMALTTZ
 70
     0
  9
$DIMUPT
 70
     0
  9
$DIMDEC
 70
     2
  9
$DIMTDEC
 70
     2
  9
$DIMALTU
 70
     2
  9
$DIMALTTD
 70
     2
  9
$DIMTXSTY
  7
ROMANS
  9
$DIMAUNIT
 70
     0
  9
$DIMADEC
 70
     0
  9
$DIMALTRND
 40
0.0
  9
$DIMAZIN
 70
     0
  9
$DIMDSEP
 70
    46
  9
$DIMATFIT
 70
     3
  9
$DIMFRAC
 70
     0
  9
$DIMLDRBLK
  1

  9
$DIMLUNIT
 70
     2
  9
$DIMLWD
 70
    -2
  9
$DIMLWE
 70
    -2
  9
$DIMTMOVE
 70
     2
  9
$DIMFXL
 40
0.18
  9
$DIMFXLON
 70
     0
  9
$DIMJOGANG
 40
0.7853981633974483
  9
$DIMTFILL
 70
     0
  9
$DIMTFILLCLR
 70
     0
  9
$DIMARCSYM
 70
     0
  9
$DIMLTYPE
  6

  9
$DIMLTEX1
  6

  9
$DIMLTEX2
  6

  9
$LUNITS
 70
     2
  9
$LUPREC
 70
     2
  9
$SKETCHINC
 40
1.0
  9
$FILLETRAD
 40
0.0
  9
$AUNITS
 70
     0
  9
$AUPREC
 70
     0
  9
$MENU
  1
.
  9
$ELEVATION
 40
0.0
  9
$PELEVATION
 40
0.0
  9
$THICKNESS
 40
0.0
  9
$LIMCHECK
 70
     0
  9
$CHAMFERA
 40
0.0
  9
$CHAMFERB
 40
0.0
  9
$CHAMFERC
 40
0.0
  9
$CHAMFERD
 40
0.0
  9
$SKPOLY
 70
     0
  9
$TDCREATE
 40
2454297.625402373
  9
$TDUCREATE
 40
2454297.542069039
  9
$TDUPDATE
 40
2454377.917062767
  9
$TDUUPDATE
 40
2454377.833729433
  9
$TDINDWG
 40
0.4331427083
  9
$TDUSRTIMER
 40
0.4331421528
  9
$USRTIMER
 70
     1
  9
$ANGBASE
 50
0.0
  9
$ANGDIR
 70
     0
  9
$PDMODE
 70
     0
  9
$PDSIZE
 40
0.0
  9
$PLINEWID
 40
0.0
  9
$SPLFRAME
 70
     0
  9
$SPLINETYPE
 70
     6
  9
$SPLINESEGS
 70
     8
  9
$HANDSEED
  5
2F9A
  9
$SURFTAB1
 70
     6
  9
$SURFTAB2
 70
     6
  9
$SURFTYPE
 70
     6
  9
$SURFU
 70
     6
  9
$SURFV
 70
     6
  9
$UCSBASE
  2

  9
$UCSNAME
  2

  9
$UCSORG
 10
0.0
 20
0.0
 30
0.0
  9
$UCSXDIR
 10
1.0
 20
0.0
 30
0.0
  9
$UCSYDIR
 10
0.0
 20
1.0
 30
0.0
  9
$UCSORTHOREF
  2

  9
$UCSORTHOVIEW
 70
     0
  9
$UCSORGTOP
 10
0.0
 20
0.0
 30
0.0
  9
$UCSORGBOTTOM
 10
0.0
 20
0.0
 30
0.0
  9
$UCSORGLEFT
 10
0.0
 20
0.0
 30
0.0
  9
$UCSORGRIGHT
 10
0.0
 20
0.0
 30
0.0
  9
$UCSORGFRONT
 10
0.0
 20
0.0
 30
0.0
  9
$UCSORGBACK
 10
0.0
 20
0.0
 30
0.0
  9
$PUCSBASE
  2

  9
$PUCSNAME
  2

  9
$PUCSORG
 10
0.0
 20
0.0
 30
0.0
  9
$PUCSXDIR
 10
1.0
 20
0.0
 30
0.0
  9
$PUCSYDIR
 10
0.0
 20
1.0
 30
0.0
  9
$PUCSORTHOREF
  2

  9
$PUCSORTHOVIEW
 70
     0
  9
$PUCSORGTOP
 10
0.0
 20
0.0
 30
0.0
  9
$PUCSORGBOTTOM
 10
0.0
 20
0.0
 30
0.0
  9
$PUCSORGLEFT
 10
0.0
 20
0.0
 30
0.0
  9
$PUCSORGRIGHT
 10
0.0
 20
0.0
 30
0.0
  9
$PUCSORGFRONT
 10
0.0
 20
0.0
 30
0.0
  9
$PUCSORGBACK
 10
0.0
 20
0.0
 30
0.0
  9
$USERI1
 70
     0
  9
$USERI2
 70
     0
  9
$USERI3
 70
     0
  9
$USERI4
 70
     0
  9
$USERI5
 70
     0
  9
$USERR1
 40
0.0
  9
$USERR2
 40
0.0
  9
$USERR3
 40
0.0
  9
$USERR4
 40
0.0
  9
$USERR5
 40
0.0
  9
$WORLDVIEW
 70
     1
  9
$SHADEDGE
 70
     3
  9
$SHADEDIF
 70
    70
  9
$TILEMODE
 70
     1
  9
$MAXACTVP
 70
    64
  9
$PINSBASE
 10
0.0
 20
0.0
 30
0.0
  9
$PLIMCHECK
 70
     0
  9
$PEXTMIN
 10
29.06606628894805
 20
20.36233246326446
 30
0.0
  9
$PEXTMAX
 10
261.5945966005325
 20
183.2609921693802
 30
0.0
  9
$PLIMMIN
 10
-3.17498779296875
 20
-3.174999952316281
  9
$PLIMMAX
 10
293.8356628417969
 20
206.7983276844024
  9
$UNITMODE
 70
     0
  9
$VISRETAIN
 70
     1
  9
$PLINEGEN
 70
     0
  9
$PSLTSCALE
 70
     1
  9
$TREEDEPTH
 70
  3020
  9
$CMLSTYLE
  2
Standard
  9
$CMLJUST
 70
     0
  9
$CMLSCALE
 40
20.0
  9
$PROXYGRAPHICS
 70
     1
  9
$MEASUREMENT
 70
     1
  9
$CELWEIGHT
370
    -1
  9
$ENDCAPS
280
     0
  9
$JOINSTYLE
280
     0
  9
$LWDISPLAY
290
     0
  9
$INSUNITS
 70
     4
  9
$HYPERLINKBASE
  1

  9
$STYLESHEET
  1

  9
$XEDIT
290
     1
  9
$CEPSNTYPE
380
     0
  9
$PSTYLEMODE
290
     1
  9
$FINGERPRINTGUID
  2
{4F38C4E7-9F37-4C76-96D9-79C94F9B03D9}
  9
$VERSIONGUID
  2
{DD1DBC11-09CD-48B2-B45D-9E531FF84319}
  9
$EXTNAMES
290
     1
  9
$PSVPSCALE
 40
0.0
  9
$OLESTARTUP
290
     0
  9
$SORTENTS
280
   127
  9
$INDEXCTL
280
     0
  9
$HIDETEXT
280
     1
  9
$XCLIPFRAME
290
     0
  9
$HALOGAP
280
     0
  9
$OBSCOLOR
 70
   257
  9
$OBSLTYPE
280
     0
  9
$INTERSECTIONDISPLAY
280
     0
  9
$INTERSECTIONCOLOR
 70
   257
  9
$DIMASSOC
280
     2
  9
$PROJECTNAME
  1

  9
$CAMERADISPLAY
290
     0
  9
$LENSLENGTH
 40
50.0
  9
$CAMERAHEIGHT
 40
0.0
  9
$STEPSPERSEC
 40
2.0
  9
$STEPSIZE
 40
6.0
  9
$3DDWFPREC
 40
2.0
  9
$PSOLWIDTH
 40
0.25
  9
$PSOLHEIGHT
 40
4.0
  9
$LOFTANG1
 40
1.570796326794896
  9
$LOFTANG2
 40
1.570796326794896
  9
$LOFTMAG1
 40
0.0
  9
$LOFTMAG2
 40
0.0
  9
$LOFTPARAM
 70
     7
  9
$LOFTNORMALS
280
     1
  9
$LATITUDE
 40
37.795
  9
$LONGITUDE
 40
-122.394
  9
$NORTHDIRECTION
 40
0.0
  9
$TIMEZONE
 70
 -8000
  9
$LIGHTGLYPHDISPLAY
280
     1
  9
$TILEMODELIGHTSYNCH
280
     1
  9
$CMATERIAL
347
9F
  9
$SOLIDHIST
280
     1
  9
$SHOWHIST
280
     1
  9
$DWFFRAME
280
     2
  9
$DGNFRAME
280
     0
  9
$REALWORLDSCALE
290
     1
  9
$INTERFERECOLOR
 62
     1
  9
$INTERFEREOBJVS
345
A5
  9
$INTERFEREVPVS
346
A6
  9
$CSHADOW
280
     0
  9
$SHADOWPLANELOCATION
 40
0.0
  0
ENDSEC
  0
SECTION
  2
CLASSES
  0
CLASS
  1
ACDBDICTIONARYWDFLT
  2
AcDbDictionaryWithDefault
  3
ObjectDBX Classes
 90
        0
 91
        1
280
     0
281
     0
  0
CLASS
  1
TABLESTYLE
  2
AcDbTableStyle
  3
ObjectDBX Classes
 90
     4095
 91
        1
280
     0
281
     0
  0
CLASS
  1
SORTENTSTABLE
  2
AcDbSortentsTable
  3
ObjectDBX Classes
 90
        0
 91
        5
280
     0
281
     0
  0
CLASS
  1
DICTIONARYVAR
  2
AcDbDictionaryVar
  3
ObjectDBX Classes
 90
        0
 91
        6
280
     0
281
     0
  0
CLASS
  1
DIMASSOC
  2
AcDbDimAssoc
  3
"AcDbDimAssoc|Product Desc:     AcDim ARX App For Dimension|Company:          Autodesk, Inc.|WEB Address:      www.autodesk.com"
 90
        0
 91
        0
280
     0
281
     0
  0
CLASS
  1
ACDBPLACEHOLDER
  2
AcDbPlaceHolder
  3
ObjectDBX Classes
 90
        0
 91
        1
280
     0
281
     0
  0
CLASS
  1
LAYOUT
  2
AcDbLayout
  3
ObjectDBX Classes
 90
        0
 91
        3
280
     0
281
     0
  0
CLASS
  1
MATERIAL
  2
AcDbMaterial
  3
ObjectDBX Classes
 90
     1024
 91
        3
280
     0
281
     0
  0
CLASS
  1
VISUALSTYLE
  2
AcDbVisualStyle
  3
ObjectDBX Classes
 90
     4095
 91
       32
280
     0
281
     0
  0
CLASS
  1
ACAD_EVALUATION_GRAPH
  2
AcDbEvalGraph
  3
ObjectDBX Classes
 90
     1153
 91
        0
280
     0
281
     0
  0
CLASS
  1
ACAECUSTOBJ
  2
AcAeEditorObj
  3
AcAeEditorObj
 90
     1024
 91
        0
280
     0
281
     0
  0
CLASS
  1
ACDB_DYNAMICBLOCKPURGEPREVENTER_VERSION
  2
AcDbDynamicBlockPurgePreventer
  3
ObjectDBX Classes
 90
     1153
 91
        0
280
     0
281
     0
  0
CLASS
  1
IMAGEDEF
  2
AcDbRasterImageDef
  3
ISM
 90
        0
 91
        5
280
     0
281
     0
  0
CLASS
  1
RASTERVARIABLES
  2
AcDbRasterVariables
  3
ISM
 90
        0
 91
        1
280
     0
281
     0
  0
CLASS
  1
IMAGEDEF_REACTOR
  2
AcDbRasterImageDefReactor
  3
ISM
 90
        1
 91
        0
280
     0
281
     0
  0
CLASS
  1
IMAGE
  2
AcDbRasterImage
  3
ISM
 90
     2175
 91
        0
280
     0
281
     1
  0
ENDSEC
  0
SECTION
  2
TABLES
  0
TABLE
  2
VPORT
  5
96
330
0
100
AcDbSymbolTable
 70
     1
  0
VPORT
  5
2F7C
330
96
100
AcDbSymbolTableRecord
100
AcDbViewportTableRecord
  2
*Active
 70
     0
 10
0.0
 20
0.0
 11
1.0
 21
1.0
 12
0.1785688884485658
 22
0.1792029131947493
 13
0.0
 23
0.0
 14
10.0
 24
10.0
 15
10.0
 25
10.0
 16
0.0
 26
0.0
 36
1.0
 17
0.0
 27
0.0
 37
0.0
 40
0.2542616241275823
 41
1.665742024965325
 42
50.0
 43
0.0
 44
0.0
 50
0.0
 51
0.0
 71
     0
 72
  1000
 73
     1
 74
     3
 75
     0
 76
     0
 77
     0
 78
     0
281
     0
 65
     1
110
0.0
120
0.0
130
0.0
111
1.0
121
0.0
131
0.0
112
0.0
122
1.0
132
0.0
 79
     0
146
0.0
348
7E
 60
     3
 61
     5
292
     1
282
     1
141
0.0
142
0.0
 63
   250
421
  3355443
  0
ENDTAB
  0
TABLE
  2
LTYPE
  5
91
330
0
100
AcDbSymbolTable
 70
     5
  0
LTYPE
  5
92
330
91
100
AcDbSymbolTableRecord
100
AcDbLinetypeTableRecord
  2
ByBlock
 70
     0
  3

 72
    65
 73
     0
 40
0.0
  0
LTYPE
  5
93
330
91
100
AcDbSymbolTableRecord
100
AcDbLinetypeTableRecord
  2
ByLayer
 70
     0
  3

 72
    65
 73
     0
 40
0.0
  0
LTYPE
  5
C
330
91
100
AcDbSymbolTableRecord
100
AcDbLinetypeTableRecord
  2
Continuous
 70
     0
  3
Solid line
 72
    65
 73
     0
 40
0.0
  0
LTYPE
  5
105
330
91
100
AcDbSymbolTableRecord
100
AcDbLinetypeTableRecord
  2
ACAD_ISO10W100
 70
     0
  3
ISO dash dot __ . __ . __ . __ . __ . __ . __ .
 72
    65
 73
     4
 40
18.0
 49
12.0
 74
     0
 49
-3.0
 74
     0
 49
0.0
 74
     0
 49
-3.0
 74
     0
  0
LTYPE
  5
190
330
91
100
AcDbSymbolTableRecord
100
AcDbLinetypeTableRecord
  2
RAYITAX4
 70
     0
  3
RAYITAX4
 72
    65
 73
     2
 40
18.0
 49
12.0
 74
     0
 49
-6.0
 74
     0
  0
LTYPE
  5
73C
330
91
100
AcDbSymbolTableRecord
100
AcDbLinetypeTableRecord
  2
RAYITA
 70
     0
  3
rayita
 72
    65
 73
     2
 40
1.5
 49
1.0
 74
     0
 49
-0.5
 74
     0
  0
ENDTAB
  0
TABLE
  2
LAYER
  5
8A
102
{ACAD_XDICTIONARY
360
8B
102
}
330
0
100
AcDbSymbolTable
 70
    13
  0
LAYER
  5
6
330
8A
100
AcDbSymbolTableRecord
100
AcDbLayerTableRecord
  2
0
 70
     0
 62
     7
  6
Continuous
370
    -3
390
7
347
A
  0
LAYER
  5
3F
330
8A
100
AcDbSymbolTableRecord
100
AcDbLayerTableRecord
  2
Defpoints
 70
     0
 62
     7
  6
Continuous
290
     0
370
    -3
390
7
347
A
  0
LAYER
  5
2E
330
8A
100
AcDbSymbolTableRecord
100
AcDbLayerTableRecord
  2
Dimensione
 70
     0
 62
   150
  6
Continuous
370
    -3
390
7
347
A
1001
AcAecLayerStandard
1000

1000

  0
LAYER
  5
2A
330
8A
100
AcDbSymbolTableRecord
100
AcDbLayerTableRecord
  2
Profilo
 70
     0
 62
     1
  6
Continuous
370
    -3
390
7
347
A
1001
AcAecLayerStandard
1000

1000

  0
LAYER
  5
54
330
8A
100
AcDbSymbolTableRecord
100
AcDbLayerTableRecord
  2
Sezione
 70
     0
 62
     2
  6
Continuous
370
    -3
390
7
347
A
1001
AcAecLayerStandard
1000

1000

  0
LAYER
  5
E
330
8A
100
AcDbSymbolTableRecord
100
AcDbLayerTableRecord
  2
Table
 70
     0
 62
     3
  6
Continuous
370
    -3
390
7
347
A
1001
AcAecLayerStandard
1000

1000

  0
LAYER
  5
19
330
8A
100
AcDbSymbolTableRecord
100
AcDbLayerTableRecord
  2
Text
 70
     0
 62
     4
  6
Continuous
370
    -3
390
7
347
A
1001
AcAecLayerStandard
1000

1000

  0
LAYER
  5
5C
330
8A
100
AcDbSymbolTableRecord
100
AcDbLayerTableRecord
  2
Vista
 70
     0
 62
     2
  6
Continuous
370
    -3
390
7
347
A
1001
AcAecLayerStandard
1000

1000

  0
LAYER
  5
256
330
8A
100
AcDbSymbolTableRecord
100
AcDbLayerTableRecord
  2
CORTE
 70
     0
 62
     1
  6
Continuous
370
    -3
390
7
347
A
  0
LAYER
  5
40E
330
8A
100
AcDbSymbolTableRecord
100
AcDbLayerTableRecord
  2
COTAS
 70
     0
 62
     4
  6
Continuous
370
    -3
390
7
347
A
  0
LAYER
  5
594
330
8A
100
AcDbSymbolTableRecord
100
AcDbLayerTableRecord
  2
MARCO
 70
     0
 62
     4
  6
Continuous
370
    -3
390
7
347
A
  0
LAYER
  5
B5A
330
8A
100
AcDbSymbolTableRecord
100
AcDbLayerTableRecord
  2
TRAMA
 70
     0
 62
     4
  6
Continuous
370
    -3
390
7
347
A
  0
LAYER
  5
2CD9
330
8A
100
AcDbSymbolTableRecord
100
AcDbLayerTableRecord
  2
Bovelacci
 70
     0
 62
     9
  6
Continuous
370
    -3
390
7
347
A
1001
AcAecLayerStandard
1000

1000

  0
ENDTAB
  0
TABLE
  2
STYLE
  5
8F
330
0
100
AcDbSymbolTable
 70
     5
  0
STYLE
  5
1A
330
8F
100
AcDbSymbolTableRecord
100
AcDbTextStyleTableRecord
  2
Standard
 70
     0
 40
0.0
 41
1.0
 50
0.0
 71
     0
 42
2.5
  3
txt
  4

  0
STYLE
  5
20
330
8F
100
AcDbSymbolTableRecord
100
AcDbTextStyleTableRecord
  2
ROMANS
 70
     0
 40
0.0
 41
1.0
 50
0.0
 71
     0
 42
2.5
  3
romans
  4

  0
STYLE
  5
28
330
8F
100
AcDbSymbolTableRecord
100
AcDbTextStyleTableRecord
  2
Arial
 70
     0
 40
0.0
 41
1.0
 50
0.0
 71
     0
 42
0.25
  3
ARIAL.TTF
  4

1001
ACAD
1000
Arial
1071
       34
  0
STYLE
  5
26
330
8F
100
AcDbSymbolTableRecord
100
AcDbTextStyleTableRecord
  2
style1
 70
     0
 40
0.0
 41
1.0
 50
0.0
 71
     0
 42
0.005
  3
TIMES.TTF
  4

1001
ACAD
1000
Times New Roman
1071
       18
  0
STYLE
  5
595
330
8F
100
AcDbSymbolTableRecord
100
AcDbTextStyleTableRecord
  2
EUROROMANOBLIQUE
 70
     0
 40
0.0
 41
1.0
 50
0.0
 71
     0
 42
2.5
  3
euro____.pfb
  4

  0
ENDTAB
  0
TABLE
  2
VIEW
  5
94
330
0
100
AcDbSymbolTable
 70
     0
  0
ENDTAB
  0
TABLE
  2
UCS
  5
95
330
0
100
AcDbSymbolTable
 70
     0
  0
ENDTAB
  0
TABLE
  2
APPID
  5
98
330
0
100
AcDbSymbolTable
 70
    13
  0
APPID
  5
1B
330
98
100
AcDbSymbolTableRecord
100
AcDbRegAppTableRecord
  2
ACAD
 70
     0
  0
APPID
  5
34
330
98
100
AcDbSymbolTableRecord
100
AcDbRegAppTableRecord
  2
ACAD_DSTYLE_DIMJOGGED_JOGANGLE_SYMBOL
 70
     0
  0
APPID
  5
F
330
98
100
AcDbSymbolTableRecord
100
AcDbRegAppTableRecord
  2
AcAecLayerStandard
 70
     0
  0
APPID
  5
85
330
98
100
AcDbSymbolTableRecord
100
AcDbRegAppTableRecord
  2
ACAD_PSEXT
 70
     0
  0
APPID
  5
BA
330
98
100
AcDbSymbolTableRecord
100
AcDbRegAppTableRecord
  2
ACAD_DSTYLE_DIMEXT_LENGTH
 70
     0
  0
APPID
  5
101
330
98
100
AcDbSymbolTableRecord
100
AcDbRegAppTableRecord
  2
ACAD_EXEMPT_FROM_CAD_STANDARDS
 70
     0
  0
APPID
  5
102
330
98
100
AcDbSymbolTableRecord
100
AcDbRegAppTableRecord
  2
ACAD_DSTYLE_DIM_LINETYPE
 70
     0
  0
APPID
  5
103
330
98
100
AcDbSymbolTableRecord
100
AcDbRegAppTableRecord
  2
ACAD_DSTYLE_DIM_EXT1_LINETYPE
 70
     0
  0
APPID
  5
104
330
98
100
AcDbSymbolTableRecord
100
AcDbRegAppTableRecord
  2
ACAD_DSTYLE_DIM_EXT2_LINETYPE
 70
     0
  0
APPID
  5
10D5
330
98
100
AcDbSymbolTableRecord
100
AcDbRegAppTableRecord
  2
ACAUTHENVIRON
 70
     0
  0
APPID
  5
10D9
330
98
100
AcDbSymbolTableRecord
100
AcDbRegAppTableRecord
  2
AcDbDynamicBlockTrueName
 70
     0
  0
APPID
  5
10DA
330
98
100
AcDbSymbolTableRecord
100
AcDbRegAppTableRecord
  2
AcDbDynamicBlockGUID
 70
     0
  0
APPID
  5
10DC
330
98
100
AcDbSymbolTableRecord
100
AcDbRegAppTableRecord
  2
AcDbBlockRepETag
 70
     0
  0
ENDTAB
  0
TABLE
  2
DIMSTYLE
  5
99
330
0
100
AcDbSymbolTable
 70
     8
100
AcDbDimStyleTable
 71
     2
340
2F
340
9A
  0
DIMSTYLE
105
9A
330
99
100
AcDbSymbolTableRecord
100
AcDbDimStyleTableRecord
  2
ISO-25
 70
     0
 41
2.5
 42
0.625
 43
3.75
 44
1.25
 73
     0
 74
     0
 77
     1
 78
     8
140
2.5
141
2.5
143
0.03937007874016
147
0.625
171
     3
172
     1
271
     2
272
     2
274
     3
278
    44
283
     0
284
     8
340
1A
  0
DIMSTYLE
105
2F
102
{ACAD_REACTORS
330
2C85
330
2C9F
102
}
330
99
100
AcDbSymbolTableRecord
100
AcDbDimStyleTableRecord
  2
Bovelacci
 70
     0
 40
0.001
 41
1.5
 49
0.18
140
3.0
141
0.0
147
2.0
176
     5
177
     5
178
     4
271
     2
272
     2
279
     2
340
20
342
30
1001
ACAD_DSTYLE_DIMJOGGED_JOGANGLE_SYMBOL
1070
   384
1040
0.7853981633974483
  0
DIMSTYLE
105
194
330
99
100
AcDbSymbolTableRecord
100
AcDbDimStyleTableRecord
  2
STANDARD
 70
     0
340
1A
  0
DIMSTYLE
105
4EB
330
99
100
AcDbSymbolTableRecord
100
AcDbDimStyleTableRecord
  2
Dim 1-100
 70
     0
 40
0.1
 41
1.5
 42
0.0
 43
5.0
 44
1.25
 45
0.005
 46
1.25
 73
     0
 74
     0
 77
     1
 78
     9
140
2.0
141
2.5
147
1.0
172
     1
174
     1
179
     2
279
     2
289
     2
340
20
342
30
  0
DIMSTYLE
105
4EC
330
99
100
AcDbSymbolTableRecord
100
AcDbDimStyleTableRecord
  2
Dim 1-50
 70
     0
 40
0.05
 41
1.5
 42
0.0
 43
5.0
 44
1.25
 45
0.005
 46
1.25
 73
     0
 74
     0
 77
     1
 78
     9
140
2.0
141
2.5
147
1.0
172
     1
174
     1
179
     2
279
     2
289
     2
340
20
342
30
  0
DIMSTYLE
105
4ED
330
99
100
AcDbSymbolTableRecord
100
AcDbDimStyleTableRecord
  2
Dim 1-200
 70
     0
 40
0.2
 41
1.5
 42
0.0
 43
5.0
 44
1.25
 45
0.005
 46
1.25
 73
     0
 74
     0
 77
     1
 78
     9
140
2.0
141
2.5
147
1.0
172
     1
174
     1
179
     2
271
     2
272
     2
279
     2
289
     2
340
20
342
30
  0
DIMSTYLE
105
4EE
330
99
100
AcDbSymbolTableRecord
100
AcDbDimStyleTableRecord
  2
AEC Scale - Italiano
 70
     0
 41
1.0
 42
10.0
 43
10.0
 44
10.0
 73
     0
 74
     0
 75
     1
 76
     1
 77
     1
140
10.0
141
1.0
147
10.0
173
     1
271
     0
272
     0
279
     2
340
1A
343
4E6
344
4E0
  0
ENDTAB
  0
TABLE
  2
BLOCK_RECORD
  5
1
330
0
100
AcDbSymbolTable
 70
    22
  0
BLOCK_RECORD
  5
2
102
{ACAD_XDICTIONARY
360
3
102
}
330
1
100
AcDbSymbolTableRecord
100
AcDbBlockTableRecord
  2
*Model_Space
340
77
 70
     0
280
     1
281
     0
  0
BLOCK_RECORD
  5
79
330
1
100
AcDbSymbolTableRecord
100
AcDbBlockTableRecord
  2
*Paper_Space
340
82
 70
     0
280
     1
281
     0
  0
BLOCK_RECORD
  5
86
330
1
100
AcDbSymbolTableRecord
100
AcDbBlockTableRecord
  2
*Paper_Space0
340
89
 70
     0
280
     1
281
     0
  0
BLOCK_RECORD
  5
30
330
1
100
AcDbSymbolTableRecord
100
AcDbBlockTableRecord
  2
_ArchTick
340
0
310
2800000020000000200000000100080000000000000400000000000000000000000000000000000000000000000080000080000000808000800000008000800080800000C0C0C000C0DCC000F0CAA6000020400000206000002080000020A0000020C0000020E00000400000004020000040400000406000004080000040A0
310
000040C0000040E00000600000006020000060400000606000006080000060A0000060C0000060E00000800000008020000080400000806000008080000080A0000080C0000080E00000A0000000A0200000A0400000A0600000A0800000A0A00000A0C00000A0E00000C0000000C0200000C0400000C0600000C0800000C0
310
A00000C0C00000C0E00000E0000000E0200000E0400000E0600000E0800000E0A00000E0C00000E0E00040000000400020004000400040006000400080004000A0004000C0004000E00040200000402020004020400040206000402080004020A0004020C0004020E000404000004040200040404000404060004040800040
310
40A0004040C0004040E00040600000406020004060400040606000406080004060A0004060C0004060E00040800000408020004080400040806000408080004080A0004080C0004080E00040A0000040A0200040A0400040A0600040A0800040A0A00040A0C00040A0E00040C0000040C0200040C0400040C0600040C08000
310
40C0A00040C0C00040C0E00040E0000040E0200040E0400040E0600040E0800040E0A00040E0C00040E0E00080000000800020008000400080006000800080008000A0008000C0008000E00080200000802020008020400080206000802080008020A0008020C0008020E00080400000804020008040400080406000804080
310
008040A0008040C0008040E00080600000806020008060400080606000806080008060A0008060C0008060E00080800000808020008080400080806000808080008080A0008080C0008080E00080A0000080A0200080A0400080A0600080A0800080A0A00080A0C00080A0E00080C0000080C0200080C0400080C0600080C0
310
800080C0A00080C0C00080C0E00080E0000080E0200080E0400080E0600080E0800080E0A00080E0C00080E0E000C0000000C0002000C0004000C0006000C0008000C000A000C000C000C000E000C0200000C0202000C0204000C0206000C0208000C020A000C020C000C020E000C0400000C0402000C0404000C0406000C0
310
408000C040A000C040C000C040E000C0600000C0602000C0604000C0606000C0608000C060A000C060C000C060E000C0800000C0802000C0804000C0806000C0808000C080A000C080C000C080E000C0A00000C0A02000C0A04000C0A06000C0A08000C0A0A000C0A0C000C0A0E000C0C00000C0C02000C0C04000C0C06000
310
C0C08000C0C0A000F0FBFF00A4A0A000808080000000FF0000FF000000FFFF00FF000000FF00FF00FFFF0000FFFFFF00000000FF000000000000000000000000000000000000000000000000000000000000FF00FF00000000000000000000000000000000000000000000000000000000FF000000FF000000000000000000
310
0000000000000000000000000000000000FF0000000000FF0000000000000000000000000000000000000000000000000000FF0000000000FF0000000000000000000000000000000000000000000000000000FF0000000000FF0000000000000000000000000000000000000000000000000000FF0000000000FF00000000
310
00000000000000000000000000000000000000000000FF0000000000FF0000000000000000000000000000000000000000000000000000FF0000000000FF0000000000000000000000000000000000000000000000000000FF0000000000FF0000000000000000000000000000000000000000000000000000FF0000000000
310
FF0000000000000000000000000000000000000000000000000000FF0000000000FF0000000000000000000000000000000000000000000000000000FF0000000000FF0000000000000000000000000000000000000000000000000000FF0000000000FF0000000000000000000000000000000000000000000000000000FF
310
0000000000FF0000000000000000000000000000000000000000000000000000FF0000000000FF0000000000000000000000000000000000000000000000000000FF0000000000FF0000000000000000000000000000000000000000000000000000FF0000000000FF00000000000000000000000000000000000000000000
310
00000000FF0000000000FF0000000000000000000000000000000000000000000000000000FF0000000000FF0000000000000000000000000000000000000000000000000000FF0000000000FF0000000000000000000000000000000000000000000000000000FF0000000000FF0000000000000000000000000000000000
310
000000000000000000FF0000000000FF0000000000000000000000000000000000000000000000000000FF0000000000FF0000000000000000000000000000000000000000000000000000FF0000000000FF0000000000000000000000000000000000000000000000000000FF0000000000FF000000000000000000000000
310
0000000000000000000000000000FF0000000000FF0000000000000000000000000000000000000000000000000000FF0000000000FF0000000000000000000000000000000000000000000000000000FF0000000000FF0000000000000000000000000000000000000000000000000000FF000000FF000000000000000000
310
00000000000000000000000000000000000000FF00FF000000000000000000000000000000000000000000000000000000000000FF000000
102
{BLKREFS
331
2E49
331
2E4A
331
2ED6
331
2ED7
102
}
 70
     0
280
     1
281
     0
  0
BLOCK_RECORD
  5
179
330
1
100
AcDbSymbolTableRecord
100
AcDbBlockTableRecord
  2
DOT
340
0
 70
     0
280
     1
281
     0
  0
BLOCK_RECORD
  5
213
330
1
100
AcDbSymbolTableRecord
100
AcDbBlockTableRecord
  2
ELEMENT
340
0
102
{BLKREFS
331
244
102
}
 70
     0
280
     1
281
     0
  0
BLOCK_RECORD
  5
235
330
1
100
AcDbSymbolTableRecord
100
AcDbBlockTableRecord
  2
NOM-J
340
0
 70
     0
280
     1
281
     0
  0
BLOCK_RECORD
  5
3FB
330
1
100
AcDbSymbolTableRecord
100
AcDbBlockTableRecord
  2
NOM-QR
340
0
 70
     0
280
     1
281
     0
  0
BLOCK_RECORD
  5
4E0
330
1
100
AcDbSymbolTableRecord
100
AcDbBlockTableRecord
  2
_Arrivo
340
0
310
2800000020000000200000000100080000000000000400000000000000000000000000000000000000000000000080000080000000808000800000008000800080800000C0C0C000C0DCC000F0CAA6000020400000206000002080000020A0000020C0000020E00000400000004020000040400000406000004080000040A0
310
000040C0000040E00000600000006020000060400000606000006080000060A0000060C0000060E00000800000008020000080400000806000008080000080A0000080C0000080E00000A0000000A0200000A0400000A0600000A0800000A0A00000A0C00000A0E00000C0000000C0200000C0400000C0600000C0800000C0
310
A00000C0C00000C0E00000E0000000E0200000E0400000E0600000E0800000E0A00000E0C00000E0E00040000000400020004000400040006000400080004000A0004000C0004000E00040200000402020004020400040206000402080004020A0004020C0004020E000404000004040200040404000404060004040800040
310
40A0004040C0004040E00040600000406020004060400040606000406080004060A0004060C0004060E00040800000408020004080400040806000408080004080A0004080C0004080E00040A0000040A0200040A0400040A0600040A0800040A0A00040A0C00040A0E00040C0000040C0200040C0400040C0600040C08000
310
40C0A00040C0C00040C0E00040E0000040E0200040E0400040E0600040E0800040E0A00040E0C00040E0E00080000000800020008000400080006000800080008000A0008000C0008000E00080200000802020008020400080206000802080008020A0008020C0008020E00080400000804020008040400080406000804080
310
008040A0008040C0008040E00080600000806020008060400080606000806080008060A0008060C0008060E00080800000808020008080400080806000808080008080A0008080C0008080E00080A0000080A0200080A0400080A0600080A0800080A0A00080A0C00080A0E00080C0000080C0200080C0400080C0600080C0
310
800080C0A00080C0C00080C0E00080E0000080E0200080E0400080E0600080E0800080E0A00080E0C00080E0E000C0000000C0002000C0004000C0006000C0008000C000A000C000C000C000E000C0200000C0202000C0204000C0206000C0208000C020A000C020C000C020E000C0400000C0402000C0404000C0406000C0
310
408000C040A000C040C000C040E000C0600000C0602000C0604000C0606000C0608000C060A000C060C000C060E000C0800000C0802000C0804000C0806000C0808000C080A000C080C000C080E000C0A00000C0A02000C0A04000C0A06000C0A08000C0A0A000C0A0C000C0A0E000C0C00000C0C02000C0C04000C0C06000
310
C0C08000C0C0A000F0FBFF00A4A0A000808080000000FF0000FF000000FFFF00FF000000FF00FF00FFFF0000FFFFFF00000000000000000000000000000000000000000000000000000000000000000000000000000000000000FF0000000000000000000000000000000000000000000000000000000000000000FF000000
310
00000000000000000000000000000000000000000000000000000000FF0000000000000000000000000000000000000000000000000000000000000000FF00000000000000000000000000000000000000000000000000000000000000FF0000000000000000000000000000000000000000000000000000000000000000FF
310
0000000000000000000000000000000000000000000000000000000000000000FF00000000000000000000000000000000000000000000000000000000000000FF0000000000000000000000000000000000000000000000000000000000000000FF0000000000000000000000000000000000000000000000000000000000
310
0000FF0000000000000000000000000000000000000000000000000000000000000000FF00000000000000000000000000000000000000000000000000000000000000FF0000000000000000000000000000000000000000000000000000000000000000FF0000FF0000000000000000000000000000000000000000000000
310
000000000000FFFF000000000000000000000000000000000000000000000000000000000000FFFF00000000000000000000000000000000000000000000000000000000FFFFFFFFFFFF00000000000000000000000000000000000000000000000000000000FFFF0000000000000000000000000000000000000000000000
310
000000000000FF0000FF000000000000000000000000000000000000000000000000000000FF00000000000000000000000000000000000000000000000000000000000000FF000000000000000000000000000000000000000000000000000000000000FF0000000000000000000000000000000000000000000000000000
310
0000000000FF000000000000000000000000000000000000000000000000000000000000FF00000000000000000000000000000000000000000000000000000000000000FF000000000000000000000000000000000000000000000000000000000000FF000000000000000000000000000000000000000000000000000000
310
000000FF00000000000000000000000000000000000000000000000000000000000000FF000000000000000000000000000000000000000000000000000000000000FF00000000000000000000000000000000000000000000000000000000000000FF00000000000000000000000000000000000000000000000000000000
310
0000FF0000000000000000000000000000000000000000000000000000000000000000000000000000000000000000000000000000000000
 70
     0
280
     1
281
     0
  0
BLOCK_RECORD
  5
4E6
330
1
100
AcDbSymbolTableRecord
100
AcDbBlockTableRecord
  2
_Partenza
340
0
310
2800000020000000200000000100080000000000000400000000000000000000000000000000000000000000000080000080000000808000800000008000800080800000C0C0C000C0DCC000F0CAA6000020400000206000002080000020A0000020C0000020E00000400000004020000040400000406000004080000040A0
310
000040C0000040E00000600000006020000060400000606000006080000060A0000060C0000060E00000800000008020000080400000806000008080000080A0000080C0000080E00000A0000000A0200000A0400000A0600000A0800000A0A00000A0C00000A0E00000C0000000C0200000C0400000C0600000C0800000C0
310
A00000C0C00000C0E00000E0000000E0200000E0400000E0600000E0800000E0A00000E0C00000E0E00040000000400020004000400040006000400080004000A0004000C0004000E00040200000402020004020400040206000402080004020A0004020C0004020E000404000004040200040404000404060004040800040
310
40A0004040C0004040E00040600000406020004060400040606000406080004060A0004060C0004060E00040800000408020004080400040806000408080004080A0004080C0004080E00040A0000040A0200040A0400040A0600040A0800040A0A00040A0C00040A0E00040C0000040C0200040C0400040C0600040C08000
310
40C0A00040C0C00040C0E00040E0000040E0200040E0400040E0600040E0800040E0A00040E0C00040E0E00080000000800020008000400080006000800080008000A0008000C0008000E00080200000802020008020400080206000802080008020A0008020C0008020E00080400000804020008040400080406000804080
310
008040A0008040C0008040E00080600000806020008060400080606000806080008060A0008060C0008060E00080800000808020008080400080806000808080008080A0008080C0008080E00080A0000080A0200080A0400080A0600080A0800080A0A00080A0C00080A0E00080C0000080C0200080C0400080C0600080C0
310
800080C0A00080C0C00080C0E00080E0000080E0200080E0400080E0600080E0800080E0A00080E0C00080E0E000C0000000C0002000C0004000C0006000C0008000C000A000C000C000C000E000C0200000C0202000C0204000C0206000C0208000C020A000C020C000C020E000C0400000C0402000C0404000C0406000C0
310
408000C040A000C040C000C040E000C0600000C0602000C0604000C0606000C0608000C060A000C060C000C060E000C0800000C0802000C0804000C0806000C0808000C080A000C080C000C080E000C0A00000C0A02000C0A04000C0A06000C0A08000C0A0A000C0A0C000C0A0E000C0C00000C0C02000C0C04000C0C06000
310
C0C08000C0C0A000F0FBFF00A4A0A000808080000000FF0000FF000000FFFF00FF000000FF00FF00FFFF0000FFFFFF0000000000000000000000000000000000000000000000000000000000000000000000000000000000000000000000000000000000000000000000000000000000000000000000000000000000000000
310
000000000000000000000000000000000000000000000000000000000000000000000000000000000000000000000000000000000000000000000000000000000000000000000000000000000000000000000000000000000000000000000000000000000000000000000000000000000000FFFFFFFFFFFFFFFFFFFFFFFFFF
310
FFFFFFFFFFFFFFFFFFFFFFFFFFFFFFFFFF0000000000000000000000000000000000000000000000000000000000000000000000000000000000000000000000000000000000000000000000000000000000000000000000000000000000000000000000000000000000000000000000000000000000000000000000000000
310
00000000000000000000000000000000000000000000000000000000000000000000000000000000000000000000000000000000000000000000000000000000000000000000000000000000000000000000000000000000000000000000000000000000000000000000000000000000000000000000000000000000000000
310
00000000000000000000000000000000000000000000000000000000000000000000000000000000000000000000000000000000000000000000000000000000000000000000000000000000000000000000000000000000000000000000000000000000000000000000000000000000000000000000000000000000000000
310
00000000000000000000000000000000000000000000000000000000000000000000000000000000000000000000000000000000000000000000000000000000000000000000000000000000000000000000000000000000000000000000000000000000000000000000000000000000000000000000000000000000000000
310
000000000000000000000000000000000000000000000000000000000000000000000000000000000000000000000000000000000000000000000000000000000000000000000000000000000000000000000000000000FFFFFFFFFFFFFFFFFFFFFFFFFFFFFFFFFFFFFFFFFFFFFFFFFFFFFFFFFFFF00000000000000000000
310
00000000000000000000000000000000000000000000000000000000000000000000000000000000000000000000000000000000000000000000000000000000000000000000000000000000000000000000000000000000000000000000000000000000000000000000000000000000000000000000000000000000000000
310
0000000000000000000000000000000000000000000000000000000000000000000000000000000000000000000000000000000000000000
 70
     0
280
     1
281
     0
  0
BLOCK_RECORD
  5
73D
330
1
100
AcDbSymbolTableRecord
100
AcDbBlockTableRecord
  2
A$C6CE44357
340
0
 70
     0
280
     1
281
     0
  0
BLOCK_RECORD
  5
B69
102
{ACAD_XDICTIONARY
360
B6D
102
}
330
1
100
AcDbSymbolTableRecord
100
AcDbBlockTableRecord
  2
A$C263D6B6A
340
0
 70
     4
280
     1
281
     0
  0
BLOCK_RECORD
  5
BFB
330
1
100
AcDbSymbolTableRecord
100
AcDbBlockTableRecord
  2
*X10
340
0
102
{BLKREFS
331
C22
102
}
 70
     0
280
     1
281
     0
  0
BLOCK_RECORD
  5
C1F
330
1
100
AcDbSymbolTableRecord
100
AcDbBlockTableRecord
  2
A$C6C65579B
340
0
 70
     0
280
     1
281
     0
  0
BLOCK_RECORD
  5
FEB
102
{ACAD_XDICTIONARY
360
10D6
102
}
330
1
100
AcDbSymbolTableRecord
100
AcDbBlockTableRecord
  2
Z4
340
0
 70
     0
280
     1
281
     0
1001
AcDbDynamicBlockGUID
1000
{4CAFDB11-9655-4F72-B423-0BC31DC420EB}
1001
AcDbBlockRepETag
1070
     1
1071
       20
  0
BLOCK_RECORD
  5
16AC
102
{ACAD_XDICTIONARY
360
2182
102
}
330
1
100
AcDbSymbolTableRecord
100
AcDbBlockTableRecord
  2
DECORATION
340
0
 70
     0
280
     1
281
     0
1001
AcDbDynamicBlockGUID
1000
{C1D883D2-B3CB-4E26-9718-8B8F3861C7E8}
1001
AcDbBlockRepETag
1070
     1
1071
      488
  0
BLOCK_RECORD
  5
28C1
330
1
100
AcDbSymbolTableRecord
100
AcDbBlockTableRecord
  2
A$C51A9040F
340
0
 70
     0
280
     1
281
     0
  0
BLOCK_RECORD
  5
28C5
330
1
100
AcDbSymbolTableRecord
100
AcDbBlockTableRecord
  2
A$C713F60B4
340
0
 70
     0
280
     1
281
     0
  0
BLOCK_RECORD
  5
2C86
330
1
100
AcDbSymbolTableRecord
100
AcDbBlockTableRecord
  2
*D16
340
0
 70
     0
280
     1
281
     0
  0
BLOCK_RECORD
  5
2CA0
330
1
100
AcDbSymbolTableRecord
100
AcDbBlockTableRecord
  2
*D17
340
0
 70
     0
280
     1
281
     0
  0
BLOCK_RECORD
  5
2CDA
102
{ACAD_XDICTIONARY
360
2CDF
102
}
330
1
100
AcDbSymbolTableRecord
100
AcDbBlockTableRecord
  2
Extrastyl_X30
340
0
 70
     6
280
     1
281
     0
  0
BLOCK_RECORD
  5
2EC4
102
{ACAD_XDICTIONARY
360
2EC6
102
}
330
1
100
AcDbSymbolTableRecord
100
AcDbBlockTableRecord
  2
A$C72FB46F9
340
0
 70
     6
280
     1
281
     0
  0
ENDTAB
  0
ENDSEC
  0
SECTION
  2
BLOCKS
  0
BLOCK
  5
5
330
2
100
AcDbEntity
  8
0
100
AcDbBlockBegin
  2
*Model_Space
 70
     0
 10
0.0
 20
0.0
 30
0.0
  3
*Model_Space
  1

  0
ENDBLK
  5
76
330
2
100
AcDbEntity
  8
0
100
AcDbBlockEnd
  0
BLOCK
  5
7A
330
79
100
AcDbEntity
 67
     1
  8
0
100
AcDbBlockBegin
  2
*Paper_Space
 70
     0
 10
0.0
 20
0.0
 30
0.0
  3
*Paper_Space
  1

  0
ENDBLK
  5
81
330
79
100
AcDbEntity
 67
     1
  8
0
100
AcDbBlockEnd
  0
BLOCK
  5
87
330
86
100
AcDbEntity
 67
     1
  8
0
100
AcDbBlockBegin
  2
*Paper_Space0
 70
     0
 10
0.0
 20
0.0
 30
0.0
  3
*Paper_Space0
  1

  0
ENDBLK
  5
88
330
86
100
AcDbEntity
 67
     1
  8
0
100
AcDbBlockEnd
  0
BLOCK
  5
31
330
30
100
AcDbEntity
  8
0
 62
     1
100
AcDbBlockBegin
  2
_ArchTick
 70
     0
 10
0.0
 20
0.0
 30
0.0
  3
_ArchTick
  1

  0
LWPOLYLINE
  5
32
330
30
100
AcDbEntity
  8
0
  6
ByBlock
 62
     0
100
AcDbPolyline
 90
        2
 70
     0
 43
0.15
 10
-0.5
 20
-0.5
 10
0.5
 20
0.5
  0
ENDBLK
  5
33
330
30
100
AcDbEntity
  8
0
 62
     1
100
AcDbBlockEnd
  0
BLOCK
  5
17A
330
179
100
AcDbEntity
  8
0
100
AcDbBlockBegin
  2
DOT
 70
     0
 10
0.0
 20
0.0
 30
0.0
  3
DOT
  1

  0
LWPOLYLINE
  5
17B
330
179
100
AcDbEntity
  8
0
  6
ByBlock
 62
     0
100
AcDbPolyline
 90
        2
 70
     1
 43
0.5
 10
-0.25
 20
0.0
 42
1.0
 10
0.25
 20
0.0
 42
1.0
  0
LINE
  5
17C
330
179
100
AcDbEntity
  8
0
  6
ByBlock
 62
     0
100
AcDbLine
 10
-0.5
 20
0.0
 30
0.0
 11
-1.0
 21
0.0
 31
0.0
  0
ENDBLK
  5
17D
330
179
100
AcDbEntity
  8
0
100
AcDbBlockEnd
  0
BLOCK
  5
214
330
213
100
AcDbEntity
  8
0
100
AcDbBlockBegin
  2
ELEMENT
 70
     0
 10
0.0
 20
0.0
 30
0.0
  3
ELEMENT
  1

  0
LINE
  5
215
330
213
100
AcDbEntity
  8
CORTE
 62
     1
100
AcDbLine
 10
0.0287752548522349
 20
0.037775254852221
 30
0.0
 11
0.0062928932188697
 21
0.015292893218799
 31
0.0
  0
ARC
  5
216
330
213
100
AcDbEntity
  8
CORTE
 62
     1
100
AcDbCircle
 10
0.0148333333333994
 20
0.0291666666666402
 30
0.0
 40
0.0191847740553366
100
AcDbArc
 50
270.4730994291238
 51
359.5269005707907
  0
LINE
  5
217
330
213
100
AcDbEntity
  8
CORTE
100
AcDbLine
 10
0.0130000000000337
 20
-0.0000000000000568
 30
0.0
 11
0.0099999999999909
 21
0.0000000000000284
 31
0.0
  0
LINE
  5
218
330
213
100
AcDbEntity
  8
CORTE
100
AcDbLine
 10
-0.0009999999999764
 20
0.0010000000000048
 30
0.0
 11
-0.0009999999999764
 21
0.0140000000000384
 31
0.0
  0
ARC
  5
219
330
213
100
AcDbEntity
  8
CORTE
100
AcDbCircle
 10
0.0
 20
0.0010000000000048
 30
0.0
 40
0.001
100
AcDbArc
 50
180.0
 51
269.9999999991858
  0
LINE
  5
21A
330
213
100
AcDbEntity
  8
CORTE
100
AcDbLine
 10
0.0040000000000191
 20
-0.0039999999999623
 30
0.0
 11
0.0040000000000191
 21
-0.0010000000000332
 31
0.0
  0
LINE
  5
21B
330
213
100
AcDbEntity
  8
CORTE
100
AcDbLine
 10
0.0090000000000146
 20
-0.0039999999999907
 30
0.0
 11
0.0090000000000146
 21
-0.0009999999999764
 31
0.0
  0
ARC
  5
21C
330
213
100
AcDbEntity
  8
CORTE
100
AcDbCircle
 10
0.0049999999999955
 20
-0.0039999999999623
 30
0.0
 40
0.001
100
AcDbArc
 50
180.0
 51
269.9999999996743
  0
LINE
  5
21D
330
213
100
AcDbEntity
  8
CORTE
100
AcDbLine
 10
0.0080000000000382
 20
-0.0049999999999955
 30
0.0
 11
0.0049999999999955
 21
-0.004999999999967
 31
0.0
  0
ARC
  5
21E
330
213
100
AcDbEntity
  8
CORTE
100
AcDbCircle
 10
0.0080000000000382
 20
-0.0039999999999907
 30
0.0
 40
0.001
100
AcDbArc
 50
269.9999999995929
 51
0.000000000000007
  0
LINE
  5
21F
330
213
100
AcDbEntity
  8
CORTE
100
AcDbLine
 10
0.0030000000000427
 20
-0.0000000000000284
 30
0.0
 11
0.0
 21
0.0
 31
0.0
  0
ARC
  5
220
330
213
100
AcDbEntity
  8
CORTE
100
AcDbCircle
 10
0.0030000000000427
 20
-0.0010000000000332
 30
0.0
 40
0.001
100
AcDbArc
 50
0.000000000000007
 51
89.99999999967434
  0
ARC
  5
221
330
213
100
AcDbEntity
  8
CORTE
100
AcDbCircle
 10
0.0099999999999909
 20
-0.0009999999999764
 30
0.0
 40
0.001
100
AcDbArc
 50
89.99999999967434
 51
180.0
  0
ARC
  5
222
330
213
100
AcDbEntity
  8
CORTE
100
AcDbCircle
 10
0.0
 20
0.0140000000000384
 30
0.0
 40
0.001
100
AcDbArc
 50
89.99999999975274
 51
180.0
  0
LINE
  5
223
330
213
100
AcDbEntity
  8
CORTE
100
AcDbLine
 10
0.0055857864376776
 20
0.0149999999999864
 30
0.0
 11
0.0
 21
0.0150000000000432
 31
0.0
  0
ARC
  5
224
330
213
100
AcDbEntity
  8
CORTE
 62
     1
100
AcDbCircle
 10
0.0055857864376776
 20
0.0159999999999911
 30
0.0
 40
0.001
100
AcDbArc
 50
269.9999999997674
 51
315.0000000000357
  0
LINE
  5
225
330
213
100
AcDbEntity
  8
CORTE
100
AcDbLine
 10
0.01400000000001
 20
0.0009999999999479
 30
0.0
 11
0.01400000000001
 21
0.0089825806863075
 31
0.0
  0
ARC
  5
226
330
213
100
AcDbEntity
  8
CORTE
100
AcDbCircle
 10
0.0130000000000337
 20
0.0009999999999479
 30
0.0
 40
0.001
100
AcDbArc
 50
269.9999999991858
 51
0.000000000000007
  0
ARC
  5
227
330
213
100
AcDbEntity
  8
CORTE
 62
     1
100
AcDbCircle
 10
0.0149999999999864
 20
0.0089825806862791
 30
0.0
 40
0.001
100
AcDbArc
 50
90.47309942941524
 51
179.9999999983715
  0
LINE
  5
228
330
213
100
AcDbEntity
  8
CORTE
100
AcDbLine
 10
0.0440000000000964
 20
0.0339999999999918
 30
0.0
 11
0.0440000000000396
 21
0.0310000000000059
 31
0.0
  0
ARC
  5
229
330
213
100
AcDbEntity
  8
CORTE
100
AcDbCircle
 10
0.0430000000000632
 20
0.0310000000000059
 30
0.0
 40
0.001
100
AcDbArc
 50
270.0
 51
0.000000000000007
  0
ARC
  5
22A
330
213
100
AcDbEntity
  8
CORTE
 62
     1
100
AcDbCircle
 10
0.0350174193137605
 20
0.0290000000000248
 30
0.0
 40
0.001
100
AcDbArc
 50
90.00000000325689
 51
179.5269005705982
  0
LINE
  5
22B
330
213
100
AcDbEntity
  8
CORTE
100
AcDbLine
 10
0.0430000000000632
 20
0.0300000000000011
 30
0.0
 11
0.0350174193137036
 21
0.0300000000000296
 31
0.0
  0
LINE
  5
22C
330
213
100
AcDbEntity
  8
CORTE
100
AcDbLine
 10
0.047999999999945
 20
0.0400000000000205
 30
0.0
 11
0.0300000000000296
 21
0.0400000000000205
 31
0.0
  0
ARC
  5
22D
330
213
100
AcDbEntity
  8
CORTE
 62
     1
100
AcDbCircle
 10
0.0300000000000296
 20
0.0390000000000157
 30
0.0
 40
0.001
100
AcDbArc
 50
90.0
 51
195.0000055997392
  0
ARC
  5
22E
330
213
100
AcDbEntity
  8
CORTE
 62
     1
100
AcDbCircle
 10
0.0280681480710428
 20
0.0384823616334131
 30
0.0
 40
0.001
100
AcDbArc
 50
315.0
 51
15.00000559812761
  0
LINE
  5
22F
330
213
100
AcDbEntity
  8
CORTE
100
AcDbLine
 10
0.0489999999998645
 20
0.0360000000000582
 30
0.0
 11
0.0489999999999213
 21
0.0389999999999873
 31
0.0
  0
LINE
  5
230
330
213
100
AcDbEntity
  8
CORTE
100
AcDbLine
 10
0.0480000000000018
 20
0.0350000000000534
 30
0.0
 11
0.0450000000000728
 21
0.0349999999999966
 31
0.0
  0
ARC
  5
231
330
213
100
AcDbEntity
  8
CORTE
100
AcDbCircle
 10
0.0480000000000018
 20
0.0360000000000582
 30
0.0
 40
0.001
100
AcDbArc
 50
270.0000000004071
 51
0.000000000000007
  0
ARC
  5
232
330
213
100
AcDbEntity
  8
CORTE
100
AcDbCircle
 10
0.0450000000000728
 20
0.0339999999999918
 30
0.0
 40
0.001
100
AcDbArc
 50
90.0
 51
180.0
  0
ARC
  5
233
330
213
100
AcDbEntity
  8
CORTE
100
AcDbCircle
 10
0.047999999999945
 20
0.0390000000000157
 30
0.0
 40
0.001
100
AcDbArc
 50
359.9999999991858
 51
90.0
  0
ENDBLK
  5
234
330
213
100
AcDbEntity
  8
0
100
AcDbBlockEnd
  0
BLOCK
  5
236
330
235
100
AcDbEntity
  8
0
 62
     4
100
AcDbBlockBegin
  2
NOM-J
 70
     0
 10
0.0
 20
0.0
 30
0.0
  3
NOM-J
  1

  0
LINE
  5
237
330
235
100
AcDbEntity
  8
Vista
 62
     4
100
AcDbLine
 10
0.0211489998446837
 20
0.0224999999999795
 30
0.0
 11
0.093805067538824
 21
0.0379594292031982
 31
0.0
  0
LINE
  5
238
330
235
100
AcDbEntity
  8
Vista
 62
     4
100
AcDbLine
 10
0.0197074998707194
 20
0.0224999999999795
 30
0.0
 11
0.0923635675646324
 21
0.0379594292032266
 31
0.0
  0
LINE
  5
239
330
235
100
AcDbEntity
  8
Vista
 62
     4
100
AcDbLine
 10
0.0182659998964141
 20
0.0224999999999795
 30
0.0
 11
0.0909220675904408
 21
0.0379594292031982
 31
0.0
  0
LINE
  5
23A
330
235
100
AcDbEntity
  8
Vista
 62
     4
100
AcDbLine
 10
0.0168244999223362
 20
0.0224999999999795
 30
0.0
 11
0.0894805676163628
 21
0.0379594292032266
 31
0.0
  0
LINE
  5
23B
330
235
100
AcDbEntity
  8
Vista
 62
     4
100
AcDbLine
 10
0.0153829999481445
 20
0.0224999999999795
 30
0.0
 11
0.0880390676422849
 21
0.0379594292032266
 31
0.0
  0
LINE
  5
23C
330
235
100
AcDbEntity
  8
Vista
 62
     4
100
AcDbLine
 10
0.0139414999740666
 20
0.0224999999999795
 30
0.0
 11
0.0865975676682069
 21
0.0379594292032266
 31
0.0
  0
LINE
  5
23D
330
235
100
AcDbEntity
  8
Vista
 62
     2
100
AcDbLine
 10
0.0125000000000455
 20
0.022500000000008
 30
0.0
 11
0.0851560676940153
 21
0.0379594292032266
 31
0.0
  0
LINE
  5
23E
330
235
100
AcDbEntity
  8
Vista
 62
     2
100
AcDbLine
 10
0.0218535533905424
 20
0.0223535533905874
 30
0.0
 11
0.0945096210847396
 21
0.0378129825938061
 31
0.0
  0
LINE
  5
23F
330
235
100
AcDbEntity
  8
Vista
 62
     2
100
AcDbLine
 10
0.02150000000006
 20
0.0200000000000387
 30
0.0
 11
0.094359627334427
 21
0.0355027417029987
 31
0.0
  0
LINE
  5
240
330
235
100
AcDbEntity
  8
Vista
 62
     2
100
AcDbLine
 10
0.0190000000000055
 20
0.0175000000000125
 30
0.0
 11
0.0918596273343724
 21
0.0330027417029726
 31
0.0
  0
LINE
  5
241
330
235
100
AcDbEntity
  8
Vista
 62
     2
100
AcDbLine
 10
0.0075428343679391
 20
0.0078574386832884
 30
0.0
 11
0.0801989020703786
 21
0.0233168678888376
 31
0.0
  0
LINE
  5
242
330
235
100
AcDbEntity
  8
Vista
 62
     2
100
AcDbLine
 10
0.0040000000000191
 20
0.0024999999999693
 30
0.0
 11
0.0746560676942068
 21
0.0175338782567849
 31
0.0
  0
LINE
  5
243
330
235
100
AcDbEntity
  8
Vista
 62
     3
100
AcDbLine
 10
0.0018535533906174
 20
0.0001464466094205
 30
0.0
 11
0.074509621085781
 21
0.0156058758136055
 31
0.0
  0
INSERT
  5
244
330
235
100
AcDbEntity
  8
CORTE
 62
     4
100
AcDbBlockReference
  2
ELEMENT
 10
-0.0024999999999977
 20
0.0024999999999977
 30
0.0
 41
0.5
 42
0.5
 43
0.5
  0
LINE
  5
245
330
235
100
AcDbEntity
  8
Vista
 62
     2
100
AcDbLine
 10
-0.0024999999999977
 20
0.0100000000000193
 30
0.0
 11
0.0013108568762163
 21
0.0108108568761622
 31
0.0
  0
ARC
  5
246
330
235
100
AcDbEntity
  8
CORTE
 62
     3
100
AcDbCircle
 10
0.0775727343608992
 20
0.0325427625365364
 30
0.0
 40
0.0095923870276683
100
AcDbArc
 50
278.1349003175446
 51
356.7599311023579
  0
LINE
  5
247
330
235
100
AcDbEntity
  8
CORTE
 62
     3
100
AcDbLine
 10
0.0771560676942045
 20
0.0184594292032045
 30
0.0
 11
0.0771560676942045
 21
0.0224507195463559
 31
0.0
  0
ARC
  5
248
330
235
100
AcDbEntity
  8
CORTE
 62
     3
100
AcDbCircle
 10
0.0751560676941949
 20
0.0174594292032282
 30
0.0
 40
0.0005
100
AcDbArc
 50
89.99999999967434
 51
180.0
  0
LINE
  5
249
330
235
100
AcDbEntity
  8
Vista
 62
     3
100
AcDbLine
 10
0.074509621085781
 20
0.0156058758135771
 30
0.0
 11
0.0746560676941499
 21
0.0156370360599851
 31
0.0
  0
ARC
  5
24A
330
235
100
AcDbEntity
  8
CORTE
100
AcDbCircle
 10
0.0741560676942186
 20
0.0159594292032068
 30
0.0
 40
0.0005
100
AcDbArc
 50
315.0000001496929
 51
0.000000000000007
  0
LINE
  5
24B
330
235
100
AcDbEntity
  8
CORTE
 62
     3
100
AcDbLine
 10
0.0746560676942068
 20
0.0159594292032068
 30
0.0
 11
0.0746560676942068
 21
0.0174594292032282
 31
0.0
  0
ARC
  5
24C
330
235
100
AcDbEntity
  8
CORTE
 62
     3
100
AcDbCircle
 10
0.0766560676942163
 20
0.0184594292032045
 30
0.0
 40
0.0005
100
AcDbArc
 50
269.9999999991858
 51
0.000000000000007
  0
LINE
  5
24D
330
235
100
AcDbEntity
  8
CORTE
 62
     3
100
AcDbLine
 10
0.0766560676942163
 20
0.017959429203188
 30
0.0
 11
0.0751560676941949
 21
0.0179594292032164
 31
0.0
  0
ARC
  5
24E
330
235
100
AcDbEntity
  8
CORTE
 62
     3
100
AcDbCircle
 10
0.0776560676941927
 20
0.0224507195463559
 30
0.0
 40
0.0005
100
AcDbArc
 50
152.521182623883
 51
179.9999999983715
  0
LINE
  5
24F
330
235
100
AcDbEntity
  8
CORTE
 62
     3
100
AcDbLine
 10
0.0946560676941317
 20
0.0359594292032455
 30
0.0
 11
0.0946560676941317
 21
0.03745942920321
 31
0.0
  0
ARC
  5
250
330
235
100
AcDbEntity
  8
CORTE
 62
     3
100
AcDbCircle
 10
0.0916560676942027
 20
0.0334594292032193
 30
0.0
 40
0.0005
100
AcDbArc
 50
270.0
 51
0.000000000000007
  0
ARC
  5
251
330
235
100
AcDbEntity
  8
CORTE
 62
     3
100
AcDbCircle
 10
0.0941560676942004
 20
0.0359594292032455
 30
0.0
 40
0.0005
100
AcDbArc
 50
294.0240004981589
 51
0.000000000000007
  0
LINE
  5
252
330
235
100
AcDbEntity
  8
CORTE
 62
     3
100
AcDbLine
 10
0.0921560676942477
 20
0.0349594292032123
 30
0.0
 11
0.0921560676941908
 21
0.0334594292032193
 31
0.0
  0
LINE
  5
253
330
235
100
AcDbEntity
  8
CORTE
 62
     3
100
AcDbLine
 10
0.0941560676941436
 20
0.0379594292032266
 30
0.0
 11
0.0851560676942427
 21
0.0379594292032266
 31
0.0
  0
ARC
  5
254
330
235
100
AcDbEntity
  8
CORTE
 62
     3
100
AcDbCircle
 10
0.0941560676941436
 20
0.03745942920321
 30
0.0
 40
0.0005
100
AcDbArc
 50
359.9999999991858
 51
90.0
  0
ENDBLK
  5
255
330
235
100
AcDbEntity
  8
0
 62
     4
100
AcDbBlockEnd
  0
BLOCK
  5
3FC
330
3FB
100
AcDbEntity
  8
0
 62
     1
100
AcDbBlockBegin
  2
NOM-QR
 70
     0
 10
0.0
 20
0.0
 30
0.0
  3
NOM-QR
  1

  0
LINE
  5
3FD
330
3FB
100
AcDbEntity
  8
CORTE
 62
     4
100
AcDbLine
 10
0.0184292030348843
 20
0.0200000000000102
 30
0.0
 11
0.0860297709413658
 21
0.0343689442811126
 31
0.0
  0
LINE
  5
3FE
330
3FB
100
AcDbEntity
  8
CORTE
 62
     4
100
AcDbLine
 10
0.0155433624279908
 20
0.0200000000000102
 30
0.0
 11
0.0831439303344155
 21
0.0343689442811126
 31
0.0
  0
LINE
  5
3FF
330
3FB
100
AcDbEntity
  8
CORTE
 62
     4
100
AcDbLine
 10
0.0126575218209837
 20
0.0200000000000102
 30
0.0
 11
0.0802580897274084
 21
0.034368944281141
 31
0.0
  0
LINE
  5
400
330
3FB
100
AcDbEntity
  8
CORTE
 62
     4
100
AcDbLine
 10
0.0097716812139765
 20
0.0200000000000102
 30
0.0
 11
0.077372249120458
 21
0.0343689442811126
 31
0.0
  0
LINE
  5
401
330
3FB
100
AcDbEntity
  8
CORTE
 62
     4
100
AcDbLine
 10
0.0068858406069694
 20
0.0200000000000102
 30
0.0
 11
0.0744864085134509
 21
0.0343689442811126
 31
0.0
  0
LINE
  5
402
330
3FB
100
AcDbEntity
  8
CORTE
 62
     3
100
AcDbLine
 10
0.0081347328614925
 20
0.0017290908471352
 30
0.0
 11
0.0757353007679171
 21
0.0160980351282376
 31
0.0
  0
LINE
  5
403
330
3FB
100
AcDbEntity
  8
CORTE
 62
     3
100
AcDbLine
 10
0.0040000000000191
 20
0.0200000000000102
 30
0.0
 11
0.0716005679065006
 21
0.034368944281141
 31
0.0
  0
LINE
  5
404
330
3FB
100
AcDbEntity
  8
CORTE
 62
     3
100
AcDbLine
 10
0.0200000000000387
 20
0.0200000000000102
 30
0.0
 11
0.0876005679064633
 21
0.0343689442811126
 31
0.0
  0
ARC
  5
405
330
3FB
100
AcDbEntity
  8
CORTE
 62
     1
100
AcDbCircle
 10
0.0
 20
0.0200000000000102
 30
0.0
 40
0.0200000000000102
100
AcDbArc
 50
270.0
 51
0.0
  0
LINE
  5
406
330
3FB
100
AcDbEntity
  8
CORTE
 62
     1
100
AcDbLine
 10
0.0
 20
0.0160000000000196
 30
0.0
 11
0.0
 21
0.0
 31
0.0
  0
LINE
  5
407
330
3FB
100
AcDbEntity
  8
COTAS
 62
     1
100
AcDbLine
 10
0.0200000000000387
 20
0.0200000000000102
 30
0.0
 11
0.0040000000000191
 21
0.0200000000000102
 31
0.0
  0
ARC
  5
408
330
3FB
100
AcDbEntity
  8
CORTE
 62
     1
100
AcDbCircle
 10
0.0
 20
0.0200000000000102
 30
0.0
 40
0.004
100
AcDbArc
 50
270.0
 51
0.0
  0
ARC
  5
409
330
3FB
100
AcDbEntity
  8
CORTE
 62
     1
100
AcDbCircle
 10
0.0676005679064247
 20
0.0343689442811126
 30
0.0
 40
0.0200000000000102
100
AcDbArc
 50
270.0
 51
0.0
  0
LINE
  5
40A
330
3FB
100
AcDbEntity
  8
COTAS
 62
     1
100
AcDbLine
 10
0.0876005679064633
 20
0.0343689442811126
 30
0.0
 11
0.0716005679064438
 21
0.0343689442811126
 31
0.0
  0
ENDBLK
  5
40B
330
3FB
100
AcDbEntity
  8
0
 62
     1
100
AcDbBlockEnd
  0
BLOCK
  5
4E1
330
4E0
100
AcDbEntity
  8
0
100
AcDbBlockBegin
  2
_Arrivo
 70
     0
 10
0.0
 20
0.0
 30
0.0
  3
_Arrivo
  1

  0
LINE
  5
4E2
330
4E0
100
AcDbEntity
  8
0
  6
ByBlock
 62
     0
370
    -2
100
AcDbLine
 10
0.025
 20
-0.0433012701891858
 30
0.0
 11
-0.15
 21
0.2598076211353328
 31
0.0
  0
LINE
  5
4E3
330
4E0
100
AcDbEntity
  8
0
  6
ByBlock
 62
     0
370
    -2
100
AcDbLine
 10
0.025
 20
0.0433012701892585
 30
0.0
 11
-0.15
 21
-0.2598076211353328
 31
0.0
  0
LINE
  5
4E4
330
4E0
100
AcDbEntity
  8
0
  6
ByBlock
 62
     0
370
    -2
100
AcDbLine
 10
-0.05
 20
0.0
 30
0.0
 11
0.05
 21
0.0
 31
0.0
  0
ENDBLK
  5
4E5
330
4E0
100
AcDbEntity
  8
0
100
AcDbBlockEnd
  0
BLOCK
  5
4E7
330
4E6
100
AcDbEntity
  8
0
100
AcDbBlockBegin
  2
_Partenza
 70
     0
 10
0.0
 20
0.0
 30
0.0
  3
_Partenza
  1

  0
LINE
  5
4E8
330
4E6
100
AcDbEntity
  8
0
  6
ByBlock
 62
     0
370
    -2
100
AcDbLine
 10
-0.05
 20
0.05
 30
0.0
 11
0.1
 21
0.05
 31
0.0
  0
LINE
  5
4E9
330
4E6
100
AcDbEntity
  8
0
  6
ByBlock
 62
     0
370
    -2
100
AcDbLine
 10
-0.05
 20
-0.05
 30
0.0
 11
0.1
 21
-0.05
 31
0.0
  0
ENDBLK
  5
4EA
330
4E6
100
AcDbEntity
  8
0
100
AcDbBlockEnd
  0
BLOCK
  5
807
330
73D
100
AcDbEntity
  8
0
 62
     3
100
AcDbBlockBegin
  2
A$C6CE44357
 70
     0
 10
0.0
 20
0.0
 30
0.0
  3
A$C6CE44357
  1

  0
LINE
  5
73E
330
73D
100
AcDbEntity
  8
Vista
 62
     3
100
AcDbLine
 10
-265.2371225605411
 20
-42.42864078547465
 30
0.0
 11
-265.1113419531143
 21
-42.4023863117474
 31
0.0
  0
LINE
  5
73F
330
73D
100
AcDbEntity
  8
Vista
 62
     4
100
AcDbLine
 10
-265.2590480951634
 20
-42.54823976658282
 30
0.0
 11
-265.2510480951634
 21
-42.54823976658282
 31
0.0
  0
LINE
  5
740
330
73D
100
AcDbEntity
  8
Vista
 62
     3
100
AcDbLine
 10
-265.2678775571128
 20
-42.55723976658283
 30
0.0
 11
-265.2164242716711
 21
-42.55723976658283
 31
0.0
  0
LINE
  5
741
330
73D
100
AcDbEntity
  8
Vista
 62
     2
100
AcDbLine
 10
-265.240902830533
 20
-42.52873976658283
 30
0.0
 11
-265.2164242716711
 21
-42.52873976658283
 31
0.0
  0
LINE
  5
742
330
73D
100
AcDbEntity
  8
Vista
 62
     2
100
AcDbLine
 10
-265.245902830533
 20
-42.53973976658282
 30
0.0
 11
-265.2164242716711
 21
-42.53973976658282
 31
0.0
  0
LINE
  5
743
330
73D
100
AcDbEntity
  8
Vista
 62
     2
100
AcDbLine
 10
-265.2411287103258
 20
-42.53147306509318
 30
0.0
 11
-265.2164242716712
 21
-42.53147306509318
 31
0.0
  0
LINE
  5
744
330
73D
100
AcDbEntity
  8
Vista
 62
     2
100
AcDbLine
 10
-265.2649809809004
 20
-42.55319036467706
 30
0.0
 11
-265.2164242716712
 21
-42.55319036467706
 31
0.0
  0
LWPOLYLINE
  5
745
330
73D
100
AcDbEntity
  8
CORTE
  6
Continuous
 62
     1
100
AcDbPolyline
 90
       30
 70
     1
 43
0.0
 10
-265.2651647001392
 20
-42.55337345319399
 42
0.2685636005234304
 10
-265.2649137067366
 20
-42.55293986846818
 10
-265.2649137067366
 20
-42.54823976658282
 10
-265.2624028305331
 20
-42.54823976658282
 42
0.4142135623730693
 10
-265.261402830533
 20
-42.54723976658282
 10
-265.261402830533
 20
-42.53973976658282
 10
-265.258902830533
 20
-42.53973976658282
 42
-0.2526773759784102
 10
-265.2565834054943
 20
-42.53823976658283
 10
-265.2512222555718
 20
-42.53823976658283
 42
-0.2526773759784102
 10
-265.2489028305331
 20
-42.53973976658282
 10
-265.245902830533
 20
-42.53973976658282
 42
0.414213562373069
 10
-265.244902830533
 20
-42.53873976658282
 10
-265.244902830533
 20
-42.53523036708408
 42
-0.3189892314182299
 10
-265.2417043063426
 20
-42.53182012245305
 42
0.356818340496206
 10
-265.240902830533
 20
-42.53084002646501
 10
-265.240902830533
 20
-42.52873976658283
 42
0.364269306410865
 10
-265.234652830533
 20
-42.52348976658284
 42
-0.3260576707120786
 10
-265.2292666879074
 20
-42.51829884552306
 42
0.3747567555282292
 10
-265.228402830533
 20
-42.51730815627538
 10
-265.228402830533
 20
-42.51473976658282
 10
-265.240902830533
 20
-42.51473976658282
 10
-265.240902830533
 20
-42.52073976658282
 10
-265.254402830533
 20
-42.53323976658283
 10
-265.264402830533
 20
-42.53323976658283
 42
0.4142135623730704
 10
-265.269402830533
 20
-42.53823976658283
 10
-265.269402830533
 20
-42.54351258119139
 10
-265.270902830533
 20
-42.54473976658282
 10
-265.270902830533
 20
-42.55723976658283
 10
-265.2678775571128
 20
-42.55723976658283
 42
0.3849291685644514
 10
-265.2673801055846
 20
-42.55679018460604
 42
-0.2416670294637286
  0
LINE
  5
746
330
73D
100
AcDbEntity
  8
CORTE
  6
RAYITA
 62
     4
100
AcDbLine
 10
-265.2649137067366
 20
-42.54823976658282
 30
0.0
 11
-265.2649137067366
 21
-42.53973976658282
 31
0.0
  0
LINE
  5
747
330
73D
100
AcDbEntity
  8
CORTE
  6
RAYITA
 62
     4
100
AcDbLine
 10
-265.2631769303866
 20
-42.5441333561959
 30
0.0
 11
-265.2631769303866
 21
-42.53973976658282
 31
0.0
  0
LINE
  5
748
330
73D
100
AcDbEntity
  8
CORTE
  6
RAYITA
 62
     4
100
AcDbLine
 10
-265.2631769303866
 20
-42.5441333561959
 30
0.0
 11
-265.2649137067366
 21
-42.5441333561959
 31
0.0
  0
LINE
  5
749
330
73D
100
AcDbEntity
  8
CORTE
  6
RAYITA
 62
     4
100
AcDbLine
 10
-265.261402830533
 20
-42.53973976658282
 30
0.0
 11
-265.2649137067366
 21
-42.53973976658282
 31
0.0
  0
LINE
  5
74A
330
73D
100
AcDbEntity
  8
Vista
 62
     3
100
AcDbLine
 10
-265.228402830533
 20
-42.51473976658282
 30
0.0
 11
-265.2164242716711
 21
-42.51473976658279
 31
0.0
  0
LINE
  5
74B
330
73D
100
AcDbEntity
  8
Vista
 62
     2
100
AcDbLine
 10
-265.2286491254761
 20
-42.51796536909266
 30
0.0
 11
-265.2164242716712
 21
-42.51796536909266
 31
0.0
  0
LINE
  5
74C
330
73D
100
AcDbEntity
  8
Vista
 62
     4
100
AcDbLine
 10
-265.2590480951634
 20
-42.53973976658282
 30
0.0
 11
-265.2590480951634
 21
-42.54823976658282
 31
0.0
  0
LINE
  5
74D
330
73D
100
AcDbEntity
  8
Vista
 62
     4
100
AcDbLine
 10
-265.2510480951634
 20
-42.53973976658282
 30
0.0
 11
-265.2510480951634
 21
-42.54823976658282
 31
0.0
  0
LINE
  5
74E
330
73D
100
AcDbEntity
  8
Vista
 62
     4
100
AcDbLine
 10
-265.2470480951634
 20
-42.53973976658282
 30
0.0
 11
-265.2470480951635
 21
-42.54823976658282
 31
0.0
  0
LINE
  5
74F
330
73D
100
AcDbEntity
  8
Vista
 62
     4
100
AcDbLine
 10
-265.2390480951634
 20
-42.53973976658282
 30
0.0
 11
-265.2390480951634
 21
-42.54823976658282
 31
0.0
  0
LINE
  5
750
330
73D
100
AcDbEntity
  8
Vista
 62
     4
100
AcDbLine
 10
-265.2350480951635
 20
-42.53973976658282
 30
0.0
 11
-265.2350480951635
 21
-42.54823976658282
 31
0.0
  0
LINE
  5
751
330
73D
100
AcDbEntity
  8
Vista
 62
     4
100
AcDbLine
 10
-265.2510480951634
 20
-42.5441333561959
 30
0.0
 11
-265.2470480951635
 21
-42.5441333561959
 31
0.0
  0
LINE
  5
752
330
73D
100
AcDbEntity
  8
Vista
 62
     4
100
AcDbLine
 10
-265.2390480951634
 20
-42.5441333561959
 30
0.0
 11
-265.2350480951635
 21
-42.5441333561959
 31
0.0
  0
LINE
  5
753
330
73D
100
AcDbEntity
  8
Vista
 62
     4
100
AcDbLine
 10
-265.2470480951635
 20
-42.54823976658282
 30
0.0
 11
-265.2390480951634
 21
-42.54823976658282
 31
0.0
  0
LINE
  5
754
330
73D
100
AcDbEntity
  8
Vista
 62
     4
100
AcDbLine
 10
-265.2350480951635
 20
-42.54823976658282
 30
0.0
 11
-265.2270480951634
 21
-42.54823976658282
 31
0.0
  0
LINE
  5
755
330
73D
100
AcDbEntity
  8
Vista
 62
     4
100
AcDbLine
 10
-265.2230480951634
 20
-42.53973976658282
 30
0.0
 11
-265.2230480951634
 21
-42.54823976658282
 31
0.0
  0
LINE
  5
756
330
73D
100
AcDbEntity
  8
Vista
 62
     4
100
AcDbLine
 10
-265.2270480951634
 20
-42.53973976658282
 30
0.0
 11
-265.2270480951634
 21
-42.54823976658282
 31
0.0
  0
LINE
  5
757
330
73D
100
AcDbEntity
  8
Vista
 62
     4
100
AcDbLine
 10
-265.2230480951634
 20
-42.54823976658282
 30
0.0
 11
-265.2164242716711
 21
-42.54823976658282
 31
0.0
  0
LINE
  5
758
330
73D
100
AcDbEntity
  8
Vista
 62
     4
100
AcDbLine
 10
-265.2270480951634
 20
-42.5441333561959
 30
0.0
 11
-265.2230480951634
 21
-42.5441333561959
 31
0.0
  0
LINE
  5
759
330
73D
100
AcDbEntity
  8
Vista
 62
     4
100
AcDbLine
 10
-265.2079942150913
 20
-42.54823976658282
 30
0.0
 11
-265.2030480951634
 21
-42.54823976658282
 31
0.0
  0
LINE
  5
75A
330
73D
100
AcDbEntity
  8
Vista
 62
     4
100
AcDbLine
 10
-265.1870480951635
 20
-42.53973976658282
 30
0.0
 11
-265.1870480951635
 21
-42.54823976658282
 31
0.0
  0
LINE
  5
75B
330
73D
100
AcDbEntity
  8
Vista
 62
     4
100
AcDbLine
 10
-265.1910480951634
 20
-42.53973976658282
 30
0.0
 11
-265.1910480951634
 21
-42.54823976658282
 31
0.0
  0
LINE
  5
75C
330
73D
100
AcDbEntity
  8
Vista
 62
     4
100
AcDbLine
 10
-265.1990480951635
 20
-42.53973976658282
 30
0.0
 11
-265.1990480951635
 21
-42.54823976658282
 31
0.0
  0
LINE
  5
75D
330
73D
100
AcDbEntity
  8
Vista
 62
     4
100
AcDbLine
 10
-265.2030480951634
 20
-42.53973976658282
 30
0.0
 11
-265.2030480951634
 21
-42.54823976658282
 31
0.0
  0
LINE
  5
75E
330
73D
100
AcDbEntity
  8
Vista
 62
     4
100
AcDbLine
 10
-265.1990480951635
 20
-42.54823976658282
 30
0.0
 11
-265.1910480951634
 21
-42.54823976658282
 31
0.0
  0
LINE
  5
75F
330
73D
100
AcDbEntity
  8
Vista
 62
     4
100
AcDbLine
 10
-265.2030480951634
 20
-42.5441333561959
 30
0.0
 11
-265.1990480951635
 21
-42.5441333561959
 31
0.0
  0
LINE
  5
760
330
73D
100
AcDbEntity
  8
Vista
 62
     4
100
AcDbLine
 10
-265.1910480951634
 20
-42.5441333561959
 30
0.0
 11
-265.1870480951635
 21
-42.5441333561959
 31
0.0
  0
LINE
  5
761
330
73D
100
AcDbEntity
  8
Vista
 62
     4
100
AcDbLine
 10
-265.1870480951635
 20
-42.54823976658282
 30
0.0
 11
-265.1790480951634
 21
-42.54823976658282
 31
0.0
  0
LINE
  5
762
330
73D
100
AcDbEntity
  8
Vista
 62
     4
100
AcDbLine
 10
-265.1630480951634
 20
-42.53973976658282
 30
0.0
 11
-265.1630480951634
 21
-42.54823976658282
 31
0.0
  0
LINE
  5
763
330
73D
100
AcDbEntity
  8
Vista
 62
     4
100
AcDbLine
 10
-265.1670480951634
 20
-42.53973976658282
 30
0.0
 11
-265.1670480951634
 21
-42.54823976658282
 31
0.0
  0
LINE
  5
764
330
73D
100
AcDbEntity
  8
Vista
 62
     4
100
AcDbLine
 10
-265.1750480951634
 20
-42.53973976658282
 30
0.0
 11
-265.1750480951634
 21
-42.54823976658282
 31
0.0
  0
LINE
  5
765
330
73D
100
AcDbEntity
  8
Vista
 62
     4
100
AcDbLine
 10
-265.1790480951634
 20
-42.53973976658282
 30
0.0
 11
-265.1790480951634
 21
-42.54823976658282
 31
0.0
  0
LINE
  5
766
330
73D
100
AcDbEntity
  8
Vista
 62
     4
100
AcDbLine
 10
-265.1750480951634
 20
-42.54823976658282
 30
0.0
 11
-265.1670480951634
 21
-42.54823976658282
 31
0.0
  0
LINE
  5
767
330
73D
100
AcDbEntity
  8
Vista
 62
     4
100
AcDbLine
 10
-265.1790480951634
 20
-42.5441333561959
 30
0.0
 11
-265.1750480951634
 21
-42.5441333561959
 31
0.0
  0
LINE
  5
768
330
73D
100
AcDbEntity
  8
Vista
 62
     4
100
AcDbLine
 10
-265.1670480951634
 20
-42.5441333561959
 30
0.0
 11
-265.1630480951634
 21
-42.5441333561959
 31
0.0
  0
LINE
  5
769
330
73D
100
AcDbEntity
  8
Vista
 62
     4
100
AcDbLine
 10
-265.1630480951634
 20
-42.54823976658282
 30
0.0
 11
-265.1550480951634
 21
-42.54823976658282
 31
0.0
  0
LINE
  5
76A
330
73D
100
AcDbEntity
  8
Vista
 62
     4
100
AcDbLine
 10
-265.1390480951635
 20
-42.53973976658282
 30
0.0
 11
-265.1390480951635
 21
-42.54823976658282
 31
0.0
  0
LINE
  5
76B
330
73D
100
AcDbEntity
  8
Vista
 62
     4
100
AcDbLine
 10
-265.1430480951634
 20
-42.53973976658282
 30
0.0
 11
-265.1430480951634
 21
-42.54823976658282
 31
0.0
  0
LINE
  5
76C
330
73D
100
AcDbEntity
  8
Vista
 62
     4
100
AcDbLine
 10
-265.1510480951634
 20
-42.53973976658282
 30
0.0
 11
-265.1510480951634
 21
-42.54823976658282
 31
0.0
  0
LINE
  5
76D
330
73D
100
AcDbEntity
  8
Vista
 62
     4
100
AcDbLine
 10
-265.1550480951634
 20
-42.53973976658282
 30
0.0
 11
-265.1550480951634
 21
-42.54823976658282
 31
0.0
  0
LINE
  5
76E
330
73D
100
AcDbEntity
  8
Vista
 62
     4
100
AcDbLine
 10
-265.1510480951634
 20
-42.54823976658282
 30
0.0
 11
-265.1430480951634
 21
-42.54823976658282
 31
0.0
  0
LINE
  5
76F
330
73D
100
AcDbEntity
  8
Vista
 62
     4
100
AcDbLine
 10
-265.1550480951634
 20
-42.5441333561959
 30
0.0
 11
-265.1510480951634
 21
-42.5441333561959
 31
0.0
  0
LINE
  5
770
330
73D
100
AcDbEntity
  8
Vista
 62
     4
100
AcDbLine
 10
-265.1430480951634
 20
-42.5441333561959
 30
0.0
 11
-265.1390480951635
 21
-42.5441333561959
 31
0.0
  0
LINE
  5
771
330
73D
100
AcDbEntity
  8
Vista
 62
     4
100
AcDbLine
 10
-265.1390480951635
 20
-42.54823976658282
 30
0.0
 11
-265.1310480951634
 21
-42.54823976658282
 31
0.0
  0
LINE
  5
772
330
73D
100
AcDbEntity
  8
Vista
 62
     4
100
AcDbLine
 10
-265.1150480951634
 20
-42.53973976658282
 30
0.0
 11
-265.1150480951634
 21
-42.54823976658282
 31
0.0
  0
LINE
  5
773
330
73D
100
AcDbEntity
  8
Vista
 62
     4
100
AcDbLine
 10
-265.1190480951634
 20
-42.53973976658282
 30
0.0
 11
-265.1190480951634
 21
-42.54823976658282
 31
0.0
  0
LINE
  5
774
330
73D
100
AcDbEntity
  8
Vista
 62
     4
100
AcDbLine
 10
-265.1270480951634
 20
-42.53973976658282
 30
0.0
 11
-265.1270480951634
 21
-42.54823976658282
 31
0.0
  0
LINE
  5
775
330
73D
100
AcDbEntity
  8
Vista
 62
     4
100
AcDbLine
 10
-265.1310480951634
 20
-42.53973976658282
 30
0.0
 11
-265.1310480951634
 21
-42.54823976658282
 31
0.0
  0
LINE
  5
776
330
73D
100
AcDbEntity
  8
Vista
 62
     4
100
AcDbLine
 10
-265.1270480951634
 20
-42.54823976658282
 30
0.0
 11
-265.1190480951634
 21
-42.54823976658282
 31
0.0
  0
LINE
  5
777
330
73D
100
AcDbEntity
  8
Vista
 62
     4
100
AcDbLine
 10
-265.1310480951634
 20
-42.5441333561959
 30
0.0
 11
-265.1270480951634
 21
-42.5441333561959
 31
0.0
  0
LINE
  5
778
330
73D
100
AcDbEntity
  8
Vista
 62
     4
100
AcDbLine
 10
-265.1190480951634
 20
-42.5441333561959
 30
0.0
 11
-265.1150480951634
 21
-42.5441333561959
 31
0.0
  0
LINE
  5
779
330
73D
100
AcDbEntity
  8
Vista
 62
     4
100
AcDbLine
 10
-265.1150480951634
 20
-42.54823976658282
 30
0.0
 11
-265.1070480951634
 21
-42.54823976658282
 31
0.0
  0
LINE
  5
77A
330
73D
100
AcDbEntity
  8
Vista
 62
     4
100
AcDbLine
 10
-265.1030480951634
 20
-42.53973976658282
 30
0.0
 11
-265.1030480951634
 21
-42.54823976658282
 31
0.0
  0
LINE
  5
77B
330
73D
100
AcDbEntity
  8
Vista
 62
     4
100
AcDbLine
 10
-265.1070480951634
 20
-42.53973976658282
 30
0.0
 11
-265.1070480951634
 21
-42.54823976658282
 31
0.0
  0
LINE
  5
77C
330
73D
100
AcDbEntity
  8
Vista
 62
     4
100
AcDbLine
 10
-265.1030480951634
 20
-42.54823976658282
 30
0.0
 11
-265.0999942150913
 21
-42.54823976658285
 31
0.0
  0
LINE
  5
77D
330
73D
100
AcDbEntity
  8
Vista
 62
     4
100
AcDbLine
 10
-265.1070480951634
 20
-42.5441333561959
 30
0.0
 11
-265.1030480951634
 21
-42.5441333561959
 31
0.0
  0
LINE
  5
77E
330
73D
100
AcDbEntity
  8
CORTE
  6
RAYITA
 62
     4
100
AcDbLine
 10
-265.2611334367446
 20
-42.46214078547466
 30
0.0
 11
-265.2611334367446
 21
-42.45803437508773
 31
0.0
  0
LINE
  5
77F
330
73D
100
AcDbEntity
  8
CORTE
  6
RAYITA
 62
     4
100
AcDbLine
 10
-265.2576225605411
 20
-42.45364078547466
 30
0.0
 11
-265.2593966603947
 21
-42.45364078547466
 31
0.0
  0
LINE
  5
780
330
73D
100
AcDbEntity
  8
CORTE
  6
RAYITA
 62
     4
100
AcDbLine
 10
-265.2593966603947
 20
-42.45803437508773
 30
0.0
 11
-265.2611334367446
 21
-42.45803437508773
 31
0.0
  0
LINE
  5
781
330
73D
100
AcDbEntity
  8
CORTE
  6
RAYITA
 62
     4
100
AcDbLine
 10
-265.2593966603947
 20
-42.45803437508773
 30
0.0
 11
-265.2593966603947
 21
-42.45364078547466
 31
0.0
  0
LINE
  5
782
330
73D
100
AcDbEntity
  8
Vista
 62
     2
100
AcDbLine
 10
-265.2246225605411
 20
-42.42864078547465
 30
0.0
 11
-265.0988419531143
 21
-42.4023863117474
 31
0.0
  0
LINE
  5
783
330
73D
100
AcDbEntity
  8
Vista
 62
     2
100
AcDbLine
 10
-265.2253196169622
 20
-42.43216218366036
 30
0.0
 11
-265.1005238724924
 21
-42.40611328262953
 31
0.0
  0
LINE
  5
784
330
73D
100
AcDbEntity
  8
Vista
 62
     2
100
AcDbLine
 10
-265.2357843481861
 20
-42.4424980657533
 30
0.0
 11
-265.1113419531143
 21
-42.41652292015008
 31
0.0
  0
LINE
  5
785
330
73D
100
AcDbEntity
  8
Vista
 62
     2
100
AcDbLine
 10
-265.2377407371607
 20
-42.44566528066572
 30
0.0
 11
-265.1119601297339
 21
-42.41941080693844
 31
0.0
  0
LINE
  5
786
330
73D
100
AcDbEntity
  8
Vista
 62
     2
100
AcDbLine
 10
-265.2616957494533
 20
-42.44725731687553
 30
0.0
 11
-265.2475622982738
 21
-42.44430720930124
 31
0.0
  0
LINE
  5
787
330
73D
100
AcDbEntity
  8
Vista
 62
     2
100
AcDbLine
 10
-265.2419054000998
 20
-42.45361692139899
 30
0.0
 11
-265.1318419531143
 21
-42.43064312650061
 31
0.0
  0
LINE
  5
788
330
73D
100
AcDbEntity
  8
Vista
 62
     4
100
AcDbLine
 10
-265.2551225605411
 20
-42.45364078547466
 30
0.0
 11
-265.2479363219937
 21
-42.45214078547464
 31
0.0
  0
LINE
  5
789
330
73D
100
AcDbEntity
  8
Vista
 62
     4
100
AcDbLine
 10
-265.2543974497464
 20
-42.4613609643679
 30
0.0
 11
-265.2463974497463
 21
-42.4596911060796
 31
0.0
  0
LINE
  5
78A
330
73D
100
AcDbEntity
  8
Vista
 62
     4
100
AcDbLine
 10
-265.2593966603947
 20
-42.45803437508773
 30
0.0
 11
-265.2558974497463
 21
-42.45730397684979
 31
0.0
  0
LINE
  5
78B
330
73D
100
AcDbEntity
  8
Vista
 62
     2
100
AcDbLine
 10
-265.2611968867646
 20
-42.46708465797961
 30
0.0
 11
-265.1354162793379
 21
-42.44083018425236
 31
0.0
  0
LINE
  5
78C
330
73D
100
AcDbEntity
  8
Vista
 62
     3
100
AcDbLine
 10
-265.264002248065
 20
-42.47113166995989
 30
0.0
 11
-265.1382216406382
 21
-42.44487719623264
 31
0.0
  0
ARC
  5
78D
330
73D
100
AcDbEntity
  8
CORTE
  6
Continuous
 62
     1
100
AcDbCircle
 10
-265.2616334367446
 20
-42.46684088735999
 30
0.0
 40
0.0004999999999999
100
AcDbArc
 50
299.8686408419573
 51
359.9999999999935
  0
LINE
  5
78E
330
73D
100
AcDbEntity
  8
CORTE
  6
Continuous
 62
     1
100
AcDbLine
 10
-265.2611334367446
 20
-42.46684088735999
 30
0.0
 11
-265.2611334367446
 21
-42.46214078547466
 31
0.0
  0
LINE
  5
78F
330
73D
100
AcDbEntity
  8
CORTE
  6
Continuous
 62
     1
100
AcDbLine
 10
-265.2576225605411
 20
-42.45364078547466
 30
0.0
 11
-265.2551225605411
 21
-42.45364078547466
 31
0.0
  0
ARC
  5
790
330
73D
100
AcDbEntity
  8
CORTE
  6
Continuous
 62
     1
100
AcDbCircle
 10
-265.2525734960763
 20
-42.45503911726784
 30
0.0
 40
0.0029074149083751
100
AcDbArc
 50
94.53017172282182
 51
151.2522954919238
  0
LINE
  5
791
330
73D
100
AcDbEntity
  8
CORTE
  6
Continuous
 62
     1
100
AcDbLine
 10
-265.2528031355024
 20
-42.45214078547464
 30
0.0
 11
-265.2474419855798
 21
-42.45214078547464
 31
0.0
  0
ARC
  5
792
330
73D
100
AcDbEntity
  8
CORTE
  6
Continuous
 62
     1
100
AcDbCircle
 10
-265.2476716250059
 20
-42.45503911726784
 30
0.0
 40
0.0029074149083745
100
AcDbArc
 50
28.74770450807759
 51
85.46982827718144
  0
LINE
  5
793
330
73D
100
AcDbEntity
  8
CORTE
  6
Continuous
 62
     1
100
AcDbLine
 10
-265.245122560541
 20
-42.45364078547466
 30
0.0
 11
-265.2421225605411
 21
-42.45364078547466
 31
0.0
  0
ARC
  5
794
330
73D
100
AcDbEntity
  8
CORTE
  6
Continuous
 62
     1
100
AcDbCircle
 10
-265.2421225605411
 20
-42.45264078547466
 30
0.0
 40
0.001
100
AcDbArc
 50
270.0
 51
359.9999999999951
  0
LINE
  5
795
330
73D
100
AcDbEntity
  8
CORTE
  6
Continuous
 62
     1
100
AcDbLine
 10
-265.2411225605411
 20
-42.45264078547466
 30
0.0
 11
-265.2411225605411
 21
-42.44913138597588
 31
0.0
  0
ARC
  5
796
330
73D
100
AcDbEntity
  8
CORTE
  6
Continuous
 62
     1
100
AcDbCircle
 10
-265.2371225605411
 20
-42.44967795498879
 30
0.0
 40
0.0040371695141331
100
AcDbArc
 50
101.4506709648844
 51
172.21916242068
  0
ARC
  5
797
330
73D
100
AcDbEntity
  8
CORTE
  6
Continuous
 62
     1
100
AcDbCircle
 10
-265.238122560541
 20
-42.44474104535682
 30
0.0
 40
0.0010000000000001
100
AcDbArc
 50
281.4506709648813
 51
359.9999999999935
  0
LINE
  5
798
330
73D
100
AcDbEntity
  8
CORTE
  6
Continuous
 62
     1
100
AcDbLine
 10
-265.2371225605411
 20
-42.44474104535682
 30
0.0
 11
-265.2371225605411
 21
-42.44264078547463
 31
0.0
  0
ARC
  5
799
330
73D
100
AcDbEntity
  8
CORTE
  6
Continuous
 62
     1
100
AcDbCircle
 10
-265.2371225605411
 20
-42.4362955473794
 30
0.0
 40
0.0063452380952395
100
AcDbArc
 50
270.0
 51
350.0605185437708
  0
ARC
  5
79A
330
73D
100
AcDbEntity
  8
CORTE
  6
Continuous
 62
     1
100
AcDbCircle
 10
-265.224622560541
 20
-42.43848602356989
 30
0.0
 40
0.0063452380952396
100
AcDbArc
 50
97.82469757354439
 51
170.060518543773
  0
ARC
  5
79B
330
73D
100
AcDbEntity
  8
CORTE
  6
Continuous
 62
     1
100
AcDbCircle
 10
-265.2256225605411
 20
-42.43120917516718
 30
0.0
 40
0.001
100
AcDbArc
 50
277.8246975735409
 51
359.9999999999984
  0
LINE
  5
79C
330
73D
100
AcDbEntity
  8
CORTE
  6
Continuous
 62
     1
100
AcDbLine
 10
-265.2246225605411
 20
-42.43120917516718
 30
0.0
 11
-265.2246225605411
 21
-42.42864078547465
 31
0.0
  0
LINE
  5
79D
330
73D
100
AcDbEntity
  8
CORTE
  6
Continuous
 62
     1
100
AcDbLine
 10
-265.2246225605411
 20
-42.42864078547465
 30
0.0
 11
-265.2371225605411
 21
-42.42864078547465
 31
0.0
  0
LINE
  5
79E
330
73D
100
AcDbEntity
  8
CORTE
  6
Continuous
 62
     1
100
AcDbLine
 10
-265.2371225605411
 20
-42.42864078547465
 30
0.0
 11
-265.2371225605411
 21
-42.43464078547465
 31
0.0
  0
LINE
  5
79F
330
73D
100
AcDbEntity
  8
CORTE
  6
Continuous
 62
     1
100
AcDbLine
 10
-265.2371225605411
 20
-42.43464078547465
 30
0.0
 11
-265.2506225605411
 21
-42.44714078547464
 31
0.0
  0
LINE
  5
7A0
330
73D
100
AcDbEntity
  8
CORTE
  6
Continuous
 62
     1
100
AcDbLine
 10
-265.2506225605411
 20
-42.44714078547464
 30
0.0
 11
-265.2606225605411
 21
-42.44714078547464
 31
0.0
  0
ARC
  5
7A1
330
73D
100
AcDbEntity
  8
CORTE
  6
Continuous
 62
     1
100
AcDbCircle
 10
-265.2606225605411
 20
-42.45214078547464
 30
0.0
 40
0.005
100
AcDbArc
 50
90.00000000000325
 51
179.9999999999967
  0
LINE
  5
7A2
330
73D
100
AcDbEntity
  8
CORTE
  6
Continuous
 62
     1
100
AcDbLine
 10
-265.2656225605411
 20
-42.45214078547464
 30
0.0
 11
-265.2656225605411
 21
-42.45741360008323
 31
0.0
  0
LINE
  5
7A3
330
73D
100
AcDbEntity
  8
CORTE
  6
Continuous
 62
     1
100
AcDbLine
 10
-265.2656225605411
 20
-42.45741360008323
 30
0.0
 11
-265.2671225605411
 21
-42.45864078547465
 31
0.0
  0
LINE
  5
7A4
330
73D
100
AcDbEntity
  8
CORTE
  6
Continuous
 62
     1
100
AcDbLine
 10
-265.2671225605411
 20
-42.45864078547465
 30
0.0
 11
-265.2671225605411
 21
-42.47114078547464
 31
0.0
  0
LINE
  5
7A5
330
73D
100
AcDbEntity
  8
CORTE
  6
Continuous
 62
     1
100
AcDbLine
 10
-265.2671225605411
 20
-42.47114078547464
 30
0.0
 11
-265.2640972871209
 21
-42.47114078547464
 31
0.0
  0
ARC
  5
7A6
330
73D
100
AcDbEntity
  8
CORTE
  6
Continuous
 62
     1
100
AcDbCircle
 10
-265.2640972871209
 20
-42.47064078547466
 30
0.0
 40
0.0005
100
AcDbArc
 50
270.0
 51
354.2126842324164
  0
ARC
  5
7A7
330
73D
100
AcDbEntity
  8
CORTE
  6
Continuous
 62
     1
100
AcDbCircle
 10
-265.2591640162722
 20
-42.47114078547464
 30
0.0
 40
0.004458544268822
100
AcDbArc
 50
119.8686408419609
 51
174.2126842324128
  0
LINE
  5
7A8
330
73D
100
AcDbEntity
  8
CORTE
  6
Continuous
 62
     4
100
AcDbLine
 10
-265.2573974497463
 20
-42.4613609643679
 30
0.0
 11
-265.2573974497463
 21
-42.45761707527883
 31
0.0
  0
LINE
  5
7A9
330
73D
100
AcDbEntity
  8
Vista
 62
     4
100
AcDbLine
 10
-265.2611334367446
 20
-42.46214078547466
 30
0.0
 11
-265.2573974497463
 21
-42.4613609643679
 31
0.0
  0
LINE
  5
7AA
330
73D
100
AcDbEntity
  8
CORTE
  6
Continuous
 62
     1
100
AcDbLine
 10
-265.2593974497464
 20
-42.45803437508773
 30
0.0
 11
-265.2593974497464
 21
-42.45359456852866
 31
0.0
  0
LINE
  5
7AB
330
73D
100
AcDbEntity
  8
Vista
 62
     4
100
AcDbLine
 10
-265.2573974497463
 20
-42.4613609643679
 30
0.0
 11
-265.2543974497464
 21
-42.4613609643679
 31
0.0
  0
LINE
  5
7AC
330
73D
100
AcDbEntity
  8
Vista
 62
     4
100
AcDbLine
 10
-265.2463974497463
 20
-42.45532102013244
 30
0.0
 11
-265.2438974497463
 21
-42.45479918941735
 31
0.0
  0
LINE
  5
7AD
330
73D
100
AcDbEntity
  8
CORTE
  6
Continuous
 62
     4
100
AcDbLine
 10
-265.2543974497464
 20
-42.4613609643679
 30
0.0
 11
-265.2543974497464
 21
-42.45348943144084
 31
0.0
  0
LINE
  5
7AE
330
73D
100
AcDbEntity
  8
CORTE
  6
Continuous
 62
     4
100
AcDbLine
 10
-265.2558974497463
 20
-42.45730397684979
 30
0.0
 11
-265.2558974497463
 21
-42.45364078547466
 31
0.0
  0
LINE
  5
7AF
330
73D
100
AcDbEntity
  8
CORTE
  6
Continuous
 62
     4
100
AcDbLine
 10
-265.2463974497463
 20
-42.4596911060796
 30
0.0
 11
-265.2463974497463
 21
-42.45242577862588
 31
0.0
  0
LINE
  5
7B0
330
73D
100
AcDbEntity
  8
Vista
 62
     4
100
AcDbLine
 10
-265.2463974497463
 20
-42.45906490922148
 30
0.0
 11
-265.2453974497464
 21
-42.45885617693547
 31
0.0
  0
LINE
  5
7B1
330
73D
100
AcDbEntity
  8
CORTE
  6
Continuous
 62
     4
100
AcDbLine
 10
-265.2423974497464
 20
-42.45885617693547
 30
0.0
 11
-265.2423974497464
 21
-42.45364078547466
 31
0.0
  0
LINE
  5
7B2
330
73D
100
AcDbEntity
  8
CORTE
  6
Continuous
 62
     4
100
AcDbLine
 10
-265.2453974497464
 20
-42.45885617693547
 30
0.0
 11
-265.2453974497464
 21
-42.4551122878464
 31
0.0
  0
LINE
  5
7B3
330
73D
100
AcDbEntity
  8
CORTE
  6
Continuous
 62
     4
100
AcDbLine
 10
-265.2343974497463
 20
-42.45718631864717
 30
0.0
 11
-265.2343974497463
 21
-42.45204976975823
 31
0.0
  0
LINE
  5
7B4
330
73D
100
AcDbEntity
  8
Vista
 62
     4
100
AcDbLine
 10
-265.2423974497464
 20
-42.45885617693547
 30
0.0
 11
-265.2453974497464
 21
-42.45885617693547
 31
0.0
  0
LINE
  5
7B5
330
73D
100
AcDbEntity
  8
CORTE
  6
Continuous
 62
     4
100
AcDbLine
 10
-265.2438974497463
 20
-42.45479918941735
 30
0.0
 11
-265.2438974497463
 21
-42.45364078547466
 31
0.0
  0
LINE
  5
7B6
330
73D
100
AcDbEntity
  8
Vista
 62
     4
100
AcDbLine
 10
-265.2423974497464
 20
-42.45885617693547
 30
0.0
 11
-265.2343974497463
 21
-42.45718631864717
 31
0.0
  0
LINE
  5
7B7
330
73D
100
AcDbEntity
  8
CORTE
  6
Continuous
 62
     4
100
AcDbLine
 10
-265.2333974497464
 20
-42.45635698981327
 30
0.0
 11
-265.2333974497464
 21
-42.45261310072421
 31
0.0
  0
LINE
  5
7B8
330
73D
100
AcDbEntity
  8
CORTE
  6
Continuous
 62
     4
100
AcDbLine
 10
-265.2303974497463
 20
-42.45635698981327
 30
0.0
 11
-265.2303974497463
 21
-42.45121484061409
 31
0.0
  0
LINE
  5
7B9
330
73D
100
AcDbEntity
  8
Vista
 62
     4
100
AcDbLine
 10
-265.2303974497463
 20
-42.45635698981327
 30
0.0
 11
-265.2223974497463
 21
-42.45468713152497
 31
0.0
  0
LINE
  5
7BA
330
73D
100
AcDbEntity
  8
Vista
 62
     4
100
AcDbLine
 10
-265.2303974497463
 20
-42.45635698981327
 30
0.0
 11
-265.2333974497464
 21
-42.45635698981327
 31
0.0
  0
LINE
  5
7BB
330
73D
100
AcDbEntity
  8
Vista
 62
     4
100
AcDbLine
 10
-265.2343974497463
 20
-42.45656572209931
 30
0.0
 11
-265.2333974497464
 21
-42.45635698981327
 31
0.0
  0
LINE
  5
7BC
330
73D
100
AcDbEntity
  8
Vista
 62
     4
100
AcDbLine
 10
-265.2343974497463
 20
-42.45282183301024
 30
0.0
 11
-265.2318974497463
 21
-42.45230000229516
 31
0.0
  0
LINE
  5
7BD
330
73D
100
AcDbEntity
  8
CORTE
  6
Continuous
 62
     4
100
AcDbLine
 10
-265.2318974497463
 20
-42.45230000229516
 30
0.0
 11
-265.2318974497463
 21
-42.45152793904314
 31
0.0
  0
LINE
  5
7BE
330
73D
100
AcDbEntity
  8
CORTE
  6
Continuous
 62
     4
100
AcDbLine
 10
-265.2223974497463
 20
-42.45468713152497
 30
0.0
 11
-265.2223974497463
 21
-42.44955058263606
 31
0.0
  0
LINE
  5
7BF
330
73D
100
AcDbEntity
  8
Vista
 62
     4
100
AcDbLine
 10
-265.2183974497464
 20
-42.45381967473214
 30
0.0
 11
-265.2103974497463
 21
-42.45214981644385
 31
0.0
  0
LINE
  5
7C0
330
73D
100
AcDbEntity
  8
Vista
 62
     4
100
AcDbLine
 10
-265.2183974497464
 20
-42.45381967473214
 30
0.0
 11
-265.2213974497463
 21
-42.45381967473214
 31
0.0
  0
LINE
  5
7C1
330
73D
100
AcDbEntity
  8
CORTE
  6
Continuous
 62
     4
100
AcDbLine
 10
-265.2198974497463
 20
-42.44976268721403
 30
0.0
 11
-265.2198974497463
 21
-42.44902315161072
 31
0.0
  0
LINE
  5
7C2
330
73D
100
AcDbEntity
  8
Vista
 62
     4
100
AcDbLine
 10
-265.2223974497463
 20
-42.45028451792911
 30
0.0
 11
-265.2198974497463
 21
-42.44976268721403
 31
0.0
  0
LINE
  5
7C3
330
73D
100
AcDbEntity
  8
Vista
 62
     4
100
AcDbLine
 10
-265.2223974497463
 20
-42.45402840701818
 30
0.0
 11
-265.2213974497463
 21
-42.45381967473214
 31
0.0
  0
LINE
  5
7C4
330
73D
100
AcDbEntity
  8
CORTE
  6
Continuous
 62
     4
100
AcDbLine
 10
-265.2213974497463
 20
-42.45381967473214
 30
0.0
 11
-265.2213974497463
 21
-42.45007578564307
 31
0.0
  0
LINE
  5
7C5
330
73D
100
AcDbEntity
  8
CORTE
  6
Continuous
 62
     4
100
AcDbLine
 10
-265.2183974497464
 20
-42.45381967473214
 30
0.0
 11
-265.2183974497464
 21
-42.44867752553297
 31
0.0
  0
LINE
  5
7C6
330
73D
100
AcDbEntity
  8
CORTE
  6
Continuous
 62
     4
100
AcDbLine
 10
-265.2103974497463
 20
-42.45214981644385
 30
0.0
 11
-265.2103974497463
 21
-42.44704019489337
 31
0.0
  0
LINE
  5
7C7
330
73D
100
AcDbEntity
  8
Vista
 62
     4
100
AcDbLine
 10
-265.2063974497464
 20
-42.45136478851414
 30
0.0
 11
-265.1983974497463
 21
-42.44969493022584
 31
0.0
  0
LINE
  5
7C8
330
73D
100
AcDbEntity
  8
Vista
 62
     4
100
AcDbLine
 10
-265.2063974497464
 20
-42.45136478851414
 30
0.0
 11
-265.2093974497463
 21
-42.45136478851414
 31
0.0
  0
LINE
  5
7C9
330
73D
100
AcDbEntity
  8
CORTE
  6
Continuous
 62
     4
100
AcDbLine
 10
-265.2078974497463
 20
-42.44730780099603
 30
0.0
 11
-265.2078974497463
 21
-42.44653573774401
 31
0.0
  0
LINE
  5
7CA
330
73D
100
AcDbEntity
  8
Vista
 62
     4
100
AcDbLine
 10
-265.2103974497463
 20
-42.44782963171111
 30
0.0
 11
-265.2078974497463
 21
-42.44730780099603
 31
0.0
  0
LINE
  5
7CB
330
73D
100
AcDbEntity
  8
Vista
 62
     4
100
AcDbLine
 10
-265.2103974497463
 20
-42.45157352080018
 30
0.0
 11
-265.2093974497463
 21
-42.45136478851414
 31
0.0
  0
LINE
  5
7CC
330
73D
100
AcDbEntity
  8
CORTE
  6
Continuous
 62
     4
100
AcDbLine
 10
-265.2093974497463
 20
-42.45136478851414
 30
0.0
 11
-265.2093974497463
 21
-42.44762089942507
 31
0.0
  0
LINE
  5
7CD
330
73D
100
AcDbEntity
  8
CORTE
  6
Continuous
 62
     4
100
AcDbLine
 10
-265.2063974497464
 20
-42.45136478851414
 30
0.0
 11
-265.2063974497464
 21
-42.44622263931496
 31
0.0
  0
LINE
  5
7CE
330
73D
100
AcDbEntity
  8
CORTE
  6
Continuous
 62
     4
100
AcDbLine
 10
-265.1983974497463
 20
-42.44969493022584
 30
0.0
 11
-265.1983974497463
 21
-42.44455838133693
 31
0.0
  0
LINE
  5
7CF
330
73D
100
AcDbEntity
  8
Vista
 62
     4
100
AcDbLine
 10
-265.1943974497464
 20
-42.44883783223379
 30
0.0
 11
-265.1863974497463
 21
-42.44716797394549
 31
0.0
  0
LINE
  5
7D0
330
73D
100
AcDbEntity
  8
Vista
 62
     4
100
AcDbLine
 10
-265.1943974497464
 20
-42.44883783223379
 30
0.0
 11
-265.1973974497463
 21
-42.44883783223379
 31
0.0
  0
LINE
  5
7D1
330
73D
100
AcDbEntity
  8
CORTE
  6
Continuous
 62
     4
100
AcDbLine
 10
-265.1958974497463
 20
-42.44478084471568
 30
0.0
 11
-265.1958974497463
 21
-42.44400878146369
 31
0.0
  0
LINE
  5
7D2
330
73D
100
AcDbEntity
  8
Vista
 62
     4
100
AcDbLine
 10
-265.1983974497463
 20
-42.44530267543076
 30
0.0
 11
-265.1958974497463
 21
-42.44478084471568
 31
0.0
  0
LINE
  5
7D3
330
73D
100
AcDbEntity
  8
Vista
 62
     4
100
AcDbLine
 10
-265.1983974497463
 20
-42.44904656451983
 30
0.0
 11
-265.1973974497463
 21
-42.44883783223379
 31
0.0
  0
LINE
  5
7D4
330
73D
100
AcDbEntity
  8
CORTE
  6
Continuous
 62
     4
100
AcDbLine
 10
-265.1973974497463
 20
-42.44883783223379
 30
0.0
 11
-265.1973974497463
 21
-42.44509394314476
 31
0.0
  0
LINE
  5
7D5
330
73D
100
AcDbEntity
  8
CORTE
  6
Continuous
 62
     4
100
AcDbLine
 10
-265.1943974497464
 20
-42.44883783223379
 30
0.0
 11
-265.1943974497464
 21
-42.44369568303464
 31
0.0
  0
LINE
  5
7D6
330
73D
100
AcDbEntity
  8
CORTE
  6
Continuous
 62
     4
100
AcDbLine
 10
-265.1838974497463
 20
-42.44224352963455
 30
0.0
 11
-265.1838974497463
 21
-42.44150399403126
 31
0.0
  0
LINE
  5
7D7
330
73D
100
AcDbEntity
  8
CORTE
  6
Continuous
 62
     4
100
AcDbLine
 10
-265.1823974497464
 20
-42.44630051715266
 30
0.0
 11
-265.1823974497464
 21
-42.44115836795351
 31
0.0
  0
LINE
  5
7D8
330
73D
100
AcDbEntity
  8
Vista
 62
     4
100
AcDbLine
 10
-265.1823974497464
 20
-42.44630051715266
 30
0.0
 11
-265.1853974497464
 21
-42.44630051715266
 31
0.0
  0
LINE
  5
7D9
330
73D
100
AcDbEntity
  8
CORTE
  6
Continuous
 62
     4
100
AcDbLine
 10
-265.1853974497464
 20
-42.44630051715266
 30
0.0
 11
-265.1853974497464
 21
-42.44255662806362
 31
0.0
  0
LINE
  5
7DA
330
73D
100
AcDbEntity
  8
Vista
 62
     4
100
AcDbLine
 10
-265.1863974497463
 20
-42.4465092494387
 30
0.0
 11
-265.1853974497464
 21
-42.44630051715266
 31
0.0
  0
LINE
  5
7DB
330
73D
100
AcDbEntity
  8
Vista
 62
     4
100
AcDbLine
 10
-265.1863974497463
 20
-42.44276536034966
 30
0.0
 11
-265.1838974497463
 21
-42.44224352963455
 31
0.0
  0
LINE
  5
7DC
330
73D
100
AcDbEntity
  8
CORTE
  6
Continuous
 62
     4
100
AcDbLine
 10
-265.1863974497463
 20
-42.44716797394549
 30
0.0
 11
-265.1863974497463
 21
-42.44203142505658
 31
0.0
  0
LINE
  5
7DD
330
73D
100
AcDbEntity
  8
Vista
 62
     4
100
AcDbLine
 10
-265.1703974497463
 20
-42.44384563093466
 30
0.0
 11
-265.1623974497463
 21
-42.44217577264636
 31
0.0
  0
LINE
  5
7DE
330
73D
100
AcDbEntity
  8
Vista
 62
     4
100
AcDbLine
 10
-265.1823974497464
 20
-42.44630051715266
 30
0.0
 11
-265.1743974497463
 21
-42.44463065886439
 31
0.0
  0
LINE
  5
7DF
330
73D
100
AcDbEntity
  8
CORTE
  6
Continuous
 62
     4
100
AcDbLine
 10
-265.1743974497463
 20
-42.44463065886439
 30
0.0
 11
-265.1743974497463
 21
-42.43952103731389
 31
0.0
  0
LINE
  5
7E0
330
73D
100
AcDbEntity
  8
CORTE
  6
Continuous
 62
     4
100
AcDbLine
 10
-265.1733974497464
 20
-42.44384563093466
 30
0.0
 11
-265.1733974497464
 21
-42.44010174184562
 31
0.0
  0
LINE
  5
7E1
330
73D
100
AcDbEntity
  8
CORTE
  6
Continuous
 62
     4
100
AcDbLine
 10
-265.1703974497463
 20
-42.44384563093466
 30
0.0
 11
-265.1703974497463
 21
-42.43870348173551
 31
0.0
  0
LINE
  5
7E2
330
73D
100
AcDbEntity
  8
Vista
 62
     4
100
AcDbLine
 10
-265.1703974497463
 20
-42.44384563093466
 30
0.0
 11
-265.1733974497464
 21
-42.44384563093466
 31
0.0
  0
LINE
  5
7E3
330
73D
100
AcDbEntity
  8
Vista
 62
     4
100
AcDbLine
 10
-265.1743974497463
 20
-42.4440543632207
 30
0.0
 11
-265.1733974497464
 21
-42.44384563093466
 31
0.0
  0
LINE
  5
7E4
330
73D
100
AcDbEntity
  8
CORTE
  6
Continuous
 62
     4
100
AcDbLine
 10
-265.1718974497463
 20
-42.43978864341655
 30
0.0
 11
-265.1718974497463
 21
-42.43901658016456
 31
0.0
  0
LINE
  5
7E5
330
73D
100
AcDbEntity
  8
Vista
 62
     4
100
AcDbLine
 10
-265.1743974497463
 20
-42.44031047413163
 30
0.0
 11
-265.1718974497463
 21
-42.43978864341655
 31
0.0
  0
LINE
  5
7E6
330
73D
100
AcDbEntity
  8
CORTE
  6
Continuous
 62
     4
100
AcDbLine
 10
-265.1623974497463
 20
-42.44217577264636
 30
0.0
 11
-265.1623974497463
 21
-42.43703922375745
 31
0.0
  0
LINE
  5
7E7
330
73D
100
AcDbEntity
  8
Vista
 62
     4
100
AcDbLine
 10
-265.1583974497464
 20
-42.44133239831891
 30
0.0
 11
-265.1503974497463
 21
-42.43966254003062
 31
0.0
  0
LINE
  5
7E8
330
73D
100
AcDbEntity
  8
Vista
 62
     4
100
AcDbLine
 10
-265.1583974497464
 20
-42.44133239831891
 30
0.0
 11
-265.1613974497463
 21
-42.44133239831891
 31
0.0
  0
LINE
  5
7E9
330
73D
100
AcDbEntity
  8
CORTE
  6
Continuous
 62
     4
100
AcDbLine
 10
-265.1598974497463
 20
-42.4372754108008
 30
0.0
 11
-265.1598974497463
 21
-42.43650334754879
 31
0.0
  0
LINE
  5
7EA
330
73D
100
AcDbEntity
  8
Vista
 62
     4
100
AcDbLine
 10
-265.1623974497463
 20
-42.43779724151589
 30
0.0
 11
-265.1598974497463
 21
-42.4372754108008
 31
0.0
  0
LINE
  5
7EB
330
73D
100
AcDbEntity
  8
Vista
 62
     4
100
AcDbLine
 10
-265.1623974497463
 20
-42.44154113060496
 30
0.0
 11
-265.1613974497463
 21
-42.44133239831891
 31
0.0
  0
LINE
  5
7EC
330
73D
100
AcDbEntity
  8
CORTE
  6
Continuous
 62
     4
100
AcDbLine
 10
-265.1613974497463
 20
-42.44133239831891
 30
0.0
 11
-265.1613974497463
 21
-42.43758850922985
 31
0.0
  0
LINE
  5
7ED
330
73D
100
AcDbEntity
  8
CORTE
  6
Continuous
 62
     4
100
AcDbLine
 10
-265.1583974497464
 20
-42.44133239831891
 30
0.0
 11
-265.1583974497464
 21
-42.43619024911974
 31
0.0
  0
LINE
  5
7EE
330
73D
100
AcDbEntity
  8
CORTE
  6
Continuous
 62
     4
100
AcDbLine
 10
-265.1478974497463
 20
-42.43473809571968
 30
0.0
 11
-265.1478974497463
 21
-42.43399856011636
 31
0.0
  0
LINE
  5
7EF
330
73D
100
AcDbEntity
  8
CORTE
  6
Continuous
 62
     4
100
AcDbLine
 10
-265.1463974497464
 20
-42.43879508323779
 30
0.0
 11
-265.1463974497464
 21
-42.43365293403861
 31
0.0
  0
LINE
  5
7F0
330
73D
100
AcDbEntity
  8
Vista
 62
     4
100
AcDbLine
 10
-265.1463974497464
 20
-42.43879508323779
 30
0.0
 11
-265.1493974497463
 21
-42.43879508323779
 31
0.0
  0
LINE
  5
7F1
330
73D
100
AcDbEntity
  8
CORTE
  6
Continuous
 62
     4
100
AcDbLine
 10
-265.1493974497463
 20
-42.43879508323779
 30
0.0
 11
-265.1493974497463
 21
-42.43505119414872
 31
0.0
  0
LINE
  5
7F2
330
73D
100
AcDbEntity
  8
Vista
 62
     4
100
AcDbLine
 10
-265.1503974497463
 20
-42.43900381552383
 30
0.0
 11
-265.1493974497463
 21
-42.43879508323779
 31
0.0
  0
LINE
  5
7F3
330
73D
100
AcDbEntity
  8
Vista
 62
     4
100
AcDbLine
 10
-265.1503974497463
 20
-42.43525992643476
 30
0.0
 11
-265.1478974497463
 21
-42.43473809571968
 31
0.0
  0
LINE
  5
7F4
330
73D
100
AcDbEntity
  8
CORTE
  6
Continuous
 62
     4
100
AcDbLine
 10
-265.1503974497463
 20
-42.43966254003062
 30
0.0
 11
-265.1503974497463
 21
-42.43452599114171
 31
0.0
  0
LINE
  5
7F5
330
73D
100
AcDbEntity
  8
Vista
 62
     4
100
AcDbLine
 10
-265.1463974497464
 20
-42.43879508323779
 30
0.0
 11
-265.1383974497463
 21
-42.43712522494949
 31
0.0
  0
LINE
  5
7F6
330
73D
100
AcDbEntity
  8
CORTE
  6
Continuous
 62
     4
100
AcDbLine
 10
-265.1383974497463
 20
-42.43712522494949
 30
0.0
 11
-265.1383974497463
 21
-42.43201560339902
 31
0.0
  0
LINE
  5
7F7
330
73D
100
AcDbEntity
  8
CORTE
  6
Continuous
 62
     4
100
AcDbLine
 10
-265.1373974497464
 20
-42.43634019701978
 30
0.0
 11
-265.1373974497464
 21
-42.43259630793072
 31
0.0
  0
LINE
  5
7F8
330
73D
100
AcDbEntity
  8
CORTE
  6
Continuous
 62
     4
100
AcDbLine
 10
-265.1343974497464
 20
-42.43634019701978
 30
0.0
 11
-265.1343974497464
 21
-42.43119804782061
 31
0.0
  0
LINE
  5
7F9
330
73D
100
AcDbEntity
  8
Vista
 62
     4
100
AcDbLine
 10
-265.1383974497463
 20
-42.43654892930583
 30
0.0
 11
-265.1373974497464
 21
-42.43634019701978
 31
0.0
  0
LINE
  5
7FA
330
73D
100
AcDbEntity
  8
CORTE
  6
Continuous
 62
     4
100
AcDbLine
 10
-265.1358974497463
 20
-42.43228320950167
 30
0.0
 11
-265.1358974497463
 21
-42.43151114624966
 31
0.0
  0
LINE
  5
7FB
330
73D
100
AcDbEntity
  8
Vista
 62
     4
100
AcDbLine
 10
-265.1383974497463
 20
-42.43280504021676
 30
0.0
 11
-265.1358974497463
 21
-42.43228320950167
 31
0.0
  0
LINE
  5
7FC
330
73D
100
AcDbEntity
  8
Vista
 62
     4
100
AcDbLine
 10
-265.1353528293179
 20
-42.43634019701978
 30
0.0
 11
-265.1373974497464
 21
-42.43634019701978
 31
0.0
  0
LWPOLYLINE
  5
7FD
330
73D
100
AcDbEntity
  8
Vista
  6
Continuous
 62
     3
100
AcDbPolyline
 90
       21
 70
     0
 43
0.0
 10
-265.1383166796941
 20
-42.44488631174739
 42
0.384929168564455
 10
-265.1378192281659
 20
-42.4444367297706
 42
-0.2416670294637282
 10
-265.1356038227205
 20
-42.44101999835858
 42
0.2685636005234456
 10
-265.1353528293179
 20
-42.44058641363274
 10
-265.1353528293179
 20
-42.43634019701978
 10
-265.1343974497464
 20
-42.43634019701978
 10
-265.1318419531143
 20
-42.43580678236582
 10
-265.1318419531143
 20
-42.43064312650061
 10
-265.1161247926731
 20
-42.42736244767171
 42
0.3514578094911731
 10
-265.1153419531143
 20
-42.42638631174741
 10
-265.1153419531143
 20
-42.42287691224864
 42
-0.3189892314182308
 10
-265.1121434289239
 20
-42.41946666761764
 42
0.3568183404962087
 10
-265.1113419531143
 20
-42.41848657162957
 10
-265.1113419531143
 20
-42.41652292015008
 10
-265.1100037407593
 20
-42.41624359202602
 42
0.3051840064494136
 10
-265.1050919531143
 20
-42.4111363117474
 42
-0.2900042141350497
 10
-265.1005238724924
 20
-42.40611328262953
 10
-265.0995390095354
 20
-42.40590770993311
 42
0.3266838343405565
 10
-265.0988419531143
 20
-42.40495470143993
 10
-265.0988419531143
 20
-42.4023863117474
 10
-265.1113419531143
 20
-42.4023863117474
  0
LINE
  5
7FE
330
73D
100
AcDbEntity
  8
Vista
 62
     6
100
AcDbLine
 10
-265.0999942150913
 20
-42.55723976658283
 30
0.0
 11
-265.0999942150913
 21
-42.51473976658282
 31
0.0
  0
LINE
  5
7FF
330
73D
100
AcDbEntity
  8
Vista
 62
     6
100
AcDbLine
 10
-265.2079942150913
 20
-42.55723976658283
 30
0.0
 11
-265.2079942150913
 21
-42.51473976658282
 31
0.0
  0
LINE
  5
800
330
73D
100
AcDbEntity
  8
Vista
 62
     2
100
AcDbLine
 10
-265.2079942150914
 20
-42.51796536909266
 30
0.0
 11
-265.0999942150913
 21
-42.51796536909266
 31
0.0
  0
LINE
  5
801
330
73D
100
AcDbEntity
  8
Vista
 62
     3
100
AcDbLine
 10
-265.2079942150913
 20
-42.51473976658279
 30
0.0
 11
-265.0999942150913
 21
-42.51473976658284
 31
0.0
  0
LINE
  5
802
330
73D
100
AcDbEntity
  8
Vista
 62
     2
100
AcDbLine
 10
-265.2079942150913
 20
-42.52873976658283
 30
0.0
 11
-265.0999942150913
 21
-42.52873976658283
 31
0.0
  0
LINE
  5
803
330
73D
100
AcDbEntity
  8
Vista
 62
     2
100
AcDbLine
 10
-265.2079942150914
 20
-42.53147306509318
 30
0.0
 11
-265.0999942150913
 21
-42.53147306509318
 31
0.0
  0
LINE
  5
804
330
73D
100
AcDbEntity
  8
Vista
 62
     2
100
AcDbLine
 10
-265.2079942150913
 20
-42.53973976658282
 30
0.0
 11
-265.0999942150913
 21
-42.53973976658282
 31
0.0
  0
LINE
  5
805
330
73D
100
AcDbEntity
  8
Vista
 62
     2
100
AcDbLine
 10
-265.2079942150913
 20
-42.55319036467706
 30
0.0
 11
-265.0999942150913
 21
-42.55319036467709
 31
0.0
  0
LINE
  5
806
330
73D
100
AcDbEntity
  8
Vista
 62
     3
100
AcDbLine
 10
-265.2079942150913
 20
-42.55723976658283
 30
0.0
 11
-265.0999942150913
 21
-42.55723976658283
 31
0.0
  0
ENDBLK
  5
808
330
73D
100
AcDbEntity
  8
0
 62
     3
100
AcDbBlockEnd
  0
BLOCK
  5
B6F
330
B69
100
AcDbEntity
  8
0
 62
     3
100
AcDbBlockBegin
  2
A$C263D6B6A
 70
     0
 10
0.0
 20
0.0
 30
0.0
  3
A$C263D6B6A
  1

  0
HATCH
  5
B6A
330
B69
100
AcDbEntity
  8
Sezione
100
AcDbHatch
 10
0.0
 20
0.0
 30
0.0
210
0.0
220
0.0
230
1.0
  2
ANSI31
 70
     0
 71
     0
 91
        1
 92
        7
 72
     0
 73
     1
 93
        6
 10
0.0922667539244952
 20
0.0862807646728965
 10
-0.0000000665657739
 20
0.0862807646728965
 10
-0.0000000665657739
 20
0.0003091066906239
 10
0.0191316019951639
 20
0.0003091066906239
 10
0.0191316019951639
 20
0.0668219886661159
 10
0.0922667539244952
 20
0.0668219886661158
 97
        0
 75
     0
 76
     1
 52
0.0
 41
0.002
 77
     0
 78
     1
 53
45.0
 43
-0.0858288002254417
 44
-0.1359207187670848
 45
-0.0044901280605346
 46
0.0044901280605346
 79
     0
 47
0.0003507291251325
 98
        1
 10
0.0287510465309501
 20
0.0740124973428604
1001
ACAD
1010
0.0
1020
0.0
1030
0.0
  0
LINE
  5
B6B
330
B69
100
AcDbEntity
  8
Sezione
100
AcDbLine
 10
0.0191316019951639
 20
0.0000000122728271
 30
0.0
 11
0.0191316019951639
 21
0.0668219886661159
 31
0.0
  0
LINE
  5
B6C
330
B69
100
AcDbEntity
  8
Sezione
100
AcDbLine
 10
0.0191316019951639
 20
0.0668219886661159
 30
0.0
 11
0.0923266054750259
 21
0.0668219886661159
 31
0.0
  0
ENDBLK
  5
B70
330
B69
100
AcDbEntity
  8
0
 62
     3
100
AcDbBlockEnd
  0
BLOCK
  5
BFC
330
BFB
100
AcDbEntity
  8
0
100
AcDbBlockBegin
  2
*X10
 70
     1
 10
0.0
 20
0.0
 30
0.0
  3
*X10
  1

  0
LINE
  5
BFD
330
BFB
100
AcDbEntity
  8
0
 62
     0
100
AcDbLine
 10
486.460053877036
 20
124.0678285189305
 30
0.0
 11
503.5693156116774
 21
141.1770902535719
 31
0.0
  0
LINE
  5
BFE
330
BFB
100
AcDbEntity
  8
0
 62
     0
100
AcDbLine
 10
615.6341149734076
 20
253.2418896153022
 30
0.0
 11
629.3545087289434
 21
266.9622833708378
 31
0.0
  0
LINE
  5
BFF
330
BFB
100
AcDbEntity
  8
0
 62
     0
100
AcDbLine
 10
486.460053877036
 20
132.9066632837623
 30
0.0
 11
503.5693156116774
 21
150.0159250184037
 31
0.0
  0
LINE
  5
C00
330
BFB
100
AcDbEntity
  8
0
 62
     0
100
AcDbLine
 10
606.7952802085758
 20
253.2418896153022
 30
0.0
 11
620.5156739641116
 21
266.9622833708378
 31
0.0
  0
LINE
  5
C01
330
BFB
100
AcDbEntity
  8
0
 62
     0
100
AcDbLine
 10
486.460053877036
 20
141.7454980485942
 30
0.0
 11
503.5693156116774
 21
158.8547597832356
 31
0.0
  0
LINE
  5
C02
330
BFB
100
AcDbEntity
  8
0
 62
     0
100
AcDbLine
 10
597.9564454437441
 20
253.2418896153022
 30
0.0
 11
611.6768391992796
 21
266.9622833708378
 31
0.0
  0
LINE
  5
C03
330
BFB
100
AcDbEntity
  8
0
 62
     0
100
AcDbLine
 10
486.460053877036
 20
150.584332813426
 30
0.0
 11
503.5693156116774
 21
167.6935945480674
 31
0.0
  0
LINE
  5
C04
330
BFB
100
AcDbEntity
  8
0
 62
     0
100
AcDbLine
 10
589.1176106789122
 20
253.2418896153022
 30
0.0
 11
602.8380044344478
 21
266.9622833708378
 31
0.0
  0
LINE
  5
C05
330
BFB
100
AcDbEntity
  8
0
 62
     0
100
AcDbLine
 10
486.460053877036
 20
159.4231675782578
 30
0.0
 11
503.5693156116774
 21
176.5324293128992
 31
0.0
  0
LINE
  5
C06
330
BFB
100
AcDbEntity
  8
0
 62
     0
100
AcDbLine
 10
580.2787759140803
 20
253.2418896153022
 30
0.0
 11
593.999169669616
 21
266.9622833708378
 31
0.0
  0
LINE
  5
C07
330
BFB
100
AcDbEntity
  8
0
 62
     0
100
AcDbLine
 10
486.460053877036
 20
168.2620023430897
 30
0.0
 11
503.5693156116774
 21
185.3712640777311
 31
0.0
  0
LINE
  5
C08
330
BFB
100
AcDbEntity
  8
0
 62
     0
100
AcDbLine
 10
571.4399411492485
 20
253.2418896153022
 30
0.0
 11
585.1603349047841
 21
266.9622833708378
 31
0.0
  0
LINE
  5
C09
330
BFB
100
AcDbEntity
  8
0
 62
     0
100
AcDbLine
 10
486.460053877036
 20
177.1008371079215
 30
0.0
 11
503.5693156116773
 21
194.2100988425629
 31
0.0
  0
LINE
  5
C0A
330
BFB
100
AcDbEntity
  8
0
 62
     0
100
AcDbLine
 10
562.6011063844166
 20
253.2418896153022
 30
0.0
 11
576.3215001399522
 21
266.9622833708378
 31
0.0
  0
LINE
  5
C0B
330
BFB
100
AcDbEntity
  8
0
 62
     0
100
AcDbLine
 10
486.460053877036
 20
185.9396718727533
 30
0.0
 11
503.5693156116773
 21
203.0489336073947
 31
0.0
  0
LINE
  5
C0C
330
BFB
100
AcDbEntity
  8
0
 62
     0
100
AcDbLine
 10
553.7622716195848
 20
253.2418896153022
 30
0.0
 11
567.4826653751203
 21
266.9622833708378
 31
0.0
  0
LINE
  5
C0D
330
BFB
100
AcDbEntity
  8
0
 62
     0
100
AcDbLine
 10
486.4600538770359
 20
194.7785066375852
 30
0.0
 11
503.5693156116773
 21
211.8877683722266
 31
0.0
  0
LINE
  5
C0E
330
BFB
100
AcDbEntity
  8
0
 62
     0
100
AcDbLine
 10
544.9234368547529
 20
253.2418896153022
 30
0.0
 11
558.6438306102885
 21
266.9622833708378
 31
0.0
  0
LINE
  5
C0F
330
BFB
100
AcDbEntity
  8
0
 62
     0
100
AcDbLine
 10
486.4600538770359
 20
203.617341402417
 30
0.0
 11
503.5693156116773
 21
220.7266031370584
 31
0.0
  0
LINE
  5
C10
330
BFB
100
AcDbEntity
  8
0
 62
     0
100
AcDbLine
 10
536.084602089921
 20
253.2418896153022
 30
0.0
 11
549.8049958454567
 21
266.9622833708378
 31
0.0
  0
LINE
  5
C11
330
BFB
100
AcDbEntity
  8
0
 62
     0
100
AcDbLine
 10
486.4600538770359
 20
212.4561761672488
 30
0.0
 11
503.5693156116773
 21
229.5654379018902
 31
0.0
  0
LINE
  5
C12
330
BFB
100
AcDbEntity
  8
0
 62
     0
100
AcDbLine
 10
527.2457673250892
 20
253.2418896153022
 30
0.0
 11
540.9661610806248
 21
266.9622833708378
 31
0.0
  0
LINE
  5
C13
330
BFB
100
AcDbEntity
  8
0
 62
     0
100
AcDbLine
 10
486.4600538770359
 20
221.2950109320807
 30
0.0
 11
503.5693156116773
 21
238.4042726667221
 31
0.0
  0
LINE
  5
C14
330
BFB
100
AcDbEntity
  8
0
 62
     0
100
AcDbLine
 10
518.4069325602573
 20
253.2418896153022
 30
0.0
 11
532.1273263157929
 21
266.9622833708378
 31
0.0
  0
LINE
  5
C15
330
BFB
100
AcDbEntity
  8
0
 62
     0
100
AcDbLine
 10
486.4600538770359
 20
230.1338456969125
 30
0.0
 11
503.5693156116773
 21
247.2431074315539
 31
0.0
  0
LINE
  5
C16
330
BFB
100
AcDbEntity
  8
0
 62
     0
100
AcDbLine
 10
509.5680977954256
 20
253.2418896153021
 30
0.0
 11
523.2884915509611
 21
266.9622833708377
 31
0.0
  0
LINE
  5
C17
330
BFB
100
AcDbEntity
  8
0
 62
     0
100
AcDbLine
 10
486.4600538770359
 20
238.9726804617443
 30
0.0
 11
514.4496567861292
 21
266.9622833708377
 31
0.0
  0
LINE
  5
C18
330
BFB
100
AcDbEntity
  8
0
 62
     0
100
AcDbLine
 10
486.4600538770359
 20
247.8115152265762
 30
0.0
 11
505.6108220212975
 21
266.9622833708377
 31
0.0
  0
LINE
  5
C19
330
BFB
100
AcDbEntity
  8
0
 62
     0
100
AcDbLine
 10
486.4600538770359
 20
256.6503499914079
 30
0.0
 11
496.7719872564656
 21
266.9622833708377
 31
0.0
  0
LINE
  5
C1A
330
BFB
100
AcDbEntity
  8
0
 62
     0
100
AcDbLine
 10
486.4600538770358
 20
265.4891847562398
 30
0.0
 11
487.9331524916337
 21
266.9622833708377
 31
0.0
  0
LINE
  5
C1B
330
BFB
100
AcDbEntity
  8
0
 62
     0
100
AcDbLine
 10
494.0552738068973
 20
122.8242136839599
 30
0.0
 11
503.5693156116774
 21
132.3382554887401
 31
0.0
  0
LINE
  5
C1C
330
BFB
100
AcDbEntity
  8
0
 62
     0
100
AcDbLine
 10
624.4729497382395
 20
253.2418896153022
 30
0.0
 11
629.496054025455
 21
258.2649939025177
 31
0.0
  0
LINE
  5
C1D
330
BFB
100
AcDbEntity
  8
0
 62
     0
100
AcDbLine
 10
502.8941085717291
 20
122.8242136839599
 30
0.0
 11
503.5693156116775
 21
123.4994207239083
 31
0.0
  0
ENDBLK
  5
C1E
330
BFB
100
AcDbEntity
  8
0
100
AcDbBlockEnd
  0
BLOCK
  5
C24
330
C1F
100
AcDbEntity
  8
0
100
AcDbBlockBegin
  2
A$C6C65579B
 70
     0
 10
0.0
 20
0.0
 30
0.0
  3
A$C6C65579B
  1

  0
LINE
  5
C20
330
C1F
100
AcDbEntity
  8
CORTE
  6
RAYITAX4
 62
     4
100
AcDbLine
 10
-265.2537935691752
 20
-42.42682209115611
 30
0.0
 11
-265.2537935691752
 21
-42.55723976708748
 31
0.0
  0
LINE
  5
C21
330
C1F
100
AcDbEntity
  8
CORTE
  6
RAYITAX4
 62
     4
100
AcDbLine
 10
-265.2537935691752
 20
-42.42682209115611
 30
0.0
 11
-265.1278668307615
 21
-42.42682209115611
 31
0.0
  0
INSERT
  5
C22
330
C1F
100
AcDbEntity
  8
TRAMA
100
AcDbBlockReference
  2
*X10
 10
-265.7573628847869
 20
-42.68006398077142
 30
0.0
 41
0.0009999999999764
 42
0.0010000000000048
 43
0.001
1001
ACAD
1000
HATCH
1002
{
1070
    16
1000
ANSI31
1040
50.0
1040
0.0
1002
}
  0
LWPOLYLINE
  5
C23
330
C1F
100
AcDbEntity
  8
CORTE
  6
Continuous
 62
     1
100
AcDbPolyline
 90
       27
 70
     0
 43
0.0
 10
-265.2434935691752
 20
-42.52048009449487
 42
-0.1309515943895288
 10
-265.2396188804983
 20
-42.50227169263183
 42
-0.0391865213385924
 10
-265.2318861974755
 20
-42.48961463308666
 42
0.148047983309989
 10
-265.2273603786659
 20
-42.46536751056521
 42
-0.477131438324366
 10
-265.226266012113
 20
-42.46426334617865
 42
0.3174254686240992
 10
-265.2222487718652
 20
-42.46199398787246
 10
-265.2204935691752
 20
-42.45828353660647
 42
0.3390955557305459
 10
-265.2133594019252
 20
-42.45748275993213
 42
0.1067380655143518
 10
-265.2064935691752
 20
-42.44728353660645
 10
-265.2014935691752
 20
-42.44428353660646
 42
0.6316956553984646
 10
-265.1944935691752
 20
-42.44228353660645
 42
-0.4142135623730849
 10
-265.1884935691752
 20
-42.43628353660648
 10
-265.1804935691752
 20
-42.43628353660648
 42
0.4142135623730847
 10
-265.1784935691752
 20
-42.43428353660647
 10
-265.1784935691752
 20
-42.42728353660647
 10
-265.1984935691753
 20
-42.42728353660647
 10
-265.2184935691752
 20
-42.43928353660646
 10
-265.2222940706685
 20
-42.43961583728498
 42
0.2192482621402799
 10
-265.2266538493824
 20
-42.4421056036295
 10
-265.2379730166141
 20
-42.45795243775387
 42
0.1840335527349514
 10
-265.239055826335
 20
-42.46208505147598
 10
-265.2384935691752
 20
-42.46728353660649
 10
-265.2534935691752
 20
-42.5122835366065
 10
-265.2534935691752
 20
-42.53228353660648
 10
-265.2454935691752
 20
-42.53228353660648
 42
0.4142135623730847
 10
-265.2434935691752
 20
-42.53028353660647
 10
-265.2434935691752
 20
-42.51681234902133
  0
ENDBLK
  5
C25
330
C1F
100
AcDbEntity
  8
0
100
AcDbBlockEnd
  0
BLOCK
  5
FEC
330
FEB
100
AcDbEntity
  8
0
100
AcDbBlockBegin
  2
Z4
 70
     0
 10
0.0
 20
0.0
 30
0.0
  3
Z4
  1

  0
LINE
  5
10C1
330
FEB
100
AcDbEntity
  8
Vista
100
AcDbLine
 10
-0.0000013798916711
 20
0.0115999999867427
 30
0.0
 11
0.0210150918188106
 21
0.011600211399184
 31
0.0
1001
AcDbBlockRepETag
1070
     1
1071
        0
1005
10C1
  0
LINE
  5
10C2
330
FEB
100
AcDbEntity
  8
Vista
100
AcDbLine
 10
-0.0000012632029893
 20
-0.0000000000126761
 30
0.0
 11
0.0210152085074924
 21
0.0000002113997652
 31
0.0
1001
AcDbBlockRepETag
1070
     1
1071
        1
1005
10C2
  0
ARC
  5
10C3
330
FEB
100
AcDbEntity
  8
Vista
100
AcDbCircle
 10
0.0128448849221172
 20
0.0132154841897716
 30
0.0
 40
0.0140847949245492
100
AcDbArc
 50
210.8168847834205
 51
229.3422399532511
1001
AcDbBlockRepETag
1070
     1
1071
        2
1005
10C3
  0
ARC
  5
10C4
330
FEB
100
AcDbEntity
  8
Vista
100
AcDbCircle
 10
0.0104987367970466
 20
0.0104837643425242
 30
0.0
 40
0.0094838638854241
100
AcDbArc
 50
173.2406441673128
 51
270.0000000001934
1001
AcDbBlockRepETag
1070
     1
1071
        3
1005
10C4
  0
ARC
  5
10C5
330
FEB
100
AcDbEntity
  8
Vista
100
AcDbCircle
 10
0.0110245753859886
 20
0.0096688012202151
 30
0.0
 40
0.008684834291003
100
AcDbArc
 50
167.1518779515916
 51
266.5288030567311
1001
AcDbBlockRepETag
1070
     1
1071
        4
1005
10C5
  0
LINE
  5
10C6
330
FEB
100
AcDbEntity
  8
Vista
100
AcDbLine
 10
0.0021417852681793
 20
0.0059999004570841
 30
0.0
 11
0.0035422438405703
 21
0.0052595993301168
 31
0.0
1001
AcDbBlockRepETag
1070
     1
1071
        5
1005
10C6
  0
LWPOLYLINE
  5
10C7
330
FEB
100
AcDbEntity
  8
Vista
100
AcDbPolyline
 90
        6
 70
     0
 43
0.0
 10
-0.0000012632029893
 20
-0.0000000000126477
 42
0.1674163687838473
 10
0.0003641139388151
 20
0.0001254370196193
 42
-0.1204418495943024
 10
0.0035585668839531
 20
0.002205555161737
 42
1.087992653208241
 10
0.0035360325489933
 20
0.00256297800928
 42
0.0381093343277957
 10
0.000498736796942
 20
0.0022098778801194
 10
0.0011181350445213
 20
0.0116000112483619
1001
AcDbBlockRepETag
1070
     1
1071
        6
1005
10C7
  0
LINE
  5
10C8
330
FEB
100
AcDbEntity
  8
Vista
100
AcDbLine
 10
0.0007487367969929
 20
0.0022568144178194
 30
0.0
 11
0.0007487367969929
 21
0.0059999004570841
 31
0.0
1001
AcDbBlockRepETag
1070
     1
1071
        7
1005
10C8
  0
ARC
  5
10C9
330
FEB
100
AcDbEntity
  8
Vista
100
AcDbCircle
 10
0.0099728982081047
 20
0.0096688012202151
 30
0.0
 40
0.008684834291003
100
AcDbArc
 50
273.4711969436545
 51
12.84920570272593
1001
AcDbBlockRepETag
1070
     1
1071
        8
1005
10C9
  0
ARC
  5
10CA
330
FEB
100
AcDbEntity
  8
Vista
100
AcDbCircle
 10
0.0104987367970466
 20
0.0104837643425242
 30
0.0
 40
0.0094838638854241
100
AcDbArc
 50
270.0000000001923
 51
6.760508551422351
1001
AcDbBlockRepETag
1070
     1
1071
        9
1005
10CA
  0
ARC
  5
10CB
330
FEB
100
AcDbEntity
  8
Vista
100
AcDbCircle
 10
0.0104987367970466
 20
0.0104837643425242
 30
0.0
 40
0.0104838638854241
100
AcDbArc
 50
270.0000000001923
 51
310.6577600471345
1001
AcDbBlockRepETag
1070
     1
1071
       10
1005
10CB
  0
ARC
  5
10CC
330
FEB
100
AcDbEntity
  8
Vista
100
AcDbCircle
 10
0.0104987367970466
 20
0.0104837643425242
 30
0.0
 40
0.0104838638854241
100
AcDbArc
 50
229.3422399532511
 51
270.0000000001934
1001
AcDbBlockRepETag
1070
     1
1071
       11
1005
10CC
  0
LINE
  5
10CD
330
FEB
100
AcDbEntity
  8
Vista
100
AcDbLine
 10
0.0202487367969866
 20
0.0059999004571409
 30
0.0
 11
0.0204987367969807
 21
0.0022098778801762
 31
0.0
1001
AcDbBlockRepETag
1070
     1
1071
       12
1005
10CD
  0
LINE
  5
10CE
330
FEB
100
AcDbEntity
  8
Vista
100
AcDbLine
 10
0.0202487367969866
 20
0.0022568144178763
 30
0.0
 11
0.0202487367969866
 21
0.0116002036901364
 31
0.0
1001
AcDbBlockRepETag
1070
     1
1071
       13
1005
10CE
  0
ARC
  5
10CF
330
FEB
100
AcDbEntity
  8
Vista
100
AcDbCircle
 10
0.008152588671976
 20
0.0132154841897716
 30
0.0
 40
0.0140847949245492
100
AcDbArc
 50
310.6577600471345
 51
329.1831152169651
1001
AcDbBlockRepETag
1070
     1
1071
       14
1005
10CF
  0
ARC
  5
10D0
330
FEB
100
AcDbEntity
  8
Vista
100
AcDbCircle
 10
0.017435084485669
 20
0.0023852179221251
 30
0.0
 40
0.0001797034135256
100
AcDbArc
 50
81.56617699754743
 51
271.2187516830706
1001
AcDbBlockRepETag
1070
     1
1071
       15
1005
10D0
  0
ARC
  5
10D1
330
FEB
100
AcDbEntity
  8
Vista
100
AcDbCircle
 10
0.0147810850871792
 20
-0.0053690130053781
 30
0.0
 40
0.0080273344703467
100
AcDbArc
 50
43.23100722392323
 51
70.66466339396645
1001
AcDbBlockRepETag
1070
     1
1071
       16
1005
10D1
  0
ARC
  5
10D2
330
FEB
100
AcDbEntity
  8
Vista
100
AcDbCircle
 10
0.0166670905408637
 20
-0.0175095153721543
 30
0.0
 40
0.0200882050784421
100
AcDbArc
 50
79.00396312718872
 51
87.73375467656311
1001
AcDbBlockRepETag
1070
     1
1071
       17
1005
10D2
  0
ARC
  5
10D3
330
FEB
100
AcDbEntity
  8
Vista
100
AcDbCircle
 10
0.0209993624462754
 20
0.0005930374113916
 30
0.0
 40
0.0005930377539629
100
AcDbArc
 50
231.4503103357746
 51
271.531134397806
1001
AcDbBlockRepETag
1070
     1
1071
       18
1005
10D3
  0
LINE
  5
10D4
330
FEB
100
AcDbEntity
  8
Vista
100
AcDbLine
 10
0.0188556883257434
 20
0.0059999004571409
 30
0.0
 11
0.0174552297534092
 21
0.0052595993301736
 31
0.0
1001
AcDbBlockRepETag
1070
     1
1071
       19
1005
10D4
  0
ENDBLK
  5
1001
330
FEB
100
AcDbEntity
  8
0
100
AcDbBlockEnd
  0
BLOCK
  5
16AD
330
16AC
100
AcDbEntity
  8
0
100
AcDbBlockBegin
  2
DECORATION
 70
     0
 10
0.0
 20
0.0
 30
0.0
  3
DECORATION
  1

  0
ARC
  5
1F9A
330
16AC
100
AcDbEntity
  8
Vista
100
AcDbCircle
 10
0.0433735665140489
 20
-0.0099442395563472
 30
0.0
 40
0.0035
100
AcDbArc
 50
244.6172435010901
 51
294.895849298138
1001
AcDbBlockRepETag
1070
     1
1071
        0
1005
1F9A
  0
ARC
  5
1F9B
330
16AC
100
AcDbEntity
  8
Vista
100
AcDbCircle
 10
0.0433735665140489
 20
-0.0099442395563472
 30
0.0
 40
0.005
100
AcDbArc
 50
240.5294308680247
 51
294.895849298138
1001
AcDbBlockRepETag
1070
     1
1071
        1
1005
1F9B
  0
ARC
  5
1F9C
330
16AC
100
AcDbEntity
  8
Vista
100
AcDbCircle
 10
0.0388014544862472
 20
-0.0056745126413205
 30
0.0
 40
0.0037590081319851
100
AcDbArc
 50
327.6997794105542
 51
62.31429823201191
1001
AcDbBlockRepETag
1070
     1
1071
        2
1005
1F9C
  0
ARC
  5
1F9D
330
16AC
100
AcDbEntity
  8
Vista
100
AcDbCircle
 10
0.0344042606888024
 20
-0.0047190983325436
 30
0.0
 40
0.0096108338800607
100
AcDbArc
 50
323.0007044144098
 51
336.9329989265331
1001
AcDbBlockRepETag
1070
     1
1071
        3
1005
1F9D
  0
ARC
  5
1F9E
330
16AC
100
AcDbEntity
  8
Vista
100
AcDbCircle
 10
0.0388014544862472
 20
-0.0056745126413205
 30
0.0
 40
0.0052590081319851
100
AcDbArc
 50
327.6997794105542
 51
88.47730551524376
1001
AcDbBlockRepETag
1070
     1
1071
        4
1005
1F9E
  0
ARC
  5
1F9F
330
16AC
100
AcDbEntity
  8
Vista
100
AcDbCircle
 10
0.0059507588609335
 20
-0.0092393282732814
 30
0.0
 40
0.0049031969355988
100
AcDbArc
 50
97.08690198478345
 51
167.549454791124
1001
AcDbBlockRepETag
1070
     1
1071
        5
1005
1F9F
  0
ARC
  5
1FA0
330
16AC
100
AcDbEntity
  8
Vista
100
AcDbCircle
 10
0.0264580345299237
 20
-0.0092393282732814
 30
0.0
 40
0.0049031969355988
100
AcDbArc
 50
12.45054520887597
 51
82.91309801521656
1001
AcDbBlockRepETag
1070
     1
1071
        6
1005
1FA0
  0
CIRCLE
  5
1FA1
330
16AC
100
AcDbEntity
  8
Vista
100
AcDbCircle
 10
0.0158669069926987
 20
-0.0054468103765828
 30
0.0
 40
0.0010233425612742
1001
AcDbBlockRepETag
1070
     1
1071
        7
1005
1FA1
  0
LINE
  5
1FA2
330
16AC
100
AcDbEntity
  8
Vista
100
AcDbLine
 10
0.0188050654048198
 20
-0.0070428291979852
 30
0.0
 11
0.0189441649680475
 21
-0.0058398179287451
 31
0.0
1001
AcDbBlockRepETag
1070
     1
1071
        8
1005
1FA2
  0
ARC
  5
1FA3
330
16AC
100
AcDbEntity
  8
Vista
100
AcDbCircle
 10
0.0181900410383946
 20
-0.0062784235744289
 30
0.0
 40
0.0008723977382222
100
AcDbArc
 50
30.18268963595973
 51
193.2095851457033
1001
AcDbBlockRepETag
1070
     1
1071
        9
1005
1FA3
  0
LINE
  5
1FA4
330
16AC
100
AcDbEntity
  8
Vista
100
AcDbLine
 10
0.018829959562197
 20
-0.0070410050292082
 30
0.0
 11
0.0191450065135541
 21
-0.0058539260663792
 31
0.0
1001
AcDbBlockRepETag
1070
     1
1071
       10
1005
1FA4
  0
ARC
  5
1FA5
330
16AC
100
AcDbEntity
  8
Vista
100
AcDbCircle
 10
0.0198304074768885
 20
-0.0063936513049043
 30
0.0
 40
0.0008723977382222
100
AcDbArc
 50
338.7541182073824
 51
141.781013717126
1001
AcDbBlockRepETag
1070
     1
1071
       11
1005
1FA5
  0
ARC
  5
1FA6
330
16AC
100
AcDbEntity
  8
Vista
100
AcDbCircle
 10
0.0237027954967175
 20
-0.0130411030807238
 30
0.0
 40
0.0077960477156883
100
AcDbArc
 50
54.02591827168426
 51
81.759546732388
1001
AcDbBlockRepETag
1070
     1
1071
       12
1005
1FA6
  0
ARC
  5
1FA7
330
16AC
100
AcDbEntity
  8
Vista
100
AcDbCircle
 10
0.0214769679365645
 20
-0.0053698751424633
 30
0.0
 40
0.0011846099299774
100
AcDbArc
 50
183.4065059120292
 51
351.9613095264101
1001
AcDbBlockRepETag
1070
     1
1071
       13
1005
1FA7
  0
ARC
  5
1FA8
330
16AC
100
AcDbEntity
  8
Vista
100
AcDbCircle
 10
0.026870795178354
 20
-0.0086765750827738
 30
0.0
 40
0.0039029663489966
100
AcDbArc
 50
305.9740817283154
 51
54.02591827168446
1001
AcDbBlockRepETag
1070
     1
1071
       14
1005
1FA8
  0
ARC
  5
1FA9
330
16AC
100
AcDbEntity
  8
Vista
100
AcDbCircle
 10
0.0109318254542927
 20
-0.0053698751424633
 30
0.0
 40
0.0011846099299774
100
AcDbArc
 50
188.0386904735899
 51
356.5934940879708
1001
AcDbBlockRepETag
1070
     1
1071
       15
1005
1FA9
  0
ARC
  5
1FAA
330
16AC
100
AcDbEntity
  8
Vista
100
AcDbCircle
 10
0.0055379982124464
 20
-0.0086765750827738
 30
0.0
 40
0.0039029663489966
100
AcDbArc
 50
125.9740817283156
 51
234.0259182716846
1001
AcDbBlockRepETag
1070
     1
1071
       16
1005
1FAA
  0
ARC
  5
1FAB
330
16AC
100
AcDbEntity
  8
Vista
100
AcDbCircle
 10
0.0087059978941397
 20
-0.0130411030807238
 30
0.0
 40
0.0077960477156883
100
AcDbArc
 50
98.24045326761201
 51
125.9740817283158
1001
AcDbBlockRepETag
1070
     1
1071
       17
1005
1FAB
  0
LWPOLYLINE
  5
1FAC
330
16AC
100
AcDbEntity
  8
Vista
100
AcDbPolyline
 90
        4
 70
     0
 43
0.0
 10
0.0041264495798714
 20
-0.0067318957435987
 42
0.5098103818063957
 10
0.0041264495798714
 20
-0.0106212544219488
 42
0.1629940365643776
 10
0.014567545576881
 20
-0.0139051384991831
 10
0.0162043966954002
 20
-0.0139051384991831
1001
AcDbBlockRepETag
1070
     1
1071
       18
1005
1FAC
  0
ARC
  5
1FAD
330
16AC
100
AcDbEntity
  8
Vista
100
AcDbCircle
 10
0.0127209829925619
 20
-0.0206974751677649
 30
0.0
 40
0.005
100
AcDbArc
 50
68.28022692104936
 51
107.3966114015224
1001
AcDbBlockRepETag
1070
     1
1071
       19
1005
1FAD
  0
LWPOLYLINE
  5
1FAE
330
16AC
100
AcDbEntity
  8
Vista
100
AcDbPolyline
 90
       12
 70
     0
 43
0.0
 10
0.0152182599001094
 20
-0.0103078614936578
 42
0.0786540805911718
 10
0.0149147067520517
 20
-0.0104146155962894
 42
0.0715879571169894
 10
0.0145420907244329
 20
-0.0106909394991703
 42
0.057934353111564
 10
0.0141849473265552
 20
-0.0111380148158844
 42
0.057934353111579
 10
0.0139398962546125
 20
-0.0116551006091186
 42
0.0715879571169773
 10
0.0138550727924667
 20
-0.0121111736116575
 42
0.1064583200113559
 10
0.013928878330205
 20
-0.012538151557095
 42
0.1586149772374113
 10
0.0141183191780101
 20
-0.0127640287593636
 42
0.1586149772374092
 10
0.0144044114328494
 20
-0.012835159392921
 42
0.1064583200113737
 10
0.0148204803206795
 20
-0.0127141465677596
 42
0.071587957116986
 10
0.0151930963483551
 20
-0.0124378226648503
 42
0.0579343531115939
 10
0.015550239746176
 20
-0.0119907473481362
 42
0.0579343531115934
1001
AcDbBlockRepETag
1070
     1
1071
       20
1005
1FAE
  0
ARC
  5
1FAF
330
16AC
100
AcDbEntity
  8
Vista
100
AcDbCircle
 10
0.0142783866641025
 20
-0.0098471607916224
 30
0.0
 40
0.0006542983036666
100
AcDbArc
 50
190.20743392583
 51
353.2343294355737
1001
AcDbBlockRepETag
1070
     1
1071
       21
1005
1FAF
  0
LINE
  5
1FB0
330
16AC
100
AcDbEntity
  8
Vista
100
AcDbLine
 10
0.0145558397387617
 20
-0.0068079152893858
 30
0.0
 11
0.0142424211670118
 21
-0.0074535015304207
 31
0.0
1001
AcDbBlockRepETag
1070
     1
1071
       22
1005
1FB0
  0
CIRCLE
  5
1FB1
330
16AC
100
AcDbEntity
  8
Vista
100
AcDbCircle
 10
0.0142357060460086
 20
-0.0084265611489514
 30
0.0
 40
0.00075
1001
AcDbBlockRepETag
1070
     1
1071
       23
1005
1FB1
  0
ARC
  5
1FB2
330
16AC
100
AcDbEntity
  8
Vista
100
AcDbCircle
 10
0.0142500004927229
 20
0.0033258812591157
 30
0.0
 40
0.0187339454795455
100
AcDbArc
 50
234.0259182716845
 51
271.055766526863
1001
AcDbBlockRepETag
1070
     1
1071
       24
1005
1FB2
  0
ARC
  5
1FB3
330
16AC
100
AcDbEntity
  8
Vista
100
AcDbCircle
 10
-0.0020413364483716
 20
-0.0076568886865971
 30
0.0
 40
0.0059241408268026
100
AcDbArc
 50
290.156118335178
 51
299.0229151120938
1001
AcDbBlockRepETag
1070
     1
1071
       25
1005
1FB3
  0
ARC
  5
1FB4
330
16AC
100
AcDbEntity
  8
Vista
100
AcDbCircle
 10
-0.0020413364483716
 20
-0.0076568886865971
 30
0.0
 40
0.0074241408268026
100
AcDbArc
 50
285.9595877900921
 51
308.3890853109732
1001
AcDbBlockRepETag
1070
     1
1071
       26
1005
1FB4
  0
ARC
  5
1FB5
330
16AC
100
AcDbEntity
  8
Vista
100
AcDbCircle
 10
0.0107884066585484
 20
-0.0146352041358569
 30
0.0
 40
0.0001
100
AcDbArc
 50
172.5
 51
352.5000000000001
1001
AcDbBlockRepETag
1070
     1
1071
       27
1005
1FB5
  0
LINE
  5
1FB6
330
16AC
100
AcDbEntity
  8
Vista
100
AcDbLine
 10
0.0119964728772857
 20
-0.0148480015140251
 30
0.0
 11
0.0120430815496207
 21
-0.0141368905909474
 31
0.0
1001
AcDbBlockRepETag
1070
     1
1071
       28
1005
1FB6
  0
LINE
  5
1FB7
330
16AC
100
AcDbEntity
  8
Vista
100
AcDbLine
 10
0.0121960446619482
 20
-0.0148610821398734
 30
0.0
 11
0.0122426533342832
 21
-0.0141499712167956
 31
0.0
1001
AcDbBlockRepETag
1070
     1
1071
       29
1005
1FB7
  0
LINE
  5
1FB8
330
16AC
100
AcDbEntity
  8
Vista
100
AcDbLine
 10
0.0135137245073338
 20
-0.0149511464848615
 30
0.0
 11
0.0135603331796688
 21
-0.0142400355617838
 31
0.0
1001
AcDbBlockRepETag
1070
     1
1071
       30
1005
1FB8
  0
LINE
  5
1FB9
330
16AC
100
AcDbEntity
  8
Vista
100
AcDbLine
 10
0.0137132962919964
 20
-0.0149642271107098
 30
0.0
 11
0.0137599049643313
 21
-0.014253116187632
 31
0.0
1001
AcDbBlockRepETag
1070
     1
1071
       31
1005
1FB9
  0
ARC
  5
1FBA
330
16AC
100
AcDbEntity
  8
Vista
100
AcDbCircle
 10
0.0072783992325185
 20
-0.0131751881212097
 30
0.0
 40
0.0016911251124407
100
AcDbArc
 50
224.6907611107846
 51
268.7756699695239
1001
AcDbBlockRepETag
1070
     1
1071
       32
1005
1FBA
  0
ARC
  5
1FBB
330
16AC
100
AcDbEntity
  8
Vista
100
AcDbCircle
 10
0.0071354302032205
 20
-0.019864785652203
 30
0.0
 40
0.005
100
AcDbArc
 50
66.84104105028104
 51
88.77566996952401
1001
AcDbBlockRepETag
1070
     1
1071
       33
1005
1FBB
  0
ARC
  5
1FBC
330
16AC
100
AcDbEntity
  8
Vista
100
AcDbCircle
 10
0.0108367728656163
 20
-0.0146837069684409
 30
0.0
 40
0.0013020358423068
100
AcDbArc
 50
239.9019483898614
 51
287.396611401523
1001
AcDbBlockRepETag
1070
     1
1071
       34
1005
1FBC
  0
ARC
  5
1FBD
330
16AC
100
AcDbEntity
  8
Vista
100
AcDbCircle
 10
0.0051690130501925
 20
-0.024461872075193
 30
0.0
 40
0.01
100
AcDbArc
 50
59.90194838986114
 51
66.84104105028104
1001
AcDbBlockRepETag
1070
     1
1071
       35
1005
1FBD
  0
ARC
  5
1FBE
330
16AC
100
AcDbEntity
  8
Vista
100
AcDbCircle
 10
0.0120962587695885
 20
-0.0148545418269635
 30
0.0
 40
0.0001
100
AcDbArc
 50
176.25
 51
356.25
1001
AcDbBlockRepETag
1070
     1
1071
       36
1005
1FBE
  0
ARC
  5
1FBF
330
16AC
100
AcDbEntity
  8
Vista
100
AcDbCircle
 10
0.0136135103996367
 20
-0.0149576867977999
 30
0.0
 40
0.0001
100
AcDbArc
 50
176.25
 51
356.25
1001
AcDbBlockRepETag
1070
     1
1071
       37
1005
1FBF
  0
ARC
  5
1FC0
330
16AC
100
AcDbEntity
  8
Vista
100
AcDbCircle
 10
0.0071942187613558
 20
-0.0127693810362075
 30
0.0
 40
0.0001
100
AcDbArc
 50
341.25
 51
161.25
1001
AcDbBlockRepETag
1070
     1
1071
       38
1005
1FC0
  0
LINE
  5
1FC1
330
16AC
100
AcDbEntity
  8
Vista
100
AcDbLine
 10
0.0028368506467018
 20
-0.010809657885801
 30
0.0
 11
0.0032327704025192
 21
-0.0102171220976573
 31
0.0
1001
AcDbBlockRepETag
1070
     1
1071
       39
1005
1FC1
  0
LINE
  5
1FC2
330
16AC
100
AcDbEntity
  8
Vista
100
AcDbLine
 10
0.0030031445691634
 20
-0.0109207719324047
 30
0.0
 11
0.0033990643249808
 21
-0.0103282361442609
 31
0.0
1001
AcDbBlockRepETag
1070
     1
1071
       40
1005
1FC2
  0
ARC
  5
1FC3
330
16AC
100
AcDbEntity
  8
Vista
100
AcDbCircle
 10
0.0055379982124464
 20
-0.0086765750827738
 30
0.0
 40
0.0044029663489966
100
AcDbArc
 50
173.5532941345403
 51
234.0259182716846
1001
AcDbBlockRepETag
1070
     1
1071
       41
1005
1FC3
  0
LINE
  5
1FC4
330
16AC
100
AcDbEntity
  8
Vista
100
AcDbLine
 10
0.0036320499397107
 20
-0.0115587275743394
 30
0.0
 11
0.0039883683062385
 21
-0.0109415660598415
 31
0.0
1001
AcDbBlockRepETag
1070
     1
1071
       42
1005
1FC4
  0
ARC
  5
1FC5
330
16AC
100
AcDbEntity
  8
Vista
100
AcDbCircle
 10
0.0037186524800745
 20
-0.0116087275743269
 30
0.0
 40
0.0001
100
AcDbArc
 50
150.0
 51
330.0000000000001
1001
AcDbBlockRepETag
1070
     1
1071
       43
1005
1FC5
  0
ARC
  5
1FC6
330
16AC
100
AcDbEntity
  8
Vista
100
AcDbCircle
 10
0.0142500004927229
 20
0.0033258812591157
 30
0.0
 40
0.0192339454795455
100
AcDbArc
 50
234.0259182716845
 51
241.0552430563539
1001
AcDbBlockRepETag
1070
     1
1071
       44
1005
1FC6
  0
ARC
  5
1FC7
330
16AC
100
AcDbEntity
  8
Vista
100
AcDbCircle
 10
0.0018573733522089
 20
-0.0127314296358065
 30
0.0
 40
0.001029993202322
100
AcDbArc
 50
313.705091004797
 51
185.8890763039734
1001
AcDbBlockRepETag
1070
     1
1071
       45
1005
1FC7
  0
ARC
  5
1FC8
330
16AC
100
AcDbEntity
  8
Vista
100
AcDbCircle
 10
0.0029199976079326
 20
-0.0108652149091029
 30
0.0
 40
0.0001
100
AcDbArc
 50
146.25
 51
326.25
1001
AcDbBlockRepETag
1070
     1
1071
       46
1005
1FC8
  0
LINE
  5
1FC9
330
16AC
100
AcDbEntity
  8
Vista
100
AcDbLine
 10
0.0038052550204384
 20
-0.0116587275743427
 30
0.0
 11
0.0041615733869662
 21
-0.0110415660598449
 31
0.0
1001
AcDbBlockRepETag
1070
     1
1071
       47
1005
1FC9
  0
ARC
  5
1FCA
330
16AC
100
AcDbEntity
  8
Vista
100
AcDbCircle
 10
0.0040749708466024
 20
-0.0109915660598574
 30
0.0
 40
0.0001
100
AcDbArc
 50
330.0000000000001
 51
150.0
1001
AcDbBlockRepETag
1070
     1
1071
       48
1005
1FCA
  0
LINE
  5
1FCB
330
16AC
100
AcDbEntity
  8
Vista
100
AcDbLine
 10
0.0045980641307892
 20
-0.0122440590827182
 30
0.0
 11
0.0049132552980495
 21
-0.0116049146222395
 31
0.0
1001
AcDbBlockRepETag
1070
     1
1071
       49
1005
1FCB
  0
LINE
  5
1FCC
330
16AC
100
AcDbEntity
  8
Vista
100
AcDbLine
 10
0.0047774386790707
 20
-0.0123325168207487
 30
0.0
 11
0.005092629846331
 21
-0.0116933723602699
 31
0.0
1001
AcDbBlockRepETag
1070
     1
1071
       50
1005
1FCC
  0
ARC
  5
1FCD
330
16AC
100
AcDbEntity
  8
Vista
100
AcDbCircle
 10
0.0050029425722187
 20
-0.0116491434912689
 30
0.0
 40
0.0001
100
AcDbArc
 50
333.7500000000186
 51
153.7500000000186
1001
AcDbBlockRepETag
1070
     1
1071
       51
1005
1FCD
  0
ARC
  5
1FCE
330
16AC
100
AcDbEntity
  8
Vista
100
AcDbCircle
 10
0.0046877514049584
 20
-0.0122882879517476
 30
0.0
 40
0.0001
100
AcDbArc
 50
153.7500000000186
 51
333.7500000000186
1001
AcDbBlockRepETag
1070
     1
1071
       52
1005
1FCE
  0
ARC
  5
1FCF
330
16AC
100
AcDbEntity
  8
Vista
100
AcDbCircle
 10
0.0060337984219245
 20
-0.0122425955676704
 30
0.0
 40
0.0001
100
AcDbArc
 50
337.5000000000006
 51
157.5000000000007
1001
AcDbBlockRepETag
1070
     1
1071
       53
1005
1FCF
  0
ARC
  5
1FD0
330
16AC
100
AcDbEntity
  8
Vista
100
AcDbCircle
 10
0.0057610841508904
 20
-0.0129009860594351
 30
0.0
 40
0.0001
100
AcDbArc
 50
157.5000000000007
 51
337.5000000000006
1001
AcDbBlockRepETag
1070
     1
1071
       54
1005
1FD0
  0
LINE
  5
1FD1
330
16AC
100
AcDbEntity
  8
Vista
100
AcDbLine
 10
0.0068704561779782
 20
-0.0134120542835774
 30
0.0
 11
0.0070995257484014
 21
-0.0127372370896808
 31
0.0
1001
AcDbBlockRepETag
1070
     1
1071
       55
1005
1FD1
  0
LINE
  5
1FD2
330
16AC
100
AcDbEntity
  8
Vista
100
AcDbLine
 10
0.0070598422038302
 20
-0.0134763421766309
 30
0.0
 11
0.0072889117742534
 21
-0.0128015249827343
 31
0.0
1001
AcDbBlockRepETag
1070
     1
1071
       56
1005
1FD2
  0
ARC
  5
1FD3
330
16AC
100
AcDbEntity
  8
Vista
100
AcDbCircle
 10
0.0069651491909326
 20
-0.0134441982301041
 30
0.0
 40
0.0001
100
AcDbArc
 50
161.25
 51
341.25
1001
AcDbBlockRepETag
1070
     1
1071
       57
1005
1FD3
  0
LINE
  5
1FD4
330
16AC
100
AcDbEntity
  8
Vista
100
AcDbLine
 10
0.0056686961976311
 20
-0.0128627177162173
 30
0.0
 11
0.0059414104686653
 21
-0.0122043272244525
 31
0.0
1001
AcDbBlockRepETag
1070
     1
1071
       58
1005
1FD4
  0
LINE
  5
1FD5
330
16AC
100
AcDbEntity
  8
Vista
100
AcDbLine
 10
0.0058534721041497
 20
-0.0129392544026814
 30
0.0
 11
0.0061261863751838
 21
-0.0122808639109167
 31
0.0
1001
AcDbBlockRepETag
1070
     1
1071
       59
1005
1FD5
  0
ARC
  5
1FD6
330
16AC
100
AcDbEntity
  8
Vista
100
AcDbCircle
 10
0.0025215921659196
 20
-0.0178809231117612
 30
0.0
 40
0.005
100
AcDbArc
 50
44.69076111078449
 51
61.05524305635386
1001
AcDbBlockRepETag
1070
     1
1071
       60
1005
1FD6
  0
LINE
  5
1FD7
330
16AC
100
AcDbEntity
  8
Vista
100
AcDbLine
 10
0.0023094267157262
 20
-0.0100000576485115
 30
0.0
 11
0.002743252471646
 21
-0.0094346849159592
 31
0.0
1001
AcDbBlockRepETag
1070
     1
1071
       61
1005
1FD7
  0
LINE
  5
1FD8
330
16AC
100
AcDbEntity
  8
Vista
100
AcDbLine
 10
0.002468097383769
 20
-0.0101218099343328
 30
0.0
 11
0.0029019231397456
 21
-0.009556437201752
 31
0.0
1001
AcDbBlockRepETag
1070
     1
1071
       62
1005
1FD8
  0
ARC
  5
1FD9
330
16AC
100
AcDbEntity
  8
Vista
100
AcDbCircle
 10
0.0028225878056674
 20
-0.0094955610588556
 30
0.0
 40
0.0001
100
AcDbArc
 50
322.5
 51
142.5
1001
AcDbBlockRepETag
1070
     1
1071
       63
1005
1FD9
  0
ARC
  5
1FDA
330
16AC
100
AcDbEntity
  8
Vista
100
AcDbCircle
 10
0.0023887620497476
 20
-0.0100609337914364
 30
0.0
 40
0.0001
100
AcDbArc
 50
142.5
 51
322.5
1001
AcDbBlockRepETag
1070
     1
1071
       64
1005
1FDA
  0
ARC
  5
1FDB
330
16AC
100
AcDbEntity
  8
Vista
100
AcDbCircle
 10
0.00331591736375
 20
-0.0102726791209591
 30
0.0
 40
0.0001
100
AcDbArc
 50
326.25
 51
146.25
1001
AcDbBlockRepETag
1070
     1
1071
       65
1005
1FDB
  0
LWPOLYLINE
  5
1FDC
330
16AC
100
AcDbEntity
  8
Vista
100
AcDbPolyline
 90
        8
 70
     0
 43
0.0
 10
0.0108725664841813
 20
-0.0098293429458352
 42
0.0435072964278075
 10
0.0107851565395549
 20
-0.0099381347361884
 42
0.1071168521333123
 10
0.0107008953550008
 20
-0.010151279902999
 42
0.1481127601937769
 10
0.0107227780197832
 20
-0.0103173159950529
 42
0.1481127601937967
 10
0.0108331074612806
 20
-0.0104433090473322
 42
0.1071168521333301
 10
0.0110488698322229
 20
-0.0105206227500787
 42
0.0761412994951772
 10
0.0112921023651325
 20
-0.0105154326891182
 42
0.0630340111031194
 10
0.0115724118157346
 20
-0.0104289606615566
 42
0.0630340111031149
1001
AcDbBlockRepETag
1070
     1
1071
       66
1005
1FDC
  0
ARC
  5
1FDD
330
16AC
100
AcDbEntity
  8
Vista
100
AcDbCircle
 10
0.0108814244177324
 20
-0.0139286641088745
 30
0.0
 40
0.0001
100
AcDbArc
 50
352.5000000000001
 51
172.5
1001
AcDbBlockRepETag
1070
     1
1071
       67
1005
1FDD
  0
LINE
  5
1FDE
330
16AC
100
AcDbEntity
  8
Vista
100
AcDbLine
 10
0.0080129442884527
 20
-0.0138897164412981
 30
0.0
 11
0.0081973882471971
 21
-0.0132013622160798
 31
0.0
1001
AcDbBlockRepETag
1070
     1
1071
       68
1005
1FDE
  0
LINE
  5
1FDF
330
16AC
100
AcDbEntity
  8
Vista
100
AcDbLine
 10
0.008206129453697
 20
-0.0139414802503097
 30
0.0
 11
0.0083905734124414
 21
-0.0132531260250914
 31
0.0
1001
AcDbBlockRepETag
1070
     1
1071
       69
1005
1FDF
  0
ARC
  5
1FE0
330
16AC
100
AcDbEntity
  8
Vista
100
AcDbCircle
 10
0.0082939808298192
 20
-0.0132272441205998
 30
0.0
 40
0.0001
100
AcDbArc
 50
344.9999999999999
 51
165.0
1001
AcDbBlockRepETag
1070
     1
1071
       70
1005
1FE0
  0
ARC
  5
1FE1
330
16AC
100
AcDbEntity
  8
Vista
100
AcDbCircle
 10
0.0081095368710749
 20
-0.0139155983457897
 30
0.0
 40
0.0001
100
AcDbArc
 50
165.0
 51
344.9999999999999
1001
AcDbBlockRepETag
1070
     1
1071
       71
1005
1FE1
  0
LINE
  5
1FE2
330
16AC
100
AcDbEntity
  8
Vista
100
AcDbLine
 10
0.0092152570446729
 20
-0.0142936587666611
 30
0.0
 11
0.0093542855743749
 21
-0.0135947151486278
 31
0.0
1001
AcDbBlockRepETag
1070
     1
1071
       72
1005
1FE2
  0
LINE
  5
1FE3
330
16AC
100
AcDbEntity
  8
Vista
100
AcDbLine
 10
0.0094114141007253
 20
-0.0143326768310601
 30
0.0
 11
0.0095504426304274
 21
-0.0136337332130268
 31
0.0
1001
AcDbBlockRepETag
1070
     1
1071
       73
1005
1FE3
  0
ARC
  5
1FE4
330
16AC
100
AcDbEntity
  8
Vista
100
AcDbCircle
 10
0.0094523641024011
 20
-0.0136142241808273
 30
0.0
 40
0.0001
100
AcDbArc
 50
348.75
 51
168.75
1001
AcDbBlockRepETag
1070
     1
1071
       74
1005
1FE4
  0
ARC
  5
1FE5
330
16AC
100
AcDbEntity
  8
Vista
100
AcDbCircle
 10
0.0093133355726991
 20
-0.0143131677988606
 30
0.0
 40
0.0001
100
AcDbArc
 50
168.75
 51
348.75
1001
AcDbBlockRepETag
1070
     1
1071
       75
1005
1FE5
  0
LINE
  5
1FE6
330
16AC
100
AcDbEntity
  8
Vista
100
AcDbLine
 10
0.0106892621723773
 20
-0.0146221515166474
 30
0.0
 11
0.0107822799315613
 21
-0.0139156114896366
 31
0.0
1001
AcDbBlockRepETag
1070
     1
1071
       76
1005
1FE6
  0
LINE
  5
1FE7
330
16AC
100
AcDbEntity
  8
Vista
100
AcDbLine
 10
0.0108875511446627
 20
-0.0146482567550947
 30
0.0
 11
0.0109805689038467
 21
-0.013941716728084
 31
0.0
1001
AcDbBlockRepETag
1070
     1
1071
       77
1005
1FE7
  0
ARC
  5
1FE8
330
16AC
100
AcDbEntity
  8
Vista
100
AcDbCircle
 10
0.0121428674419804
 20
-0.0141434309038573
 30
0.0
 40
0.0001
100
AcDbArc
 50
356.25
 51
176.25
1001
AcDbBlockRepETag
1070
     1
1071
       78
1005
1FE8
  0
ARC
  5
1FE9
330
16AC
100
AcDbEntity
  8
Vista
100
AcDbCircle
 10
0.0136601190720285
 20
-0.0142465758746937
 30
0.0
 40
0.0001
100
AcDbArc
 50
356.25
 51
176.25
1001
AcDbBlockRepETag
1070
     1
1071
       79
1005
1FE9
  0
LWPOLYLINE
  5
1FEA
330
16AC
100
AcDbEntity
  8
Vista
100
AcDbPolyline
 90
        2
 70
     0
 43
0.0
 10
0.0105897245803135
 20
-0.0098378933241179
 42
0.0303100213784641
 10
0.0108725664841813
 20
-0.0098293429458352
 42
0.0761412994951577
1001
AcDbBlockRepETag
1070
     1
1071
       80
1005
1FEA
  0
ARC
  5
1FEB
330
16AC
100
AcDbEntity
  8
Vista
100
AcDbCircle
 10
0.011264352447995
 20
-0.0138904806702271
 30
0.0
 40
0.0064113198617166
100
AcDbArc
 50
75.63257277928006
 51
121.026527147017
1001
AcDbBlockRepETag
1070
     1
1071
       81
1005
1FEB
  0
LWPOLYLINE
  5
1FEC
330
16AC
100
AcDbEntity
  8
Vista
100
AcDbPolyline
 90
        7
 70
     0
 43
0.0
 10
0.0079597345887805
 20
-0.0083964363335269
 42
0.1071168521333123
 10
0.0076208623318621
 20
-0.0087051252237131
 42
0.1481127601937769
 10
0.0075140807443859
 20
-0.0090225918079625
 42
0.1481127601937967
 10
0.0076013875885224
 20
-0.0093459567016794
 42
0.1071168521333301
 10
0.0079208898201273
 20
-0.0096746534638044
 42
0.0761412994951772
 10
0.0083623203221919
 20
-0.0098793364357732
 42
0.0166000038740871
 10
0.0105897245803135
 20
-0.0098378933241179
 42
0.0630340111031149
1001
AcDbBlockRepETag
1070
     1
1071
       82
1005
1FEC
  0
LWPOLYLINE
  5
1FED
330
16AC
100
AcDbEntity
  8
Vista
100
AcDbPolyline
 90
        2
 70
     0
 43
0.0
 10
0.0115724118157346
 20
-0.0104289606615566
 42
0.0630340111031704
 10
0.0118223371111981
 20
-0.0102753763318333
 42
0.0761412994952057
1001
AcDbBlockRepETag
1070
     1
1071
       83
1005
1FED
  0
LINE
  5
1FEE
330
16AC
100
AcDbEntity
  8
Vista
100
AcDbLine
 10
0.0118079532093134
 20
-0.0102867505159452
 30
0.0
 11
0.0128161970494603
 21
-0.0095553288470001
 31
0.0
1001
AcDbBlockRepETag
1070
     1
1071
       84
1005
1FEE
  0
LINE
  5
1FEF
330
16AC
100
AcDbEntity
  8
Vista
100
AcDbLine
 10
0.0119761702746928
 20
-0.0074969675133616
 30
0.0
 11
0.0128552522634209
 21
-0.0076796787778619
 31
0.0
1001
AcDbBlockRepETag
1070
     1
1071
       85
1005
1FEF
  0
LINE
  5
1FF0
330
16AC
100
AcDbEntity
  8
Vista
100
AcDbLine
 10
0.0136344441859819
 20
-0.0099631105870799
 30
0.0
 11
0.0136583233056058
 21
-0.0092098358677788
 31
0.0
1001
AcDbBlockRepETag
1070
     1
1071
       86
1005
1FF0
  0
ARC
  5
1FF1
330
16AC
100
AcDbEntity
  8
Vista
100
AcDbCircle
 10
0.0128978245351164
 20
-0.0089061422607415
 30
0.0
 40
0.0006542983036666
100
AcDbArc
 50
118.2074339258301
 51
281.2343294355737
1001
AcDbBlockRepETag
1070
     1
1071
       87
1005
1FF1
  0
LINE
  5
1FF2
330
16AC
100
AcDbEntity
  8
Vista
100
AcDbLine
 10
0.0130252962831037
 20
-0.0095479032938783
 30
0.0
 11
0.0136583233056058
 21
-0.0092098358677788
 31
0.0
1001
AcDbBlockRepETag
1070
     1
1071
       88
1005
1FF2
  0
LINE
  5
1FF3
330
16AC
100
AcDbEntity
  8
Vista
100
AcDbLine
 10
0.0125885605574467
 20
-0.0083295470280973
 30
0.0
 11
0.0133123464415803
 21
-0.0081194827307058
 31
0.0
1001
AcDbBlockRepETag
1070
     1
1071
       89
1005
1FF3
  0
ARC
  5
1FF4
330
16AC
100
AcDbEntity
  8
Vista
100
AcDbCircle
 10
0.0133661691812108
 20
-0.0073023589337424
 30
0.0
 40
0.0006542983036666
100
AcDbArc
 50
46.20743392583007
 51
209.2343294355738
1001
AcDbBlockRepETag
1070
     1
1071
       90
1005
1FF4
  0
LINE
  5
1FF5
330
16AC
100
AcDbEntity
  8
Vista
100
AcDbLine
 10
0.0127952091052066
 20
-0.0076219068358796
 30
0.0
 11
0.0133123464415803
 21
-0.0081194827307058
 31
0.0
1001
AcDbBlockRepETag
1070
     1
1071
       91
1005
1FF5
  0
LINE
  5
1FF6
330
16AC
100
AcDbEntity
  8
Vista
100
AcDbLine
 10
0.0138189760096452
 20
-0.0068300536867696
 30
0.0
 11
0.0142424211670118
 21
-0.0074535015304207
 31
0.0
1001
AcDbBlockRepETag
1070
     1
1071
       92
1005
1FF6
  0
LINE
  5
1FF7
330
16AC
100
AcDbEntity
  8
Vista
100
AcDbLine
 10
0.0287767434511466
 20
-0.0115587275743394
 30
0.0
 11
0.0284204250846187
 21
-0.0109415660598415
 31
0.0
1001
AcDbBlockRepETag
1070
     1
1071
       93
1005
1FF7
  0
LINE
  5
1FF8
330
16AC
100
AcDbEntity
  8
Vista
100
AcDbLine
 10
0.0286035383704189
 20
-0.0116587275743427
 30
0.0
 11
0.028247220003891
 21
-0.0110415660598449
 31
0.0
1001
AcDbBlockRepETag
1070
     1
1071
       94
1005
1FF8
  0
ARC
  5
1FF9
330
16AC
100
AcDbEntity
  8
Vista
100
AcDbCircle
 10
0.026870795178354
 20
-0.0086765750827738
 30
0.0
 40
0.0024029663489966
100
AcDbArc
 50
305.9740817283154
 51
54.02591827168446
1001
AcDbBlockRepETag
1070
     1
1071
       95
1005
1FF9
  0
ARC
  5
1FFA
330
16AC
100
AcDbEntity
  8
Vista
100
AcDbCircle
 10
0.0181587928981344
 20
0.0033258812591157
 30
0.0
 40
0.0172339454795455
100
AcDbArc
 50
268.9442334731369
 51
305.9740817283155
1001
AcDbBlockRepETag
1070
     1
1071
       96
1005
1FFA
  0
ARC
  5
1FFB
330
16AC
100
AcDbEntity
  8
Vista
100
AcDbCircle
 10
0.0181587928981344
 20
0.0033258812591157
 30
0.0
 40
0.0192339454795455
100
AcDbArc
 50
298.944756943646
 51
305.9740817283155
1001
AcDbBlockRepETag
1070
     1
1071
       97
1005
1FFB
  0
ARC
  5
1FFC
330
16AC
100
AcDbEntity
  8
Vista
100
AcDbCircle
 10
0.0181587928981344
 20
0.0033258812591157
 30
0.0
 40
0.0187339454795455
100
AcDbArc
 50
268.9442334731369
 51
305.9740817283155
1001
AcDbBlockRepETag
1070
     1
1071
       98
1005
1FFC
  0
LINE
  5
1FFD
330
16AC
100
AcDbEntity
  8
Vista
100
AcDbLine
 10
0.0149071192898305
 20
-0.0150285049348895
 30
0.0
 11
0.0149537279622223
 21
-0.0143173940117833
 31
0.0
1001
AcDbBlockRepETag
1070
     1
1071
       99
1005
1FFD
  0
LINE
  5
1FFE
330
16AC
100
AcDbEntity
  8
Vista
100
AcDbLine
 10
0.015106691074493
 20
-0.0150415855607378
 30
0.0
 11
0.015153299746828
 21
-0.0143304746376316
 31
0.0
1001
AcDbBlockRepETag
1070
     1
1071
      100
1005
1FFE
  0
LINE
  5
1FFF
330
16AC
100
AcDbEntity
  8
Vista
100
AcDbLine
 10
0.0204123205135716
 20
-0.0148480015140251
 30
0.0
 11
0.0203657118412366
 21
-0.0141368905909474
 31
0.0
1001
AcDbBlockRepETag
1070
     1
1071
      101
1005
1FFF
  0
LINE
  5
2000
330
16AC
100
AcDbEntity
  8
Vista
100
AcDbLine
 10
0.020212748728909
 20
-0.0148610821398734
 30
0.0
 11
0.020166140056574
 21
-0.0141499712167956
 31
0.0
1001
AcDbBlockRepETag
1070
     1
1071
      102
1005
2000
  0
LINE
  5
2001
330
16AC
100
AcDbEntity
  8
Vista
100
AcDbLine
 10
0.0188950688835234
 20
-0.0149511464848615
 30
0.0
 11
0.0188484602111885
 21
-0.0142400355617838
 31
0.0
1001
AcDbBlockRepETag
1070
     1
1071
      103
1005
2001
  0
LINE
  5
2002
330
16AC
100
AcDbEntity
  8
Vista
100
AcDbLine
 10
0.0186954970988609
 20
-0.0149642271107098
 30
0.0
 11
0.0186488884265259
 21
-0.014253116187632
 31
0.0
1001
AcDbBlockRepETag
1070
     1
1071
      104
1005
2002
  0
ARC
  5
2003
330
16AC
100
AcDbEntity
  8
Vista
100
AcDbCircle
 10
0.0216203867323088
 20
-0.0146352041358569
 30
0.0
 40
0.0001
100
AcDbArc
 50
187.5
 51
7.500000000000012
1001
AcDbBlockRepETag
1070
     1
1071
      105
1005
2003
  0
LINE
  5
2004
330
16AC
100
AcDbEntity
  8
Vista
100
AcDbLine
 10
0.0175016741010268
 20
-0.0150285049348895
 30
0.0
 11
0.017455065428635
 21
-0.0143173940117833
 31
0.0
1001
AcDbBlockRepETag
1070
     1
1071
      106
1005
2004
  0
LINE
  5
2005
330
16AC
100
AcDbEntity
  8
Vista
100
AcDbLine
 10
0.0173021023163642
 20
-0.0150415855607378
 30
0.0
 11
0.0172554936440292
 21
-0.0143304746376316
 31
0.0
1001
AcDbBlockRepETag
1070
     1
1071
      107
1005
2005
  0
LINE
  5
2006
330
16AC
100
AcDbEntity
  8
Vista
100
AcDbLine
 10
0.0161043966954253
 20
-0.0150474907750891
 30
0.0
 11
0.0161043966954253
 21
-0.0143348540420334
 31
0.0
1001
AcDbBlockRepETag
1070
     1
1071
      108
1005
2006
  0
LINE
  5
2007
330
16AC
100
AcDbEntity
  8
Vista
100
AcDbLine
 10
0.0163043966954319
 20
-0.0150474907750891
 30
0.0
 11
0.0163043966954319
 21
-0.0143348540420334
 31
0.0
1001
AcDbBlockRepETag
1070
     1
1071
      109
1005
2007
  0
ARC
  5
2008
330
16AC
100
AcDbEntity
  8
Vista
100
AcDbCircle
 10
0.0251303941583387
 20
-0.0131751881212097
 30
0.0
 40
0.0016911251124407
100
AcDbArc
 50
271.2243300304761
 51
315.3092388892154
1001
AcDbBlockRepETag
1070
     1
1071
      110
1005
2008
  0
ARC
  5
2009
330
16AC
100
AcDbEntity
  8
Vista
100
AcDbCircle
 10
0.021572020525241
 20
-0.0146837069684409
 30
0.0
 40
0.0013020358423068
100
AcDbArc
 50
252.6033885984769
 51
300.0980516101386
1001
AcDbBlockRepETag
1070
     1
1071
      111
1005
2009
  0
ARC
  5
200A
330
16AC
100
AcDbEntity
  8
Vista
100
AcDbCircle
 10
0.0196878103982954
 20
-0.0206974751677649
 30
0.0
 40
0.005
100
AcDbArc
 50
72.60338859847758
 51
111.7197730789506
1001
AcDbBlockRepETag
1070
     1
1071
      112
1005
200A
  0
ARC
  5
200B
330
16AC
100
AcDbEntity
  8
Vista
100
AcDbCircle
 10
0.0150069051821902
 20
-0.0150350452477994
 30
0.0
 40
0.0001
100
AcDbArc
 50
176.25
 51
356.25
1001
AcDbBlockRepETag
1070
     1
1071
      113
1005
200B
  0
ARC
  5
200C
330
16AC
100
AcDbEntity
  8
Vista
100
AcDbCircle
 10
0.0174018882086671
 20
-0.0150350452477994
 30
0.0
 40
0.0001
100
AcDbArc
 50
183.75
 51
3.750000000000013
1001
AcDbBlockRepETag
1070
     1
1071
      114
1005
200C
  0
ARC
  5
200D
330
16AC
100
AcDbEntity
  8
Vista
100
AcDbCircle
 10
0.0162043966954002
 20
-0.0150474907750891
 30
0.0
 40
0.0001
100
AcDbArc
 50
180.0
 51
0.0000000000000132
1001
AcDbBlockRepETag
1070
     1
1071
      115
1005
200D
  0
ARC
  5
200E
330
16AC
100
AcDbEntity
  8
Vista
100
AcDbCircle
 10
0.0166676620065118
 20
-0.0107898627695136
 30
0.0
 40
0.0056647577878566
100
AcDbArc
 50
248.2802269210492
 51
265.3090980550013
1001
AcDbBlockRepETag
1070
     1
1071
      116
1005
200E
  0
ARC
  5
200F
330
16AC
100
AcDbEntity
  8
Vista
100
AcDbCircle
 10
0.0157411313842886
 20
-0.0107898627695136
 30
0.0
 40
0.0056647577878566
100
AcDbArc
 50
274.6909019449987
 51
291.7197730789508
1001
AcDbBlockRepETag
1070
     1
1071
      117
1005
200F
  0
LINE
  5
2010
330
16AC
100
AcDbEntity
  8
Vista
100
AcDbLine
 10
0.0178136094750698
 20
-0.0154048838516587
 30
0.0
 11
0.0162043966954002
 21
-0.0154048838516587
 31
0.0
1001
AcDbBlockRepETag
1070
     1
1071
      118
1005
2010
  0
LINE
  5
2011
330
16AC
100
AcDbEntity
  8
Vista
100
AcDbLine
 10
0.0145951839157874
 20
-0.0154048838516587
 30
0.0
 11
0.0162043966954002
 21
-0.0154048838516587
 31
0.0
1001
AcDbBlockRepETag
1070
     1
1071
      119
1005
2011
  0
ARC
  5
2012
330
16AC
100
AcDbEntity
  8
Vista
100
AcDbCircle
 10
0.0203125346212687
 20
-0.0148545418269635
 30
0.0
 40
0.0001
100
AcDbArc
 50
183.75
 51
3.750000000000013
1001
AcDbBlockRepETag
1070
     1
1071
      120
1005
2012
  0
ARC
  5
2013
330
16AC
100
AcDbEntity
  8
Vista
100
AcDbCircle
 10
0.0187952829912206
 20
-0.0149576867977999
 30
0.0
 40
0.0001
100
AcDbArc
 50
183.75
 51
3.750000000000013
1001
AcDbBlockRepETag
1070
     1
1071
      121
1005
2013
  0
ARC
  5
2014
330
16AC
100
AcDbEntity
  8
Vista
100
AcDbCircle
 10
0.0252733631876367
 20
-0.019864785652203
 30
0.0
 40
0.005
100
AcDbArc
 50
91.22433003047602
 51
113.158958949719
1001
AcDbBlockRepETag
1070
     1
1071
      122
1005
2014
  0
ARC
  5
2015
330
16AC
100
AcDbEntity
  8
Vista
100
AcDbCircle
 10
0.0272397803406648
 20
-0.024461872075193
 30
0.0
 40
0.01
100
AcDbArc
 50
113.158958949719
 51
120.0980516101389
1001
AcDbBlockRepETag
1070
     1
1071
      123
1005
2015
  0
LINE
  5
2016
330
16AC
100
AcDbEntity
  8
Vista
100
AcDbLine
 10
0.0216711095092137
 20
-0.0107569369187388
 30
0.0
 11
0.0207706181830645
 21
-0.0100468056656098
 31
0.0
1001
AcDbBlockRepETag
1070
     1
1071
      124
1005
2016
  0
ARC
  5
2017
330
16AC
100
AcDbEntity
  8
Vista
100
AcDbCircle
 10
0.0207630705552333
 20
-0.0077479847440998
 30
0.0
 40
0.0008723977382222
100
AcDbArc
 50
287.3255467788228
 51
90.35244228856644
1001
AcDbBlockRepETag
1070
     1
1071
      125
1005
2017
  0
ARC
  5
2018
330
16AC
100
AcDbEntity
  8
Vista
100
AcDbCircle
 10
0.0202857159526389
 20
-0.0093215831889779
 30
0.0
 40
0.0008723977382222
100
AcDbArc
 50
235.8969753502454
 51
38.92387085998911
1001
AcDbBlockRepETag
1070
     1
1071
      126
1005
2018
  0
ARC
  5
2019
330
16AC
100
AcDbEntity
  8
Vista
100
AcDbCircle
 10
0.0195608706559938
 20
-0.0112391903069522
 30
0.0
 40
0.0009215702257846
100
AcDbArc
 50
0.2609533916143312
 51
91.36132204629676
1001
AcDbBlockRepETag
1070
     1
1071
      127
1005
2019
  0
LWPOLYLINE
  5
201A
330
16AC
100
AcDbEntity
  8
Vista
100
AcDbPolyline
 90
        5
 70
     0
 43
0.0
 10
0.015550239746176
 20
-0.0119907473481362
 42
0.0579343531115934
 10
0.0157952908181756
 20
-0.0114736615549021
 42
0.0715879571170037
 10
0.0158801142802645
 20
-0.0110175885523631
 42
0.106458320011379
 10
0.0158063087425831
 20
-0.0105906106069256
 42
0.1151886996789992
 10
0.0156817545775994
 20
-0.0104134022386688
 42
0.1586149772374145
1001
AcDbBlockRepETag
1070
     1
1071
      128
1005
201A
  0
LINE
  5
201B
330
16AC
100
AcDbEntity
  8
Vista
100
AcDbLine
 10
0.016741341629654
 20
-0.0114404347006598
 30
0.0
 11
0.0163029304118254
 21
-0.0101070438373938
 31
0.0
1001
AcDbBlockRepETag
1070
     1
1071
      129
1005
201B
  0
ARC
  5
201C
330
16AC
100
AcDbEntity
  8
Vista
100
AcDbCircle
 10
0.0187578014210885
 20
-0.0099294949149567
 30
0.0
 40
0.0008723977382222
100
AcDbArc
 50
184.468403921674
 51
347.4952994314177
1001
AcDbBlockRepETag
1070
     1
1071
      130
1005
201C
  0
ARC
  5
201D
330
16AC
100
AcDbEntity
  8
Vista
100
AcDbCircle
 10
0.019000114494645
 20
-0.0101449209888358
 30
0.0
 40
0.0026039221634178
100
AcDbArc
 50
209.8363224255036
 51
268.7265503153124
1001
AcDbBlockRepETag
1070
     1
1071
      131
1005
201D
  0
ARC
  5
201E
330
16AC
100
AcDbEntity
  8
Vista
100
AcDbCircle
 10
0.0150535138545251
 20
-0.0143239343247217
 30
0.0
 40
0.0001
100
AcDbArc
 50
356.25
 51
176.25
1001
AcDbBlockRepETag
1070
     1
1071
      132
1005
201E
  0
ARC
  5
201F
330
16AC
100
AcDbEntity
  8
Vista
100
AcDbCircle
 10
0.0173552795363321
 20
-0.0143239343247217
 30
0.0
 40
0.0001
100
AcDbArc
 50
3.750000000000013
 51
183.75
1001
AcDbBlockRepETag
1070
     1
1071
      133
1005
201F
  0
ARC
  5
2020
330
16AC
100
AcDbEntity
  8
Vista
100
AcDbCircle
 10
0.0162043966954002
 20
-0.0143348540420334
 30
0.0
 40
0.0001
100
AcDbArc
 50
0.0000000000000132
 51
180.0
1001
AcDbBlockRepETag
1070
     1
1071
      134
1005
2020
  0
LINE
  5
2021
330
16AC
100
AcDbEntity
  8
Vista
100
AcDbLine
 10
0.0178412478139762
 20
-0.0139051384991831
 30
0.0
 11
0.0162043966954002
 21
-0.0139051384991831
 31
0.0
1001
AcDbBlockRepETag
1070
     1
1071
      135
1005
2021
  0
ARC
  5
2022
330
16AC
100
AcDbEntity
  8
Vista
100
AcDbCircle
 10
0.0202659259488769
 20
-0.0141434309038573
 30
0.0
 40
0.0001
100
AcDbArc
 50
3.750000000000013
 51
183.75
1001
AcDbBlockRepETag
1070
     1
1071
      136
1005
2022
  0
ARC
  5
2023
330
16AC
100
AcDbEntity
  8
Vista
100
AcDbCircle
 10
0.0187486743188288
 20
-0.0142465758746937
 30
0.0
 40
0.0001
100
AcDbArc
 50
3.750000000000013
 51
183.75
1001
AcDbBlockRepETag
1070
     1
1071
      137
1005
2023
  0
ARC
  5
2024
330
16AC
100
AcDbEntity
  8
Vista
100
AcDbCircle
 10
0.0189757301370719
 20
-0.0112418553454461
 30
0.0
 40
0.001506716813626
100
AcDbArc
 50
268.7265503153124
 51
0.2609533916144966
1001
AcDbBlockRepETag
1070
     1
1071
      138
1005
2024
  0
LINE
  5
2025
330
16AC
100
AcDbEntity
  8
Vista
100
AcDbLine
 10
0.017930944444629
 20
-0.0083203852253746
 30
0.0
 11
0.0167035234879336
 21
-0.0082773870783512
 31
0.0
1001
AcDbBlockRepETag
1070
     1
1071
      139
1005
2025
  0
LINE
  5
2026
330
16AC
100
AcDbEntity
  8
Vista
100
AcDbLine
 10
0.0180582984276043
 20
-0.00748482408261
 30
0.0
 11
0.0172044735026589
 21
-0.0066260064070036
 31
0.0
1001
AcDbBlockRepETag
1070
     1
1071
      140
1005
2026
  0
LINE
  5
2027
330
16AC
100
AcDbEntity
  8
Vista
100
AcDbLine
 10
0.0180723934882394
 20
-0.0074642236960187
 30
0.0
 11
0.01734072634423
 21
-0.0064777784436671
 31
0.0
1001
AcDbBlockRepETag
1070
     1
1071
      141
1005
2027
  0
LINE
  5
2028
330
16AC
100
AcDbEntity
  8
Vista
100
AcDbLine
 10
0.0185121264461827
 20
-0.0089647825231509
 30
0.0
 11
0.0177132246920451
 21
-0.0098976099631614
 31
0.0
1001
AcDbBlockRepETag
1070
     1
1071
      142
1005
2028
  0
LINE
  5
2029
330
16AC
100
AcDbEntity
  8
Vista
100
AcDbLine
 10
0.0179382623488209
 20
-0.0083442493184975
 30
0.0
 11
0.0167344605190465
 21
-0.0084763324629193
 31
0.0
1001
AcDbBlockRepETag
1070
     1
1071
      143
1005
2029
  0
ARC
  5
202A
330
16AC
100
AcDbEntity
  8
Vista
100
AcDbCircle
 10
0.0165726305298222
 20
-0.0100183679956274
 30
0.0
 40
0.0002839041362663
100
AcDbArc
 50
83.30717356350326
 51
198.2005664772861
1001
AcDbBlockRepETag
1070
     1
1071
      144
1005
202A
  0
LINE
  5
202B
330
16AC
100
AcDbEntity
  8
Vista
100
AcDbLine
 10
0.0166057185317072
 20
-0.0097363985952939
 30
0.0
 11
0.0170308928632608
 21
-0.0099335144148824
 31
0.0
1001
AcDbBlockRepETag
1070
     1
1071
      145
1005
202B
  0
ARC
  5
202C
330
16AC
100
AcDbEntity
  8
Vista
100
AcDbCircle
 10
0.0170772006253515
 20
-0.0074890703839685
 30
0.0
 40
0.0008723977382222
100
AcDbArc
 50
209.9508142239788
 51
244.6381565742748
1001
AcDbBlockRepETag
1070
     1
1071
      146
1005
202C
  0
LINE
  5
202D
330
16AC
100
AcDbEntity
  8
Vista
100
AcDbLine
 10
0.0156817545775994
 20
-0.0104134022386688
 30
0.0
 11
0.0164683916216291
 21
-0.0092514979327234
 31
0.0
1001
AcDbBlockRepETag
1070
     1
1071
      147
1005
202D
  0
LINE
  5
202E
330
16AC
100
AcDbEntity
  8
Vista
100
AcDbLine
 10
0.0152182599001094
 20
-0.0103078614936578
 30
0.0
 11
0.0165088589384368
 21
-0.0088189823723042
 31
0.0
1001
AcDbBlockRepETag
1070
     1
1071
      148
1005
202E
  0
LINE
  5
202F
330
16AC
100
AcDbEntity
  8
Vista
100
AcDbLine
 10
0.0149281286130076
 20
-0.0099242430206061
 30
0.0
 11
0.0148022234923246
 21
-0.0092177299659966
 31
0.0
1001
AcDbBlockRepETag
1070
     1
1071
      149
1005
202F
  0
ARC
  5
2030
330
16AC
100
AcDbEntity
  8
Vista
100
AcDbCircle
 10
0.01503618421998
 20
-0.007252184857947
 30
0.0
 40
0.0006542983036666
100
AcDbArc
 50
334.2074339258301
 51
137.2343294355737
1001
AcDbBlockRepETag
1070
     1
1071
      150
1005
2030
  0
LINE
  5
2031
330
16AC
100
AcDbEntity
  8
Vista
100
AcDbLine
 10
0.0156252982079082
 20
-0.0075368793949053
 30
0.0
 11
0.0151632158234634
 21
-0.0081322556499117
 31
0.0
1001
AcDbBlockRepETag
1070
     1
1071
      151
1005
2031
  0
LINE
  5
2032
330
16AC
100
AcDbEntity
  8
Vista
100
AcDbLine
 10
0.0158740564898494
 20
-0.0082308373050637
 30
0.0
 11
0.0151632158234634
 21
-0.0081322556499117
 31
0.0
1001
AcDbBlockRepETag
1070
     1
1071
      152
1005
2032
  0
LINE
  5
2033
330
16AC
100
AcDbEntity
  8
Vista
100
AcDbLine
 10
0.0155112512688902
 20
-0.0094732150479615
 30
0.0
 11
0.0148022234923246
 21
-0.0092177299659966
 31
0.0
1001
AcDbBlockRepETag
1070
     1
1071
      153
1005
2033
  0
ARC
  5
2034
330
16AC
100
AcDbEntity
  8
Vista
100
AcDbCircle
 10
0.0155999656295194
 20
-0.0088249589007603
 30
0.0
 40
0.0006542983036666
100
AcDbArc
 50
262.2074339258301
 51
65.23432943557374
1001
AcDbBlockRepETag
1070
     1
1071
      154
1005
2034
  0
ARC
  5
2035
330
16AC
100
AcDbEntity
  8
Vista
100
AcDbCircle
 10
0.0170772006253515
 20
-0.0074890703839685
 30
0.0
 40
0.0008723977382222
100
AcDbArc
 50
81.61126106453115
 51
188.3043159696079
1001
AcDbBlockRepETag
1070
     1
1071
      155
1005
2035
  0
ARC
  5
2036
330
16AC
100
AcDbEntity
  8
Vista
100
AcDbCircle
 10
0.0173298777665991
 20
-0.0091139499932638
 30
0.0
 40
0.0008723977382222
100
AcDbArc
 50
133.0398324931026
 51
296.0667280028462
1001
AcDbBlockRepETag
1070
     1
1071
      156
1005
2036
  0
LINE
  5
2037
330
16AC
100
AcDbEntity
  8
Vista
100
AcDbLine
 10
0.019616232515375
 20
-0.0073510958278007
 30
0.0
 11
0.0206435117585215
 21
-0.0067097829876559
 31
0.0
1001
AcDbBlockRepETag
1070
     1
1071
      157
1005
2037
  0
LINE
  5
2038
330
16AC
100
AcDbEntity
  8
Vista
100
AcDbLine
 10
0.0196331799611471
 20
-0.0073694215131184
 30
0.0
 11
0.0207577042277762
 21
-0.0068756035108208
 31
0.0
1001
AcDbBlockRepETag
1070
     1
1071
      158
1005
2038
  0
LINE
  5
2039
330
16AC
100
AcDbEntity
  8
Vista
100
AcDbLine
 10
0.0198809743802144
 20
-0.0081774929122957
 30
0.0
 11
0.0210228710805041
 21
-0.0085808001502699
 31
0.0
1001
AcDbBlockRepETag
1070
     1
1071
      159
1005
2039
  0
LINE
  5
203A
330
16AC
100
AcDbEntity
  8
Vista
100
AcDbLine
 10
0.019877213342113
 20
-0.0082021688369309
 30
0.0
 11
0.0209644252150838
 21
-0.0087734668229302
 31
0.0
1001
AcDbBlockRepETag
1070
     1
1071
      160
1005
203A
  0
LINE
  5
203B
330
16AC
100
AcDbEntity
  8
Vista
100
AcDbLine
 10
0.019399934975354
 20
-0.0088997265914372
 30
0.0
 11
0.0197965776270621
 21
-0.0100439553313834
 31
0.0
1001
AcDbBlockRepETag
1070
     1
1071
      161
1005
203B
  0
LINE
  5
203C
330
16AC
100
AcDbEntity
  8
Vista
100
AcDbLine
 10
0.0193782975917429
 20
-0.008912171280798
 30
0.0
 11
0.0196095043556852
 21
-0.0101183862193182
 31
0.0
1001
AcDbBlockRepETag
1070
     1
1071
      162
1005
203C
  0
LINE
  5
203D
330
16AC
100
AcDbEntity
  8
Vista
100
AcDbLine
 10
0.0185353467841196
 20
-0.008973940173945
 30
0.0
 11
0.0178880553804106
 21
-0.009997462836651
 31
0.0
1001
AcDbBlockRepETag
1070
     1
1071
      163
1005
203D
  0
CIRCLE
  5
203E
330
16AC
100
AcDbEntity
  8
Vista
100
AcDbCircle
 10
0.0188905878337664
 20
-0.0080391654435061
 30
0.0
 40
0.001
1001
AcDbBlockRepETag
1070
     1
1071
      164
1005
203E
  0
LWPOLYLINE
  5
203F
330
16AC
100
AcDbEntity
  8
Vista
100
AcDbPolyline
 90
       10
 70
     0
 43
0.0
 10
0.0216711095092137
 20
-0.0107569369187388
 42
0.0159779779390168
 10
0.0217802768877391
 20
-0.0108239358418416
 42
0.0568284601497167
 10
0.0221977530012509
 20
-0.0110028895894345
 42
0.0705551259303584
 10
0.0225600910936237
 20
-0.0110578561743751
 42
0.1062085671171272
 10
0.0228948549930124
 20
-0.010989316726949
 42
0.1610525640436389
 10
0.0230647617472073
 20
-0.0108363636783793
 42
0.1610525640436631
 10
0.0231099860054656
 20
-0.010612270602536
 42
0.1062085671171408
 10
0.0229986596240224
 20
-0.0102892056539759
 42
0.0705551259303556
 10
0.0227669794050485
 20
-0.01000524351781
 42
0.0245596752509126
 10
0.0226159996284423
 20
-0.0098789863542947
 42
0.0568284601497168
1001
AcDbBlockRepETag
1070
     1
1071
      165
1005
203F
  0
LINE
  5
2040
330
16AC
100
AcDbEntity
  8
Vista
100
AcDbLine
 10
0.0243958491024046
 20
-0.0138897164412981
 30
0.0
 11
0.0242114051436602
 21
-0.0132013622160798
 31
0.0
1001
AcDbBlockRepETag
1070
     1
1071
      166
1005
2040
  0
LINE
  5
2041
330
16AC
100
AcDbEntity
  8
Vista
100
AcDbLine
 10
0.0242026639371602
 20
-0.0139414802503097
 30
0.0
 11
0.0240182199784158
 21
-0.0132531260250914
 31
0.0
1001
AcDbBlockRepETag
1070
     1
1071
      167
1005
2041
  0
ARC
  5
2042
330
16AC
100
AcDbEntity
  8
Vista
100
AcDbCircle
 10
0.024114812561038
 20
-0.0132272441205998
 30
0.0
 40
0.0001
100
AcDbArc
 50
15.00000000000001
 51
195.0
1001
AcDbBlockRepETag
1070
     1
1071
      168
1005
2042
  0
ARC
  5
2043
330
16AC
100
AcDbEntity
  8
Vista
100
AcDbCircle
 10
0.0242992565197824
 20
-0.0139155983457897
 30
0.0
 40
0.0001
100
AcDbArc
 50
195.0
 51
15.00000000000001
1001
AcDbBlockRepETag
1070
     1
1071
      169
1005
2043
  0
LINE
  5
2044
330
16AC
100
AcDbEntity
  8
Vista
100
AcDbLine
 10
0.0231935363461844
 20
-0.0142936587666611
 30
0.0
 11
0.0230545078164823
 21
-0.0135947151486278
 31
0.0
1001
AcDbBlockRepETag
1070
     1
1071
      170
1005
2044
  0
LINE
  5
2045
330
16AC
100
AcDbEntity
  8
Vista
100
AcDbLine
 10
0.0229973792901319
 20
-0.0143326768310601
 30
0.0
 11
0.022858350760373
 21
-0.0136337332130268
 31
0.0
1001
AcDbBlockRepETag
1070
     1
1071
      171
1005
2045
  0
ARC
  5
2046
330
16AC
100
AcDbEntity
  8
Vista
100
AcDbCircle
 10
0.0229564292884561
 20
-0.0136142241808273
 30
0.0
 40
0.0001
100
AcDbArc
 50
11.25000000000001
 51
191.25
1001
AcDbBlockRepETag
1070
     1
1071
      172
1005
2046
  0
ARC
  5
2047
330
16AC
100
AcDbEntity
  8
Vista
100
AcDbCircle
 10
0.0230954578181582
 20
-0.0143131677988606
 30
0.0
 40
0.0001
100
AcDbArc
 50
191.25
 51
11.25000000000001
1001
AcDbBlockRepETag
1070
     1
1071
      173
1005
2047
  0
LINE
  5
2048
330
16AC
100
AcDbEntity
  8
Vista
100
AcDbLine
 10
0.0217195312184799
 20
-0.0146221515166474
 30
0.0
 11
0.0216265134592959
 21
-0.0139156114896366
 31
0.0
1001
AcDbBlockRepETag
1070
     1
1071
      174
1005
2048
  0
LINE
  5
2049
330
16AC
100
AcDbEntity
  8
Vista
100
AcDbLine
 10
0.0215212422461946
 20
-0.0146482567550947
 30
0.0
 11
0.0214282244870106
 21
-0.013941716728084
 31
0.0
1001
AcDbBlockRepETag
1070
     1
1071
      175
1005
2049
  0
ARC
  5
204A
330
16AC
100
AcDbEntity
  8
Vista
100
AcDbCircle
 10
0.0215273689731248
 20
-0.0139286641088745
 30
0.0
 40
0.0001
100
AcDbArc
 50
7.500000000000012
 51
187.5
1001
AcDbBlockRepETag
1070
     1
1071
      176
1005
204A
  0
LWPOLYLINE
  5
204B
330
16AC
100
AcDbEntity
  8
Vista
100
AcDbPolyline
 90
        2
 70
     0
 43
0.0
 10
0.0214030143968103
 20
-0.0105455159837504
 42
0.0028280895715015
 10
0.0214138039341947
 20
-0.0105555921751659
 42
0.0568284601497191
1001
AcDbBlockRepETag
1070
     1
1071
      177
1005
204B
  0
ARC
  5
204C
330
16AC
100
AcDbEntity
  8
Vista
100
AcDbCircle
 10
0.0283338225442549
 20
-0.0109915660598574
 30
0.0
 40
0.0001
100
AcDbArc
 50
30.00000000000001
 51
210.0
1001
AcDbBlockRepETag
1070
     1
1071
      178
1005
204C
  0
LINE
  5
204D
330
16AC
100
AcDbEntity
  8
Vista
100
AcDbLine
 10
0.027810729260068
 20
-0.0122440590827182
 30
0.0
 11
0.0274955380928077
 21
-0.0116049146222395
 31
0.0
1001
AcDbBlockRepETag
1070
     1
1071
      179
1005
204D
  0
LINE
  5
204E
330
16AC
100
AcDbEntity
  8
Vista
100
AcDbLine
 10
0.0276313547117866
 20
-0.0123325168207487
 30
0.0
 11
0.0273161635445263
 21
-0.0116933723602699
 31
0.0
1001
AcDbBlockRepETag
1070
     1
1071
      180
1005
204E
  0
ARC
  5
204F
330
16AC
100
AcDbEntity
  8
Vista
100
AcDbCircle
 10
0.0274058508186386
 20
-0.0116491434912689
 30
0.0
 40
0.0001
100
AcDbArc
 50
26.24999999999074
 51
206.2499999999907
1001
AcDbBlockRepETag
1070
     1
1071
      181
1005
204F
  0
ARC
  5
2050
330
16AC
100
AcDbEntity
  8
Vista
100
AcDbCircle
 10
0.0277210419858989
 20
-0.0122882879517476
 30
0.0
 40
0.0001
100
AcDbArc
 50
206.2499999999907
 51
26.24999999999074
1001
AcDbBlockRepETag
1070
     1
1071
      182
1005
2050
  0
LINE
  5
2051
330
16AC
100
AcDbEntity
  8
Vista
100
AcDbLine
 10
0.0267400971932261
 20
-0.0128627177162173
 30
0.0
 11
0.026467382922192
 21
-0.0122043272244525
 31
0.0
1001
AcDbBlockRepETag
1070
     1
1071
      183
1005
2051
  0
LINE
  5
2052
330
16AC
100
AcDbEntity
  8
Vista
100
AcDbLine
 10
0.0265553212867076
 20
-0.0129392544026814
 30
0.0
 11
0.0262826070156734
 21
-0.0122808639109167
 31
0.0
1001
AcDbBlockRepETag
1070
     1
1071
      184
1005
2052
  0
ARC
  5
2053
330
16AC
100
AcDbEntity
  8
Vista
100
AcDbCircle
 10
0.0263749949689327
 20
-0.0122425955676704
 30
0.0
 40
0.0001
100
AcDbArc
 50
22.49999999999968
 51
202.4999999999997
1001
AcDbBlockRepETag
1070
     1
1071
      185
1005
2053
  0
ARC
  5
2054
330
16AC
100
AcDbEntity
  8
Vista
100
AcDbCircle
 10
0.0266477092399669
 20
-0.0129009860594351
 30
0.0
 40
0.0001
100
AcDbArc
 50
202.4999999999997
 51
22.49999999999968
1001
AcDbBlockRepETag
1070
     1
1071
      186
1005
2054
  0
LINE
  5
2055
330
16AC
100
AcDbEntity
  8
Vista
100
AcDbLine
 10
0.025538337212879
 20
-0.0134120542835774
 30
0.0
 11
0.0253092676424558
 21
-0.0127372370896808
 31
0.0
1001
AcDbBlockRepETag
1070
     1
1071
      187
1005
2055
  0
LINE
  5
2056
330
16AC
100
AcDbEntity
  8
Vista
100
AcDbLine
 10
0.0253489511870271
 20
-0.0134763421766309
 30
0.0
 11
0.0251198816166038
 21
-0.0128015249827343
 31
0.0
1001
AcDbBlockRepETag
1070
     1
1071
      188
1005
2056
  0
ARC
  5
2057
330
16AC
100
AcDbEntity
  8
Vista
100
AcDbCircle
 10
0.0252145746295014
 20
-0.0127693810362075
 30
0.0
 40
0.0001
100
AcDbArc
 50
18.75
 51
198.75
1001
AcDbBlockRepETag
1070
     1
1071
      189
1005
2057
  0
ARC
  5
2058
330
16AC
100
AcDbEntity
  8
Vista
100
AcDbCircle
 10
0.0254436441999246
 20
-0.0134441982301041
 30
0.0
 40
0.0001
100
AcDbArc
 50
198.75
 51
18.75
1001
AcDbBlockRepETag
1070
     1
1071
      190
1005
2058
  0
ARC
  5
2059
330
16AC
100
AcDbEntity
  8
Vista
100
AcDbCircle
 10
0.0298872012249376
 20
-0.0178809231117612
 30
0.0
 40
0.005
100
AcDbArc
 50
118.9447569436462
 51
135.3092388892155
1001
AcDbBlockRepETag
1070
     1
1071
      191
1005
2059
  0
LWPOLYLINE
  5
205A
330
16AC
100
AcDbEntity
  8
Vista
100
AcDbPolyline
 90
       11
 70
     0
 43
0.0
 10
0.0220935650468732
 20
-0.0095946352200542
 42
0.0177958537416102
 10
0.0222097875253553
 20
-0.0096714283245376
 42
0.0568284601497191
 10
0.0228277245622053
 20
-0.0099584004556448
 42
0.0568284601497167
 10
0.0234944034473301
 20
-0.0100988940486673
 42
0.0705551259303584
 10
0.02404352912788
 20
-0.0100732234628822
 42
0.1062085671171272
 10
0.0245157869346713
 20
-0.0098739930853071
 42
0.1610525640436389
 10
0.0247207386511832
 20
-0.009599063259202
 42
0.1610525640436631
 10
0.0247213797484847
 20
-0.0092561475197215
 42
0.1062085671171408
 10
0.0244626529780021
 20
-0.008813676461159
 42
0.0705551259303556
 10
0.024038392232228
 20
-0.0084641041344753
 42
0.0568284601497039
 10
0.0234204551953781
 20
-0.0081771320033681
 42
0.0568284601497168
1001
AcDbBlockRepETag
1070
     1
1071
      192
1005
205A
  0
LINE
  5
205B
330
16AC
100
AcDbEntity
  8
Vista
100
AcDbLine
 10
0.0234204551953781
 20
-0.0081771320033681
 30
0.0
 11
0.0216352006733018
 21
-0.0077695919390237
 31
0.0
1001
AcDbBlockRepETag
1070
     1
1071
      193
1005
205B
  0
ARC
  5
205C
330
16AC
100
AcDbEntity
  8
Vista
100
AcDbCircle
 10
0.0344501298392288
 20
-0.0076568886865971
 30
0.0
 40
0.0074241408268026
100
AcDbArc
 50
231.6109146890268
 51
305.5626261052347
1001
AcDbBlockRepETag
1070
     1
1071
      194
1005
205C
  0
ARC
  5
205D
330
16AC
100
AcDbEntity
  8
Vista
100
AcDbCircle
 10
0.0344501298392288
 20
-0.0076568886865971
 30
0.0
 40
0.0059241408268026
100
AcDbArc
 50
240.9770848879063
 51
305.5626261052347
1001
AcDbBlockRepETag
1070
     1
1071
      195
1005
205D
  0
LINE
  5
205E
330
16AC
100
AcDbEntity
  8
Vista
100
AcDbLine
 10
0.0295719427441554
 20
-0.010809657885801
 30
0.0
 11
0.029176022988338
 21
-0.0102171220976573
 31
0.0
1001
AcDbBlockRepETag
1070
     1
1071
      196
1005
205E
  0
LINE
  5
205F
330
16AC
100
AcDbEntity
  8
Vista
100
AcDbLine
 10
0.0294056488216938
 20
-0.0109207719324047
 30
0.0
 11
0.0290097290658764
 21
-0.0103282361442609
 31
0.0
1001
AcDbBlockRepETag
1070
     1
1071
      197
1005
205F
  0
ARC
  5
2060
330
16AC
100
AcDbEntity
  8
Vista
100
AcDbCircle
 10
0.026870795178354
 20
-0.0086765750827738
 30
0.0
 40
0.0044029663489966
100
AcDbArc
 50
305.9740817283154
 51
6.44670586545971
1001
AcDbBlockRepETag
1070
     1
1071
      198
1005
2060
  0
ARC
  5
2061
330
16AC
100
AcDbEntity
  8
Vista
100
AcDbCircle
 10
0.0305514200386483
 20
-0.0127314296358065
 30
0.0
 40
0.001029993202322
100
AcDbArc
 50
354.1109236960265
 51
226.294908995203
1001
AcDbBlockRepETag
1070
     1
1071
      199
1005
2061
  0
ARC
  5
2062
330
16AC
100
AcDbEntity
  8
Vista
100
AcDbCircle
 10
0.0294887957829246
 20
-0.0108652149091029
 30
0.0
 40
0.0001
100
AcDbArc
 50
213.75
 51
33.75000000000001
1001
AcDbBlockRepETag
1070
     1
1071
      200
1005
2062
  0
ARC
  5
2063
330
16AC
100
AcDbEntity
  8
Vista
100
AcDbCircle
 10
0.0286901409107827
 20
-0.0116087275743269
 30
0.0
 40
0.0001
100
AcDbArc
 50
210.0
 51
30.00000000000001
1001
AcDbBlockRepETag
1070
     1
1071
      201
1005
2063
  0
LINE
  5
2064
330
16AC
100
AcDbEntity
  8
Vista
100
AcDbLine
 10
0.030099366675131
 20
-0.0100000576485115
 30
0.0
 11
0.0296655409192113
 21
-0.0094346849159592
 31
0.0
1001
AcDbBlockRepETag
1070
     1
1071
      202
1005
2064
  0
LINE
  5
2065
330
16AC
100
AcDbEntity
  8
Vista
100
AcDbLine
 10
0.0299406960070883
 20
-0.0101218099343328
 30
0.0
 11
0.0295068702511117
 21
-0.009556437201752
 31
0.0
1001
AcDbBlockRepETag
1070
     1
1071
      203
1005
2065
  0
ARC
  5
2066
330
16AC
100
AcDbEntity
  8
Vista
100
AcDbCircle
 10
0.0295862055851899
 20
-0.0094955610588556
 30
0.0
 40
0.0001
100
AcDbArc
 50
37.50000000000002
 51
217.5000000000001
1001
AcDbBlockRepETag
1070
     1
1071
      204
1005
2066
  0
ARC
  5
2067
330
16AC
100
AcDbEntity
  8
Vista
100
AcDbCircle
 10
0.0300200313411097
 20
-0.0100609337914364
 30
0.0
 40
0.0001
100
AcDbArc
 50
217.5000000000001
 51
37.50000000000002
1001
AcDbBlockRepETag
1070
     1
1071
      205
1005
2067
  0
ARC
  5
2068
330
16AC
100
AcDbEntity
  8
Vista
100
AcDbCircle
 10
0.0290928760271072
 20
-0.0102726791209591
 30
0.0
 40
0.0001
100
AcDbArc
 50
33.75000000000001
 51
213.75
1001
AcDbBlockRepETag
1070
     1
1071
      206
1005
2068
  0
ARC
  5
2069
330
16AC
100
AcDbEntity
  8
Vista
100
AcDbCircle
 10
0.0306352555734861
 20
-0.001947406973585
 30
0.0
 40
0.0127890457487871
100
AcDbArc
 50
304.6914041621854
 51
323.2196994872675
1001
AcDbBlockRepETag
1070
     1
1071
      207
1005
2069
  0
ARC
  5
206A
330
16AC
100
AcDbEntity
  8
Vista
100
AcDbCircle
 10
0.0306352555734861
 20
-0.001947406973585
 30
0.0
 40
0.0142890457487871
100
AcDbArc
 50
304.6914041621854
 51
323.2196994872675
1001
AcDbBlockRepETag
1070
     1
1071
      208
1005
206A
  0
ARC
  5
206B
330
16AC
100
AcDbEntity
  8
Vista
100
AcDbCircle
 10
0.0409285190758624
 20
-0.0132767353314876
 30
0.0
 40
0.0009599653474603
100
AcDbArc
 50
10.2227641599386
 51
219.4612896014135
1001
AcDbBlockRepETag
1070
     1
1071
      209
1005
206B
  0
LINE
  5
206C
330
16AC
100
AcDbEntity
  8
Vista
100
AcDbLine
 10
0.0401873738388758
 20
-0.0138868477850736
 30
0.0
 11
0.0409136843969691
 21
-0.0142972821669787
 31
0.0
1001
AcDbBlockRepETag
1070
     1
1071
      210
1005
206C
  0
ARC
  5
206D
330
16AC
100
AcDbEntity
  8
Vista
100
AcDbCircle
 10
0.0344042606888024
 20
-0.0047190983325436
 30
0.0
 40
0.0081108338800607
100
AcDbArc
 50
323.0007044144098
 51
336.9329989265331
1001
AcDbBlockRepETag
1070
     1
1071
      211
1005
206D
  0
ARC
  5
206E
330
16AC
100
AcDbEntity
  8
Vista
100
AcDbCircle
 10
0.0144689105684961
 20
0.000035405947358
 30
0.0
 40
0.0014435378131305
100
AcDbArc
 50
73.01250071596005
 51
226.9377071741912
1001
AcDbBlockRepETag
1070
     1
1071
      212
1005
206E
  0
ARC
  5
206F
330
16AC
100
AcDbEntity
  8
Vista
100
AcDbCircle
 10
0.0156481822132832
 20
-0.0004242495805045
 30
0.0
 40
0.0019900283951705
100
AcDbArc
 50
318.9212834092343
 51
277.2983531069405
1001
AcDbBlockRepETag
1070
     1
1071
      213
1005
206F
  0
ARC
  5
2070
330
16AC
100
AcDbEntity
  8
Vista
100
AcDbCircle
 10
0.0156481822132832
 20
-0.0004242495805045
 30
0.0
 40
0.0024900283951705
100
AcDbArc
 50
215.2527711104847
 51
305.0707355798869
1001
AcDbBlockRepETag
1070
     1
1071
      214
1005
2070
  0
ARC
  5
2071
330
16AC
100
AcDbEntity
  8
Vista
100
AcDbCircle
 10
0.0015819527653207
 20
0.0103179591340847
 30
0.0
 40
0.0116128897234261
100
AcDbArc
 50
262.1706037643997
 51
287.906676910863
1001
AcDbBlockRepETag
1070
     1
1071
      215
1005
2071
  0
ARC
  5
2072
330
16AC
100
AcDbEntity
  8
Vista
100
AcDbCircle
 10
0.0080272664657173
 20
-0.0065621281628125
 30
0.0
 40
0.0064999965175336
100
AcDbArc
 50
68.13804000308607
 51
116.2485501368579
1001
AcDbBlockRepETag
1070
     1
1071
      216
1005
2072
  0
ARC
  5
2073
330
16AC
100
AcDbEntity
  8
Vista
100
AcDbCircle
 10
0.0089447901492008
 20
-0.005427464894268
 30
0.0
 40
0.0066745566763592
100
AcDbArc
 50
74.39808688327237
 51
113.3466954942866
1001
AcDbBlockRepETag
1070
     1
1071
      217
1005
2073
  0
ARC
  5
2074
330
16AC
100
AcDbEntity
  8
Vista
100
AcDbCircle
 10
0.0087059978941397
 20
-0.0130411030807238
 30
0.0
 40
0.0092960477156883
100
AcDbArc
 50
98.24045326761201
 51
125.9740817283158
1001
AcDbBlockRepETag
1070
     1
1071
      218
1005
2074
  0
ARC
  5
2075
330
16AC
100
AcDbEntity
  8
Vista
100
AcDbCircle
 10
-0.0004201672900876
 20
0.024772886909318
 30
0.0
 40
0.0249926285731971
100
AcDbArc
 50
271.9345583936341
 51
285.5972822688306
1001
AcDbBlockRepETag
1070
     1
1071
      219
1005
2075
  0
ARC
  5
2076
330
16AC
100
AcDbEntity
  8
Vista
100
AcDbCircle
 10
0.0124387038888472
 20
-0.0022607263523753
 30
0.0
 40
0.0011190496973131
100
AcDbArc
 50
146.8148763340488
 51
342.6732932741913
1001
AcDbBlockRepETag
1070
     1
1071
      220
1005
2076
  0
ARC
  5
2077
330
16AC
100
AcDbEntity
  8
Vista
100
AcDbCircle
 10
0.0096990832331016
 20
-0.0026623574853488
 30
0.0
 40
0.003808503692133
100
AcDbArc
 50
1.028412922920004
 51
74.139611735162
1001
AcDbBlockRepETag
1070
     1
1071
      221
1005
2077
  0
ARC
  5
2078
330
16AC
100
AcDbEntity
  8
Vista
100
AcDbCircle
 10
0.0082452120055905
 20
-0.0098593850109694
 30
0.0
 40
0.0060811365955501
100
AcDbArc
 50
52.85586990164258
 51
98.2404532676119
1001
AcDbBlockRepETag
1070
     1
1071
      222
1005
2078
  0
ARC
  5
2079
330
16AC
100
AcDbEntity
  8
Vista
100
AcDbCircle
 10
0.0082452120055905
 20
-0.0098593850109694
 30
0.0
 40
0.0045811365955501
100
AcDbArc
 50
70.70646561927779
 51
98.2404532676119
1001
AcDbBlockRepETag
1070
     1
1071
      223
1005
2079
  0
CIRCLE
  5
207A
330
16AC
100
AcDbEntity
  8
Vista
100
AcDbCircle
 10
0.0123044962859353
 20
-0.0042568832724896
 30
0.0
 40
0.0008186740490193
1001
AcDbBlockRepETag
1070
     1
1071
      224
1005
207A
  0
ARC
  5
207B
330
16AC
100
AcDbEntity
  8
Vista
100
AcDbCircle
 10
0.0116152257382964
 20
-0.0054105544747927
 30
0.0
 40
0.0005
100
AcDbArc
 50
356.5934940879707
 51
52.85586990164258
1001
AcDbBlockRepETag
1070
     1
1071
      225
1005
207B
  0
ARC
  5
207C
330
16AC
100
AcDbEntity
  8
Vista
100
AcDbCircle
 10
0.0096324191572421
 20
-0.0023544197846093
 30
0.0
 40
0.0019986658487404
100
AcDbArc
 50
20.69150073667511
 51
72.31156598482008
1001
AcDbBlockRepETag
1070
     1
1071
      226
1005
207C
  0
LINE
  5
207D
330
16AC
100
AcDbEntity
  8
Vista
100
AcDbLine
 10
0.0107399253872131
 20
0.0010011583100606
 30
0.0
 11
0.0133068064119471
 21
0.0008917442842744
 31
0.0
1001
AcDbBlockRepETag
1070
     1
1071
      227
1005
207D
  0
ARC
  5
207E
330
16AC
100
AcDbEntity
  8
Vista
100
AcDbCircle
 10
0.0144201186995474
 20
-0.0013043280800389
 30
0.0
 40
0.0009792568333648
100
AcDbArc
 50
139.6815036167251
 51
214.6755858801142
1001
AcDbBlockRepETag
1070
     1
1071
      228
1005
207E
  0
ARC
  5
207F
330
16AC
100
AcDbEntity
  8
Vista
100
AcDbCircle
 10
0.0346135466245414
 20
0.0209132163621177
 30
0.0
 40
0.0227154950936972
100
AcDbArc
 50
247.6954367326284
 51
262.8038283691206
1001
AcDbBlockRepETag
1070
     1
1071
      229
1005
207F
  0
ARC
  5
2080
330
16AC
100
AcDbEntity
  8
Vista
100
AcDbCircle
 10
0.0316291920490244
 20
0.0077906387439555
 30
0.0
 40
0.010440524238747
100
AcDbArc
 50
245.3031734008754
 51
279.8288254237861
1001
AcDbBlockRepETag
1070
     1
1071
      230
1005
2080
  0
ARC
  5
2081
330
16AC
100
AcDbEntity
  8
Vista
100
AcDbCircle
 10
0.0237027954967175
 20
-0.0130411030807238
 30
0.0
 40
0.0092960477156883
100
AcDbArc
 50
54.02591827168426
 51
81.759546732388
1001
AcDbBlockRepETag
1070
     1
1071
      231
1005
2081
  0
ARC
  5
2082
330
16AC
100
AcDbEntity
  8
Vista
100
AcDbCircle
 10
0.015962003320908
 20
0.0001510485247707
 30
0.0
 40
0.0019588145394682
100
AcDbArc
 50
20.26052484766945
 51
137.3572114591885
1001
AcDbBlockRepETag
1070
     1
1071
      232
1005
2082
  0
LWPOLYLINE
  5
2083
330
16AC
100
AcDbEntity
  8
Vista
100
AcDbPolyline
 90
       16
 70
     1
 43
0.0
 10
0.0223062044427138
 20
-0.0033692891452404
 42
0.200081069775191
 10
0.0221502258581836
 20
-0.0031989576675926
 42
0.0981564774472173
 10
0.0217061620275558
 20
-0.0030908890724675
 42
0.0553323498522168
 10
0.0212072488932904
 20
-0.0031246249275796
 42
0.0421314383996301
 10
0.0205737897255176
 20
-0.0032946868001602
 42
0.0421314383996227
 10
0.0199778017595804
 20
-0.0035685296423651
 42
0.0553323498522002
 10
0.0195724158734265
 20
-0.00386130038342
 42
0.0981564774471984
 10
0.019299817976048
 20
-0.0042281271725813
 42
0.2000810697751301
 10
0.0192886316929162
 20
-0.0044588152697713
 42
0.2000810697752086
 10
0.0194446102775032
 20
-0.0046291467473907
 42
0.0981564774472328
 10
0.0198886741080742
 20
-0.0047372153425158
 42
0.0553323498522256
 10
0.0203875872423964
 20
-0.0047034794874037
 42
0.0421314383996297
 10
0.0210210464101692
 20
-0.0045334176148231
 42
0.0421314383996364
 10
0.0216170343761064
 20
-0.0042595747726182
 42
0.0553323498522467
 10
0.0220224202622035
 20
-0.0039668040315917
 42
0.0981564774471841
 10
0.0222950181596389
 20
-0.003599977242402
 42
0.2000810697752029
1001
AcDbBlockRepETag
1070
     1
1071
      233
1005
2083
  0
ARC
  5
2084
330
16AC
100
AcDbEntity
  8
Vista
100
AcDbCircle
 10
0.0230533537548468
 20
-0.006911659165155
 30
0.0
 40
0.0074161740848436
100
AcDbArc
 50
66.65330450571335
 51
136.4494242900783
1001
AcDbBlockRepETag
1070
     1
1071
      234
1005
2084
  0
ARC
  5
2085
330
16AC
100
AcDbEntity
  8
Vista
100
AcDbCircle
 10
0.024072824514235
 20
-0.0081723961301918
 30
0.0
 40
0.0072222183528151
100
AcDbArc
 50
63.75144986314217
 51
122.0638169107934
1001
AcDbBlockRepETag
1070
     1
1071
      235
1005
2085
  0
ARC
  5
2086
330
16AC
100
AcDbEntity
  8
Vista
100
AcDbCircle
 10
0.0241635813852668
 20
-0.0098593850109694
 30
0.0
 40
0.0060811365955501
100
AcDbArc
 50
81.75954673238811
 51
127.1441300983574
1001
AcDbBlockRepETag
1070
     1
1071
      236
1005
2086
  0
LINE
  5
2087
330
16AC
100
AcDbEntity
  8
Vista
100
AcDbLine
 10
0.0146872034197259
 20
-0.0012079524445312
 30
0.0
 11
0.0154856412138429
 21
-0.002407628877819
 31
0.0
1001
AcDbBlockRepETag
1070
     1
1071
      237
1005
2087
  0
ARC
  5
2088
330
16AC
100
AcDbEntity
  8
Vista
100
AcDbCircle
 10
0.0194048289030775
 20
-0.0039716691772753
 30
0.0
 40
0.0027727883751079
100
AcDbArc
 50
128.5097199667027
 51
154.1522674897764
1001
AcDbBlockRepETag
1070
     1
1071
      238
1005
2088
  0
ARC
  5
2089
330
16AC
100
AcDbEntity
  8
Vista
100
AcDbCircle
 10
0.0213005393797516
 20
-0.0037467888659251
 30
0.0
 40
0.002
100
AcDbArc
 50
122.0638169107933
 51
180.0
1001
AcDbBlockRepETag
1070
     1
1071
      239
1005
2089
  0
ARC
  5
208A
330
16AC
100
AcDbEntity
  8
Vista
100
AcDbCircle
 10
0.0180547109383724
 20
-0.004030359488695
 30
0.0
 40
0.0012858299251873
100
AcDbArc
 50
167.2595364551298
 51
342.1385870884782
1001
AcDbBlockRepETag
1070
     1
1071
      240
1005
208A
  0
LINE
  5
208B
330
16AC
100
AcDbEntity
  8
Vista
100
AcDbLine
 10
0.0159009876551863
 20
-0.0023981549536529
 30
0.0
 11
0.0172441210689272
 21
-0.0022339416300667
 31
0.0
1001
AcDbBlockRepETag
1070
     1
1071
      241
1005
208B
  0
ARC
  5
208C
330
16AC
100
AcDbEntity
  8
Vista
100
AcDbCircle
 10
0.0213005393797516
 20
-0.0037467888659251
 30
0.0
 40
0.0045
100
AcDbArc
 50
167.3692325054803
 51
180.0
1001
AcDbBlockRepETag
1070
     1
1071
      242
1005
208C
  0
LINE
  5
208D
330
16AC
100
AcDbEntity
  8
Vista
100
AcDbLine
 10
0.0193005393797421
 20
-0.00422661103417
 30
0.0
 11
0.0193005393797421
 21
-0.0037467888659251
 31
0.0
1001
AcDbBlockRepETag
1070
     1
1071
      243
1005
208D
  0
ARC
  5
208E
330
16AC
100
AcDbEntity
  8
Vista
100
AcDbCircle
 10
0.0207935676525608
 20
-0.0054105544747927
 30
0.0
 40
0.0005
100
AcDbArc
 50
127.1441300983574
 51
183.4065059120293
1001
AcDbBlockRepETag
1070
     1
1071
      244
1005
208E
  0
ARC
  5
208F
330
16AC
100
AcDbEntity
  8
Vista
100
AcDbCircle
 10
0.016960356805896
 20
-0.0015474678648104
 30
0.0
 40
0.0025206548481722
100
AcDbArc
 50
23.70494607183806
 51
87.5698435979012
1001
AcDbBlockRepETag
1070
     1
1071
      245
1005
208F
  0
ARC
  5
2090
330
16AC
100
AcDbEntity
  8
Vista
100
AcDbCircle
 10
0.0167644265865192
 20
-0.0016238448669412
 30
0.0
 40
0.0003987695999058
100
AcDbArc
 50
134.484489654876
 51
344.2797394368351
1001
AcDbBlockRepETag
1070
     1
1071
      246
1005
2090
  0
ARC
  5
2091
330
16AC
100
AcDbEntity
  8
Vista
100
AcDbCircle
 10
0.0156481822132832
 20
-0.0004242495805045
 30
0.0
 40
0.0012400283951705
100
AcDbArc
 50
312.4416832813553
 51
219.198126770977
1001
AcDbBlockRepETag
1070
     1
1071
      247
1005
2091
  0
CIRCLE
  5
2092
330
16AC
100
AcDbEntity
  8
Vista
100
AcDbCircle
 10
0.0156350870394135
 20
-0.0004242495805045
 30
0.0
 40
0.0004900283951705
1001
AcDbBlockRepETag
1070
     1
1071
      248
1005
2092
  0
ARC
  5
2093
330
16AC
100
AcDbEntity
  8
Vista
100
AcDbCircle
 10
0.0241635813852668
 20
-0.0098593850109694
 30
0.0
 40
0.0045811365955501
100
AcDbArc
 50
81.75954673238811
 51
109.2935343807222
1001
AcDbBlockRepETag
1070
     1
1071
      249
1005
2093
  0
ARC
  5
2094
330
16AC
100
AcDbEntity
  8
Vista
100
AcDbCircle
 10
0.034558561578649
 20
-0.0015205155621345
 30
0.0
 40
0.0012827043355277
100
AcDbArc
 50
321.2872399797674
 51
82.03062270029434
1001
AcDbBlockRepETag
1070
     1
1071
      250
1005
2094
  0
ARC
  5
2095
330
16AC
100
AcDbEntity
  8
Vista
100
AcDbCircle
 10
0.033464040778938
 20
-0.0006432387735344
 30
0.0
 40
0.0026854125535124
100
AcDbArc
 50
269.3690101835231
 51
321.2872399797673
1001
AcDbBlockRepETag
1070
     1
1071
      251
1005
2095
  0
ARC
  5
2096
330
16AC
100
AcDbEntity
  8
Vista
100
AcDbCircle
 10
0.0368951222475289
 20
-0.003339295925457
 30
0.0
 40
0.0014748199544668
100
AcDbArc
 50
162.3143787128986
 51
353.5371371324344
1001
AcDbBlockRepETag
1070
     1
1071
      252
1005
2096
  0
ARC
  5
2097
330
16AC
100
AcDbEntity
  8
Vista
100
AcDbCircle
 10
0.0388762680838681
 20
-0.0039710124385124
 30
0.0
 40
0.0035542440521209
100
AcDbArc
 50
88.95318846671836
 51
162.3143787128988
1001
AcDbBlockRepETag
1070
     1
1071
      253
1005
2097
  0
ARC
  5
2098
330
16AC
100
AcDbEntity
  8
Vista
100
AcDbCircle
 10
0.0328960515142285
 20
-0.0017130987468192
 30
0.0
 40
0.0011200505865411
100
AcDbArc
 50
291.5183355451967
 51
43.82920225103896
1001
AcDbBlockRepETag
1070
     1
1071
      254
1005
2098
  0
ARC
  5
2099
330
16AC
100
AcDbEntity
  8
Vista
100
AcDbCircle
 10
0.0330332251738241
 20
-0.0017130987468192
 30
0.0
 40
0.0008700505865411
100
AcDbArc
 50
281.421804936605
 51
64.81224302474344
1001
AcDbBlockRepETag
1070
     1
1071
      255
1005
2099
  0
ARC
  5
209A
330
16AC
100
AcDbEntity
  8
Vista
100
AcDbCircle
 10
0.033437220488338
 20
-0.0030785036416319
 30
0.0
 40
0.00025
100
AcDbArc
 50
203.0394229775532
 51
269.3690101835249
1001
AcDbBlockRepETag
1070
     1
1071
      256
1005
209A
  0
ARC
  5
209B
330
16AC
100
AcDbEntity
  8
Vista
100
AcDbCircle
 10
0.0333985846392011
 20
-0.0029876571283864
 30
0.0
 40
0.00025
100
AcDbArc
 50
111.5183355451993
 51
203.0394229775536
1001
AcDbBlockRepETag
1070
     1
1071
      257
1005
209B
  0
LINE
  5
209C
330
16AC
100
AcDbEntity
  8
Vista
100
AcDbLine
 10
0.0331685256920196
 20
-0.003085498228188
 30
0.0
 11
0.0332071615410996
 21
-0.0031763447414335
 31
0.0
1001
AcDbBlockRepETag
1070
     1
1071
      258
1005
209C
  0
ARC
  5
209D
330
16AC
100
AcDbEntity
  8
Vista
100
AcDbCircle
 10
0.0317482206518776
 20
-0.0009833731081414
 30
0.0
 40
0.0006402843431802
100
AcDbArc
 50
262.272463302277
 51
345.5342482763029
1001
AcDbBlockRepETag
1070
     1
1071
      259
1005
209D
  0
ARC
  5
209E
330
16AC
100
AcDbEntity
  8
Vista
100
AcDbCircle
 10
0.0338844160991698
 20
-0.0007643237171351
 30
0.0
 40
0.00025
100
AcDbArc
 50
134.0929069632135
 51
223.8292022510392
1001
AcDbBlockRepETag
1070
     1
1071
      260
1005
209E
  0
ARC
  5
209F
330
16AC
100
AcDbEntity
  8
Vista
100
AcDbCircle
 10
0.034565944272515
 20
-0.0014677804718133
 30
0.0
 40
0.0012294549794631
100
AcDbArc
 50
82.03062270029567
 51
134.0929069632138
1001
AcDbBlockRepETag
1070
     1
1071
      261
1005
209F
  0
ARC
  5
20A0
330
16AC
100
AcDbEntity
  8
Vista
100
AcDbCircle
 10
0.0330299159179504
 20
-0.0017201351758729
 30
0.0
 40
0.0008778263506799
100
AcDbArc
 50
64.81224302474719
 51
138.9210507980465
1001
AcDbBlockRepETag
1070
     1
1071
      262
1005
20A0
  0
ARC
  5
20A1
330
16AC
100
AcDbEntity
  8
Vista
100
AcDbCircle
 10
0.0398510372846772
 20
-0.0036741392537749
 30
0.0
 40
0.0015
100
AcDbArc
 50
62.31429823201175
 51
173.5371371324344
1001
AcDbBlockRepETag
1070
     1
1071
      263
1005
20A1
  0
ARC
  5
20A2
330
16AC
100
AcDbEntity
  8
Vista
100
AcDbCircle
 10
0.1031099240630624
 20
-0.0056912747208173
 30
0.0
 40
0.0043554079586871
100
AcDbArc
 50
107.1015900401798
 51
189.2232178484986
1001
AcDbBlockRepETag
1070
     1
1071
      264
1005
20A2
  0
ARC
  5
20A3
330
16AC
100
AcDbEntity
  8
Vista
100
AcDbCircle
 10
0.0997477115909646
 20
-0.0091064272121457
 30
0.0
 40
0.0008356776471186
100
AcDbArc
 50
69.266718889746
 51
217.6063271096787
1001
AcDbBlockRepETag
1070
     1
1071
      265
1005
20A3
  0
LINE
  5
20A4
330
16AC
100
AcDbEntity
  8
Vista
100
AcDbLine
 10
0.105608304411362
 20
-0.0144796121222726
 30
0.0
 11
0.0837325305942614
 21
-0.0043271421532438
 31
0.0
1001
AcDbBlockRepETag
1070
     1
1071
      266
1005
20A4
  0
ARC
  5
20A5
330
16AC
100
AcDbEntity
  8
Vista
100
AcDbCircle
 10
0.0479767973768048
 20
-0.0056912747207889
 30
0.0
 40
0.0043554079586871
100
AcDbArc
 50
340.37263461484
 51
72.89840995982022
1001
AcDbBlockRepETag
1070
     1
1071
      267
1005
20A5
  0
ARC
  5
20A6
330
16AC
100
AcDbEntity
  8
Vista
100
AcDbCircle
 10
0.0819111185971338
 20
-0.0054592937865721
 30
0.0
 40
0.0008761932450411
100
AcDbArc
 50
189.6512012127804
 51
341.6458554044236
1001
AcDbBlockRepETag
1070
     1
1071
      268
1005
20A6
  0
ARC
  5
20A7
330
16AC
100
AcDbEntity
  8
Vista
100
AcDbCircle
 10
0.083226352109989
 20
-0.0058956449539096
 30
0.0
 40
0.0005095345545804
100
AcDbArc
 50
339.8476766621572
 51
161.6458554044238
1001
AcDbBlockRepETag
1070
     1
1071
      269
1005
20A7
  0
ARC
  5
20A8
330
16AC
100
AcDbEntity
  8
Vista
100
AcDbCircle
 10
0.0817893570722959
 20
-0.0055476727905841
 30
0.0
 40
0.00198559314672
100
AcDbArc
 50
257.9247417517444
 51
348.062573700285
1001
AcDbBlockRepETag
1070
     1
1071
      270
1005
20A8
  0
ARC
  5
20A9
330
16AC
100
AcDbEntity
  8
Vista
100
AcDbCircle
 10
0.0809172890101877
 20
-0.0056997120153994
 30
0.0
 40
0.0014045772239725
100
AcDbArc
 50
179.8876448661953
 51
218.8256641381181
1001
AcDbBlockRepETag
1070
     1
1071
      271
1005
20A9
  0
ARC
  5
20AA
330
16AC
100
AcDbEntity
  8
Vista
100
AcDbCircle
 10
0.0947007348664784
 20
-0.0069359264332434
 30
0.0
 40
0.0007981664655388
100
AcDbArc
 50
109.422493387656
 51
121.7806662863492
1001
AcDbBlockRepETag
1070
     1
1071
      272
1005
20AA
  0
ARC
  5
20AB
330
16AC
100
AcDbEntity
  8
Vista
100
AcDbCircle
 10
0.0963694479296464
 20
-0.0116685629515132
 30
0.0
 40
0.0058163784679435
100
AcDbArc
 50
65.18170884654158
 51
109.4224933876558
1001
AcDbBlockRepETag
1070
     1
1071
      273
1005
20AB
  0
LINE
  5
20AC
330
16AC
100
AcDbEntity
  8
Vista
100
AcDbLine
 10
0.0971481117503572
 20
-0.0088995984613405
 30
0.0
 11
0.0842174282835799
 21
-0.0028985135775486
 31
0.0
1001
AcDbBlockRepETag
1070
     1
1071
      274
1005
20AC
  0
ARC
  5
20AD
330
16AC
100
AcDbEntity
  8
Vista
100
AcDbCircle
 10
0.0691516603312152
 20
-0.0055278598120481
 30
0.0
 40
0.0034364008916975
100
AcDbArc
 50
310.4284476776006
 51
351.673290142568
1001
AcDbBlockRepETag
1070
     1
1071
      275
1005
20AD
  0
ARC
  5
20AE
330
16AC
100
AcDbEntity
  8
Vista
100
AcDbCircle
 10
0.0679290218349138
 20
-0.0054697499793406
 30
0.0
 40
0.0053062389007473
100
AcDbArc
 50
318.1828948962913
 51
359.812351910124
1001
AcDbBlockRepETag
1070
     1
1071
      276
1005
20AE
  0
ARC
  5
20AF
330
16AC
100
AcDbEntity
  8
Vista
100
AcDbCircle
 10
0.0745960401851562
 20
-0.0032584582112349
 30
0.0
 40
0.002611277173504
100
AcDbArc
 50
203.9736350941011
 51
291.271056822554
1001
AcDbBlockRepETag
1070
     1
1071
      277
1005
20AF
  0
ARC
  5
20B0
330
16AC
100
AcDbEntity
  8
Vista
100
AcDbCircle
 10
0.0764906812547679
 20
-0.0032584582112349
 30
0.0
 40
0.002611277173504
100
AcDbArc
 50
248.728943177446
 51
336.0263649059001
1001
AcDbBlockRepETag
1070
     1
1071
      278
1005
20B0
  0
ARC
  5
20B1
330
16AC
100
AcDbEntity
  8
Vista
100
AcDbCircle
 10
0.0819350611087089
 20
-0.0055278598120481
 30
0.0
 40
0.0034364008916975
100
AcDbArc
 50
168.4632965677495
 51
229.5715523223994
1001
AcDbBlockRepETag
1070
     1
1071
      279
1005
20B1
  0
ARC
  5
20B2
330
16AC
100
AcDbEntity
  8
Vista
100
AcDbCircle
 10
0.0831576996050103
 20
-0.0054697499793406
 30
0.0
 40
0.0053062389007473
100
AcDbArc
 50
180.187648089876
 51
221.8171051037088
1001
AcDbBlockRepETag
1070
     1
1071
      280
1005
20B2
  0
LINE
  5
20B3
330
16AC
100
AcDbEntity
  8
Vista
100
AcDbLine
 10
0.0539386096895669
 20
-0.0088995984613405
 30
0.0
 11
0.0668692931562873
 21
-0.0028985135775486
 31
0.0
1001
AcDbBlockRepETag
1070
     1
1071
      281
1005
20B3
  0
ARC
  5
20B4
330
16AC
100
AcDbEntity
  8
Vista
100
AcDbCircle
 10
0.0391147586640273
 20
-0.0064027254888117
 30
0.0
 40
0.0088323192927699
100
AcDbArc
 50
310.5370795130766
 51
8.634267109095938
1001
AcDbBlockRepETag
1070
     1
1071
      282
1005
20B4
  0
ARC
  5
20B5
330
16AC
100
AcDbEntity
  8
Vista
100
AcDbCircle
 10
0.0678603693299351
 20
-0.0058956449539096
 30
0.0
 40
0.0005095345545804
100
AcDbArc
 50
18.35414459557621
 51
200.1523233378429
1001
AcDbBlockRepETag
1070
     1
1071
      283
1005
20B5
  0
ARC
  5
20B6
330
16AC
100
AcDbEntity
  8
Vista
100
AcDbCircle
 10
0.0691756028427904
 20
-0.0054592937865721
 30
0.0
 40
0.0008761932450411
100
AcDbArc
 50
198.3541445955765
 51
350.3487987872196
1001
AcDbBlockRepETag
1070
     1
1071
      284
1005
20B6
  0
ARC
  5
20B7
330
16AC
100
AcDbEntity
  8
Vista
100
AcDbCircle
 10
0.0692973643676282
 20
-0.0055476727905841
 30
0.0
 40
0.00198559314672
100
AcDbArc
 50
191.937426299715
 51
282.0752582482556
1001
AcDbBlockRepETag
1070
     1
1071
      285
1005
20B7
  0
ARC
  5
20B8
330
16AC
100
AcDbEntity
  8
Vista
100
AcDbCircle
 10
0.0701694324297364
 20
-0.0056997120153994
 30
0.0
 40
0.0014045772239725
100
AcDbArc
 50
321.1743358618818
 51
0.112355133804694
1001
AcDbBlockRepETag
1070
     1
1071
      286
1005
20B8
  0
LINE
  5
20B9
330
16AC
100
AcDbEntity
  8
Vista
100
AcDbLine
 10
0.045478417028562
 20
-0.0144796121222726
 30
0.0
 11
0.0673541908456628
 21
-0.0043271421532438
 31
0.0
1001
AcDbBlockRepETag
1070
     1
1071
      287
1005
20B9
  0
ARC
  5
20BA
330
16AC
100
AcDbEntity
  8
Vista
100
AcDbCircle
 10
0.0690960400111749
 20
-0.0046437417447862
 30
0.0
 40
0.004179346882733
100
AcDbArc
 50
269.4792079356929
 51
303.1289651579496
1001
AcDbBlockRepETag
1070
     1
1071
      288
1005
20BA
  0
LINE
  5
20BB
330
16AC
100
AcDbEntity
  8
Vista
100
AcDbLine
 10
0.0708768063641969
 20
-0.0094269824343769
 30
0.0
 11
0.0700749181110609
 21
-0.0093713333337178
 31
0.0
1001
AcDbBlockRepETag
1070
     1
1071
      289
1005
20BB
  0
ARC
  5
20BC
330
16AC
100
AcDbEntity
  8
Vista
100
AcDbCircle
 10
0.0705141193460577
 20
-0.01272174891281
 30
0.0
 40
0.001679700299989
100
AcDbArc
 50
265.2351625004089
 51
307.6346433766659
1001
AcDbBlockRepETag
1070
     1
1071
      290
1005
20BC
  0
ARC
  5
20BD
330
16AC
100
AcDbEntity
  8
Vista
100
AcDbCircle
 10
0.0691594443676422
 20
-0.0047677240723942
 30
0.0
 40
0.0027772809421492
100
AcDbArc
 50
281.4915368723282
 51
319.2583218711116
1001
AcDbBlockRepETag
1070
     1
1071
      291
1005
20BD
  0
LINE
  5
20BE
330
16AC
100
AcDbEntity
  8
Vista
100
AcDbLine
 10
0.052001052283913
 20
-0.00961638499885
 30
0.0
 11
0.0486195261943863
 21
-0.0113391373980392
 31
0.0
1001
AcDbBlockRepETag
1070
     1
1071
      292
1005
20BE
  0
LINE
  5
20BF
330
16AC
100
AcDbEntity
  8
Vista
100
AcDbLine
 10
0.0482915096220609
 20
-0.0108899805053966
 30
0.0
 11
0.0510431647936685
 21
-0.0083248692596101
 31
0.0
1001
AcDbBlockRepETag
1070
     1
1071
      293
1005
20BF
  0
LINE
  5
20C0
330
16AC
100
AcDbEntity
  8
Vista
100
AcDbLine
 10
0.0448469618742138
 20
-0.0131190003525035
 30
0.0
 11
0.0448552364092052
 21
-0.0131151601698036
 31
0.0
1001
AcDbBlockRepETag
1070
     1
1071
      294
1005
20C0
  0
ARC
  5
20C1
330
16AC
100
AcDbEntity
  8
Vista
100
AcDbCircle
 10
0.0485060401379087
 20
-0.0111163798729592
 30
0.0
 40
0.00025
100
AcDbArc
 50
225.345550658862
 51
296.9970244224323
1001
AcDbBlockRepETag
1070
     1
1071
      295
1005
20C1
  0
ARC
  5
20C2
330
16AC
100
AcDbEntity
  8
Vista
100
AcDbCircle
 10
0.0484619790410648
 20
-0.0110728470610582
 30
0.0
 40
0.00025
100
AcDbArc
 50
132.9905460881929
 51
225.3455506588594
1001
AcDbBlockRepETag
1070
     1
1071
      296
1005
20C2
  0
LINE
  5
20C3
330
16AC
100
AcDbEntity
  8
Vista
100
AcDbLine
 10
0.0482862716938826
 20
-0.0112506866746287
 30
0.0
 11
0.0483303327907834
 21
-0.0112942194865298
 31
0.0
1001
AcDbBlockRepETag
1070
     1
1071
      297
1005
20C3
  0
ARC
  5
20C4
330
16AC
100
AcDbEntity
  8
Vista
100
AcDbCircle
 10
0.0531986657661605
 20
-0.0081975443484907
 30
0.0
 40
0.0010199985231294
100
AcDbArc
 50
316.5051524119208
 51
132.2829532223609
1001
AcDbBlockRepETag
1070
     1
1071
      298
1005
20C4
  0
ARC
  5
20C5
330
16AC
100
AcDbEntity
  8
Vista
100
AcDbCircle
 10
0.0513390098489595
 20
-0.0091064272121457
 30
0.0
 40
0.0008356776471186
100
AcDbArc
 50
322.3936728903213
 51
110.733281110254
1001
AcDbBlockRepETag
1070
     1
1071
      299
1005
20C5
  0
ARC
  5
20C6
330
16AC
100
AcDbEntity
  8
Vista
100
AcDbCircle
 10
0.0523318859214328
 20
-0.0072443961969668
 30
0.0
 40
0.0002683332268469
100
AcDbArc
 50
160.3726346148392
 51
312.2829532223607
1001
AcDbBlockRepETag
1070
     1
1071
      300
1005
20C6
  0
ARC
  5
20C7
330
16AC
100
AcDbEntity
  8
Vista
100
AcDbCircle
 10
0.0637086642768736
 20
-0.0099393209017933
 30
0.0
 40
0.0005
100
AcDbArc
 50
250.8638269813165
 51
281.1983957155833
1001
AcDbBlockRepETag
1070
     1
1071
      301
1005
20C7
  0
ARC
  5
20C8
330
16AC
100
AcDbEntity
  8
Vista
100
AcDbCircle
 10
0.0640133257063553
 20
-0.0077470196809486
 30
0.0
 40
0.005
100
AcDbArc
 50
227.2823756542232
 51
268.6369931686985
1001
AcDbBlockRepETag
1070
     1
1071
      302
1005
20C8
  0
ARC
  5
20C9
330
16AC
100
AcDbEntity
  8
Vista
100
AcDbCircle
 10
0.0652591891725933
 20
-0.0169161022505478
 30
0.0
 40
0.007644544335151
100
AcDbArc
 50
100.8355410714253
 51
130.501174701642
1001
AcDbBlockRepETag
1070
     1
1071
      303
1005
20C9
  0
ARC
  5
20CA
330
16AC
100
AcDbEntity
  8
Vista
100
AcDbCircle
 10
0.0632229117810539
 20
-0.0108292603834457
 30
0.0
 40
0.0005
100
AcDbArc
 50
70.86382698131631
 51
133.8574060458808
1001
AcDbBlockRepETag
1070
     1
1071
      304
1005
20CA
  0
ARC
  5
20CB
330
16AC
100
AcDbEntity
  8
Vista
100
AcDbCircle
 10
0.0668820690145253
 20
-0.0046401104441145
 30
0.0
 40
0.0092287791588563
100
AcDbArc
 50
224.4530125620534
 51
227.282375654223
1001
AcDbBlockRepETag
1070
     1
1071
      305
1005
20CB
  0
ARC
  5
20CC
330
16AC
100
AcDbEntity
  8
Vista
100
AcDbCircle
 10
0.0624101709986462
 20
-0.0102233805774574
 30
0.0
 40
0.0005
100
AcDbArc
 50
283.4809807414896
 51
313.8574060458806
1001
AcDbBlockRepETag
1070
     1
1071
      306
1005
20CC
  0
LINE
  5
20CD
330
16AC
100
AcDbEntity
  8
Vista
100
AcDbLine
 10
0.0628764787932141
 20
-0.0104687271880835
 30
0.0
 11
0.062756603986486
 21
-0.0105839137728197
 31
0.0
1001
AcDbBlockRepETag
1070
     1
1071
      307
1005
20CD
  0
ARC
  5
20CE
330
16AC
100
AcDbEntity
  8
Vista
100
AcDbCircle
 10
0.0701887327443274
 20
-0.0426708681438015
 30
0.0
 40
0.0328668319173473
100
AcDbArc
 50
103.4809807414895
 51
107.204890416947
1001
AcDbBlockRepETag
1070
     1
1071
      308
1005
20CE
  0
LINE
  5
20CF
330
16AC
100
AcDbEntity
  8
Vista
100
AcDbLine
 10
0.0635447570688257
 20
-0.0104116919711146
 30
0.0
 11
0.0633868189891018
 21
-0.010356889314096
 31
0.0
1001
AcDbBlockRepETag
1070
     1
1071
      309
1005
20CF
  0
ARC
  5
20D0
330
16AC
100
AcDbEntity
  8
Vista
100
AcDbCircle
 10
0.0642759220057769
 20
-0.0059653030948823
 30
0.0
 40
0.0045110537962576
100
AcDbArc
 50
262.6421875032903
 51
295.7647018959723
1001
AcDbBlockRepETag
1070
     1
1071
      310
1005
20D0
  0
ARC
  5
20D1
330
16AC
100
AcDbEntity
  8
Vista
100
AcDbCircle
 10
0.0664024746063206
 20
-0.0113517762710274
 30
0.0
 40
0.0025
100
AcDbArc
 50
265.9127719693406
 51
299.8873857639178
1001
AcDbBlockRepETag
1070
     1
1071
      311
1005
20D1
  0
LINE
  5
20D2
330
16AC
100
AcDbEntity
  8
Vista
100
AcDbLine
 10
0.0638943921401278
 20
-0.0127456049615091
 30
0.0
 11
0.0642369217536043
 21
-0.0127537549211638
 31
0.0
1001
AcDbBlockRepETag
1070
     1
1071
      312
1005
20D2
  0
LINE
  5
20D3
330
16AC
100
AcDbEntity
  8
Vista
100
AcDbLine
 10
0.0642369217536043
 20
-0.0127537549211638
 30
0.0
 11
0.0641083784619241
 21
-0.0131819426562459
 31
0.0
1001
AcDbBlockRepETag
1070
     1
1071
      313
1005
20D3
  0
ARC
  5
20D4
330
16AC
100
AcDbEntity
  8
Vista
100
AcDbCircle
 10
0.0643478216434801
 20
-0.0132538242451119
 30
0.0
 40
0.00025
100
AcDbArc
 50
163.2900796559677
 51
253.6055490362976
1001
AcDbBlockRepETag
1070
     1
1071
      314
1005
20D4
  0
ARC
  5
20D5
330
16AC
100
AcDbEntity
  8
Vista
100
AcDbCircle
 10
0.0668820690145253
 20
-0.0046401104441145
 30
0.0
 40
0.0092287791588563
100
AcDbArc
 50
253.6055490362968
 51
265.9127719693405
1001
AcDbBlockRepETag
1070
     1
1071
      315
1005
20D5
  0
ARC
  5
20D6
330
16AC
100
AcDbEntity
  8
Vista
100
AcDbCircle
 10
0.0682332761639941
 20
-0.0135166364775614
 30
0.0
 40
0.00025
100
AcDbArc
 50
216.8884694183171
 51
278.6552636359329
1001
AcDbBlockRepETag
1070
     1
1071
      316
1005
20D6
  0
LINE
  5
20D7
330
16AC
100
AcDbEntity
  8
Vista
100
AcDbLine
 10
0.0679727423722625
 20
-0.0135859792573285
 30
0.0
 11
0.0680333247952376
 21
-0.0136667012974101
 31
0.0
1001
AcDbBlockRepETag
1070
     1
1071
      317
1005
20D7
  0
ARC
  5
20D8
330
16AC
100
AcDbEntity
  8
Vista
100
AcDbCircle
 10
0.0677727910035628
 20
-0.0137360440771772
 30
0.0
 40
0.00025
100
AcDbArc
 50
36.88846941831604
 51
119.8873857639166
1001
AcDbBlockRepETag
1070
     1
1071
      318
1005
20D8
  0
ARC
  5
20D9
330
16AC
100
AcDbEntity
  8
Vista
100
AcDbCircle
 10
0.0703877171804948
 20
-0.0142381924690938
 30
0.0
 40
0.0001579977775335
100
AcDbArc
 50
191.2826158064072
 51
265.2351625004087
1001
AcDbBlockRepETag
1070
     1
1071
      319
1005
20D9
  0
ARC
  5
20DA
330
16AC
100
AcDbEntity
  8
Vista
100
AcDbCircle
 10
0.0711845392626174
 20
-0.014079223108439
 30
0.0
 40
0.0009705226622141
100
AcDbArc
 50
126.4624893525172
 51
191.2826158064065
1001
AcDbBlockRepETag
1070
     1
1071
      320
1005
20DA
  0
ARC
  5
20DB
330
16AC
100
AcDbEntity
  8
Vista
100
AcDbCircle
 10
0.0705483315124411
 20
-0.0132182594222457
 30
0.0
 40
0.0001
100
AcDbArc
 50
306.4624893525177
 51
113.1416466777578
1001
AcDbBlockRepETag
1070
     1
1071
      321
1005
20DB
  0
ARC
  5
20DC
330
16AC
100
AcDbEntity
  8
Vista
100
AcDbCircle
 10
0.0668820690145253
 20
-0.0046401104441145
 30
0.0
 40
0.0092287791588563
100
AcDbArc
 50
278.655263635932
 51
293.1416466777561
1001
AcDbBlockRepETag
1070
     1
1071
      322
1005
20DC
  0
ARC
  5
20DD
330
16AC
100
AcDbEntity
  8
Vista
100
AcDbCircle
 10
0.0673671096043904
 20
-0.0094235537401346
 30
0.0
 40
0.0005
100
AcDbArc
 50
236.3277859412163
 51
250.9016695131366
1001
AcDbBlockRepETag
1070
     1
1071
      323
1005
20DD
  0
ARC
  5
20DE
330
16AC
100
AcDbEntity
  8
Vista
100
AcDbCircle
 10
0.0673671096043904
 20
-0.0094235537401346
 30
0.0
 40
0.0005
100
AcDbArc
 50
236.3277859412166
 51
250.9016695131055
1001
AcDbBlockRepETag
1070
     1
1071
      324
1005
20DE
  0
ARC
  5
20DF
330
16AC
100
AcDbEntity
  8
Vista
100
AcDbCircle
 10
0.0701887327443274
 20
-0.0426708681438015
 30
0.0
 40
0.0338668319173473
100
AcDbArc
 50
91.91323663572614
 51
100.8355410714253
1001
AcDbBlockRepETag
1070
     1
1071
      325
1005
20DF
  0
LINE
  5
20E0
330
16AC
100
AcDbEntity
  8
Vista
100
AcDbLine
 10
0.0666772594258873
 20
-0.0097494533732743
 30
0.0
 11
0.0663361495620052
 21
-0.0099767064516527
 31
0.0
1001
AcDbBlockRepETag
1070
     1
1071
      326
1005
20E0
  0
ARC
  5
20E1
330
16AC
100
AcDbEntity
  8
Vista
100
AcDbCircle
 10
0.0668158696511228
 20
-0.0099575091481654
 30
0.0
 40
0.00025
100
AcDbArc
 50
56.3277859412166
 51
123.6722140587821
1001
AcDbBlockRepETag
1070
     1
1071
      327
1005
20E1
  0
ARC
  5
20E2
330
16AC
100
AcDbEntity
  8
Vista
100
AcDbCircle
 10
0.0660589291115343
 20
-0.0095605949018989
 30
0.0
 40
0.0005
100
AcDbArc
 50
290.8352893316875
 51
303.6722140587826
1001
AcDbBlockRepETag
1070
     1
1071
      328
1005
20E2
  0
LINE
  5
20E3
330
16AC
100
AcDbEntity
  8
Vista
100
AcDbLine
 10
0.0670898891539196
 20
-0.0098396652898884
 30
0.0
 11
0.0669544798763582
 21
-0.0097494533732743
 31
0.0
1001
AcDbBlockRepETag
1070
     1
1071
      329
1005
20E3
  0
ARC
  5
20E4
330
16AC
100
AcDbEntity
  8
Vista
100
AcDbCircle
 10
0.0700403025777519
 20
-0.0098701336593479
 30
0.0
 40
0.0005
100
AcDbArc
 50
86.03017656635596
 51
129.786548299128
1001
AcDbBlockRepETag
1070
     1
1071
      330
1005
20E4
  0
LINE
  5
20E5
330
16AC
100
AcDbEntity
  8
Vista
100
AcDbLine
 10
0.0697203379242524
 20
-0.0094859167667778
 30
0.0
 11
0.0694574809261894
 21
-0.009704816429803
 31
0.0
1001
AcDbBlockRepETag
1070
     1
1071
      331
1005
20E5
  0
ARC
  5
20E6
330
16AC
100
AcDbEntity
  8
Vista
100
AcDbCircle
 10
0.0691375162726899
 20
-0.0093205995372614
 30
0.0
 40
0.0005
100
AcDbArc
 50
284.1047569413289
 51
309.7865482991269
1001
AcDbBlockRepETag
1070
     1
1071
      332
1005
20E6
  0
ARC
  5
20E7
330
16AC
100
AcDbEntity
  8
Vista
100
AcDbCircle
 10
0.0681192201318481
 20
-0.0073017583140143
 30
0.0
 40
0.0027511412000882
100
AcDbArc
 50
250.4059242177933
 51
294.4831619248088
1001
AcDbBlockRepETag
1070
     1
1071
      333
1005
20E7
  0
ARC
  5
20E8
330
16AC
100
AcDbEntity
  8
Vista
100
AcDbCircle
 10
0.0846842468336036
 20
-0.0113517762710274
 30
0.0
 40
0.0025
100
AcDbArc
 50
240.1126142360821
 51
274.0872280306594
1001
AcDbBlockRepETag
1070
     1
1071
      334
1005
20E8
  0
ARC
  5
20E9
330
16AC
100
AcDbEntity
  8
Vista
100
AcDbCircle
 10
0.0808979886955399
 20
-0.0426708681438015
 30
0.0
 40
0.0338668319173473
100
AcDbArc
 50
79.16445892857474
 51
88.08676336427389
1001
AcDbBlockRepETag
1070
     1
1071
      335
1005
20E9
  0
ARC
  5
20EA
330
16AC
100
AcDbEntity
  8
Vista
100
AcDbCircle
 10
0.0850277923283898
 20
-0.0095605949018989
 30
0.0
 40
0.0005
100
AcDbArc
 50
236.3277859412173
 51
249.1647106683125
1001
AcDbBlockRepETag
1070
     1
1071
      336
1005
20EA
  0
ARC
  5
20EB
330
16AC
100
AcDbEntity
  8
Vista
100
AcDbCircle
 10
0.0754728679203822
 20
-0.0117602820993454
 30
0.0
 40
0.0041783688999161
100
AcDbArc
 50
214.1804062106318
 51
270.9666766202086
1001
AcDbBlockRepETag
1070
     1
1071
      337
1005
20EB
  0
ARC
  5
20EC
330
16AC
100
AcDbEntity
  8
Vista
100
AcDbCircle
 10
0.0756138535195419
 20
-0.0117602820993454
 30
0.0
 40
0.0041783688999161
100
AcDbArc
 50
269.0333233797915
 51
325.8195937893682
1001
AcDbBlockRepETag
1070
     1
1071
      338
1005
20EC
  0
ARC
  5
20ED
330
16AC
100
AcDbEntity
  8
Vista
100
AcDbCircle
 10
0.1046790997060043
 20
0.0043060093789506
 30
0.0
 40
0.0300079244433316
100
AcDbArc
 50
205.2590340209272
 51
214.6016878355069
1001
AcDbBlockRepETag
1070
     1
1071
      339
1005
20ED
  0
ARC
  5
20EE
330
16AC
100
AcDbEntity
  8
Vista
100
AcDbCircle
 10
0.0869003955130552
 20
-0.0073401058326397
 30
0.0
 40
0.0100835527370566
100
AcDbArc
 50
187.9274024199334
 51
217.1587553880554
1001
AcDbBlockRepETag
1070
     1
1071
      340
1005
20EE
  0
ARC
  5
20EF
330
16AC
100
AcDbEntity
  8
Vista
100
AcDbCircle
 10
0.0464076217339198
 20
0.0043060093789506
 30
0.0
 40
0.0300079244433316
100
AcDbArc
 50
325.3983121644932
 51
334.7409659790689
1001
AcDbBlockRepETag
1070
     1
1071
      341
1005
20EF
  0
ARC
  5
20F0
330
16AC
100
AcDbEntity
  8
Vista
100
AcDbCircle
 10
0.0641863259268689
 20
-0.0073401058326397
 30
0.0
 40
0.0100835527370566
100
AcDbArc
 50
322.8412446119446
 51
352.0725975800666
1001
AcDbBlockRepETag
1070
     1
1071
      342
1005
20F0
  0
LINE
  5
20F1
330
16AC
100
AcDbEntity
  8
Vista
100
AcDbLine
 10
0.0754277001361174
 20
-0.0083826624525614
 30
0.0
 11
0.0750793157869794
 21
-0.0138950284572559
 31
0.0
1001
AcDbBlockRepETag
1070
     1
1071
      343
1005
20F1
  0
LINE
  5
20F2
330
16AC
100
AcDbEntity
  8
Vista
100
AcDbLine
 10
0.0756590213038067
 20
-0.0083826624525614
 30
0.0
 11
0.0760074056529447
 21
-0.0138950284572559
 31
0.0
1001
AcDbBlockRepETag
1070
     1
1071
      344
1005
20F2
  0
ARC
  5
20F3
330
16AC
100
AcDbEntity
  8
Vista
100
AcDbCircle
 10
0.0717992243045274
 20
-0.014031377287381
 30
0.0
 40
0.000131437910556
100
AcDbArc
 50
33.82526859915758
 51
115.1465963735471
1001
AcDbBlockRepETag
1070
     1
1071
      345
1005
20F3
  0
ARC
  5
20F4
330
16AC
100
AcDbEntity
  8
Vista
100
AcDbCircle
 10
0.0741319097863311
 20
-0.0124682902226709
 30
0.0
 40
0.0026765262503491
100
AcDbArc
 50
213.8252685991572
 51
217.7712830334656
1001
AcDbBlockRepETag
1070
     1
1071
      346
1005
20F4
  0
ARC
  5
20F5
330
16AC
100
AcDbEntity
  8
Vista
100
AcDbCircle
 10
0.0720685425424677
 20
-0.01460509508982
 30
0.0
 40
0.0007652237025405
100
AcDbArc
 50
115.1465963735528
 51
133.7080901139014
1001
AcDbBlockRepETag
1070
     1
1071
      347
1005
20F5
  0
ARC
  5
20F6
330
16AC
100
AcDbEntity
  8
Vista
100
AcDbCircle
 10
0.0755433607199621
 20
-0.0138950284572559
 30
0.0
 40
0.0004640449329922
100
AcDbArc
 50
180.0
 51
0.0000000000000132
1001
AcDbBlockRepETag
1070
     1
1071
      348
1005
20F6
  0
ARC
  5
20F7
330
16AC
100
AcDbEntity
  8
Vista
100
AcDbCircle
 10
0.070911421897506
 20
-0.0089281821087468
 30
0.0
 40
0.0005
100
AcDbArc
 50
266.0301765663574
 51
291.9073649614572
1001
AcDbBlockRepETag
1070
     1
1071
      349
1005
20F7
  0
ARC
  5
20F8
330
16AC
100
AcDbEntity
  8
Vista
100
AcDbCircle
 10
0.0688495332501589
 20
-0.0038009775028911
 30
0.0
 40
0.0060262656346287
100
AcDbArc
 50
291.9073649614579
 51
300.2305259773243
1001
AcDbBlockRepETag
1070
     1
1071
      350
1005
20F8
  0
ARC
  5
20F9
330
16AC
100
AcDbEntity
  8
Vista
100
AcDbCircle
 10
0.0755433607199621
 20
-0.0083826624525614
 30
0.0
 40
0.0001156605838683
100
AcDbArc
 50
0.0000000000000132
 51
180.0
1001
AcDbBlockRepETag
1070
     1
1071
      351
1005
20F9
  0
ARC
  5
20FA
330
16AC
100
AcDbEntity
  8
Vista
100
AcDbCircle
 10
0.0842046524253419
 20
-0.0046401104441145
 30
0.0
 40
0.0092287791588563
100
AcDbArc
 50
246.858353322244
 51
261.344736364068
1001
AcDbBlockRepETag
1070
     1
1071
      352
1005
20FA
  0
ARC
  5
20FB
330
16AC
100
AcDbEntity
  8
Vista
100
AcDbCircle
 10
0.0790181788974564
 20
-0.01460509508982
 30
0.0
 40
0.0007652237025405
100
AcDbArc
 50
46.29190988609862
 51
64.85340362644717
1001
AcDbBlockRepETag
1070
     1
1071
      353
1005
20FB
  0
ARC
  5
20FC
330
16AC
100
AcDbEntity
  8
Vista
100
AcDbCircle
 10
0.076954811653593
 20
-0.0124682902226709
 30
0.0
 40
0.0026765262503491
100
AcDbArc
 50
322.2287169665344
 51
326.1747314008429
1001
AcDbBlockRepETag
1070
     1
1071
      354
1005
20FC
  0
ARC
  5
20FD
330
16AC
100
AcDbEntity
  8
Vista
100
AcDbCircle
 10
0.0792874971353967
 20
-0.014031377287381
 30
0.0
 40
0.000131437910556
100
AcDbArc
 50
64.85340362645288
 51
146.1747314008424
1001
AcDbBlockRepETag
1070
     1
1071
      355
1005
20FD
  0
ARC
  5
20FE
330
16AC
100
AcDbEntity
  8
Vista
100
AcDbCircle
 10
0.0806990042594294
 20
-0.0142381924690938
 30
0.0
 40
0.0001579977775335
100
AcDbArc
 50
274.7648374995914
 51
348.7173841935929
1001
AcDbBlockRepETag
1070
     1
1071
      356
1005
20FE
  0
ARC
  5
20FF
330
16AC
100
AcDbEntity
  8
Vista
100
AcDbCircle
 10
0.0805726020938664
 20
-0.01272174891281
 30
0.0
 40
0.001679700299989
100
AcDbArc
 50
232.3653566233342
 51
274.7648374995911
1001
AcDbBlockRepETag
1070
     1
1071
      357
1005
20FF
  0
ARC
  5
2100
330
16AC
100
AcDbEntity
  8
Vista
100
AcDbCircle
 10
0.080538389927483
 20
-0.0132182594222457
 30
0.0
 40
0.0001
100
AcDbArc
 50
66.85835332224222
 51
233.5375106474824
1001
AcDbBlockRepETag
1070
     1
1071
      358
1005
2100
  0
ARC
  5
2101
330
16AC
100
AcDbEntity
  8
Vista
100
AcDbCircle
 10
0.0799021821773067
 20
-0.014079223108439
 30
0.0
 40
0.0009705226622141
100
AcDbArc
 50
348.7173841935935
 51
53.53751064748277
1001
AcDbBlockRepETag
1070
     1
1071
      359
1005
2101
  0
ARC
  5
2102
330
16AC
100
AcDbEntity
  8
Vista
100
AcDbCircle
 10
0.0833139304363613
 20
-0.0137360440771772
 30
0.0
 40
0.00025
100
AcDbArc
 50
60.11261423608341
 51
143.1115305816839
1001
AcDbBlockRepETag
1070
     1
1071
      360
1005
2102
  0
LINE
  5
2103
330
16AC
100
AcDbEntity
  8
Vista
100
AcDbLine
 10
0.0831139790676616
 20
-0.0135859792573285
 30
0.0
 11
0.0830533966446297
 21
-0.0136667012974101
 31
0.0
1001
AcDbBlockRepETag
1070
     1
1071
      361
1005
2103
  0
ARC
  5
2104
330
16AC
100
AcDbEntity
  8
Vista
100
AcDbCircle
 10
0.08285344527593
 20
-0.0135166364775614
 30
0.0
 40
0.00025
100
AcDbArc
 50
261.3447363640671
 51
323.1115305816829
1001
AcDbBlockRepETag
1070
     1
1071
      362
1005
2104
  0
ARC
  5
2105
330
16AC
100
AcDbEntity
  8
Vista
100
AcDbCircle
 10
0.0819272770722819
 20
-0.0047677240723942
 30
0.0
 40
0.0027772809421492
100
AcDbArc
 50
220.7416781288885
 51
258.5084631276718
1001
AcDbBlockRepETag
1070
     1
1071
      363
1005
2105
  0
ARC
  5
2106
330
16AC
100
AcDbEntity
  8
Vista
100
AcDbCircle
 10
0.0822371881897652
 20
-0.0038009775028911
 30
0.0
 40
0.0050262656346287
100
AcDbArc
 50
239.7694740226757
 51
268.4311405185253
1001
AcDbBlockRepETag
1070
     1
1071
      364
1005
2106
  0
ARC
  5
2107
330
16AC
100
AcDbEntity
  8
Vista
100
AcDbCircle
 10
0.0810464188621723
 20
-0.0098701336593479
 30
0.0
 40
0.0005
100
AcDbArc
 50
50.21345170087201
 51
93.96982343364406
1001
AcDbBlockRepETag
1070
     1
1071
      365
1005
2107
  0
ARC
  5
2108
330
16AC
100
AcDbEntity
  8
Vista
100
AcDbCircle
 10
0.0801752995424181
 20
-0.0089281821087468
 30
0.0
 40
0.0005
100
AcDbArc
 50
248.0926350385427
 51
273.9698234336426
1001
AcDbBlockRepETag
1070
     1
1071
      366
1005
2108
  0
LINE
  5
2109
330
16AC
100
AcDbEntity
  8
Vista
100
AcDbLine
 10
0.0802099150757272
 20
-0.0094269824343769
 30
0.0
 11
0.0810118033288632
 21
-0.0093713333337178
 31
0.0
1001
AcDbBlockRepETag
1070
     1
1071
      367
1005
2109
  0
ARC
  5
210A
330
16AC
100
AcDbEntity
  8
Vista
100
AcDbCircle
 10
0.0822371881897652
 20
-0.0038009775028911
 30
0.0
 40
0.0060262656346287
100
AcDbArc
 50
239.7694740226757
 51
248.092635038542
1001
AcDbBlockRepETag
1070
     1
1071
      368
1005
210A
  0
ARC
  5
210B
330
16AC
100
AcDbEntity
  8
Vista
100
AcDbCircle
 10
0.0819492051672342
 20
-0.0093205995372614
 30
0.0
 40
0.0005
100
AcDbArc
 50
230.2134517008731
 51
255.8952430586711
1001
AcDbBlockRepETag
1070
     1
1071
      369
1005
210B
  0
LINE
  5
210C
330
16AC
100
AcDbEntity
  8
Vista
100
AcDbLine
 10
0.0813663835156717
 20
-0.0094859167667778
 30
0.0
 11
0.0816292405137347
 21
-0.009704816429803
 31
0.0
1001
AcDbBlockRepETag
1070
     1
1071
      370
1005
210C
  0
LINE
  5
210D
330
16AC
100
AcDbEntity
  8
Vista
100
AcDbLine
 10
0.0839968322859477
 20
-0.0098396652898884
 30
0.0
 11
0.0841322415635659
 21
-0.0097494533732743
 31
0.0
1001
AcDbBlockRepETag
1070
     1
1071
      371
1005
210D
  0
ARC
  5
210E
330
16AC
100
AcDbEntity
  8
Vista
100
AcDbCircle
 10
0.0837196118354768
 20
-0.0094235537401346
 30
0.0
 40
0.0005
100
AcDbArc
 50
289.0983304868945
 51
303.6722140587834
1001
AcDbBlockRepETag
1070
     1
1071
      372
1005
210E
  0
ARC
  5
210F
330
16AC
100
AcDbEntity
  8
Vista
100
AcDbCircle
 10
0.0837196118354768
 20
-0.0094235537401346
 30
0.0
 40
0.0005
100
AcDbArc
 50
289.0983304868634
 51
303.6722140587837
1001
AcDbBlockRepETag
1070
     1
1071
      373
1005
210F
  0
ARC
  5
2110
330
16AC
100
AcDbEntity
  8
Vista
100
AcDbCircle
 10
0.0842708517888014
 20
-0.0099575091481654
 30
0.0
 40
0.00025
100
AcDbArc
 50
56.32778594121789
 51
123.6722140587834
1001
AcDbBlockRepETag
1070
     1
1071
      374
1005
2110
  0
LINE
  5
2111
330
16AC
100
AcDbEntity
  8
Vista
100
AcDbLine
 10
0.0844094620140368
 20
-0.0097494533732743
 30
0.0
 11
0.0847505718779189
 21
-0.0099767064516527
 31
0.0
1001
AcDbBlockRepETag
1070
     1
1071
      375
1005
2111
  0
ARC
  5
2112
330
16AC
100
AcDbEntity
  8
Vista
100
AcDbCircle
 10
0.082967501308076
 20
-0.0073017583140143
 30
0.0
 40
0.0027511412000882
100
AcDbArc
 50
245.5168380751912
 51
289.5940757822067
1001
AcDbBlockRepETag
1070
     1
1071
      376
1005
2112
  0
ARC
  5
2113
330
16AC
100
AcDbEntity
  8
Vista
100
AcDbCircle
 10
0.0878638096588702
 20
-0.0108292603834457
 30
0.0
 40
0.0005
100
AcDbArc
 50
46.14259395411921
 51
109.1361730186837
1001
AcDbBlockRepETag
1070
     1
1071
      377
1005
2113
  0
ARC
  5
2114
330
16AC
100
AcDbEntity
  8
Vista
100
AcDbCircle
 10
0.0858275322673308
 20
-0.0169161022505478
 30
0.0
 40
0.007644544335151
100
AcDbArc
 50
49.49882529835806
 51
79.16445892857474
1001
AcDbBlockRepETag
1070
     1
1071
      378
1005
2114
  0
ARC
  5
2115
330
16AC
100
AcDbEntity
  8
Vista
100
AcDbCircle
 10
0.0868107994341472
 20
-0.0059653030948823
 30
0.0
 40
0.0045110537962576
100
AcDbArc
 50
244.2352981040277
 51
277.3578124967098
1001
AcDbBlockRepETag
1070
     1
1071
      379
1005
2115
  0
LINE
  5
2116
330
16AC
100
AcDbEntity
  8
Vista
100
AcDbLine
 10
0.08821024264671
 20
-0.0104687271880835
 30
0.0
 11
0.0883301174534381
 21
-0.0105839137728197
 31
0.0
1001
AcDbBlockRepETag
1070
     1
1071
      380
1005
2116
  0
ARC
  5
2117
330
16AC
100
AcDbEntity
  8
Vista
100
AcDbCircle
 10
0.0870733957335688
 20
-0.0077470196809486
 30
0.0
 40
0.005
100
AcDbArc
 50
271.3630068313015
 51
312.7176243457769
1001
AcDbBlockRepETag
1070
     1
1071
      381
1005
2117
  0
ARC
  5
2118
330
16AC
100
AcDbEntity
  8
Vista
100
AcDbCircle
 10
0.086738899796444
 20
-0.0132538242451119
 30
0.0
 40
0.00025
100
AcDbArc
 50
286.3944509637024
 51
16.70992034403233
1001
AcDbBlockRepETag
1070
     1
1071
      382
1005
2118
  0
LINE
  5
2119
330
16AC
100
AcDbEntity
  8
Vista
100
AcDbLine
 10
0.086849799686263
 20
-0.0127537549211638
 30
0.0
 11
0.086978342978
 21
-0.0131819426562459
 31
0.0
1001
AcDbBlockRepETag
1070
     1
1071
      383
1005
2119
  0
LINE
  5
211A
330
16AC
100
AcDbEntity
  8
Vista
100
AcDbLine
 10
0.0871923292997963
 20
-0.0127456049615091
 30
0.0
 11
0.086849799686263
 21
-0.0127537549211638
 31
0.0
1001
AcDbBlockRepETag
1070
     1
1071
      384
1005
211A
  0
ARC
  5
211B
330
16AC
100
AcDbEntity
  8
Vista
100
AcDbCircle
 10
0.0842046524253419
 20
-0.0046401104441145
 30
0.0
 40
0.0092287791588563
100
AcDbArc
 50
274.0872280306595
 51
286.3944509637032
1001
AcDbBlockRepETag
1070
     1
1071
      385
1005
211B
  0
ARC
  5
211C
330
16AC
100
AcDbEntity
  8
Vista
100
AcDbCircle
 10
0.088676550441221
 20
-0.0102233805774574
 30
0.0
 40
0.0005
100
AcDbArc
 50
226.1425939541195
 51
256.5190192585104
1001
AcDbBlockRepETag
1070
     1
1071
      386
1005
211C
  0
ARC
  5
211D
330
16AC
100
AcDbEntity
  8
Vista
100
AcDbCircle
 10
0.0842046524253419
 20
-0.0046401104441145
 30
0.0
 40
0.0092287791588563
100
AcDbArc
 50
312.7176243457769
 51
315.5469874379466
1001
AcDbBlockRepETag
1070
     1
1071
      387
1005
211D
  0
ARC
  5
211E
330
16AC
100
AcDbEntity
  8
Vista
100
AcDbCircle
 10
0.0808979886955399
 20
-0.0426708681438015
 30
0.0
 40
0.0328668319173473
100
AcDbArc
 50
72.79510958305299
 51
76.51901925851044
1001
AcDbBlockRepETag
1070
     1
1071
      388
1005
211E
  0
LINE
  5
211F
330
16AC
100
AcDbEntity
  8
Vista
100
AcDbLine
 10
0.0875419643710984
 20
-0.0104116919711146
 30
0.0
 11
0.0876999024508223
 21
-0.010356889314096
 31
0.0
1001
AcDbBlockRepETag
1070
     1
1071
      389
1005
211F
  0
ARC
  5
2120
330
16AC
100
AcDbEntity
  8
Vista
100
AcDbCircle
 10
0.0873780571630505
 20
-0.0099393209017933
 30
0.0
 40
0.0005
100
AcDbArc
 50
258.8016042844167
 51
289.1361730186835
1001
AcDbBlockRepETag
1070
     1
1071
      390
1005
2120
  0
ARC
  5
2121
330
16AC
100
AcDbEntity
  8
Vista
100
AcDbCircle
 10
0.0887636610938216
 20
-0.0191538700821923
 30
0.0
 40
0.0132457200365208
100
AcDbArc
 50
50.72869803720352
 51
65.13400922906697
1001
AcDbBlockRepETag
1070
     1
1071
      391
1005
2121
  0
ARC
  5
2122
330
16AC
100
AcDbEntity
  8
Vista
100
AcDbCircle
 10
0.0945436998381411
 20
-0.006682463929053
 30
0.0
 40
0.0005
100
AcDbArc
 50
121.7806662863492
 51
245.1340092290668
1001
AcDbBlockRepETag
1070
     1
1071
      392
1005
2122
  0
ARC
  5
2123
330
16AC
100
AcDbEntity
  8
Vista
100
AcDbCircle
 10
0.0685531786371598
 20
-0.0067363983914674
 30
0.0
 40
0.0054457603197957
100
AcDbArc
 50
32.84409872385831
 51
106.4418527402433
1001
AcDbBlockRepETag
1070
     1
1071
      393
1005
2123
  0
ARC
  5
2124
330
16AC
100
AcDbEntity
  8
Vista
100
AcDbCircle
 10
0.067837143855229
 20
-0.0073589199283219
 30
0.0
 40
0.0053254526663076
100
AcDbArc
 50
30.16243181114446
 51
64.13207634024754
1001
AcDbBlockRepETag
1070
     1
1071
      394
1005
2124
  0
ARC
  5
2125
330
16AC
100
AcDbEntity
  8
Vista
100
AcDbCircle
 10
0.0682880386336251
 20
-0.0059959115642698
 30
0.0
 40
0.0034068626355554
100
AcDbArc
 50
44.82882349325167
 51
114.6098775664188
1001
AcDbBlockRepETag
1070
     1
1071
      395
1005
2125
  0
ARC
  5
2126
330
16AC
100
AcDbEntity
  8
Vista
100
AcDbCircle
 10
0.047686686874215
 20
-0.0062020521088755
 30
0.0
 40
0.002018667879355
100
AcDbArc
 50
7.667971362508638
 51
65.0394038197245
1001
AcDbBlockRepETag
1070
     1
1071
      396
1005
2126
  0
ARC
  5
2127
330
16AC
100
AcDbEntity
  8
Vista
100
AcDbCircle
 10
0.0416520646722916
 20
-0.0086350372892525
 30
0.0
 40
0.0085870576101013
100
AcDbArc
 50
18.44966176095419
 51
30.10670798315767
1001
AcDbBlockRepETag
1070
     1
1071
      397
1005
2127
  0
ARC
  5
2128
330
16AC
100
AcDbEntity
  8
Vista
100
AcDbCircle
 10
0.0496421315946805
 20
-0.0022888452034806
 30
0.0
 40
0.0010924616130371
100
AcDbArc
 50
150.9045353308202
 51
178.7534744097734
1001
AcDbBlockRepETag
1070
     1
1071
      398
1005
2128
  0
ARC
  5
2129
330
16AC
100
AcDbEntity
  8
Vista
100
AcDbCircle
 10
0.0484574576377099
 20
-0.0049840591699706
 30
0.0
 40
0.0006174763789451
100
AcDbArc
 50
82.453212740332
 51
188.634267109096
1001
AcDbBlockRepETag
1070
     1
1071
      399
1005
2129
  0
ARC
  5
212A
330
16AC
100
AcDbEntity
  8
Vista
100
AcDbCircle
 10
0.052489995728763
 20
-0.0023508130437904
 30
0.0
 40
0.0039409998590975
100
AcDbArc
 50
178.7534744097732
 51
210.1067079831576
1001
AcDbBlockRepETag
1070
     1
1071
      400
1005
212A
  0
ARC
  5
212B
330
16AC
100
AcDbEntity
  8
Vista
100
AcDbCircle
 10
0.0491140418001805
 20
-0.0019949689438192
 30
0.0
 40
0.0004881089948701
100
AcDbArc
 50
72.89840995982022
 51
150.9045353308206
1001
AcDbBlockRepETag
1070
     1
1071
      401
1005
212B
  0
ARC
  5
212C
330
16AC
100
AcDbEntity
  8
Vista
100
AcDbCircle
 10
0.0497740501838848
 20
-0.0059253912111501
 30
0.0
 40
0.000025
100
AcDbArc
 50
273.6653567918803
 51
18.44966176096301
1001
AcDbBlockRepETag
1070
     1
1071
      402
1005
212C
  0
ARC
  5
212D
330
16AC
100
AcDbEntity
  8
Vista
100
AcDbCircle
 10
0.0497120801606457
 20
-0.0059293610081284
 30
0.0
 40
0.000025
100
AcDbArc
 50
187.6679713625065
 51
273.6653567918805
1001
AcDbBlockRepETag
1070
     1
1071
      403
1005
212D
  0
LINE
  5
212E
330
16AC
100
AcDbEntity
  8
Vista
100
AcDbLine
 10
0.0497136783836254
 20
-0.0059543098694803
 30
0.0
 11
0.0497756484068646
 21
-0.0059503400725021
 31
0.0
1001
AcDbBlockRepETag
1070
     1
1071
      404
1005
212E
  0
ARC
  5
212F
330
16AC
100
AcDbEntity
  8
Vista
100
AcDbCircle
 10
0.067119577696019
 20
-0.0018785442505305
 30
0.0
 40
0.0003807866265621
100
AcDbArc
 50
106.4418527402451
 51
274.8271516377141
1001
AcDbBlockRepETag
1070
     1
1071
      405
1005
212F
  0
ARC
  5
2130
330
16AC
100
AcDbEntity
  8
Vista
100
AcDbCircle
 10
0.0682880386336251
 20
-0.0059959115642698
 30
0.0
 40
0.0039068626355554
100
AcDbArc
 50
61.35978956882014
 51
106.9104870047877
1001
AcDbBlockRepETag
1070
     1
1071
      406
1005
2130
  0
LINE
  5
2131
330
16AC
100
AcDbEntity
  8
Vista
100
AcDbLine
 10
0.0673541908456628
 20
-0.0043271421532438
 30
0.0
 11
0.0674939494584805
 21
-0.0042622600730908
 31
0.0
1001
AcDbBlockRepETag
1070
     1
1071
      407
1005
2131
  0
ARC
  5
2132
330
16AC
100
AcDbEntity
  8
Vista
100
AcDbCircle
 10
0.069556849711887
 20
-0.005494595678897
 30
0.0
 40
0.0004952803805325
100
AcDbArc
 50
346.9788797809845
 51
13.65874314723578
1001
AcDbBlockRepETag
1070
     1
1071
      408
1005
2132
  0
ARC
  5
2133
330
16AC
100
AcDbEntity
  8
Vista
100
AcDbCircle
 10
0.0685828835193547
 20
-0.0057028231894662
 30
0.0
 40
0.0014911291848323
100
AcDbArc
 50
11.53940451040769
 51
44.82882349325164
1001
AcDbBlockRepETag
1070
     1
1071
      409
1005
2133
  0
ARC
  5
2134
330
16AC
100
AcDbEntity
  8
Vista
100
AcDbCircle
 10
0.0682880386336251
 20
-0.0059959115642698
 30
0.0
 40
0.0019068626355554
100
AcDbArc
 50
44.82882349325167
 51
114.6098775664188
1001
AcDbBlockRepETag
1070
     1
1071
      410
1005
2134
  0
ARC
  5
2135
330
16AC
100
AcDbEntity
  8
Vista
100
AcDbCircle
 10
0.0756874319769168
 20
-0.0050168256825032
 30
0.0
 40
0.0047529979685688
100
AcDbArc
 50
49.76093281323027
 51
91.7369962308596
1001
AcDbBlockRepETag
1070
     1
1071
      411
1005
2135
  0
ARC
  5
2136
330
16AC
100
AcDbEntity
  8
Vista
100
AcDbCircle
 10
0.0778543977123718
 20
-0.003698941756511
 30
0.0
 40
0.0001335532672446
100
AcDbArc
 50
130.2012108169664
 51
321.0698173421529
1001
AcDbBlockRepETag
1070
     1
1071
      412
1005
2136
  0
ARC
  5
2137
330
16AC
100
AcDbEntity
  8
Vista
100
AcDbCircle
 10
0.0825335428027643
 20
-0.0067363983914674
 30
0.0
 40
0.0054457603197957
100
AcDbArc
 50
73.55814725975668
 51
147.1559012761417
1001
AcDbBlockRepETag
1070
     1
1071
      413
1005
2137
  0
ARC
  5
2138
330
16AC
100
AcDbEntity
  8
Vista
100
AcDbCircle
 10
0.072909493598047
 20
-0.0020746217705039
 30
0.0
 40
0.000898695527284
100
AcDbArc
 50
130.2390671867696
 51
229.7609328132301
1001
AcDbBlockRepETag
1070
     1
1071
      414
1005
2138
  0
LINE
  5
2139
330
16AC
100
AcDbEntity
  8
Vista
100
AcDbLine
 10
0.0736682040108576
 20
-0.0026242750932965
 30
0.0
 11
0.0733831473702367
 21
-0.0019711335887962
 31
0.0
1001
AcDbBlockRepETag
1070
     1
1071
      415
1005
2139
  0
LINE
  5
213A
330
16AC
100
AcDbEntity
  8
Vista
100
AcDbLine
 10
0.0738515068001675
 20
-0.0025442745467501
 30
0.0
 11
0.0735664501594897
 21
-0.0018911330422497
 31
0.0
1001
AcDbBlockRepETag
1070
     1
1071
      416
1005
213A
  0
LINE
  5
213B
330
16AC
100
AcDbEntity
  8
Vista
100
AcDbLine
 10
0.0749472754029625
 20
-0.0022791151004355
 30
0.0
 11
0.0748542576437785
 21
-0.0015725750734248
 31
0.0
1001
AcDbBlockRepETag
1070
     1
1071
      417
1005
213B
  0
LINE
  5
213C
330
16AC
100
AcDbEntity
  8
Vista
100
AcDbLine
 10
0.0751455643752479
 20
-0.0022530098619882
 30
0.0
 11
0.0750525466160639
 21
-0.0015464698349774
 31
0.0
1001
AcDbBlockRepETag
1070
     1
1071
      418
1005
213C
  0
LINE
  5
213D
330
16AC
100
AcDbEntity
  8
Vista
100
AcDbLine
 10
0.0761394460369616
 20
-0.0022791151004355
 30
0.0
 11
0.0762324637961456
 21
-0.0015725750734248
 31
0.0
1001
AcDbBlockRepETag
1070
     1
1071
      419
1005
213D
  0
LINE
  5
213E
330
16AC
100
AcDbEntity
  8
Vista
100
AcDbLine
 10
0.0759411570646762
 20
-0.0022530098619882
 30
0.0
 11
0.0760341748238602
 21
-0.0015464698349774
 31
0.0
1001
AcDbBlockRepETag
1070
     1
1071
      420
1005
213E
  0
LINE
  5
213F
330
16AC
100
AcDbEntity
  8
Vista
100
AcDbLine
 10
0.0772352146397566
 20
-0.0025442745467501
 30
0.0
 11
0.0775202712804344
 21
-0.0018911330422497
 31
0.0
1001
AcDbBlockRepETag
1070
     1
1071
      421
1005
213F
  0
LINE
  5
2140
330
16AC
100
AcDbEntity
  8
Vista
100
AcDbLine
 10
0.0774185174290096
 20
-0.0026242750932965
 30
0.0
 11
0.0777035740696874
 21
-0.0019711335887962
 31
0.0
1001
AcDbBlockRepETag
1070
     1
1071
      422
1005
2140
  0
LINE
  5
2141
330
16AC
100
AcDbEntity
  8
Vista
100
AcDbLine
 10
0.0723289557597013
 20
-0.0027606461643757
 30
0.0
 11
0.0733185288663094
 21
-0.0035969361231025
 31
0.0
1001
AcDbBlockRepETag
1070
     1
1071
      423
1005
2141
  0
ARC
  5
2142
330
16AC
100
AcDbEntity
  8
Vista
100
AcDbCircle
 10
0.0732323237275523
 20
-0.003698941756511
 30
0.0
 40
0.0001335532672446
100
AcDbArc
 50
218.9301826578472
 51
49.79878918303358
1001
AcDbBlockRepETag
1070
     1
1071
      424
1005
2142
  0
ARC
  5
2143
330
16AC
100
AcDbEntity
  8
Vista
100
AcDbCircle
 10
0.0737598554055126
 20
-0.0025842748200091
 30
0.0
 40
0.0001
100
AcDbArc
 50
203.578349313733
 51
23.57834931373302
1001
AcDbBlockRepETag
1070
     1
1071
      425
1005
2143
  0
ARC
  5
2144
330
16AC
100
AcDbEntity
  8
Vista
100
AcDbCircle
 10
0.0685828835193547
 20
-0.0057028231894662
 30
0.0
 40
0.0039911291848323
100
AcDbArc
 50
0.112355133804465
 51
14.80262333922515
1001
AcDbBlockRepETag
1070
     1
1071
      426
1005
2144
  0
ARC
  5
2145
330
16AC
100
AcDbEntity
  8
Vista
100
AcDbCircle
 10
0.0701694324297364
 20
-0.0056997120153994
 30
0.0
 40
0.0024045772239725
100
AcDbArc
 50
348.6188770872894
 51
0.112355133804694
1001
AcDbBlockRepETag
1070
     1
1071
      427
1005
2145
  0
ARC
  5
2146
330
16AC
100
AcDbEntity
  8
Vista
100
AcDbCircle
 10
0.0685828835193547
 20
-0.0057028231894662
 30
0.0
 40
0.0029911291848323
100
AcDbArc
 50
0.1123551338044713
 51
44.82882349325164
1001
AcDbBlockRepETag
1070
     1
1071
      428
1005
2146
  0
ARC
  5
2147
330
16AC
100
AcDbEntity
  8
Vista
100
AcDbCircle
 10
0.0750464198891336
 20
-0.0022660624811977
 30
0.0
 40
0.0001
100
AcDbArc
 50
187.5
 51
7.500000000000004
1001
AcDbBlockRepETag
1070
     1
1071
      429
1005
2147
  0
ARC
  5
2148
330
16AC
100
AcDbEntity
  8
Vista
100
AcDbCircle
 10
0.0760403015507905
 20
-0.0022660624811977
 30
0.0
 40
0.0001
100
AcDbArc
 50
172.5
 51
352.5000000000001
1001
AcDbBlockRepETag
1070
     1
1071
      430
1005
2148
  0
ARC
  5
2149
330
16AC
100
AcDbEntity
  8
Vista
100
AcDbCircle
 10
0.0773268660344115
 20
-0.0025842748200091
 30
0.0
 40
0.0001
100
AcDbArc
 50
156.4216506862679
 51
336.4216506862679
1001
AcDbBlockRepETag
1070
     1
1071
      431
1005
2149
  0
ARC
  5
214A
330
16AC
100
AcDbEntity
  8
Vista
100
AcDbCircle
 10
0.0753992894630073
 20
-0.0050168256825032
 30
0.0
 40
0.0047529979685688
100
AcDbArc
 50
88.26300376914042
 51
130.2390671867698
1001
AcDbBlockRepETag
1070
     1
1071
      432
1005
214A
  0
ARC
  5
214B
330
16AC
100
AcDbEntity
  8
Vista
100
AcDbCircle
 10
0.0734747987648348
 20
-0.0019311333155088
 30
0.0
 40
0.0001
100
AcDbArc
 50
23.57834931373302
 51
203.578349313733
1001
AcDbBlockRepETag
1070
     1
1071
      433
1005
214B
  0
ARC
  5
214C
330
16AC
100
AcDbEntity
  8
Vista
100
AcDbCircle
 10
0.0749534021298928
 20
-0.0015595224542153
 30
0.0
 40
0.0001
100
AcDbArc
 50
7.500000000000004
 51
187.5
1001
AcDbBlockRepETag
1070
     1
1071
      434
1005
214C
  0
ARC
  5
214D
330
16AC
100
AcDbEntity
  8
Vista
100
AcDbCircle
 10
0.0761333193099745
 20
-0.0015595224542153
 30
0.0
 40
0.0001
100
AcDbArc
 50
352.5000000000001
 51
172.5
1001
AcDbBlockRepETag
1070
     1
1071
      435
1005
214D
  0
ARC
  5
214E
330
16AC
100
AcDbEntity
  8
Vista
100
AcDbCircle
 10
0.0776119226750325
 20
-0.0019311333155088
 30
0.0
 40
0.0001
100
AcDbArc
 50
336.4216506862679
 51
156.4216506862679
1001
AcDbBlockRepETag
1070
     1
1071
      436
1005
214E
  0
ARC
  5
214F
330
16AC
100
AcDbEntity
  8
Vista
100
AcDbCircle
 10
0.0781772278418771
 20
-0.0020746217705039
 30
0.0
 40
0.000898695527284
100
AcDbArc
 50
310.2390671867699
 51
49.76093281323047
1001
AcDbBlockRepETag
1070
     1
1071
      437
1005
214F
  0
ARC
  5
2150
330
16AC
100
AcDbEntity
  8
Vista
100
AcDbCircle
 10
0.0839671437439051
 20
-0.0018785442505305
 30
0.0
 40
0.0003807866265621
100
AcDbArc
 50
265.1728483622859
 51
73.55814725975488
1001
AcDbBlockRepETag
1070
     1
1071
      438
1005
2150
  0
ARC
  5
2151
330
16AC
100
AcDbEntity
  8
Vista
100
AcDbCircle
 10
0.082798682806299
 20
-0.0059959115642698
 30
0.0
 40
0.0039068626355554
100
AcDbArc
 50
73.0895129952123
 51
118.6402104311799
1001
AcDbBlockRepETag
1070
     1
1071
      439
1005
2151
  0
ARC
  5
2152
330
16AC
100
AcDbEntity
  8
Vista
100
AcDbCircle
 10
0.082798682806299
 20
-0.0059959115642698
 30
0.0
 40
0.0034068626355554
100
AcDbArc
 50
65.39012243358119
 51
135.1711765067483
1001
AcDbBlockRepETag
1070
     1
1071
      440
1005
2152
  0
ARC
  5
2153
330
16AC
100
AcDbEntity
  8
Vista
100
AcDbCircle
 10
0.0825038379205694
 20
-0.0057028231894662
 30
0.0
 40
0.0014911291848323
100
AcDbArc
 50
135.1711765067484
 51
168.4605954895923
1001
AcDbBlockRepETag
1070
     1
1071
      441
1005
2153
  0
ARC
  5
2154
330
16AC
100
AcDbEntity
  8
Vista
100
AcDbCircle
 10
0.0815298717279802
 20
-0.005494595678897
 30
0.0
 40
0.0004952803805325
100
AcDbArc
 50
166.3412568527642
 51
193.0211202190155
1001
AcDbBlockRepETag
1070
     1
1071
      442
1005
2154
  0
ARC
  5
2155
330
16AC
100
AcDbEntity
  8
Vista
100
AcDbCircle
 10
0.0825038379205694
 20
-0.0057028231894662
 30
0.0
 40
0.0029911291848323
100
AcDbArc
 50
135.1711765067484
 51
179.8876448661956
1001
AcDbBlockRepETag
1070
     1
1071
      443
1005
2155
  0
ARC
  5
2156
330
16AC
100
AcDbEntity
  8
Vista
100
AcDbCircle
 10
0.0832495775846951
 20
-0.0073589199283219
 30
0.0
 40
0.0053254526663076
100
AcDbArc
 50
115.8679236597524
 51
149.8375681888556
1001
AcDbBlockRepETag
1070
     1
1071
      444
1005
2156
  0
LINE
  5
2157
330
16AC
100
AcDbEntity
  8
Vista
100
AcDbLine
 10
0.0787577656802228
 20
-0.0027606461643757
 30
0.0
 11
0.0777681925736147
 21
-0.0035969361231025
 31
0.0
1001
AcDbBlockRepETag
1070
     1
1071
      445
1005
2157
  0
LINE
  5
2158
330
16AC
100
AcDbEntity
  8
Vista
100
AcDbLine
 10
0.0837325305942614
 20
-0.0043271421532438
 30
0.0
 11
0.0835927719813867
 21
-0.0042622600730908
 31
0.0
1001
AcDbBlockRepETag
1070
     1
1071
      446
1005
2158
  0
ARC
  5
2159
330
16AC
100
AcDbEntity
  8
Vista
100
AcDbCircle
 10
0.082798682806299
 20
-0.0059959115642698
 30
0.0
 40
0.0019068626355554
100
AcDbArc
 50
65.39012243358119
 51
135.1711765067483
1001
AcDbBlockRepETag
1070
     1
1071
      447
1005
2159
  0
ARC
  5
215A
330
16AC
100
AcDbEntity
  8
Vista
100
AcDbCircle
 10
0.1122852669536769
 20
-0.0056745126413205
 30
0.0
 40
0.0037590081319851
100
AcDbArc
 50
117.6857017679881
 51
212.3002205894458
1001
AcDbBlockRepETag
1070
     1
1071
      448
1005
215A
  0
ARC
  5
215B
330
16AC
100
AcDbEntity
  8
Vista
100
AcDbCircle
 10
0.1030258028568483
 20
-0.0060430793977844
 30
0.0
 40
0.001
100
AcDbArc
 50
331.9624169219374
 51
36.64187650307484
1001
AcDbBlockRepETag
1070
     1
1071
      449
1005
215B
  0
ARC
  5
215C
330
16AC
100
AcDbEntity
  8
Vista
100
AcDbCircle
 10
0.1122852669536769
 20
-0.0056745126413205
 30
0.0
 40
0.0052590081319851
100
AcDbArc
 50
91.52269448475625
 51
212.3002205894458
1001
AcDbBlockRepETag
1070
     1
1071
      450
1005
215C
  0
ARC
  5
215D
330
16AC
100
AcDbEntity
  8
Vista
100
AcDbCircle
 10
0.120451465866438
 20
-0.001947406973585
 30
0.0
 40
0.0127890457487871
100
AcDbArc
 50
216.7803005127326
 51
235.3085958378145
1001
AcDbBlockRepETag
1070
     1
1071
      451
1005
215D
  0
ARC
  5
215E
330
16AC
100
AcDbEntity
  8
Vista
100
AcDbCircle
 10
0.1166365916006953
 20
-0.0076568886865971
 30
0.0
 40
0.0074241408268026
100
AcDbArc
 50
234.4373738947653
 51
285.9595877900921
1001
AcDbBlockRepETag
1070
     1
1071
      452
1005
215E
  0
ARC
  5
215F
330
16AC
100
AcDbEntity
  8
Vista
100
AcDbCircle
 10
0.1077131549258752
 20
-0.0099442395563472
 30
0.0
 40
0.005
100
AcDbArc
 50
245.104150701862
 51
299.4705691319754
1001
AcDbBlockRepETag
1070
     1
1071
      453
1005
215F
  0
ARC
  5
2160
330
16AC
100
AcDbEntity
  8
Vista
100
AcDbCircle
 10
0.1119719627758968
 20
-0.0064027254888117
 30
0.0
 40
0.0088323192927699
100
AcDbArc
 50
195.4181934156182
 51
229.4629204869234
1001
AcDbBlockRepETag
1070
     1
1071
      454
1005
2160
  0
LINE
  5
2161
330
16AC
100
AcDbEntity
  8
Vista
100
AcDbLine
 10
0.0990856691560112
 20
-0.00961638499885
 30
0.0
 11
0.102467195245481
 21
-0.0113391373980392
 31
0.0
1001
AcDbBlockRepETag
1070
     1
1071
      455
1005
2161
  0
LINE
  5
2162
330
16AC
100
AcDbEntity
  8
Vista
100
AcDbLine
 10
0.1027952118178632
 20
-0.0108899805053966
 30
0.0
 11
0.1000435566462556
 21
-0.0083248692596101
 31
0.0
1001
AcDbBlockRepETag
1070
     1
1071
      456
1005
2162
  0
ARC
  5
2163
330
16AC
100
AcDbEntity
  8
Vista
100
AcDbCircle
 10
0.1025806813020154
 20
-0.0111163798729592
 30
0.0
 40
0.00025
100
AcDbArc
 50
243.0029755775676
 51
314.6544493411381
1001
AcDbBlockRepETag
1070
     1
1071
      457
1005
2163
  0
LINE
  5
2164
330
16AC
100
AcDbEntity
  8
Vista
100
AcDbLine
 10
0.1028004497460415
 20
-0.0112506866746287
 30
0.0
 11
0.1027563886491407
 21
-0.0112942194865298
 31
0.0
1001
AcDbBlockRepETag
1070
     1
1071
      458
1005
2164
  0
ARC
  5
2165
330
16AC
100
AcDbEntity
  8
Vista
100
AcDbCircle
 10
0.1026247423988593
 20
-0.0110728470610582
 30
0.0
 40
0.00025
100
AcDbArc
 50
314.6544493411405
 51
47.00945391180707
1001
AcDbBlockRepETag
1070
     1
1071
      459
1005
2165
  0
LINE
  5
2166
330
16AC
100
AcDbEntity
  8
Vista
100
AcDbLine
 10
0.1037718483097478
 20
-0.0067231328983439
 30
0.0
 11
0.103908442310626
 21
-0.0065131300276278
 31
0.0
1001
AcDbBlockRepETag
1070
     1
1071
      460
1005
2166
  0
ARC
  5
2167
330
16AC
100
AcDbEntity
  8
Vista
100
AcDbCircle
 10
0.105867537117831
 20
-0.0080862500685726
 30
0.0
 40
0.0025
100
AcDbArc
 50
146.9584646537284
 51
195.4181934156181
1001
AcDbBlockRepETag
1070
     1
1071
      461
1005
2167
  0
ARC
  5
2168
330
16AC
100
AcDbEntity
  8
Vista
100
AcDbCircle
 10
0.1166824607511216
 20
-0.0047190983325436
 30
0.0
 40
0.0096108338800607
100
AcDbArc
 50
203.0670010734664
 51
216.9992955855902
1001
AcDbBlockRepETag
1070
     1
1071
      462
1005
2168
  0
ARC
  5
2169
330
16AC
100
AcDbEntity
  8
Vista
100
AcDbCircle
 10
0.1101582023640617
 20
-0.0132767353314876
 30
0.0
 40
0.0009599653474603
100
AcDbArc
 50
320.5387103985865
 51
169.7772358400614
1001
AcDbBlockRepETag
1070
     1
1071
      463
1005
2169
  0
ARC
  5
216A
330
16AC
100
AcDbEntity
  8
Vista
100
AcDbCircle
 10
0.120451465866438
 20
-0.001947406973585
 30
0.0
 40
0.0142890457487871
100
AcDbArc
 50
216.7803005127326
 51
235.3085958378145
1001
AcDbBlockRepETag
1070
     1
1071
      464
1005
216A
  0
ARC
  5
216B
330
16AC
100
AcDbEntity
  8
Vista
100
AcDbCircle
 10
0.1077131549258752
 20
-0.0099442395563472
 30
0.0
 40
0.0035
100
AcDbArc
 50
245.104150701862
 51
295.3827564989098
1001
AcDbBlockRepETag
1070
     1
1071
      465
1005
216B
  0
LINE
  5
216C
330
16AC
100
AcDbEntity
  8
Vista
100
AcDbLine
 10
0.1108993476010482
 20
-0.0138868477850736
 30
0.0
 11
0.110173037042955
 21
-0.0142972821669787
 31
0.0
1001
AcDbBlockRepETag
1070
     1
1071
      466
1005
216C
  0
ARC
  5
216D
330
16AC
100
AcDbEntity
  8
Vista
100
AcDbCircle
 10
0.1166824607511216
 20
-0.0047190983325436
 30
0.0
 40
0.0081108338800607
100
AcDbArc
 50
203.0670010734664
 51
216.9992955855902
1001
AcDbBlockRepETag
1070
     1
1071
      467
1005
216D
  0
ARC
  5
216E
330
16AC
100
AcDbEntity
  8
Vista
100
AcDbCircle
 10
0.1166365916006953
 20
-0.0076568886865971
 30
0.0
 40
0.0059241408268026
100
AcDbArc
 50
234.4373738947653
 51
290.1561183350832
1001
AcDbBlockRepETag
1070
     1
1071
      468
1005
216E
  0
ARC
  5
216F
330
16AC
100
AcDbEntity
  8
Vista
100
AcDbCircle
 10
0.1122104533559991
 20
-0.0039710124385124
 30
0.0
 40
0.0035542440521209
100
AcDbArc
 50
17.68562128710123
 51
91.04681153328163
1001
AcDbBlockRepETag
1070
     1
1071
      469
1005
216F
  0
ARC
  5
2170
330
16AC
100
AcDbEntity
  8
Vista
100
AcDbCircle
 10
0.1141915991923952
 20
-0.003339295925457
 30
0.0
 40
0.0014748199544668
100
AcDbArc
 50
186.4628628675656
 51
17.68562128710141
1001
AcDbBlockRepETag
1070
     1
1071
      470
1005
2170
  0
ARC
  5
2171
330
16AC
100
AcDbEntity
  8
Vista
100
AcDbCircle
 10
0.1112356841552469
 20
-0.0036741392537749
 30
0.0
 40
0.0015
100
AcDbArc
 50
6.462862867565588
 51
117.6857017679883
1001
AcDbBlockRepETag
1070
     1
1071
      471
1005
2171
  0
ARC
  5
2172
330
16AC
100
AcDbEntity
  8
Vista
100
AcDbCircle
 10
0.1014445898452436
 20
-0.0022888452034806
 30
0.0
 40
0.0010924616130371
100
AcDbArc
 50
1.246525590226561
 51
29.09546466917976
1001
AcDbBlockRepETag
1070
     1
1071
      472
1005
2172
  0
ARC
  5
2173
330
16AC
100
AcDbEntity
  8
Vista
100
AcDbCircle
 10
0.0985967257111611
 20
-0.0023508130437904
 30
0.0
 40
0.0039409998590975
100
AcDbArc
 50
329.8932920168423
 51
1.246525590226815
1001
AcDbBlockRepETag
1070
     1
1071
      473
1005
2173
  0
ARC
  5
2174
330
16AC
100
AcDbEntity
  8
Vista
100
AcDbCircle
 10
0.1031611550620823
 20
-0.0082155480486392
 30
0.0
 40
0.0028484803873129
100
AcDbArc
 50
76.4572847329591
 51
124.0632870836134
1001
AcDbBlockRepETag
1070
     1
1071
      474
1005
2174
  0
ARC
  5
2175
330
16AC
100
AcDbEntity
  8
Vista
100
AcDbCircle
 10
0.1094346567676325
 20
-0.0086350372892525
 30
0.0
 40
0.0085870576101013
100
AcDbArc
 50
149.8932920168423
 51
160.1185996584649
1001
AcDbBlockRepETag
1070
     1
1071
      475
1005
2175
  0
ARC
  5
2176
330
16AC
100
AcDbEntity
  8
Vista
100
AcDbCircle
 10
0.1014904394438645
 20
-0.005744502263326
 30
0.0
 40
0.0001343635492718
100
AcDbArc
 50
152.7831062899663
 51
304.0632870836116
1001
AcDbBlockRepETag
1070
     1
1071
      476
1005
2176
  0
ARC
  5
2177
330
16AC
100
AcDbEntity
  8
Vista
100
AcDbCircle
 10
0.1019726796397435
 20
-0.0019949689438192
 30
0.0
 40
0.0004881089948701
100
AcDbArc
 50
29.09546466917944
 51
107.1015900401798
1001
AcDbBlockRepETag
1070
     1
1071
      477
1005
2177
  0
ARC
  5
2178
330
16AC
100
AcDbEntity
  8
Vista
100
AcDbCircle
 10
0.1164571948970092
 20
-0.0015500644327346
 30
0.0
 40
0.0012827043355277
100
AcDbArc
 50
97.96937729970569
 51
218.7127600202326
1001
AcDbBlockRepETag
1070
     1
1071
      478
1005
2178
  0
ARC
  5
2179
330
16AC
100
AcDbEntity
  8
Vista
100
AcDbCircle
 10
0.1148854534969814
 20
-0.0026592732579616
 30
0.0
 40
0.0030048778430557
100
AcDbArc
 50
352.3409009200378
 51
51.54572987361929
1001
AcDbBlockRepETag
1070
     1
1071
      479
1005
2179
  0
ARC
  5
217A
330
16AC
100
AcDbEntity
  8
Vista
100
AcDbCircle
 10
0.1175517156967203
 20
-0.0006727876441346
 30
0.0
 40
0.0026854125535124
100
AcDbArc
 50
218.7127600202326
 51
270.6309898164769
1001
AcDbBlockRepETag
1070
     1
1071
      480
1005
217A
  0
ARC
  5
217B
330
16AC
100
AcDbEntity
  8
Vista
100
AcDbCircle
 10
0.1176171718364571
 20
-0.0030172059989582
 30
0.0
 40
0.00025
100
AcDbArc
 50
336.9605770224471
 51
354.8705788448675
1001
AcDbBlockRepETag
1070
     1
1071
      481
1005
217B
  0
LINE
  5
217C
330
16AC
100
AcDbEntity
  8
Vista
100
AcDbLine
 10
0.1178472307836955
 20
-0.0031150470987882
 30
0.0
 11
0.1178085949345586
 21
-0.0032058936120336
 31
0.0
1001
AcDbBlockRepETag
1070
     1
1071
      482
1005
217C
  0
ARC
  5
217D
330
16AC
100
AcDbEntity
  8
Vista
100
AcDbCircle
 10
0.1175785359873771
 20
-0.003108052512232
 30
0.0
 40
0.00025
100
AcDbArc
 50
270.6309898164751
 51
336.9605770224474
1001
AcDbBlockRepETag
1070
     1
1071
      483
1005
217D
  0
ARC
  5
217E
330
16AC
100
AcDbEntity
  8
Vista
100
AcDbCircle
 10
0.1164498122031432
 20
-0.001497329342385
 30
0.0
 40
0.0012294549794631
100
AcDbArc
 50
75.66777371906525
 51
97.96937729970437
1001
AcDbBlockRepETag
1070
     1
1071
      484
1005
217E
  0
ARC
  5
217F
330
16AC
100
AcDbEntity
  8
Vista
100
AcDbCircle
 10
0.1179657789556927
 20
-0.0002926030289814
 30
0.0
 40
0.0007900437156119
100
AcDbArc
 50
41.07894920195356
 51
115.1877569752528
1001
AcDbBlockRepETag
1070
     1
1071
      485
1005
217F
  0
ARC
  5
2180
330
16AC
100
AcDbEntity
  8
Vista
100
AcDbCircle
 10
0.1202598808143875
 20
0.0103179591340847
 30
0.0
 40
0.0116128897234261
100
AcDbArc
 50
256.872640663672
 51
262.1706037641219
1001
AcDbBlockRepETag
1070
     1
1071
      486
1005
2180
  0
ARC
  5
2181
330
16AC
100
AcDbEntity
  8
Vista
100
AcDbCircle
 10
0.1179628006254347
 20
-0.0002862702428388
 30
0.0
 40
0.000783045527887
100
AcDbArc
 50
115.1877569752566
 51
244.2332070282256
1001
AcDbBlockRepETag
1070
     1
1071
      487
1005
2181
  0
ENDBLK
  5
1896
330
16AC
100
AcDbEntity
  8
0
100
AcDbBlockEnd
  0
BLOCK
  5
28C3
330
28C1
100
AcDbEntity
  8
0
100
AcDbBlockBegin
  2
A$C51A9040F
 70
     0
 10
0.0
 20
0.0
 30
0.0
  3
A$C51A9040F
  1

  0
LWPOLYLINE
  5
28C2
330
28C1
100
AcDbEntity
  8
0
  6
Continuous
 62
     1
370
     0
100
AcDbPolyline
 90
       13
 70
   129
 43
0.0
 10
13.32020982688334
 20
0.0
 10
11.54825551912961
 20
0.0
 10
11.54825551912961
 20
2.341155322775648
 42
-0.3047718943874258
 10
9.144914995871772
 20
4.214079580996155
 10
7.63773503457935
 20
4.05121658589411
 42
0.3397727663106758
 10
2.016362411654426
 20
9.120326983902486
 42
-0.318011104375166
 10
1.283139820801238
 20
9.73106312280862
 10
0.9776301211376221
 20
9.73106312280862
 10
0.9776301211376221
 20
10.91181955911895
 10
0.0
 20
10.91181955911895
 10
0.0
 20
12.5036556292842
 10
3.564448663771599
 20
12.5036556292842
 10
13.32020982688334
 20
3.322255254034701
  0
ENDBLK
  5
28C4
330
28C1
100
AcDbEntity
  8
0
100
AcDbBlockEnd
  0
BLOCK
  5
28C7
330
28C5
100
AcDbEntity
  8
0
100
AcDbBlockBegin
  2
A$C713F60B4
 70
     0
 10
0.0
 20
0.0
 30
0.0
  3
A$C713F60B4
  1

  0
LWPOLYLINE
  5
28C6
330
28C5
100
AcDbEntity
  8
0
  6
Continuous
 62
     1
370
     0
100
AcDbPolyline
 90
       13
 70
   129
 43
0.0
 10
13.32020982688334
 20
0.0
 10
11.54825551912961
 20
0.0
 10
11.54825551912961
 20
2.341155322775648
 42
-0.3047718943874258
 10
9.144914995871772
 20
4.214079580996155
 10
7.63773503457935
 20
4.05121658589411
 42
0.3397727663106758
 10
2.016362411654426
 20
9.120326983902486
 42
-0.318011104375166
 10
1.283139820801238
 20
9.73106312280862
 10
0.9776301211376221
 20
9.73106312280862
 10
0.9776301211376221
 20
10.91181955911895
 10
0.0
 20
10.91181955911895
 10
0.0
 20
12.5036556292842
 10
3.564448663771599
 20
12.5036556292842
 10
13.32020982688334
 20
3.322255254034701
  0
ENDBLK
  5
28C8
330
28C5
100
AcDbEntity
  8
0
100
AcDbBlockEnd
  0
BLOCK
  5
2C91
330
2C86
100
AcDbEntity
  8
0
100
AcDbBlockBegin
  2
*D16
 70
     1
 10
0.0
 20
0.0
 30
0.0
  3
*D16
  1

  0
LINE
  5
2E44
330
2C86
100
AcDbEntity
  8
Dimensione
 62
     5
370
    -2
100
AcDbLine
 10
0.0597586475018539
 20
0.1898998951749149
 30
0.0
 11
0.0597586475018539
 21
0.1483326329894859
 31
0.0
  0
LINE
  5
2E45
330
2C86
100
AcDbEntity
  8
Dimensione
 62
     5
370
    -2
100
AcDbLine
 10
0.0892242271123007
 20
0.2110137432179757
 30
0.0
 11
0.0892242271123007
 21
0.1483326329894859
 31
0.0
  0
LINE
  5
2E46
330
2C86
100
AcDbEntity
  8
Dimensione
 62
     5
370
    -2
100
AcDbLine
 10
0.0597586475018539
 20
0.1485126329894859
 30
0.0
 11
0.0613559212478061
 21
0.1485126329894859
 31
0.0
  0
LINE
  5
2E47
330
2C86
100
AcDbEntity
  8
Dimensione
 62
     5
370
    -2
100
AcDbLine
 10
0.0892242271123007
 20
0.1485126329894859
 30
0.0
 11
0.0816416355335204
 21
0.1485126329894859
 31
0.0
  0
MTEXT
  5
2E48
330
2C86
100
AcDbEntity
  8
Dimensione
 62
     4
100
AcDbMText
 10
0.0714987783906632
 20
0.1480628098757353
 30
0.0
 40
0.003
 41
0.0
 46
0.0
 71
     5
 72
     1
  1
\A1;30 mm
  7
ROMANS
 73
     1
 44
1.0
  0
INSERT
  5
2E49
330
2C86
100
AcDbEntity
  8
Dimensione
 62
     5
370
    -2
100
AcDbBlockReference
  2
_ArchTick
 10
0.0597586475018539
 20
0.1485126329894859
 30
0.0
 41
0.0015
 42
0.0015
 43
0.0015
 50
180.0
  0
INSERT
  5
2E4A
330
2C86
100
AcDbEntity
  8
Dimensione
 62
     5
370
    -2
100
AcDbBlockReference
  2
_ArchTick
 10
0.0892242271123007
 20
0.1485126329894859
 30
0.0
 41
0.0015
 42
0.0015
 43
0.0015
  0
POINT
  5
2E4B
330
2C86
100
AcDbEntity
  8
Defpoints
 62
     0
100
AcDbPoint
 10
0.0597586475018539
 20
0.1899623951749148
 30
0.0
  0
POINT
  5
2E4C
330
2C86
100
AcDbEntity
  8
Defpoints
 62
     0
100
AcDbPoint
 10
0.0892242271123007
 20
0.2110762432179757
 30
0.0
  0
POINT
  5
2E4D
330
2C86
100
AcDbEntity
  8
Defpoints
 62
     0
100
AcDbPoint
 10
0.0892242271123007
 20
0.1485126329894859
 30
0.0
  0
ENDBLK
  5
2C92
330
2C86
100
AcDbEntity
  8
0
100
AcDbBlockEnd
  0
BLOCK
  5
2CAB
330
2CA0
100
AcDbEntity
  8
0
100
AcDbBlockBegin
  2
*D17
 70
     1
 10
0.0
 20
0.0
 30
0.0
  3
*D17
  1

  0
LINE
  5
2ED2
330
2CA0
100
AcDbEntity
  8
Dimensione
 62
     5
370
    -2
100
AcDbLine
 10
0.0598211475018539
 20
0.1801486492084616
 30
0.0
 11
0.1170527795843409
 21
0.1801486492084616
 31
0.0
  0
LINE
  5
2ED3
330
2CA0
100
AcDbEntity
  8
Dimensione
 62
     5
370
    -2
100
AcDbLine
 10
0.0822015611798113
 20
0.2110762432179757
 30
0.0
 11
0.1170527795843409
 21
0.2110762432179757
 31
0.0
  0
LINE
  5
2ED4
330
2CA0
100
AcDbEntity
  8
Dimensione
 62
     5
370
    -2
100
AcDbLine
 10
0.1168727795843409
 20
0.1801486492084616
 30
0.0
 11
0.1168727795843409
 21
0.1921124462132186
 31
0.0
  0
LINE
  5
2ED5
330
2CA0
100
AcDbEntity
  8
Dimensione
 62
     5
370
    -2
100
AcDbLine
 10
0.1168727795843409
 20
0.2110762432179757
 30
0.0
 11
0.1168727795843409
 21
0.1991124462132186
 31
0.0
  0
INSERT
  5
2ED6
330
2CA0
100
AcDbEntity
  8
Dimensione
 62
     5
370
    -2
100
AcDbBlockReference
  2
_ArchTick
 10
0.1168727795843409
 20
0.1801486492084616
 30
0.0
 41
0.0015
 42
0.0015
 43
0.0015
 50
270.0
  0
INSERT
  5
2ED7
330
2CA0
100
AcDbEntity
  8
Dimensione
 62
     5
370
    -2
100
AcDbBlockReference
  2
_ArchTick
 10
0.1168727795843409
 20
0.2110762432179757
 30
0.0
 41
0.0015
 42
0.0015
 43
0.0015
 50
90.0
  0
MTEXT
  5
2ED8
330
2CA0
100
AcDbEntity
  8
Dimensione
 62
     4
100
AcDbMText
 10
0.1168727795843409
 20
0.1956124462132187
 30
0.0
 40
0.003
 41
0.0
 46
0.0
 71
     5
 72
     1
  1
\A1;30 mm
  7
ROMANS
 73
     1
 44
1.0
  0
POINT
  5
2ED9
330
2CA0
100
AcDbEntity
  8
Defpoints
 62
     0
100
AcDbPoint
 10
0.0597586475018539
 20
0.1801486492084616
 30
0.0
  0
POINT
  5
2EDA
330
2CA0
100
AcDbEntity
  8
Defpoints
 62
     0
100
AcDbPoint
 10
0.0821390611798113
 20
0.2110762432179757
 30
0.0
  0
POINT
  5
2EDB
330
2CA0
100
AcDbEntity
  8
Defpoints
 62
     0
100
AcDbPoint
 10
0.1168727795843409
 20
0.2110762432179757
 30
0.0
  0
ENDBLK
  5
2CAC
330
2CA0
100
AcDbEntity
  8
0
100
AcDbBlockEnd
  0
BLOCK
  5
2CE1
330
2CDA
100
AcDbEntity
  8
0
100
AcDbBlockBegin
  2
Extrastyl_X30
 70
     0
 10
0.0
 20
0.0
 30
0.0
  3
Extrastyl_X30
  1

  0
MTEXT
  5
2CDB
330
2CDA
100
AcDbEntity
  8
Bovelacci
100
AcDbMText
 10
-1.528406348863366
 20
-1.521381445279565
 30
0.0
 40
0.02
 41
45.19999999999997
 46
0.0
 71
     1
 72
     1
  1
          \P{\fArial|b1|i0|c0|p34;BOVELACCI\P}via del Commercio, 5\P47100 Forlì - Italy\P          \Pemail: bovelacci@bovelacci.it\Ptel. +39-0543721386\Pfax +39-0543721127 
  7
Arial
 73
     1
 44
1.0
  0
LWPOLYLINE
  5
2CDC
330
2CDA
100
AcDbEntity
  8
Bovelacci
100
AcDbPolyline
 90
        4
 70
     1
 43
0.0
 10
-1.529252588623132
 20
-1.523348266695051
 10
1.470747411376863
 20
-1.523348266695051
 10
1.470747411376863
 20
1.476651733304946
 10
-1.529252588623132
 20
1.476651733304946
  0
MTEXT
  5
2CDD
330
2CDA
100
AcDbEntity
  8
Bovelacci
100
AcDbMText
 10
0.8200160656567199
 20
-1.521381445279565
 30
0.0
 40
0.02
 41
45.19999999999997
 46
0.0
 71
     1
 72
     1
  1
{\fArial|b0|i0|c238|p34;\P}Extra{\fArial|b0|i0|c238|p34;styl\P}X30{\fArial|b0|i0|c238|p34;\Pscala 1:1}
  7
Arial
 73
     1
 44
1.0
  0
LWPOLYLINE
  5
2CDE
330
2CDA
100
AcDbEntity
  8
0
100
AcDbPolyline
 90
       51
 70
     1
 43
0.0
 10
-0.0114943383182364
 20
-0.0053007583411571
 10
-0.0038927036158398
 20
0.0046030912883239
 10
-0.0024704391412556
 20
0.0057307792448
 10
-0.00114627489247
 20
0.006172027501151
 10
-0.0006558492832767
 20
0.006172027501151
 10
0.0005211646268037
 20
0.0062210417043005
 10
0.0012568030405973
 20
0.0067113342708112
 10
0.0020905416801895
 20
0.0069564956075681
 10
0.0032185432372742
 20
0.0068584370942659
 10
0.0044936573731533
 20
0.0075448466873809
 10
0.0052783081399426
 20
0.007642905200683
 10
0.0065534222758288
 20
0.007642905200683
 10
0.0080737869762118
 20
0.008427373307093
 10
0.0080737869762118
 20
0.0057797934479424
 10
0.0075833236071148
 20
0.0052404866782894
 10
0.0060629966666355
 20
0.0046521355984765
 10
0.0051311955611482
 20
0.0043089157484175
 10
0.0053764083657413
 20
0.0036225061553026
 10
0.0052783081399426
 20
0.0025438926159893
 10
0.0048369326436486
 20
0.0016613659962701
 10
-0.0033041777808407
 20
-0.0083895864566586
 10
-0.0039417159688355
 20
-0.0087327761997145
 10
-0.0045302418038276
 20
-0.0085857034832628
 10
-0.0051678177517189
 20
-0.0089779375364714
 10
-0.0054130305563191
 20
-0.0096643471295863
 10
-0.0051678177517189
 20
-0.0106449021555974
 10
-0.0053149303305204
 20
-0.0114293702620145
 10
-0.0060015186314075
 20
-0.0119687071386778
 10
-0.0069823698497942
 20
-0.0123118968817337
 10
-0.0075708956847862
 20
-0.0122138383684316
 10
-0.0079142087151851
 20
-0.0128021894482444
 10
-0.0081103714068789
 20
-0.013733730271106
 10
-0.0083065340985797
 20
-0.0151065494573359
 10
-0.0090421725123662
 20
-0.0157439147402911
 10
-0.0100720738436593
 20
-0.015989076077048
 10
-0.0110039127090431
 20
-0.0159400317668954
 10
-0.011298137866639
 20
-0.0156949005371416
 10
-0.0111510252878446
 20
-0.0150084909440338
 10
-0.0108077122574457
 20
-0.0141750086344672
 10
-0.011200075400744
 20
-0.0136847160679565
 10
-0.0112491255136433
 20
-0.012851233758397
 10
-0.0111510252878446
 20
-0.0119196628285252
 10
-0.0111019751749453
 20
-0.0115274287753167
 10
-0.0114943383182364
 20
-0.0106939464657501
 10
-0.011641450897038
 20
-0.0100565811827949
 10
-0.0114452882053371
 20
-0.0094191857928294
 10
-0.0114452882053371
 20
-0.0086347176864123
 10
-0.0117395511228367
 20
-0.0080954109167593
 10
-0.0119357138145304
 20
-0.0074580456337969
 10
-0.0118376135887317
 20
-0.006771636040682
 10
-0.0116905010099373
 20
-0.0061832849608692
  0
ENDBLK
  5
2CE2
330
2CDA
100
AcDbEntity
  8
0
100
AcDbBlockEnd
  0
BLOCK
  5
2EC8
330
2EC4
100
AcDbEntity
  8
0
 62
     6
100
AcDbBlockBegin
  2
A$C72FB46F9
 70
     0
 10
0.0
 20
0.0
 30
0.0
  3
A$C72FB46F9
  1

  0
LWPOLYLINE
  5
2EC5
330
2EC4
100
AcDbEntity
  8
0
100
AcDbPolyline
 90
       51
 70
     1
 43
0.0
 10
0.0144265153303564
 20
0.0314296598354247
 10
0.0222521417723413
 20
0.0314976715583413
 10
0.0230687374163523
 20
0.0321779694295686
 10
0.0236811652694087
 20
0.0321099275996418
 10
0.0248379776318401
 20
0.032314022982412
 10
0.0287167880609473
 20
0.0323820648123317
 10
0.0296694703923208
 20
0.032314022982412
 10
0.0301458115580146
 20
0.0319738740467984
 10
0.0300777682143334
 20
0.0304772247515146
 10
0.0293292159140037
 20
0.0295928314975243
 10
0.0282404468952535
 20
0.0294567779446809
 10
0.0274238512512426
 20
0.028708468350537
 10
0.0272197212201917
 20
0.0275519679908598
 10
0.0265392122635504
 20
0.0268036282897129
 10
0.0255184865884885
 20
0.0265995329069498
 10
0.023749208613097
 20
0.0257151697599625
 10
0.0231367807600407
 20
0.0251709254415858
 10
0.0230687374163523
 20
0.024150478634752
 10
0.0224562718033923
 20
0.0231300318279182
 10
0.0215716328157001
 20
0.0228579247222314
 10
0.0196662681529389
 20
0.0225857875095415
 10
0.017897027937451
 20
0.0217013942555511
 10
0.0159235821711121
 20
0.0202047449602674
 10
0.0146987264649922
 20
0.0185720421121403
 10
0.0136779630300268
 20
0.015986904180096
 10
0.0133377463116062
 20
0.0129255938666049
 10
0.01320162186434
 20
0.0111568073586242
 10
0.0123850639802327
 20
0.0101363605517904
 10
0.0115004249925334
 20
0.0098642534461036
 10
0.0106157860048412
 20
0.0097281998932602
 10
0.010275531526517
 20
0.0095241045104899
 10
0.0102074881828358
 20
0.0071430619612159
 10
0.0097991903608303
 20
0.0062586687072255
 10
0.0085742968948139
 20
0.0055103591130888
 10
0.0074174845323824
 20
0.0051021683475554
 10
0.0066689322320528
 20
0.0052382219003988
 10
0.0061245477226776
 20
0.0055783708360054
 10
0.0057162499006722
 20
0.0044218704763282
 10
0.0050357787039345
 20
0.0036055190522646
 10
0.0046274808819291
 20
0.0030612747338879
 10
0.0038108852379181
 20
0.002312965139744
 10
0.0029262462502188
 20
0.002312965139744
 10
0.0029262462502188
 20
0.001156464780074
 10
0.0019735639188383
 20
0.0003400832490002
 10
0.0008167515564139
 20
-0.0000000656866063
 10
0.0002723292871351
 20
0.0007482740145335
 10
0.0000001559124029
 20
0.0027211257982742
 10
0.0001362425997655
 20
0.0042858169234848
 10
0.0004084537344084
 20
0.0054423172831619
 10
0.0006125837654593
 20
0.0060545733244624
 10
0.0005445404217709
 20
0.0157828389043289
  0
ENDBLK
  5
2EC9
330
2EC4
100
AcDbEntity
  8
0
 62
     6
100
AcDbBlockEnd
  0
ENDSEC
  0
SECTION
  2
ENTITIES
  0
LINE
  5
D
330
2
100
AcDbEntity
  8
Table
100
AcDbLine
 10
0.02
 20
0.02
 30
0.0
 11
0.4
 21
0.02
 31
0.0
  0
LINE
  5
10
330
2
100
AcDbEntity
  8
Table
100
AcDbLine
 10
0.4
 20
0.02
 30
0.0
 11
0.4
 21
0.2769999999999999
 31
0.0
  0
LINE
  5
11
330
2
100
AcDbEntity
  8
Table
100
AcDbLine
 10
0.4
 20
0.2769999999999999
 30
0.0
 11
0.02
 21
0.277
 31
0.0
  0
LINE
  5
12
330
2
100
AcDbEntity
  8
Table
100
AcDbLine
 10
0.02
 20
0.277
 30
0.0
 11
0.02
 21
0.02
 31
0.0
  0
LINE
  5
13
330
2
100
AcDbEntity
  8
Table
 62
     2
100
AcDbLine
 10
0.015
 20
0.015
 30
0.0
 11
0.4050000000000001
 21
0.015
 31
0.0
  0
LINE
  5
14
330
2
100
AcDbEntity
  8
Table
 62
     2
100
AcDbLine
 10
0.4050000000000001
 20
0.015
 30
0.0
 11
0.4050000000000001
 21
0.2819999999999998
 31
0.0
  0
LINE
  5
15
330
2
100
AcDbEntity
  8
Table
 62
     2
100
AcDbLine
 10
0.4050000000000001
 20
0.2819999999999998
 30
0.0
 11
0.0149999999999999
 21
0.282
 31
0.0
  0
LINE
  5
16
330
2
100
AcDbEntity
  8
Table
 62
     2
100
AcDbLine
 10
0.0149999999999999
 20
0.282
 30
0.0
 11
0.015
 21
0.015
 31
0.0
  0
LINE
  5
17
330
2
100
AcDbEntity
  8
Table
100
AcDbLine
 10
0.21
 20
0.2769999999999999
 30
0.0
 11
0.21
 21
0.2532994226089223
 31
0.0
  0
LINE
  5
1D
330
2
100
AcDbEntity
  8
Table
100
AcDbLine
 10
0.02
 20
0.0528099428524846
 30
0.0
 11
0.4
 21
0.0528099428524846
 31
0.0
  0
TEXT
  5
1F
330
2
100
AcDbEntity
  8
Text
100
AcDbText
 10
0.2180556919891047
 20
0.269976982173197
 30
0.0
 40
0.003
  1
Cornice - Moulding : H 30 x 30 mm
  7
ROMANS
100
AcDbText
  0
TEXT
  5
21
330
2
100
AcDbEntity
  8
Text
100
AcDbText
 10
0.2184542410678115
 20
0.2576348370183962
 30
0.0
 40
0.003
  1
File : X41
  7
ROMANS
100
AcDbText
  0
LINE
  5
22
330
2
100
AcDbEntity
  8
Table
100
AcDbLine
 10
0.4
 20
0.2654452889427402
 30
0.0
 11
0.02
 21
0.2654452889427403
 31
0.0
  0
LINE
  5
23
330
2
100
AcDbEntity
  8
Table
100
AcDbLine
 10
0.4
 20
0.2532994226089223
 30
0.0
 11
0.02
 21
0.2532994226089225
 31
0.0
  0
LINE
  5
24
330
2
100
AcDbEntity
  8
Table
100
AcDbLine
 10
0.21
 20
0.0528099428524846
 30
0.0
 11
0.21
 21
0.02
 31
0.0
  0
TEXT
  5
25
330
2
100
AcDbEntity
  8
Text
100
AcDbText
 10
0.0925240654361707
 20
0.2687784133392506
 30
0.0
 40
0.005
  1
EXTRASTYL
  7
style1
 72
     1
 11
0.1140561490699125
 21
0.2687784133392506
 31
0.0
100
AcDbText
  0
TEXT
  5
27
330
2
100
AcDbEntity
  8
Text
100
AcDbText
 10
0.324753752443877
 20
0.1502134523547476
 30
0.0
 40
0.005
  1
scala 1:1
  7
Arial
100
AcDbText
  0
MTEXT
  5
10F
330
2
100
AcDbEntity
  8
Text
100
AcDbMText
 10
0.305
 20
0.0471738284815141
 30
0.0
 40
0.005
 41
0.1900000000000001
 46
0.0271738284815141
 71
     2
 72
     5
  3
\pt0.09;{\fTimes New Roman|b0|i0|c238|p18;\H1.6x;\C4;Bovelacci\P\H0.4375x;\T0.95;via del Commercio, 5  47100 Forli - Italy  \fTimes New Roman|b0|i0|c0|p18;\P\fTimes New Roman|b0|i0|c238|p18;tel.+39-0543721386  fax +39-0543721127\fTimes New Roman|b0|i
  1
0|c0|p18; \fTimes New Roman|b0|i0|c238|p18;www.bovelacci.it\fTimes New Roman|b0|i0|c0|p18; \fTimes New Roman|b0|i0|c238|p18;e-mail: bovelacci@bovelacci\fTimes New Roman|b0|i0|c0|p18;.it}
 73
     1
 44
1.0
1001
ACAD
1000
ACAD_MTEXT_DEFINED_HEIGHT_BEGIN
1070
    46
1040
0.0271738284815141
1000
ACAD_MTEXT_DEFINED_HEIGHT_END
  0
MTEXT
  5
110
330
2
100
AcDbEntity
  8
Text
100
AcDbMText
 10
0.0219676065851835
 20
0.0500313976452307
 30
0.0
 40
0.002
 41
0.1863544980601608
 46
0.0
 71
     1
 72
     5
  3
{\fArial|b0|i0|c0|p34;\H1.25x;Le caratteristiche tecniche indicate vengono fornite a titolo indicativo e potranno essere modificate senza preavviso. Non devono quindi essere considerate a scopo di specifica.\P\fArial|b0|i1|c0|p34;The given values are
  3
 indicative and can be changed without notice. They cannot be considered like a state.\PThis lealfet and designs embodied within are protected by copyright law and international treaties. Unauthorized repro- duction of the leaflet or any portion of i
  1
t or reproduction of any of the designs embodied therein may result in severe civil penalties and will be prosecuted to the maximum.\PAll right reserved, Bovelacci Forlì Italy.}
 73
     1
 44
1.0
  0
TEXT
  5
1CA
330
2
100
AcDbEntity
  8
Text
100
AcDbText
 10
0.0763808362702288
 20
0.09323982849993
 30
0.0
 40
0.005
  1
scala 1:1
  7
Arial
100
AcDbText
  0
HATCH
  5
28E2
330
2
100
AcDbEntity
  8
Sezione
100
AcDbHatch
 10
0.0
 20
0.0
 30
0.0
210
0.0
220
0.0
230
1.0
  2
ANSI31
 70
     0
 71
     0
 91
        1
 92
        1
 93
        6
 72
     1
 10
0.1071496626298511
 20
0.2110762432179757
 11
0.1071496626298511
 21
0.2305350192247563
 72
     1
 10
0.1071496626298511
 20
0.2305350192247563
 11
0.0401444920784592
 21
0.2305350192247562
 72
     1
 10
0.0401444920784592
 20
0.2305350192247562
 11
0.0401444920784592
 21
0.1445633612424837
 72
     1
 10
0.0401444920784592
 20
0.1445633612424837
 11
0.0592761606393969
 21
0.1445633612424837
 72
     1
 10
0.0592761606393969
 20
0.1445633612424837
 11
0.0592761606393969
 21
0.2110762432179757
 72
     1
 10
0.0592761606393969
 20
0.2110762432179757
 11
0.1071496626298511
 21
0.2110762432179757
 97
        0
 75
     0
 76
     1
 52
0.0
 41
0.002
 77
     0
 78
     1
 53
45.0
 43
-0.0456842415812087
 44
0.008333535784775
 45
-0.0044901280605346
 46
0.0044901280605346
 79
     0
 98
        1
 10
0.0688956051751831
 20
0.2182667518947202
1001
ACAD
1010
0.0
1020
0.0
1030
0.0
  0
LINE
  5
28E3
330
2
100
AcDbEntity
  8
Sezione
100
AcDbLine
 10
0.0592761606393969
 20
0.1442542668246869
 30
0.0
 11
0.0592761606393969
 21
0.2110762432179757
 31
0.0
  0
LINE
  5
28E4
330
2
100
AcDbEntity
  8
Sezione
100
AcDbLine
 10
0.0592761606393969
 20
0.2110762432179757
 30
0.0
 11
0.1071496626298512
 21
0.2110762432179757
 31
0.0
  0
DIMENSION
  5
2C85
330
2
100
AcDbEntity
  8
Dimensione
100
AcDbDimension
  2
*D16
 10
0.0892242271123007
 20
0.1485126329894859
 30
0.0
 11
0.0714987783906632
 21
0.1480628098757353
 31
0.0
 70
   160
  1
30 mm
 71
     5
 42
0.0294655796104469
 73
     0
 74
     0
 75
     0
  3
Bovelacci
100
AcDbAlignedDimension
 13
0.0597586475018539
 23
0.1899623951749148
 33
0.0
 14
0.0892242271123007
 24
0.2110762432179757
 34
0.0
100
AcDbRotatedDimension
  0
DIMENSION
  5
2C9F
330
2
100
AcDbEntity
  8
Dimensione
100
AcDbDimension
  2
*D17
 10
0.1168727795843409
 20
0.2110762432179757
 30
0.0
 11
0.1168727795843409
 21
0.1956124462132187
 31
0.0
 70
    32
  1
30 mm
 71
     5
 42
0.0309275940095141
 73
     0
 74
     0
 75
     0
  3
Bovelacci
100
AcDbAlignedDimension
 13
0.0597586475018539
 23
0.1801486492084616
 33
0.0
 14
0.0821390611798113
 24
0.2110762432179757
 34
0.0
 50
90.0
100
AcDbRotatedDimension
  0
LWPOLYLINE
  5
2F2B
330
2
100
AcDbEntity
  8
Profilo
100
AcDbPolyline
 90
       33
 70
     1
 43
0.0
 10
0.0596572346698198
 20
0.1956730444922001
 10
0.0753413565012636
 20
0.2105382053348238
 10
0.083285240724133
 20
0.2106060773745086
 10
0.0844394917672612
 20
0.2114205996142297
 10
0.0853221415450057
 20
0.2116242157332977
 10
0.0860689906900616
 20
0.2114205996142297
 10
0.0866800754255852
 20
0.211216954613444
 10
0.0875627252033296
 20
0.2115563436936129
 10
0.0883774927763112
 20
0.2114205996142297
 10
0.0888527768791463
 20
0.2108775655332681
 10
0.088920659083909
 20
0.2093163930935243
 10
0.0883774927763112
 20
0.2081624817736341
 10
0.0875627252033296
 20
0.2076194765743904
 10
0.0861369091179873
 20
0.2074158315736047
 10
0.0858653078526035
 20
0.2062619202537146
 10
0.0851863409123171
 20
0.2055831420933767
 10
0.0839642076644262
 20
0.2053116250528924
 10
0.0828778750492237
 20
0.2049043639330387
 10
0.067465354483157
 20
0.1881386415705022
 10
0.0673974360552311
 20
0.1873919913704726
 10
0.0669900703803219
 20
0.1850841687306925
 10
0.0656321364997424
 20
0.1839302574108024
 10
0.0644778854566142
 20
0.1831157351710812
 10
0.0635952356788698
 20
0.1830478342496718
 10
0.0634594350461813
 20
0.181486661809928
 10
0.0626446674731996
 20
0.1807400116098985
 10
0.0612188513878573
 20
0.1804006225297227
 10
0.059860917507278
 20
0.1803327504900378
 10
0.0597930353025083
 20
0.1925506707309878
 10
0.0594535518323686
 20
0.1933652218524267
 10
0.0593856334044361
 20
0.1945870052120016
 10
0.0596572346698198
 20
0.1956730444922001
 10
0.0606756850802528
 20
0.1967590837724054
  0
LWPOLYLINE
  5
2F2C
330
2
100
AcDbEntity
  8
Profilo
100
AcDbPolyline
 90
       33
 70
     1
 43
0.0
 10
0.1788132262449628
 20
0.1674197912836697
 10
0.1944973480764065
 20
0.1822849521262934
 10
0.202441232299276
 20
0.1823528241659781
 10
0.2035954833424042
 20
0.1831673464056993
 10
0.2044781331201487
 20
0.1833709625247673
 10
0.2052249822652045
 20
0.1831673464056993
 10
0.2058360670007282
 20
0.1829637014049135
 10
0.2067187167784726
 20
0.1833030904850824
 10
0.2075334843514542
 20
0.1831673464056993
 10
0.2080087684542893
 20
0.1826243123247377
 10
0.2080766506590519
 20
0.1810631398849938
 10
0.2075334843514542
 20
0.1799092285651037
 10
0.2067187167784726
 20
0.17936622336586
 10
0.2052929006931303
 20
0.1791625783650743
 10
0.2050212994277465
 20
0.1780086670451841
 10
0.2043423324874601
 20
0.1773298888848462
 10
0.2031201992395691
 20
0.1770583718443619
 10
0.2020338666243667
 20
0.1766511107245082
 10
0.1866213460583
 20
0.1598853883619717
 10
0.1865534276303741
 20
0.1591387381619422
 10
0.1861460619554649
 20
0.156830915522162
 10
0.1847881280748854
 20
0.1556770042022719
 10
0.1836338770317572
 20
0.1548624819625508
 10
0.1827512272540128
 20
0.1547945810411414
 10
0.1826154266213243
 20
0.1532334086013975
 10
0.1818006590483426
 20
0.152486758401368
 10
0.1803748429630003
 20
0.1521473693211922
 10
0.179016909082421
 20
0.1520794972815074
 10
0.1789490268776513
 20
0.1642974175224574
 10
0.1786095434075116
 20
0.1651119686438963
 10
0.178541624979579
 20
0.1663337520034711
 10
0.1788132262449628
 20
0.1674197912836697
 10
0.1798316766553958
 20
0.168505830563875
  0
LINE
  5
2F2E
330
2
100
AcDbEntity
  8
Sezione
 62
     3
100
AcDbLine
 10
0.1818006590483426
 20
0.152486758401368
 30
0.0
 11
0.337238119768903
 21
0.2051752604061581
 31
0.0
  0
LINE
  5
2F2F
330
2
100
AcDbEntity
  8
Sezione
 62
     3
100
AcDbLine
 10
0.1944973480764065
 20
0.1822849521262934
 30
0.0
 11
0.349934808796967
 21
0.2349734541310834
 31
0.0
  0
LINE
  5
2F30
330
2
100
AcDbEntity
  8
Sezione
100
AcDbLine
 10
0.2080087684542893
 20
0.1826243123247377
 30
0.0
 11
0.362156177499033
 21
0.2359915924898725
 31
0.0
  0
LINE
  5
2F31
330
2
100
AcDbEntity
  8
Sezione
100
AcDbLine
 10
0.2043423324874601
 20
0.1773298888848462
 30
0.0
 11
0.3597797932080206
 21
0.2300183908896363
 31
0.0
  0
LWPOLYLINE
  5
2F32
330
2
100
AcDbEntity
  8
Profilo
100
AcDbPolyline
 90
       15
 70
     0
 43
0.0
 10
0.349934808796967
 20
0.2349734541310834
 10
0.3578786930198365
 20
0.2350413261707681
 10
0.3590329440629647
 20
0.2358558484104893
 10
0.359915593840709
 20
0.2360594645295573
 10
0.3606624429857649
 20
0.2358558484104893
 10
0.3612735277212886
 20
0.2356522034097035
 10
0.362156177499033
 20
0.2359915924898725
 10
0.3629709450720146
 20
0.2358558484104893
 10
0.3634462291748497
 20
0.2353128143295277
 10
0.3635141113796124
 20
0.2337516418897839
 10
0.3629709450720146
 20
0.2325977305698937
 10
0.362156177499033
 20
0.23205472537065
 10
0.3607303614136907
 20
0.2318510803698643
 10
0.3604587601483069
 20
0.2306971690499742
 10
0.3597797932080206
 20
0.2300183908896363
  0
LWPOLYLINE
  5
2F35
330
2
100
AcDbEntity
  8
Profilo
100
AcDbPolyline
 90
        9
 70
     0
 43
0.0
 10
0.3573328171887435
 20
0.2291889415387547
 10
0.3420588067788604
 20
0.2125738903667618
 10
0.3419908883509346
 20
0.2118272401667322
 10
0.3415835226760253
 20
0.209519417526952
 10
0.3402255887954459
 20
0.208365506207062
 10
0.3390713377523176
 20
0.2075509839673408
 10
0.3381886879745732
 20
0.2074830830459314
 10
0.3380528873418847
 20
0.2059219106061875
 10
0.337238119768903
 20
0.2051752604061581
  0
LWPOLYLINE
  5
2F36
330
2
100
AcDbEntity
  8
Profilo
100
AcDbPolyline
 90
       33
 70
     1
 43
0.0
 10
0.1610385199349214
 20
0.0913998854528288
 10
0.1767226417663652
 20
0.1062650462954524
 10
0.1846665259892346
 20
0.1063329183351372
 10
0.1858207770323629
 20
0.1071474405748583
 10
0.1867034268101073
 20
0.1073510566939263
 10
0.1874502759551631
 20
0.1071474405748583
 10
0.1880613606906868
 20
0.1069437955740726
 10
0.1889440104684312
 20
0.1072831846542415
 10
0.1897587780414128
 20
0.1071474405748583
 10
0.1902340621442479
 20
0.1066044064938967
 10
0.1903019443490106
 20
0.1050432340541529
 10
0.1897587780414128
 20
0.1038893227342628
 10
0.1889440104684312
 20
0.1033463175350191
 10
0.1875181943830889
 20
0.1031426725342333
 10
0.1872465931177051
 20
0.1019887612143432
 10
0.1865676261774187
 20
0.1013099830540053
 10
0.1853454929295278
 20
0.101038466013521
 10
0.1842591603143253
 20
0.1006312048936673
 10
0.1688466397482586
 20
0.0838654825311308
 10
0.1687787213203328
 20
0.0831188323311013
 10
0.1683713556454235
 20
0.0808110096913211
 10
0.167013421764844
 20
0.079657098371431
 10
0.1658591707217158
 20
0.0788425761317099
 10
0.1649765209439714
 20
0.0787746752103004
 10
0.1648407203112829
 20
0.0772135027705566
 10
0.1640259527383012
 20
0.0764668525705271
 10
0.1626001366529589
 20
0.0761274634903513
 10
0.1612422027723796
 20
0.0760595914506665
 10
0.16117432056761
 20
0.0882775116916164
 10
0.1608348370974702
 20
0.0890920628130553
 10
0.1607669186695376
 20
0.0903138461726302
 10
0.1610385199349214
 20
0.0913998854528288
 10
0.1620569703453544
 20
0.092485924733034
  0
LINE
  5
2F37
330
2
100
AcDbEntity
  8
Sezione
 62
     6
100
AcDbLine
 10
0.2168412907517201
 20
0.1165244714255045
 30
0.0
 11
0.2168412907517201
 21
0.0665554287148509
 31
0.0
  0
LINE
  5
2F38
330
2
100
AcDbEntity
  8
Sezione
100
AcDbLine
 10
0.1889440104684312
 20
0.1072831846542415
 30
0.0
 11
0.2168412907517201
 21
0.1072831846542415
 31
0.0
  0
LINE
  5
2F39
330
2
100
AcDbEntity
  8
Sezione
100
AcDbLine
 10
0.1612422027723796
 20
0.0760595914506665
 30
0.0
 11
0.2168412907517201
 21
0.0760595914506665
 31
0.0
  0
LINE
  5
2F3A
330
2
100
AcDbEntity
  8
Sezione
 62
     6
100
AcDbLine
 10
0.2419884391501288
 20
0.1072831846542415
 30
0.0
 11
0.2419884391501288
 21
0.0760595914506665
 31
0.0
  0
LINE
  5
2F3B
330
2
100
AcDbEntity
  8
Sezione
 62
     6
100
AcDbLine
 10
0.3835192440471005
 20
0.1072831846542415
 30
0.0
 11
0.3835192440471005
 21
0.0760595914506665
 31
0.0
  0
LINE
  5
2F3C
330
2
100
AcDbEntity
  8
Sezione
100
AcDbLine
 10
0.2419884391501288
 20
0.1072831846542415
 30
0.0
 11
0.3835192440471005
 21
0.1072831846542415
 31
0.0
  0
LINE
  5
2F3D
330
2
100
AcDbEntity
  8
Sezione
100
AcDbLine
 10
0.2419884391501288
 20
0.0760595914506665
 30
0.0
 11
0.3835192440471005
 21
0.0760595914506665
 31
0.0
  0
LWPOLYLINE
  5
2F41
330
2
100
AcDbEntity
  8
Sezione
100
AcDbPolyline
 90
        4
 70
     1
 43
0.0
 10
0.2432860459011531
 20
0.0936201093872982
 10
0.2473506859453002
 20
0.0976847494314452
 10
0.2484738947010713
 20
0.0965615406756742
 10
0.2442932825290684
 20
0.0923809285036713
  0
LWPOLYLINE
  5
2F42
330
2
100
AcDbEntity
  8
Sezione
100
AcDbPolyline
 90
        4
 70
     1
 43
0.0
 10
0.2525005379705099
 20
0.0940845718888271
 10
0.2576878528837239
 20
0.0992718868020411
 10
0.2634951959585877
 20
0.0934645437271773
 10
0.2581538709094729
 20
0.0881232186780625
  0
LWPOLYLINE
  5
2F43
330
2
100
AcDbEntity
  8
Sezione
100
AcDbPolyline
 90
        4
 70
     1
 43
0.0
 10
0.2545137890821045
 20
0.0940071614719057
 10
0.257804225144124
 20
0.0972975975339252
 10
0.2611338319783656
 20
0.0939679906996835
 10
0.2576503035073864
 20
0.0904844622287044
  0
LWPOLYLINE
  5
2F44
330
2
100
AcDbEntity
  8
Sezione
100
AcDbPolyline
 90
        4
 70
     1
 43
0.0
 10
0.2448075967785165
 20
0.0919388739782821
 10
0.2488722368226635
 20
0.0960035140224291
 10
0.2499954455784346
 20
0.094880305266658
 10
0.2458148334064317
 20
0.0906996930946552
  0
LWPOLYLINE
  5
2F45
330
2
100
AcDbEntity
  8
Sezione
100
AcDbPolyline
 90
        4
 70
     1
 43
0.0
 10
0.2461422932822513
 20
0.0904177578724297
 10
0.2502069333263983
 20
0.0944823979165767
 10
0.2513301420821694
 20
0.0933591891608056
 10
0.2471495299101666
 20
0.0891785769888028
  0
LWPOLYLINE
  5
2F46
330
2
100
AcDbEntity
  8
Sezione
100
AcDbPolyline
 90
        4
 70
     1
 43
0.0
 10
0.2654654493158046
 20
0.0936201093872982
 10
0.2695300893599517
 20
0.0976847494314452
 10
0.2706532981157228
 20
0.0965615406756742
 10
0.2664726859437199
 20
0.0923809285036713
  0
LWPOLYLINE
  5
2F47
330
2
100
AcDbEntity
  8
Sezione
100
AcDbPolyline
 90
        4
 70
     1
 43
0.0
 10
0.2746799413851614
 20
0.0940845718888271
 10
0.2798672562983754
 20
0.0992718868020411
 10
0.2856745993732392
 20
0.0934645437271773
 10
0.2803332743241244
 20
0.0881232186780625
  0
LWPOLYLINE
  5
2F48
330
2
100
AcDbEntity
  8
Sezione
100
AcDbPolyline
 90
        4
 70
     1
 43
0.0
 10
0.276693192496756
 20
0.0940071614719057
 10
0.2799836285587754
 20
0.0972975975339252
 10
0.2833132353930171
 20
0.0939679906996835
 10
0.2798297069220379
 20
0.0904844622287044
  0
LWPOLYLINE
  5
2F49
330
2
100
AcDbEntity
  8
Sezione
100
AcDbPolyline
 90
        4
 70
     1
 43
0.0
 10
0.266987000193168
 20
0.0919388739782821
 10
0.271051640237315
 20
0.0960035140224291
 10
0.2721748489930861
 20
0.094880305266658
 10
0.2679942368210832
 20
0.0906996930946552
  0
LWPOLYLINE
  5
2F4A
330
2
100
AcDbEntity
  8
Sezione
100
AcDbPolyline
 90
        4
 70
     1
 43
0.0
 10
0.2683216966969028
 20
0.0904177578724297
 10
0.2723863367410498
 20
0.0944823979165767
 10
0.2735095454968209
 20
0.0933591891608056
 10
0.2693289333248181
 20
0.0891785769888028
  0
LWPOLYLINE
  5
2F4B
330
2
100
AcDbEntity
  8
Sezione
100
AcDbPolyline
 90
        4
 70
     1
 43
0.0
 10
0.2870093017345203
 20
0.0936201093872982
 10
0.2910739417786674
 20
0.0976847494314452
 10
0.2921971505344385
 20
0.0965615406756742
 10
0.2880165383624356
 20
0.0923809285036713
  0
LWPOLYLINE
  5
2F4C
330
2
100
AcDbEntity
  8
Sezione
100
AcDbPolyline
 90
        4
 70
     1
 43
0.0
 10
0.2962237938038771
 20
0.0940845718888271
 10
0.3014111087170911
 20
0.0992718868020411
 10
0.3072184517919548
 20
0.0934645437271773
 10
0.30187712674284
 20
0.0881232186780625
  0
LWPOLYLINE
  5
2F4D
330
2
100
AcDbEntity
  8
Sezione
100
AcDbPolyline
 90
        4
 70
     1
 43
0.0
 10
0.2982370449154717
 20
0.0940071614719057
 10
0.3015274809774911
 20
0.0972975975339252
 10
0.3048570878117327
 20
0.0939679906996835
 10
0.3013735593407536
 20
0.0904844622287044
  0
LWPOLYLINE
  5
2F4E
330
2
100
AcDbEntity
  8
Sezione
100
AcDbPolyline
 90
        4
 70
     1
 43
0.0
 10
0.2885308526118837
 20
0.0919388739782821
 10
0.2925954926560307
 20
0.0960035140224291
 10
0.2937187014118018
 20
0.094880305266658
 10
0.2895380892397989
 20
0.0906996930946552
  0
LWPOLYLINE
  5
2F4F
330
2
100
AcDbEntity
  8
Sezione
100
AcDbPolyline
 90
        4
 70
     1
 43
0.0
 10
0.2898655491156185
 20
0.0904177578724297
 10
0.2939301891597655
 20
0.0944823979165767
 10
0.2950533979155366
 20
0.0933591891608056
 10
0.2908727857435338
 20
0.0891785769888028
  0
LWPOLYLINE
  5
2F50
330
2
100
AcDbEntity
  8
Sezione
100
AcDbPolyline
 90
        4
 70
     1
 43
0.0
 10
0.308513677537259
 20
0.0936201093872982
 10
0.3125783175814059
 20
0.0976847494314452
 10
0.313701526337177
 20
0.0965615406756742
 10
0.3095209141651742
 20
0.0923809285036713
  0
LWPOLYLINE
  5
2F51
330
2
100
AcDbEntity
  8
Sezione
100
AcDbPolyline
 90
        4
 70
     1
 43
0.0
 10
0.3177281696066156
 20
0.0940845718888271
 10
0.3229154845198296
 20
0.0992718868020411
 10
0.3287228275946934
 20
0.0934645437271773
 10
0.3233815025455787
 20
0.0881232186780625
  0
LWPOLYLINE
  5
2F52
330
2
100
AcDbEntity
  8
Sezione
100
AcDbPolyline
 90
        4
 70
     1
 43
0.0
 10
0.3197414207182103
 20
0.0940071614719057
 10
0.3230318567802297
 20
0.0972975975339252
 10
0.3263614636144713
 20
0.0939679906996835
 10
0.3228779351434921
 20
0.0904844622287044
  0
LWPOLYLINE
  5
2F53
330
2
100
AcDbEntity
  8
Sezione
100
AcDbPolyline
 90
        4
 70
     1
 43
0.0
 10
0.3100352284146223
 20
0.0919388739782821
 10
0.3140998684587693
 20
0.0960035140224291
 10
0.3152230772145403
 20
0.094880305266658
 10
0.3110424650425376
 20
0.0906996930946552
  0
LWPOLYLINE
  5
2F54
330
2
100
AcDbEntity
  8
Sezione
100
AcDbPolyline
 90
        4
 70
     1
 43
0.0
 10
0.3113699249183571
 20
0.0904177578724297
 10
0.3154345649625041
 20
0.0944823979165767
 10
0.3165577737182752
 20
0.0933591891608056
 10
0.3123771615462724
 20
0.0891785769888028
  0
LWPOLYLINE
  5
2F55
330
2
100
AcDbEntity
  8
Sezione
100
AcDbPolyline
 90
        4
 70
     1
 43
0.0
 10
0.3305328781200594
 20
0.0936201093872982
 10
0.3345975181642065
 20
0.0976847494314452
 10
0.3357207269199776
 20
0.0965615406756742
 10
0.3315401147479747
 20
0.0923809285036713
  0
LWPOLYLINE
  5
2F56
330
2
100
AcDbEntity
  8
Sezione
100
AcDbPolyline
 90
        4
 70
     1
 43
0.0
 10
0.3397473701894162
 20
0.0940845718888271
 10
0.3449346851026302
 20
0.0992718868020411
 10
0.350742028177494
 20
0.0934645437271773
 10
0.3454007031283792
 20
0.0881232186780625
  0
LWPOLYLINE
  5
2F57
330
2
100
AcDbEntity
  8
Sezione
100
AcDbPolyline
 90
        4
 70
     1
 43
0.0
 10
0.3417606213010108
 20
0.0940071614719057
 10
0.3450510573630302
 20
0.0972975975339252
 10
0.3483806641972719
 20
0.0939679906996835
 10
0.3448971357262927
 20
0.0904844622287044
  0
LWPOLYLINE
  5
2F58
330
2
100
AcDbEntity
  8
Sezione
100
AcDbPolyline
 90
        4
 70
     1
 43
0.0
 10
0.3320544289974228
 20
0.0919388739782821
 10
0.3361190690415698
 20
0.0960035140224291
 10
0.3372422777973409
 20
0.094880305266658
 10
0.333061665625338
 20
0.0906996930946552
  0
LWPOLYLINE
  5
2F59
330
2
100
AcDbEntity
  8
Sezione
100
AcDbPolyline
 90
        4
 70
     1
 43
0.0
 10
0.3333891255011576
 20
0.0904177578724297
 10
0.3374537655453046
 20
0.0944823979165767
 10
0.3385769743010757
 20
0.0933591891608056
 10
0.3343963621290729
 20
0.0891785769888028
  0
LWPOLYLINE
  5
2F5A
330
2
100
AcDbEntity
  8
Sezione
100
AcDbPolyline
 90
        4
 70
     1
 43
0.0
 10
0.3520372539227976
 20
0.0936201093872982
 10
0.3561018939669446
 20
0.0976847494314452
 10
0.3572251027227156
 20
0.0965615406756742
 10
0.3530444905507128
 20
0.0923809285036713
  0
LWPOLYLINE
  5
2F5B
330
2
100
AcDbEntity
  8
Sezione
100
AcDbPolyline
 90
        4
 70
     1
 43
0.0
 10
0.3612517459921543
 20
0.0940845718888271
 10
0.3664390609053683
 20
0.0992718868020411
 10
0.372246403980232
 20
0.0934645437271773
 10
0.3669050789311173
 20
0.0881232186780625
  0
LWPOLYLINE
  5
2F5C
330
2
100
AcDbEntity
  8
Sezione
100
AcDbPolyline
 90
        4
 70
     1
 43
0.0
 10
0.3632649971037489
 20
0.0940071614719057
 10
0.3665554331657683
 20
0.0972975975339252
 10
0.3698850400000099
 20
0.0939679906996835
 10
0.3664015115290308
 20
0.0904844622287044
  0
LWPOLYLINE
  5
2F5D
330
2
100
AcDbEntity
  8
Sezione
100
AcDbPolyline
 90
        4
 70
     1
 43
0.0
 10
0.3535588048001609
 20
0.0919388739782821
 10
0.3576234448443079
 20
0.0960035140224291
 10
0.358746653600079
 20
0.094880305266658
 10
0.3545660414280762
 20
0.0906996930946552
  0
LWPOLYLINE
  5
2F5E
330
2
100
AcDbEntity
  8
Sezione
100
AcDbPolyline
 90
        4
 70
     1
 43
0.0
 10
0.3548935013038957
 20
0.0904177578724297
 10
0.3589581413480427
 20
0.0944823979165767
 10
0.3600813501038138
 20
0.0933591891608056
 10
0.355900737931811
 20
0.0891785769888028
  0
LWPOLYLINE
  5
2F5F
330
2
100
AcDbEntity
  8
Sezione
100
AcDbPolyline
 90
        4
 70
     1
 43
0.0
 10
0.3739273592149638
 20
0.0936201093872982
 10
0.3779919992591108
 20
0.0976847494314452
 10
0.3791152080148819
 20
0.0965615406756742
 10
0.3749345958428791
 20
0.0923809285036713
  0
LWPOLYLINE
  5
2F62
330
2
100
AcDbEntity
  8
Sezione
100
AcDbPolyline
 90
        4
 70
     1
 43
0.0
 10
0.3754489100923272
 20
0.0919388739782821
 10
0.3795135501364742
 20
0.0960035140224291
 10
0.3806367588922452
 20
0.094880305266658
 10
0.3764561467202425
 20
0.0906996930946552
  0
LWPOLYLINE
  5
2F63
330
2
100
AcDbEntity
  8
Sezione
100
AcDbPolyline
 90
        4
 70
     1
 43
0.0
 10
0.376783606596062
 20
0.0904177578724297
 10
0.380848246640209
 20
0.0944823979165767
 10
0.3819714553959801
 20
0.0933591891608056
 10
0.3777908432239773
 20
0.0891785769888028
  0
LINE
  5
2F64
330
2
100
AcDbEntity
  8
Sezione
100
AcDbLine
 10
0.2419884391501288
 20
0.0999528575076468
 30
0.0
 11
0.3835192440471005
 21
0.0999528575076468
 31
0.0
  0
LINE
  5
2F65
330
2
100
AcDbEntity
  8
Sezione
100
AcDbLine
 10
0.2419884391501288
 20
0.1016133324648493
 30
0.0
 11
0.3834919310932128
 21
0.1016133324648493
 31
0.0
  0
LINE
  5
2F66
330
2
100
AcDbEntity
  8
Sezione
100
AcDbLine
 10
0.2420815186461431
 20
0.1052629527754596
 30
0.0
 11
0.3836568067603658
 21
0.1052629527754596
 31
0.0
  0
LINE
  5
2F67
330
2
100
AcDbEntity
  8
Sezione
100
AcDbLine
 10
0.2419884391501288
 20
0.084090361614394
 30
0.0
 11
0.3835192440471005
 21
0.084090361614394
 31
0.0
  0
LINE
  5
2F68
330
2
100
AcDbEntity
  8
Sezione
100
AcDbLine
 10
0.2419884391501288
 20
0.0857508365715965
 30
0.0
 11
0.3835192440471005
 21
0.0857508365715965
 31
0.0
  0
LINE
  5
2F69
330
2
100
AcDbEntity
  8
Sezione
100
AcDbLine
 10
0.21684129075172
 20
0.1016133324648493
 30
0.0
 11
0.1868710599549815
 21
0.1016133324648493
 31
0.0
  0
LINE
  5
2F6A
330
2
100
AcDbEntity
  8
Sezione
100
AcDbLine
 10
0.2168412907517201
 20
0.0999528575076468
 30
0.0
 11
0.1836355639781877
 21
0.0999528575076468
 31
0.0
  0
LINE
  5
2F6B
330
2
100
AcDbEntity
  8
Sezione
100
AcDbLine
 10
0.21684129075172
 20
0.0857508365715965
 30
0.0
 11
0.1705798223272524
 21
0.0857508365715965
 31
0.0
  0
LINE
  5
2F6C
330
2
100
AcDbEntity
  8
Sezione
100
AcDbLine
 10
0.2168412907517201
 20
0.084090361614394
 30
0.0
 11
0.1690533682995686
 21
0.084090361614394
 31
0.0
  0
MTEXT
  5
2F99
330
2
100
AcDbEntity
  8
Text
100
AcDbMText
 10
0.1133313047219695
 20
0.2610796890771976
 30
0.0
 40
0.003
 41
0.1439458190885965
 46
0.0141952763113409
 71
     2
 72
     5
  1
{\fTimes New Roman|b0|i0|c0|p18;Le cornici in polimeri espansi   \fTimes New Roman|b0|i1|c0|p18;Expanded polymers mouldings}
 73
     1
 44
1.0
1001
ACAD
1000
ACAD_MTEXT_DEFINED_HEIGHT_BEGIN
1070
    46
1040
0.0141952763113409
1000
ACAD_MTEXT_DEFINED_HEIGHT_END
  0
VIEWPORT
  5
7B
330
79
100
AcDbEntity
 67
     1
  8
0
100
AcDbViewport
 10
145.330337524414
 20
101.8116638660431
 30
0.0
 40
351.1337450215151
 41
222.1517806396485
 68
     1
 69
     1
 12
145.330337524414
 22
101.8116638660431
 13
0.0
 23
0.0
 14
10.0
 24
10.0
 15
10.0
 25
10.0
 16
0.0
 26
0.0
 36
1.0
 17
0.0
 27
0.0
 37
0.0
 42
50.0
 43
0.0
 44
0.0
 45
222.1517806396485
 50
0.0
 51
0.0
 72
  1000
 90
    32800
  1

281
     0
 71
     1
 74
     0
110
0.0
120
0.0
130
0.0
111
1.0
121
0.0
131
0.0
112
0.0
122
1.0
132
0.0
 79
     0
146
0.0
170
     0
 61
     5
348
7E
292
     1
282
     1
141
0.0
142
0.0
 63
   250
421
  3355443
  0
VIEWPORT
  5
80
330
79
100
AcDbEntity
 67
     1
  8
Sezione
100
AcDbViewport
 10
145.3303314447403
 20
101.8116623163223
 30
0.0
 40
232.5285303115845
 41
162.8986597061157
 68
     2
 69
     2
 12
0.2100067158578973
 22
0.1484909068076998
 13
0.0
 23
0.0
 14
10.0
 24
10.0
 15
10.0
 25
10.0
 16
0.0
 26
0.0
 36
1.0
 17
0.0
 27
0.0
 37
0.0
 42
50.0
 43
0.0
 44
0.0
 45
0.2752830087467564
 50
0.0
 51
0.0
 72
  1000
 90
    32864
  1

281
     0
 71
     1
 74
     0
110
0.0
120
0.0
130
0.0
111
1.0
121
0.0
131
0.0
112
0.0
122
1.0
132
0.0
 79
     0
146
0.0
170
     0
 61
     5
348
7E
292
     1
282
     1
141
0.0
142
0.0
 63
   250
421
  3355443
  0
ENDSEC
  0
SECTION
  2
OBJECTS
  0
DICTIONARY
  5
9
330
0
100
AcDbDictionary
281
     1
  3
ACAD_COLOR
350
A1
  3
ACAD_GROUP
350
9C
  3
ACAD_IMAGE_DICT
350
2D74
  3
ACAD_IMAGE_VARS
350
2D76
  3
ACAD_LAYOUT
350
78
  3
ACAD_MATERIAL
350
B
  3
ACAD_MLINESTYLE
350
9D
  3
ACAD_PLOTSETTINGS
350
9E
  3
ACAD_PLOTSTYLENAME
350
8
  3
ACAD_TABLESTYLE
350
A2
  3
ACAD_VISUALSTYLE
350
7F
  3
AcDbVariableDictionary
350
A9
  3
AEC_CLASSIFICATION_SYSTEM_DEFS
350
2CE3
  3
AEC_PROPERTY_SET_DEFS
350
10D
  0
DICTIONARY
  5
8B
330
8A
100
AcDbDictionary
280
     1
281
     1
  3
ACAD_LAYERFILTERS
360
48D
  3
ACAD_LAYERSTATES
360
8D
  3
ACLYDICTIONARY
360
48C
  0
DICTIONARY
  5
3
330
2
100
AcDbDictionary
280
     1
281
     1
  3
ACAD_SORTENTS
360
A8
  0
DICTIONARY
  5
B6D
330
B69
100
AcDbDictionary
280
     1
281
     1
  3
ACAD_SORTENTS
360
B6E
  0
DICTIONARY
  5
10D6
330
FEB
100
AcDbDictionary
280
     1
281
     1
  0
DICTIONARY
  5
2182
330
16AC
100
AcDbDictionary
280
     1
281
     1
  0
DICTIONARY
  5
2CDF
330
2CDA
100
AcDbDictionary
280
     1
281
     1
  3
ACAD_SORTENTS
360
2CE0
  0
DICTIONARY
  5
2EC6
330
2EC4
100
AcDbDictionary
280
     1
281
     1
  3
ACAD_SORTENTS
360
2EC7
  0
DICTIONARY
  5
A1
102
{ACAD_REACTORS
330
9
102
}
330
9
100
AcDbDictionary
281
     1
  0
DICTIONARY
  5
9C
102
{ACAD_REACTORS
330
9
102
}
330
9
100
AcDbDictionary
281
     1
  0
DICTIONARY
  5
2D74
102
{ACAD_REACTORS
330
9
102
}
330
9
100
AcDbDictionary
281
     1
  3
X30
350
2D75
  3
X35
350
2DDD
  3
x39
350
2E80
  3
x40
350
2EEC
  3
X41
350
2F3E
  0
RASTERVARIABLES
  5
2D76
102
{ACAD_REACTORS
330
9
102
}
330
9
100
AcDbRasterVariables
 90
        0
 70
     1
 71
     1
 72
     1
  0
DICTIONARY
  5
78
102
{ACAD_REACTORS
330
9
102
}
330
9
100
AcDbDictionary
281
     1
  3
Layout1
350
82
  3
Layout2
350
89
  3
Model
350
77
  0
DICTIONARY
  5
B
102
{ACAD_REACTORS
330
9
102
}
330
9
100
AcDbDictionary
281
     1
  3
ByBlock
350
A0
  3
ByLayer
350
9F
  3
Global
350
A
  0
DICTIONARY
  5
9D
102
{ACAD_REACTORS
330
9
102
}
330
9
100
AcDbDictionary
281
     1
  3
Standard
350
A3
  0
DICTIONARY
  5
9E
102
{ACAD_REACTORS
330
9
102
}
330
9
100
AcDbDictionary
281
     1
  0
ACDBDICTIONARYWDFLT
  5
8
102
{ACAD_REACTORS
330
9
102
}
330
9
100
AcDbDictionary
281
     1
  3
Normal
350
7
100
AcDbDictionaryWithDefault
340
7
  0
DICTIONARY
  5
A2
102
{ACAD_REACTORS
330
9
102
}
330
9
100
AcDbDictionary
281
     1
  3
Standard
350
A4
  0
DICTIONARY
  5
7F
102
{ACAD_REACTORS
330
9
102
}
330
9
100
AcDbDictionary
281
     1
  3
2dWireframe
350
7E
  3
3D Hidden
350
D8
  3
3dWireframe
350
A6
  3
Basic
350
D7
  3
Brighten
350
DB
  3
ColorChange
350
DF
  3
Conceptual
350
D9
  3
Dim
350
DA
  3
Facepattern
350
DE
  3
Flat
350
D3
  3
FlatWithEdges
350
D4
  3
Gouraud
350
D5
  3
GouraudWithEdges
350
D6
  3
Linepattern
350
DD
  3
Realistic
350
A5
  3
Thicken
350
DC
  0
DICTIONARY
  5
A9
102
{ACAD_REACTORS
330
9
102
}
330
9
100
AcDbDictionary
281
     1
  3
CTABLESTYLE
350
AA
  3
DIMASSOC
350
AE
  3
HIDETEXT
350
AD
  3
INDEXCTL
350
AC
  3
PROJECTNAME
350
16A
  3
SORTENTS
350
AB
  0
DICTIONARY
  5
2CE3
102
{ACAD_REACTORS
330
9
102
}
330
9
100
AcDbDictionary
281
     1
  0
DICTIONARY
  5
10D
102
{ACAD_REACTORS
330
9
102
}
330
9
100
AcDbDictionary
281
     1
  0
DICTIONARY
  5
48D
102
{ACAD_REACTORS
330
8B
102
}
330
8B
100
AcDbDictionary
281
     1
  0
DICTIONARY
  5
8D
102
{ACAD_REACTORS
330
8B
102
}
330
8B
100
AcDbDictionary
281
     1
  0
DICTIONARY
  5
48C
102
{ACAD_REACTORS
330
8B
102
}
330
8B
100
AcDbDictionary
281
     1
1001
ACAD
1000
<All
  0
SORTENTSTABLE
  5
A8
102
{ACAD_REACTORS
330
3
102
}
330
3
100
AcDbSortentsTable
330
2
331
25
  5
25
331
2F2B
  5
2F2B
331
28E2
  5
28E2
331
14
  5
10
331
10
  5
14
331
21
  5
22
331
1D
  5
1E
331
2F30
  5
2F34
331
15
  5
11
331
2F2C
  5
2F2C
331
28E3
  5
28E3
331
1CA
  5
1CA
331
11
  5
15
331
22
  5
23
331
2F35
  5
2F30
331
D
  5
13
331
2F31
  5
2F35
331
10F
  5
10F
331
16
  5
12
331
27
  5
27
331
28E4
  5
28E4
331
12
  5
16
331
23
  5
24
331
2C85
  5
2C9F
331
1F
  5
21
331
2F32
  5
2F2E
331
110
  5
110
331
17
  5
17
331
2F2E
  5
2F32
331
24
  5
18
331
13
  5
D
331
2C9F
  5
2CBB
331
2F2F
  5
2F33
  0
SORTENTSTABLE
  5
B6E
102
{ACAD_REACTORS
330
B6D
102
}
330
B6D
100
AcDbSortentsTable
330
B69
  0
SORTENTSTABLE
  5
2CE0
102
{ACAD_REACTORS
330
2CDF
102
}
330
2CDF
100
AcDbSortentsTable
330
2CDA
  0
SORTENTSTABLE
  5
2EC7
102
{ACAD_REACTORS
330
2EC6
102
}
330
2EC6
100
AcDbSortentsTable
330
2EC4
  0
IMAGEDEF
  5
2D75
102
{ACAD_REACTORS
330
2D74
102
}
330
2D74
100
AcDbRasterImageDef
 90
        0
  1
\\Commander\f\Lavori\BRIOMEDIA\Amadei\Originali\Website\Extrastyl\X30.jpg
 10
1181.0
 20
172.0
 11
0.0008467400508044
 21
0.0008467400508044
280
     1
281
     0
  0
IMAGEDEF
  5
2DDD
102
{ACAD_REACTORS
330
2D74
102
}
330
2D74
100
AcDbRasterImageDef
 90
        0
  1
\\Commander\f\Lavori\BRIOMEDIA\Amadei\Originali\Website\Extrastyl\X35.jpg
 10
1181.0
 20
168.0
 11
0.0008467400508044
 21
0.0008467400508044
280
     1
281
     0
  0
IMAGEDEF
  5
2E80
102
{ACAD_REACTORS
330
2D74
102
}
330
2D74
100
AcDbRasterImageDef
 90
        0
  1
\\Commander\f\Lavori\BRIOMEDIA\Amadei\Originali\Website\Extrastyl\x39.jpg
 10
1181.0
 20
326.0
 11
0.0008467400508044
 21
0.0008467400508044
280
     1
281
     0
  0
IMAGEDEF
  5
2EEC
102
{ACAD_REACTORS
330
2D74
102
}
330
2D74
100
AcDbRasterImageDef
 90
        0
  1
\\Commander\f\Lavori\BRIOMEDIA\Amadei\Originali\Website\Extrastyl\x40.jpg
 10
1181.0
 20
408.0
 11
0.0008467400508044
 21
0.0008467400508044
280
     1
281
     0
  0
IMAGEDEF
  5
2F3E
102
{ACAD_REACTORS
330
2D74
102
}
330
2D74
100
AcDbRasterImageDef
 90
        0
  1
\\Commander\f\Lavori\BRIOMEDIA\Amadei\Originali\Website\Extrastyl\X41.jpg
 10
1181.0
 20
174.0
 11
0.0008467400508044
 21
0.0008467400508044
280
     1
281
     0
  0
LAYOUT
  5
82
102
{ACAD_XDICTIONARY
360
83
102
}
102
{ACAD_REACTORS
330
78
102
}
330
78
100
AcDbPlotSettings
  1

  2
C:\Documents and Settings\All Users\Dati applicazioni\Autodesk\ADT 2006\enu\Plotters\Default Windows System Printer.pc3
  4
A4
  6

 40
3.174999952316281
 41
3.174999952316281
 42
3.175003051757812
 43
3.17498779296875
 44
209.9733276367186
 45
297.0106506347656
 46
0.0
 47
0.0
 48
0.0
 49
0.0
140
0.0
141
0.0
142
1.0
143
1.0
 70
   688
 72
     1
 73
     1
 74
     5
  7

 75
    16
147
1.0
 76
     0
 77
     2
 78
   300
148
0.0
149
0.0
100
AcDbLayout
  1
Layout1
 70
     1
 71
     1
 10
-3.17498779296875
 20
-3.174999952316281
 11
293.8356628417969
 21
206.7983276844024
 12
0.0
 22
0.0
 32
0.0
 14
29.06606628894805
 24
20.36233246326446
 34
0.0
 15
261.5945966005325
 25
183.2609921693802
 35
0.0
146
0.0
 13
0.0
 23
0.0
 33
0.0
 16
1.0
 26
0.0
 36
0.0
 17
0.0
 27
1.0
 37
0.0
 76
     0
330
79
331
7B
1001
ACAD_PSEXT
1000
C:\Documents and Settings\All Users\Dati applicazioni\Autodesk\ADT 2006\enu\Plotters\Default Windows System Printer.pc3
1000
Microsoft Office Document Image Writer Driver
1000
Microsoft Document Imaging Writer Port:
1000

1070
     0
  0
LAYOUT
  5
89
102
{ACAD_REACTORS
330
78
102
}
330
78
100
AcDbPlotSettings
  1

  2
C:\Documents and Settings\All Users\Dati applicazioni\Autodesk\ADT 2006\enu\Plotters\Default Windows System Printer.pc3
  4

  6

 40
0.0
 41
0.0
 42
0.0
 43
0.0
 44
0.0
 45
0.0
 46
0.0
 47
0.0
 48
0.0
 49
0.0
140
0.0
141
0.0
142
1.0
143
1.0
 70
   688
 72
     0
 73
     0
 74
     5
  7

 75
    16
147
1.0
 76
     0
 77
     2
 78
   300
148
0.0
149
0.0
100
AcDbLayout
  1
Layout2
 70
     1
 71
     2
 10
0.0
 20
0.0
 11
12.0
 21
9.0
 12
0.0
 22
0.0
 32
0.0
 14
0.0
 24
0.0
 34
0.0
 15
0.0
 25
0.0
 35
0.0
146
0.0
 13
0.0
 23
0.0
 33
0.0
 16
1.0
 26
0.0
 36
0.0
 17
0.0
 27
1.0
 37
0.0
 76
     0
330
86
  0
LAYOUT
  5
77
102
{ACAD_REACTORS
330
78
102
}
330
78
100
AcDbPlotSettings
  1

  2
C:\Documents and Settings\All Users\Dati applicazioni\Autodesk\ADT 2006\enu\Plotters\Default Windows System Printer.pc3
  4

  6

 40
0.0
 41
0.0
 42
0.0
 43
0.0
 44
0.0
 45
0.0
 46
0.0
 47
0.0
 48
0.0
 49
0.0
140
0.0
141
0.0
142
1.0
143
1.0
 70
  1712
 72
     0
 73
     0
 74
     0
  7

 75
     0
147
1.0
 76
     0
 77
     2
 78
   300
148
0.0
149
0.0
100
AcDbLayout
  1
Model
 70
     1
 71
     0
 10
0.0
 20
0.0
 11
12.0
 21
9.0
 12
0.0
 22
0.0
 32
0.0
 14
0.0
 24
0.0
 34
0.0
 15
0.0
 25
0.0
 35
0.0
146
0.0
 13
0.0
 23
0.0
 33
0.0
 16
1.0
 26
0.0
 36
0.0
 17
0.0
 27
1.0
 37
0.0
 76
     0
330
2
331
2F7C
  0
MATERIAL
  5
A0
102
{ACAD_REACTORS
330
B
102
}
330
B
100
AcDbMaterial
  1
ByBlock
  0
MATERIAL
  5
9F
102
{ACAD_REACTORS
330
B
102
}
330
B
100
AcDbMaterial
  1
ByLayer
  0
MATERIAL
  5
A
102
{ACAD_REACTORS
330
B
102
}
330
B
100
AcDbMaterial
  1
Global
  0
MLINESTYLE
  5
A3
102
{ACAD_REACTORS
330
9D
102
}
330
9D
100
AcDbMlineStyle
  2
STANDARD
 70
     0
  3

 62
   256
 51
90.0
 52
90.0
 71
     2
 49
0.5
 62
   256
  6
BYLAYER
 49
-0.5
 62
   256
  6
BYLAYER
  0
ACDBPLACEHOLDER
  5
7
102
{ACAD_REACTORS
330
8
102
}
330
8
  0
TABLESTYLE
  5
A4
102
{ACAD_REACTORS
330
A2
102
}
330
A2
100
AcDbTableStyle
  3
Standard
 70
     0
 71
     0
 40
1.5
 41
1.5
280
     0
281
     0
  7
Standard
140
4.5
170
     2
 62
     0
 63
     7
283
     0
 90
        4
 91
        0
  1

274
    -2
284
     1
 64
     0
275
    -2
285
     1
 65
     0
276
    -2
286
     1
 66
     0
277
    -2
287
     1
 67
     0
278
    -2
288
     1
 68
     0
279
    -2
289
     1
 69
     0
  7
Standard
140
6.0
170
     5
 62
     0
 63
     7
283
     0
 90
        4
 91
        0
  1

274
    -2
284
     1
 64
     0
275
    -2
285
     1
 65
     0
276
    -2
286
     1
 66
     0
277
    -2
287
     1
 67
     0
278
    -2
288
     1
 68
     0
279
    -2
289
     1
 69
     0
  7
Standard
140
4.5
170
     5
 62
     0
 63
     7
283
     0
 90
        4
 91
        0
  1

274
    -2
284
     1
 64
     0
275
    -2
285
     1
 65
     0
276
    -2
286
     1
 66
     0
277
    -2
287
     1
 67
     0
278
    -2
288
     1
 68
     0
279
    -2
289
     1
 69
     0
  0
VISUALSTYLE
  5
7E
102
{ACAD_REACTORS
330
7F
102
}
330
7F
100
AcDbVisualStyle
  2
2dWireframe
 70
     4
 71
     0
 72
     2
 73
     0
 90
        0
 40
-0.6
 41
-30.0
 62
     5
 63
     7
 74
     1
 91
        4
 64
     7
 65
   257
 75
     1
175
     1
 42
1.0
 92
        0
 66
   257
 43
1.0
 76
     1
 77
     6
 78
     2
 67
     7
 79
     5
170
     0
171
     0
290
     0
174
     0
 93
        1
 44
0.0
173
     0
291
     0
 45
0.0
1001
ACAD
1000
AcDbSavedByObjectVersion
1070
     0
1000
AcDbSavedByObjectVersion
1070
     0
1000
AcDbSavedByObjectVersion
1070
     0
  0
VISUALSTYLE
  5
D8
102
{ACAD_REACTORS
330
7F
102
}
330
7F
100
AcDbVisualStyle
  2
3D Hidden
 70
     6
 71
     1
 72
     2
 73
     2
 90
        0
 40
-0.6
 41
-30.0
 62
     5
 63
     7
 74
     2
 91
        2
 64
     7
 65
   257
 75
     2
175
     1
 42
40.0
 92
        0
 66
   257
 43
1.0
 76
     1
 77
     6
 78
     2
 67
     7
 79
     3
170
     0
171
     0
290
     0
174
     0
 93
        1
 44
0.0
173
     0
291
     0
 45
0.0
1001
ACAD
1000
AcDbSavedByObjectVersion
1070
     0
1000
AcDbSavedByObjectVersion
1070
     0
  0
VISUALSTYLE
  5
A6
102
{ACAD_REACTORS
330
7F
102
}
330
7F
100
AcDbVisualStyle
  2
3dWireframe
 70
     5
 71
     0
 72
     2
 73
     0
 90
        0
 40
-0.6
 41
-30.0
 62
     5
 63
     7
 74
     1
 91
        4
 64
     7
 65
   257
 75
     1
175
     1
 42
1.0
 92
        0
 66
   257
 43
1.0
 76
     1
 77
     6
 78
     2
 67
     7
 79
     5
170
     0
171
     0
290
     0
174
     0
 93
        1
 44
0.0
173
     0
291
     0
 45
0.0
1001
ACAD
1000
AcDbSavedByObjectVersion
1070
     0
1000
AcDbSavedByObjectVersion
1070
     0
1000
AcDbSavedByObjectVersion
1070
     0
  0
VISUALSTYLE
  5
D7
102
{ACAD_REACTORS
330
7F
102
}
330
7F
100
AcDbVisualStyle
  2
Basic
 70
     7
 71
     1
 72
     0
 73
     1
 90
        0
 40
-0.6
 41
-30.0
 62
     5
 63
     7
 74
     0
 91
        4
 64
     7
 65
   257
 75
     1
175
     1
 42
1.0
 92
        8
 66
     7
 43
1.0
 76
     1
 77
     6
 78
     2
 67
     7
 79
     5
170
     0
171
     0
290
     0
174
     0
 93
        1
 44
0.0
173
     0
291
     1
 45
0.0
1001
ACAD
1000
AcDbSavedByObjectVersion
1070
     0
1000
AcDbSavedByObjectVersion
1070
     0
  0
VISUALSTYLE
  5
DB
102
{ACAD_REACTORS
330
7F
102
}
330
7F
100
AcDbVisualStyle
  2
Brighten
 70
    12
 71
     2
 72
     2
 73
     0
 90
        0
 40
-0.6
 41
-30.0
 62
     5
 63
     7
 74
     1
 91
        4
 64
     7
 65
   257
 75
     1
175
     1
 42
1.0
 92
        8
 66
     7
 43
1.0
 76
     1
 77
     6
 78
     2
 67
     7
 79
     5
170
     0
171
     0
290
     0
174
     0
 93
        1
 44
50.0
173
     0
291
     1
 45
0.0
1001
ACAD
1000
AcDbSavedByObjectVersion
1070
     0
1000
AcDbSavedByObjectVersion
1070
     0
  0
VISUALSTYLE
  5
DF
102
{ACAD_REACTORS
330
7F
102
}
330
7F
100
AcDbVisualStyle
  2
ColorChange
 70
    16
 71
     2
 72
     2
 73
     3
 90
        0
 40
-0.6
 41
-30.0
 62
     5
 63
     8
 74
     1
 91
        4
 64
     7
 65
   257
 75
     1
175
     1
 42
1.0
 92
        8
 66
     8
 43
1.0
 76
     1
 77
     6
 78
     2
 67
     7
 79
     5
170
     0
171
     0
290
     0
174
     0
 93
        1
 44
0.0
173
     0
291
     1
 45
0.0
1001
ACAD
1000
AcDbSavedByObjectVersion
1070
     0
1000
AcDbSavedByObjectVersion
1070
     0
  0
VISUALSTYLE
  5
D9
102
{ACAD_REACTORS
330
7F
102
}
330
7F
100
AcDbVisualStyle
  2
Conceptual
 70
     9
 71
     3
 72
     2
 73
     0
 90
        0
 40
-0.6
 41
-30.0
 62
     5
 63
     7
 74
     2
 91
        2
 64
     7
 65
   257
 75
     1
175
     1
 42
40.0
 92
        8
 66
     7
 43
1.0
 76
     1
 77
     6
 78
     2
 67
     7
 79
     3
170
     0
171
     0
290
     0
174
     0
 93
        1
 44
0.0
173
     0
291
     0
 45
0.0
1001
ACAD
1000
AcDbSavedByObjectVersion
1070
     0
1000
AcDbSavedByObjectVersion
1070
     0
  0
VISUALSTYLE
  5
DA
102
{ACAD_REACTORS
330
7F
102
}
330
7F
100
AcDbVisualStyle
  2
Dim
 70
    11
 71
     2
 72
     2
 73
     0
 90
        0
 40
-0.6
 41
-30.0
 62
     5
 63
     7
 74
     1
 91
        4
 64
     7
 65
   257
 75
     1
175
     1
 42
1.0
 92
        8
 66
     7
 43
1.0
 76
     1
 77
     6
 78
     2
 67
     7
 79
     5
170
     0
171
     0
290
     0
174
     0
 93
        1
 44
-50.0
173
     0
291
     1
 45
0.0
1001
ACAD
1000
AcDbSavedByObjectVersion
1070
     0
1000
AcDbSavedByObjectVersion
1070
     0
  0
VISUALSTYLE
  5
DE
102
{ACAD_REACTORS
330
7F
102
}
330
7F
100
AcDbVisualStyle
  2
Facepattern
 70
    15
 71
     2
 72
     2
 73
     0
 90
        0
 40
-0.6
 41
-30.0
 62
     5
 63
     7
 74
     1
 91
        4
 64
     7
 65
   257
 75
     1
175
     1
 42
1.0
 92
        8
 66
     7
 43
1.0
 76
     1
 77
     6
 78
     2
 67
     7
 79
     5
170
     0
171
     0
290
     0
174
     0
 93
        1
 44
0.0
173
     0
291
     1
 45
0.0
1001
ACAD
1000
AcDbSavedByObjectVersion
1070
     0
1000
AcDbSavedByObjectVersion
1070
     0
  0
VISUALSTYLE
  5
D3
102
{ACAD_REACTORS
330
7F
102
}
330
7F
100
AcDbVisualStyle
  2
Flat
 70
     0
 71
     2
 72
     1
 73
     1
 90
        2
 40
-0.6
 41
30.0
 62
     5
 63
     7
 74
     0
 91
        4
 64
     7
 65
   257
 75
     1
175
     1
 42
1.0
 92
        8
 66
     7
 43
1.0
 76
     1
 77
     6
 78
     2
 67
     7
 79
     5
170
     0
171
     0
290
     0
174
     0
 93
       13
 44
0.0
173
     0
291
     1
 45
0.0
1001
ACAD
1000
AcDbSavedByObjectVersion
1070
     0
1000
AcDbSavedByObjectVersion
1070
     0
  0
VISUALSTYLE
  5
D4
102
{ACAD_REACTORS
330
7F
102
}
330
7F
100
AcDbVisualStyle
  2
FlatWithEdges
 70
     1
 71
     2
 72
     1
 73
     1
 90
        2
 40
-0.6
 41
30.0
 62
     5
 63
     7
 74
     1
 91
        4
 64
     7
 65
   257
 75
     1
175
     1
 42
1.0
 92
        0
 66
   257
 43
1.0
 76
     1
 77
     6
 78
     2
 67
     7
 79
     5
170
     0
171
     0
290
     0
174
     0
 93
       13
 44
0.0
173
     0
291
     1
 45
0.0
1001
ACAD
1000
AcDbSavedByObjectVersion
1070
     0
1000
AcDbSavedByObjectVersion
1070
     0
  0
VISUALSTYLE
  5
D5
102
{ACAD_REACTORS
330
7F
102
}
330
7F
100
AcDbVisualStyle
  2
Gouraud
 70
     2
 71
     2
 72
     2
 73
     1
 90
        2
 40
-0.6
 41
30.0
 62
     5
 63
     7
 74
     0
 91
        4
 64
     7
 65
   257
 75
     1
175
     1
 42
1.0
 92
        0
 66
     7
 43
1.0
 76
     1
 77
     6
 78
     2
 67
     7
 79
     5
170
     0
171
     0
290
     0
174
     0
 93
       13
 44
0.0
173
     0
291
     1
 45
0.0
1001
ACAD
1000
AcDbSavedByObjectVersion
1070
     0
1000
AcDbSavedByObjectVersion
1070
     0
  0
VISUALSTYLE
  5
D6
102
{ACAD_REACTORS
330
7F
102
}
330
7F
100
AcDbVisualStyle
  2
GouraudWithEdges
 70
     3
 71
     2
 72
     2
 73
     1
 90
        2
 40
-0.6
 41
30.0
 62
     5
 63
     7
 74
     1
 91
        4
 64
     7
 65
   257
 75
     1
175
     1
 42
1.0
 92
        0
 66
   257
 43
1.0
 76
     1
 77
     6
 78
     2
 67
     7
 79
     5
170
     0
171
     0
290
     0
174
     0
 93
       13
 44
0.0
173
     0
291
     1
 45
0.0
1001
ACAD
1000
AcDbSavedByObjectVersion
1070
     0
1000
AcDbSavedByObjectVersion
1070
     0
  0
VISUALSTYLE
  5
DD
102
{ACAD_REACTORS
330
7F
102
}
330
7F
100
AcDbVisualStyle
  2
Linepattern
 70
    14
 71
     2
 72
     2
 73
     0
 90
        0
 40
-0.6
 41
-30.0
 62
     5
 63
     7
 74
     1
 91
        4
 64
     7
 65
   257
 75
     7
175
     7
 42
1.0
 92
        8
 66
     7
 43
1.0
 76
     1
 77
     6
 78
     2
 67
     7
 79
     5
170
     0
171
     0
290
     0
174
     0
 93
        1
 44
0.0
173
     0
291
     1
 45
0.0
1001
ACAD
1000
AcDbSavedByObjectVersion
1070
     0
1000
AcDbSavedByObjectVersion
1070
     0
  0
VISUALSTYLE
  5
A5
102
{ACAD_REACTORS
330
7F
102
}
330
7F
100
AcDbVisualStyle
  2
Realistic
 70
     8
 71
     2
 72
     2
 73
     0
 90
        0
 40
-0.6
 41
-30.0
 62
     5
 63
     7
 74
     1
 91
        0
 64
     7
 65
   257
 75
     1
175
     1
 42
1.0
 92
        8
 66
     8
 43
1.0
 76
     1
 77
     6
 78
     2
 67
     7
 79
     5
170
     0
171
     0
290
     0
174
     0
 93
       13
 44
0.0
173
     0
291
     0
 45
0.0
1001
ACAD
1000
AcDbSavedByObjectVersion
1070
     0
1000
AcDbSavedByObjectVersion
1070
     0
1000
AcDbSavedByObjectVersion
1070
     0
  0
VISUALSTYLE
  5
DC
102
{ACAD_REACTORS
330
7F
102
}
330
7F
100
AcDbVisualStyle
  2
Thicken
 70
    13
 71
     2
 72
     2
 73
     0
 90
        0
 40
-0.6
 41
-30.0
 62
     5
 63
     7
 74
     1
 91
        4
 64
     7
 65
   257
 75
     1
175
     1
 42
1.0
 92
       12
 66
     7
 43
1.0
 76
     1
 77
     6
 78
     2
 67
     7
 79
     5
170
     0
171
     0
290
     0
174
     0
 93
        1
 44
0.0
173
     0
291
     1
 45
0.0
1001
ACAD
1000
AcDbSavedByObjectVersion
1070
     0
1000
AcDbSavedByObjectVersion
1070
     0
  0
DICTIONARYVAR
  5
AA
102
{ACAD_REACTORS
330
A9
102
}
330
A9
100
DictionaryVariables
280
     0
  1
STANDARD
  0
DICTIONARYVAR
  5
AE
102
{ACAD_REACTORS
330
A9
102
}
330
A9
100
DictionaryVariables
280
     0
  1
2
  0
DICTIONARYVAR
  5
AD
102
{ACAD_REACTORS
330
A9
102
}
330
A9
100
DictionaryVariables
280
     0
  1
1
  0
DICTIONARYVAR
  5
AC
102
{ACAD_REACTORS
330
A9
102
}
330
A9
100
DictionaryVariables
280
     0
  1
0
  0
DICTIONARYVAR
  5
16A
102
{ACAD_REACTORS
330
A9
102
}
330
A9
100
DictionaryVariables
280
     0
  1

  0
DICTIONARYVAR
  5
AB
102
{ACAD_REACTORS
330
A9
102
}
330
A9
100
DictionaryVariables
280
     0
  1
127
  0
DICTIONARY
  5
83
330
82
100
AcDbDictionary
280
     1
281
     1
  3
ADSK_XREC_LAYOUTTHUMBNAIL
360
84
  0
XRECORD
  5
84
102
{ACAD_REACTORS
330
83
102
}
330
83
100
AcDbXrecord
280
     1
310
28000000B40000007F00000001000800000000004C59000000000000000000000001000000000000FFFFFF0000000000FFFFFF000000000000000000000000000000000000000000000000000000000000000000330000006600000099000000CC000000FF00000000330000333300006633000099330000CC330000FF3300
310
0000660000336600006666000099660000CC660000FF66000000990000339900006699000099990000CC990000FF99000000CC000033CC000066CC000099CC0000CCCC0000FFCC000000FF000033FF000066FF000099FF0000CCFF0000FFFF000000003300330033006600330099003300CC003300FF003300003333003333
310
33006633330099333300CC333300FF33330000663300336633006666330099663300CC663300FF66330000993300339933006699330099993300CC993300FF99330000CC330033CC330066CC330099CC3300CCCC3300FFCC330000FF330033FF330066FF330099FF3300CCFF3300FFFF330000006600330066006600660099
310
006600CC006600FF00660000336600333366006633660099336600CC336600FF33660000666600336666006666660099666600CC666600FF66660000996600339966006699660099996600CC996600FF99660000CC660033CC660066CC660099CC6600CCCC6600FFCC660000FF660033FF660066FF660099FF6600CCFF6600
310
FFFF660000009900330099006600990099009900CC009900FF00990000339900333399006633990099339900CC339900FF33990000669900336699006666990099669900CC669900FF66990000999900339999006699990099999900CC999900FF99990000CC990033CC990066CC990099CC9900CCCC9900FFCC990000FF99
310
0033FF990066FF990099FF9900CCFF9900FFFF99000000CC003300CC006600CC009900CC00CC00CC00FF00CC000033CC003333CC006633CC009933CC00CC33CC00FF33CC000066CC003366CC006666CC009966CC00CC66CC00FF66CC000099CC003399CC006699CC009999CC00CC99CC00FF99CC0000CCCC0033CCCC0066CC
310
CC0099CCCC00CCCCCC00FFCCCC0000FFCC0033FFCC0066FFCC0099FFCC00CCFFCC00FFFFCC000000FF003300FF006600FF009900FF00CC00FF00FF00FF000033FF003333FF006633FF009933FF00CC33FF00FF33FF000066FF003366FF006666FF009966FF00CC66FF00FF66FF000099FF003399FF006699FF009999FF00CC
310
99FF00FF99FF0000CCFF0033CCFF0066CCFF0099CCFF00CCCCFF00FFCCFF0000FFFF0033FFFF0066FFFF0099FFFF00CCFFFF00FFFFFF00000000000D0D0D001A1A1A00282828003535350043434300505050005D5D5D006B6B6B00787878008686860093939300A1A1A100AEAEAE00BBBBBB00C9C9C900D6D6D600E4E4E400
310
F1F1F100FFFFFF0000000000000000000000000000000000000000000000000000000000000000000000000000000000E2E2E2E2E2E2E2E2E2E2E2E2E2E2E2E2E2E2E2E2E2E2E2E2E2E2E2E2E2E2E2E2E2E2E2E2E2E2E2E2E2E2E2E2E2E2E2E2E2E2E2E2E2E2E2E2E2E2E2E2E2E2E2E2E2E2E2E2E2E2E2E2E2E2E2E2E2E2E2
310
E2E2E2E2E2E2E2E2E2E2E2E2E2E2E2E2E2E2E2E2E2E2E2E2E2E2E2E2E2E2E2E2E2E2E2E2E2E2E2E2E2E2E2E2E2E2E2E2E2E2E2E2E2E2E2E2E2E2E2E2E2E2E2E2E2E2E2E2E2E2E2E2E2E2E2E2E2E2E2E2E2E2E2E2E2E2E2E2E2E2E2E2E2E2E2E2E2E2E2E2E2E2F5F5F5F5F5F5F5F5F5F5F5F5F5F5F5F5F5F5F5F5F5F5F5F5F5
310
F5F5F5F5F5F5F5F5F5F5F5F5F5F5F5F5F5F5F5F5F5F5F5F5F5F5F5F5F5F5F5F5F5F5F5F5F5F5F5F5F5F5F5F5F5F5F5F5F5F5F5F5F5F5F5F5F5F5F5F5F5F5F5F5F5F5F5F5F5F5F5F5F5F5F5F5F5F5F5F5F5F5F5F5F5F5F5F5F5F5F5F5F5F5F5F5F5F5F5F5F5F5F5F5F5F5F5F5F5F5F5F5F5F5F5F5F5F5F5F5F5F5F5F5F5F5F5
310
F5F5F5F5F5F5F5F5F5F5F5F5F5F5F5F5F5F5F5F5F5F5F5F5F5F5E2E2F5E2E2E2E2E2E2E2E2E2F5F5F5F5F5F5F5F5F5E2E2E2E2E2E2E2E2E2E2E2E2E2E2E2E2F5F5F5F5F5F5F5F5F5E2E2E2E2E2E2E2E2E2E2E2E2E2E2E2E2F5F5F5F5F5F5F5F5F5E2E2E2E2E2E2E2E2E2E2E2E2E2E2E2E2F5F5F5F5F5F5F5F5F5E2E2E2E2E2
310
E2E2E2E2E2E2E2E2E2E2E2F5F5F5F5F5F5F5F5F5E2E2E2E2E2E2E2E2E2E2E2E2E2E2E2E2F5F5F5F5F5F5F5F5F5E2E2E2E2E2E2E2E2E2E2E2E2E2E2E2E2F5F5F5F5F5F5F5F5F5E2E2E2E2E2E2E2E2F5E2E2F5E2F5F5F5F5F5F5F5F5F5F5F5F5F5F5F5F5F5F5F5F5F5F5F5F5F5F5F5F5F5F5F5F5F5F5F5F5F5F5F5F5F5F5F5F5
310
F5F5F5F5F5F5F5F5F5F5F5F5F5F5F5F5F5F5F5F5F5F5F5F5F5F5F5F5F5F5F5F5F5F5F5F5F5F5F5F5F5F5F5F5F5F5F5F5F5F5F5F5F5F5F5F5F5F5F5F5F5F5F5F5F5F5F5F5F5F5F5F5F5F5F5F5F5F5F5F5F5F5F5F5F5F5F5F5F5F5F5F5F5F5F5F5F5F5F5F5F5F5F5F5F5F5F5F5F5F5F5F5F5F5F5F5F5F5F5F5F5F5F5F5F5F5F5
310
F5F5F5E2F5E2E2F5E2F5F5F5F5F5F5F5F5F5F5F5F5F5F5F5F5F5F5F5F5F5F5F5F5F5F5F5F5F5F5F5F5F5F5F5F5F5F5F5F5F5F5F5F5F5F5F5F5F5F5F5F5F5F5F5F5F5F5F5F5F5F5F5F5F5F5F5F5F5F5F5F5F5F5F5F5F5F5F5F5F5F5F5F5F5F5F5F5F5F5F5F5F5F5F5F5F5F5F5F5F5F5F5F5F5F5F5F5F5F5F5F5F5F5F5F5F5F5
310
F5F5F5F5F5F5F5F5F5F5F5F5F5F5F5F5F5F5F5F5F5F5F5F5F5F5F5F5F5F5F5F5F5F5F5F5F5F5F5F5F5F5F5F5F5F5F5F5F5F5F5F5F5F5F5F5E2F5E2E2F5E2F5F5F5F5F5F5F5F5F5F5F5F5F5F5F5F5F5F5F5F5F5F5F5F5F5F5F5F5F5F5F5F5F5F5F5F5F5F5F5F5F5F5F5F5F5F5F5F5F5F5F5F5F5F5F5F5F5F5F5F5F5F5F5F5F5
310
F5F5F5F5F5F5F5F5F5F5F5F5F5F5F5F5F5F5F5F5F5F5F5F5F5F5F5F5F5F5F5F5F5F5F5F5F5F5F5F5F5F5F5F5F5F5F5F5F5F5F5F5F5F5F5F5F5F5F5F5F5F5F5F5F5F5F5F5F5F5F5F5F5F5F5F5F5F5F5F5F5F5F5F5F5F5F5F5F5F5F5F5F5F5F5F5F5F5F5F5F5F5F5F5F5F5F5F5F5E2F5E2E2F5E2F5F5F5F5F5F5F5F5F5F5F5F5
310
F5F5F5F5F5F5F5F5F5F5F5F5F5F5F5F5F5F5F5F5F5F5F5F5F5F5F5F5F5F5F5F5F5F5F5F5F5F5F5F5F5F5F5F5F5F5F5F5F5F5F5F5F5F5F5F5F5F5F5F5F5F5F5F5F5F5F5F5F5F5F5F5F5F5F5F5F5F5F5F5F5F5F5F5F5F5F5F5F5F5F5F5F5F5F5F5F5F5F5F5F5F5F5F5F5F5F5F5F5F5F5F5F5F5F5F5F5F5F5F5F5F5F5F5F5F5F5
310
F5F5F5F5F5F5F5F5F5F5F5F5F5F5F5F5F5F5F5F5F5F5F5F5F5F5F5F5F5F5F5F5F5F5F5E2F5E2E2F5E2F5F5F5F5F5F5F5F5F5F5F5F5F5F5F5F5F5F5F5F5F5F5F5F5F5F5F5F5F5F5F5F5F5F5F5F5F5F5F5F5F5F5F5F5F5F5F5F5F5F5F5F5F5F5F5F5F5F5F5F5F5F5F5F5F5F5F5F5F5F5F5F5F5F5F5F5F5F5F5F5F5F5F5F5F5F5
310
F5F5F5F5F5F5F5F5F5F5F5F5F5F5F5F5F5F5F5F5F5F5F5F5F5F5F5F5F5F5F5F5F5F5F5F5F5F5F5F5F5F5F5F5F5F5F5F5F5F5F5F5F5F5F5F5F5F5F5F5F5F5F5F5F5F5F5F5F5F5F5F5F5F5F5F5F5F5F5F5F5F5F5F5F5F5F5F5E2F5E2E2F5E2F5F5F5F5F5F5F5F5F5F5F5F5F5F5F5F5F5F5F5F5F5F5F5F5F5F5F5F5F5F5F5F5F5
310
F5F5F5F5F5F5F5F5F5F5F5F5F5F5F5F5F5F5F5F5F5F5F5F5F5F5F5F5F5F5F5F5F5F5F5F5F5F5F5F5F5F5F5F5F5F5F5F5F5F5F5F5F5F5F5F5F5F5F5F5F5F5F5F5F5F5F5F5F5F5F5F5F5F5F5F5F5F5F5F5F5F5F5F5F5F5F5F5F5F5F5F5F5F5F5F5F5F5F5F5F5F5F5F5F5F5F5F5F5F5F5F5F5F5F5F5F5F5F5F5F5F5F5F5F5F5F5
310
F5F5F5F5F5F5F5F5F5F5F5F5F5F5E2F5E2E2F5E2F5F5F5F5F5F5F5F5F5F5F5F5F5F5F5F5F5F5F5F5F5F5F5F5F5F5F5F5F5F5F5F5F5F5F5F5F5F5F5F5F5F5F5F5F5F5F5F5F5F5F5F5F5F5F5F5F5F5F5F5F5F5F5F5F5F5F5F5F5F5F5F5F5F5F5F5F5F5F5F5F5F5F5F5F5F5F5F5F5F5F5F5F5F5F5F5F5F5F5F5F5F5F5F5F5F5F5
310
F5F5F5F5F5F5F5F5F5F5F5F5F5F5F5F5F5F5F5F5F5F5F5F5F5F5F5F5F5F5F5F5F5F5F5F5F5F5F5F5F5F5F5F5F5F5F5F5F5F5F5F5F5F5F5F5F5F5F5F5F5F5F5F5F5F5F5E2F5E2E2F5F5F5F5F5F5F5F5F5F5F5F5F5F5F5F5F5F5F5F5F5F5F5F5F5F5F5F5F5F5F5F5F5F5F5F5F5F5F5F5F5F5F5F5F5F5F5F5F5F5F5F5F5F5F5F5
310
F5F5F5F5F5F5F5F5F5F5F5F5F5F5F5F5F5F5F5F5F5F5F5F5F5F5F5F5F5F5F5F5F5F5F5F5F5F5F5F5F5F5F5F5F5F5F5F5F5F5F5F5F5F5F5F5F5F5F5F5F5F5F5F5F5F5F5F5F5F5F5F5F5F5F5F5F5F5F5F5F5F5F5F5F5F5F5F5F5F5F5F5F5F5F5F5F5F5F5F5F5F5F5F5F5F5F5F5F5F5F5F5F5F5F5F5F5F5F5F5F5F5E2E2F5F5F5
310
F5F5F5F5F5F5F5F5F5F5F5F5F5F5F5F5F5F5F5F5F5F5F5F5F5F5F5F5F5F5F5F5F5F5F5F5F5F5F5F5F5F5F5F5F5F5F5F5F5F5F5F5F5F5F5F5F5F5F5F5F5F5F5F5F5F5F5F5F5F5F5F5F5F5F5F5F5F5F5F5F5F5F5F5F5F5F5F5F5F5F5F5F5F5F5F5F5F5F5F5F5F5F5F5F5F5F5F5F5F5F5F5F5F5F5F5F5F5F5F5F5F5F5F5F5F5F5
310
F5F5F5F5F5F5F5F5F5F5F5F5F5F5F5F5F5F5F5F5F5F5F5F5F5F5F5F5F5F5F5F5F5F5F5F5F5F5F5F5F5F5F5F5F5F5F5F5E2E2F5F5F5F5F5F5F5F5F5F5F5F5F5F5F5F5F5F5F5F5F5F5F5F5F5F5F5F5F5F5F5F5F5F5F5F5F5F5F5F5F5F5F5F5F5F5F5F5F5F5F5F5F5F5F5F5F5F5F5F5F5F5F5F5F5F5F5F5F5F5F5F5F5F5F5F5F5
310
F5F5F5F5F5F5F5F5F5F5F5F5F5F5F5F5F5F5F5F5F5F5F5F5F5F5F5F5F5F5F5F5F5F5F5F5F5F5F5F5F5F5F5F5F5F5F5F5F5F5F5F5F5F5F5F5F5F5F5F5F5F5F5F5F5F5F5F5F5F5F5F5F5F5F5F5F5F5F5F5F5F5F5F5F5F5F5F5F5F5F5F5F5F5F5F5F5F5F5F5F5E2E2F5F5F5F5F5F5F5F5F5F5F5F5F5F5F5F5F5F5F5F5F5F5F5F5
310
F5F5F5F5F5F5F5F5F5F5F5F5F5F5F5F5F5F5F5F5F5F5F5F5F5F5F5F5F5F5F5F5F5F5F5F5F5F5F5F5F5F5F5F5F5F5F5F5F5F5F5F5F5F5F5F5F5F5F5F5F5F5F5F5F5F5F5F5F5F5F5F5F5F5F5F5F5F5F5F5F5F5F5F5F5F5F5F5F5F5F5F5F5F5F5F5F5F5F5F5F5F5F5F5F5F5F5F5F5F5F5F5F5F5F5F5F5F5F5F5F5F5F5F5F5F5F5
310
F5F5F5F5F5F5F5F5F5F5F5F5F5F5F5F5F5F5F5F5F5F5F5F5F5F5F5E2E2F5F5F5F5F5F5F5F5F5F5F5F5F5F5F5F5F5F5F5DCDCDCDCDCDCDCDCDCDCDCDCDCDCDCDCDCDCDCDCDCDCDCDCDCDCDCDCDCDCDCDCDCDCDCDCDCDCDCDCDCDCDCDCDCDCDCDCDCDCDCDCDCDCDCDCDCDCDCDCDCDCDCDCDCDCDCDCDCDCDCDCDCDCDCDCDCDCDC
310
DCDCDCDCDCDCDCDCDCDCDCDCDCDCDCDCDCDCDCDCDCDCDCDCDCDCDCDCDCDCDCDCDCDCDCDCDCDCDCDCDCDCDCDCDCDCDCDCDCDCDCDCDCDCDCDCDCDCDCDCDCF5F5F5F5F5F5F5F5F5F5F5F5F5F5F5F5F5F5F5E2E2F5F5F5F5F5F5F5F5F5F5F5F5F5F5F5F5F5F5F5DCDCDCDCDCDCDCDCDCDCDCDCDCDCDCDCDCDCDCDCDCDCDCDCDCDC
310
DCDCDCDCDCDCDCDCDCDCDCDCDCDCDCDCDCDCDCDCDCDCDCDCDCDCDCDCDCDCDCDCDCDCDCDCDCDCDCDCDCDCDCDCDCDCDCDCDCDCDCDCDCDCDCDCDCDCDCDCDCDCDCDCDCDCDCDCDCDCDCDCDCDCDCDCDCDCDCDCDCDCDCDCDCDCDCDCDCDCDCDCDCDCDCDCDCDCDCDCDCDCDCDCDCDCDCDCDCDCDCDCDCDCF5F5F5F5F5F5F5F5F5F5F5F5F5
310
F5F5F5F5F5F5E2E2F5F5F5F5F5F5F5F5F5F5F5F5F5F5F5F5F5F5F5DCF5F5F5F5F5F5F5F5F5F5F5F5F5F5F5F5F5F5F5F5F5F5F5F5F5F5F5F5F5F5F5F5F5F5F5F5F5F5F5F5F5F5F5F5F5F5F5F5F5F5F5F5F5F5F5F5F5F5F5F5F5F5F5F5F5F5F5F5F5F5F5F5F5F5F5F5F5F5F5F5F5F5F5F5F5F5F5F5F5F5F5F5F5F5F5F5F5F5F5
310
F5F5F5F5F5F5F5F5F5F5F5F5F5F5F5F5F5F5F5F5F5F5F5F5F5F5F5F5F5F5F5F5F5F5F5F5F5F5F5DCF5F5F5F5F5F5F5F5F5F5F5F5F5F5F5F5F5F5F5E2E2F5F5F5F5F5F5F5F5F5F5F5F5F5F5F5F5F5F5F5DCF5282828282828282828282828282828282828282828282828282828282828282828282828282828282828282828
310
28282828282828282828282828282828282828282828282828282828282828282828282828282828282828282828282828282828282828282828282828282828282828282828282828282828282828282828282828282828282828F5DCF5F5F5F5F5F5F5F5F5F5F5F5F5F5F5F5F5F5F5E2E2F5F5F5F5F5F5F5F5F5F5F5F5F5
310
F5F5F5F5F5F5DCF5282D2D2D2D2D2D2D2D2D2D2D2D2D2D2D2D2D2D2D2D2DF5F5F5F5F5F5F5F5F5F5F5F5F5F5F5F5F5F5F5F5F5F5F5F5F5F5F5F5F5F5F5F5F5F5F5F5F5F5F5F5F5F5F5F5F528F5F5F5F5F5F5F5F5F5F5F5F5F5F5F5F5F5F5F5F5F5F5F5F5F5F5F5F5F5F5F5F5F5F5F5F5F5F5F5F5F5F5F5F5F5F5F5F5F5F5F5
310
F5F5F5F5F5F5F5F5F5F5F5F5F5F5F5F528F5DCF5F5F5F5F5F5F5F5F5F5F5F5F5F5F5F5F5F5F5E2E2F5E2F5F5F5F5F5F5F5F5F5F5F5F5F5F5F5F5F5DCF5282D2D2D2D2D2D2D2D2D2D2D2D2D2D2D2D2D2D2D2D2D2D2D2D2D2D2D2D2DF5F5F5F5F5F5F5F5F5F5F5F5F5F5F5F5F5F5F5F5F5F5F5F5F5F5F5F5F5F5F5F5F5F5F5F5
310
F528F5F5F5F5F5F5F5F5F5F5F5F5F5F5F5F5F5F5F5F5F5F5F5F5F5F5F5F5F5F5F5F5F5F5F5F5F5F5F5F5F5F5F5F5F5F5F5F5F5F5F5F5F5F5F5F5F5F5F5F5F5F5F5F5F5F5F528F5DCF5F5F5F5F5F5F5F5F5F5F5F5F5F5F5F5F5E2F5E2E2F5E2F5F5F5F5F5F5F5F5F5F5F5F5F5F5F5F5F5DCF5282D2D2D2D2D2D2D2D2D2D2D2D
310
2D2D2D2D2D2D2D2D2D2D2D2D2D2D2D2D2DF5F5F5F5F5F5F5F5F5F5F5F5F5F5F5F5F5F5F5F5F5F5F5F5F5F5F5F5F5F5F5F5F5F5F5F5F528F5F5F5F5F5F5F5F52D2D2D2D2D2D2D2D2D2D2D2D2D2D2D2D2D2D2D2D2D2D2D2D2D2D2D2D2D2D2D2D2D2D2D2D2D2D2D2D2D2D2D2D2D2D2D2D2D2D2DF5F5F5F5F5F5F5F528F5DCF5F5
310
F5F5F5F5F5F5F5F5F5F5F5F5F5F5F5E2F5E2E2F5E2F5F5F5F5F5F5F5F5F5F5F5F5F5F5F5F5F5DCF5282D2D2D2D2D2D2D2D2D2D2D2D2D2D2D2D2D2D2D2D2D2D2D2D2D2D2D2D2D2D2D2D2D2D2D2D2D2D2D2D2D2D2D2D2D2D2D2D2D2D2D2D2D2D2D2D2D2D2D2D2D2D2D2D2D2D28F5F5F5F5F5F5F5F52D2D2D2D2D2D2D2D2D2D2D
310
2D2D2D2D2D2D2D2D2D2D2D2D2D2D2D2D2D2D2D2D2D2D2D2D2D2D2D2D2D2D2D2D2D2D2D2D2D2D2D2DF5F5F5F5F5F5F5F528F5DCF5F5F5F5F5F5F5F5F5F5F5F5F5F5F5F5F5E2F5E2E2F5E2F5F5F5F5F5F5F5F5F5F5F5F5F5F5F5F5F5DCF5282D2D2D2D2D2D2D2D2D2D2D2D2D2D2D2D2D2D2D2D2D2D2D2D2D2D2D2D2D2D2D2D2D
310
2D2D2D2D2D2D2D2D2D2D2D2D2D2D2D2D2D2D2D2D2D2D2D2D2D2D2D2D2DF5F5F5F528F5F5F5F5F5F5F5F5F5F5F5F52D2D2D2D2D2D2D2D2D2D2D2D2D2D2D2D2D2D2D2D2D2D2D2D2D2D2D2D2D2D2D2D2D2D2D2D2D2D2D2D2D2DF5F5F5F5F5F5F5F5F5F5F5F5F528F5DCF5F5F5F5F5F5F5F5F5F5F5F5F5F5F5F5F5E2F5E2E2F5E2
310
F5F5F5F5F5F5F5F5F5F5F5F5F5F5F5F5F5DCF5282D2D2D2D2D2D2D2D2D2D2D2D2D2D2D2D2D2D2D2D2D2D2D2D2D2D2D2D2D2D2D2D2D2D2D2D2D2D2D2D2D2D2D2D2D2D2D2D2D2D2D2D2D2D2D2D2D2D2D2D2D2DF5F5F5F528F5F5F5F5F5F5F5F5F5F5F5F52D2D2D2D2D2D2D2D2D2D2D2D2D2D2D2D2D2D2D2D2D2D2D2D2D2D2D2D
310
2D2D2D2D2D2D2D2D2D2D2D2D2D2DF5F5F5F5F5F5F5F5F5F5F5F5F528F5DCF5F5F5F5F5F5F5F5F5F5F5F5F5F5F5F5F5E2F5E2E2F5E2F5F5F5F5F5F5F5F5F5F5F5F5F5F5F5F5F5DCF5282D2D2D2D2D2D2D2D2D2D2D2D2D2D2D2D2D2D2D2D2D2D2D2D2D2D2D2D2D2D2D2D2D2D2D2D2D2D2D2D2D2D2D2D2D2D2D2D2D2D2D2D2D2D
310
2D2D2D2D2DF5F5F5F5F5F5F528F5F5F5F5F5F5F5F5F5F5F5F5F5F5F5F5F5F5F5F5F5F5F5F5F5F5F5F52D2D2D2D2D2D2D2D2D2DF5F5F5F5F5F5F5F5F5F5F5F5F5F5F5F5F5F5F5F5F5F5F5F5F5F5F5F5F528F5DCF5F5F5F5F5F5F5F5F5F5F5F5F5F5F5F5F5E2F5E2E2F5E2F5F5F5F5F5F5F5F5F5F5F5F5F5F5F5F5F5DCF5282D
310
2D2D2D2D2D2D2D2D2D2D2D2D2D2D2D2D2D2D2D2D2D2D2D2D2D2D2D2D2D2D2DF5F5F5F5F5F5F5F5F5F5F5F5F5F5F5F5F5F5F5F5F5F5F5F5F5F5F5F5F5F5F5F5F5F528F5F5F5F5F5F5F5F5F5F5F5F5F5F5F5F5F5F5F5F5F5F5F5F5F5F5F5F52D2D2D2D2D2D2D2D2D2DF5F5F5F5F5F5F5F5F5F5F5F5F5F5F5F5F5F5F5F5F5F5F5
310
F5F5F5F5F5F528F5DCF5F5F5F5F5F5F5F5F5F5F5F5F5F5F5F5F5E2F5E2E2F5E2F5F5F5F5F5F5F5F5F5F5F5F5F5F5F5F5F5DCF5282D2D2D2D2D2D2D2D2D2D2D2D2D2D2D2D2D2D2D2D2D2D2D2D2D2D2D2D2D2D2D2DF5F5F5F5F5F5F5F5F5F5F5F5F5F5F5F5F5F5F5F5F5F5F5F5F5F5F5F5F5F5F5F5F5F528F5F5F5F5F5F5F5F5
310
F5F5F5F5F5F5F5F5F5F5F5F5F5F5F5F5F5F5F5F52D2D2D2D2D2D2D2D2D2DF5F5F5F5F5F5F5F5F5F5F5F5F5F5F5F5F5F5F5F5F5F5F5F5F5F5F5F5F528F5DCF5F5F5F5F5F5F5F5F5F5F5F5F5F5F5F5F5E2F5E2E2F5E2F5F5F5F5F5F5F5F5F5F5F5F5F5F5F5F5F5DCF5282D2D2D2D2D2D2D2D2D2D2D2D2D2D2D2D2D2D2D2D2D2D
310
2D2D2D2D2D2D2D2D2D2D2D2D2D2D2D2D2D2D2D2D2D2D2D2D2D2D2D2D2D2D2D2D2D2D2D2D2D2D2D2D2D2DF5F528F5F5F5F5F5F5F5F5F5F5F5F5F5F5F5F5F5F5F5F5F5F5F5F5F5F5F5F5F5F5F5F5F5F5F5F5F5F5F5F5F5F5F5F5F5F5F5F5F5F5F5F5F5F5F5F5F5F5F5F5F5F5F5F5F5F5F528F5DCF5F5F5F5F5F5F5F5F5F5F5F5
310
F5F5F5F5F5E2F5E2E2F5E2F5F5F5F5F5F5F5F5F5F5F5F5F5F5F5F5F5DCF528F5F5F5F5F5F5F5F5F5F5F5F5F5F5F5F5F5F5F5F5F5F5F5F5F5F5F5F5F5F5F5F5F5F5F5F5F5F5F5F5F5F5F5F5F5F5F5F5F5F5F5F5F5F5F5F5F5F5F5F5F5F5F5F5F5F528F5F5F5F5F5F5F5F5F5F5F5F5F5F5F5F5F5F5F5F5F5F5F5F5F5F5F5F5F5
310
F5F5F5F5F5F5F5F5F5F5F5F5F5F5F5F5F5F5F5F5F5F5F5F5F5F5F5F5F5F5F5F5F5F5F5F5F5F528F5DCF5F5F5F5F5F5F5F5F5F5F5F5F5F5F5F5F5E2F5E2E2F5E2F5F5F5F5F5F5F5F5F5F5F5F5F5F5F5F5F5DCF52828282828282828282828282828282828282828282828282828282828282828282828282828282828282828
310
2828282828282828282828282828282828282828282828282828282828282828282828282828282828282828282828282828282828282828282828282828282828282828282828282828282828282828282828282828282828282828F5DCF5F5F5F5F5F5F5F5F5F5F5F5F5F5F5F5F5E2F5E2E2F5E2F5F5F5F5F5F5F5F5F5F5
310
F5F5F5F5F5F5F5DCF528F5F5F5F5F5F5F5F5F5F5F5F5F5F5F5F5F5F5F5F5F5F5F5F5F5F5F5F5F5F5F5F5F5F5F5F5F5F5F5F5F5F5F5F5F5F5F5F5F5F5F5F5F5F5F5F5F5F5F5F5F5F5F5F5F5F5F5F5F5F5F5F5F5F5F5F5F5F5F5F5F5F5F5F5F5F5F5F5F5F5F5F5F5F5F5F5F5F5F5F5F5F5F5F5F5F5F5F5F5F5F5F5F5F5F5F5F5
310
F5F5F5F5F5F5F5F5F5F5F5F5F5F5F5F5F528F5DCF5F5F5F5F5F5F5F5F5F5F5F5F5F5F5F5F5E2F5E2E2F5E2F5F5F5F5F5F5F5F5F5F5F5F5F5F5F5F5F5DCF528F5F5F5F5F5F5F5F5F5F5F5F5F5F5F5F5F5F5F5F5F5F5F5F5F5F5F5F5F5F5F5F5F5F5F5F5F5F5F5F5F5F5F5F5F5F5F5F5F5F5F5F5F5F5F5F5F5F5F5F5F5F5F5F5
310
F5F5F5F5F5F5F5F5F5F5F5F5F5F5F5F5F5F5F5F5F5F5F5F5F5F5F5F5F5F5F5F5F5F5F5F5F5F5F5F5F5F5F5F5F5F5F5F5F5F5F5F5F5F5F5F5F5F5F5F5F5F5F5F5F5F5F5F5F5F528F5DCF5F5F5F5F5F5F5F5F5F5F5F5F5F5F5F5F5E2F5E2E2F5E2F5F5F5F5F5F5F5F5F5F5F5F5F5F5F5F5F5DCF528F5F5F5F5F5F5F5F5F5F5F5
310
F5F5F5F5F5F5F5F5F5F5F5F5F5F5F5F5F5F5F5F5F5F5F5F5F5F5F5F5F5F5F5F5F5F5F5F5F5F5F5F5F5F5F5F5F5F5F5F5F5F5F5F5F5F5F5F5F5F5F5F5F5F5F5F5F5F5F5F5F5F5F5F5F5F5F5F5F5F5F5F5F5F5F5F5F5F5F5F5F5F5F5F5F5F5F5F5F5F5F5F5F5F5F5F5F5F5F5F5F5F5F5F5F5F5F5F5F5F5F5F5F5F5F528F5DCF5
310
F5F5F5F5F5F5F5F5F5F5F5F5F5F5F5F5E2F5E2E2F5E2F5F5F5F5F5F5F5F5F5F5F5F5F5F5F5F5F5DCF528F5F5F5F5F5F5F5F5F5F5F5F5F5F5F5F5F5F5F5F5F5F5F5F5F5F5F5F5F5F5F5F5F5F5F5F5F5F5F5F5F5F5F5F5F5F5F5F5F5F5F5F5F5F5F5F5F5F5F5F5F5F5F5F5F5F5F5F5F5F5F5F5F5F5F5F5F5F5F5F5F5F5F5F5F5
310
F5F5F5F5F5F5F5F5F5F5F5F5F5F5F5F5F5F5F5F5F5F5F5F5F5F5F5F5F5F5F5F5F5F5F5F5F5F5F5F5F5F5F5F5F5F5F5F5F528F5DCF5F5F5F5F5F5F5F5F5F5F5F5F5F5F5F5F5E2F5E2E2F5E2F5F5F5F5F5F5F5F5F5F5F5F5F5F5F5F5F5DCF528F5F5F5F5F5F5F5F5F5F5F5F5F5F5F5F5F5F5F5F5F5F5F5F5F5F5F5F5F5F5F5F5
310
F5F5F5F5F5F5F5F5F5F5F5F5F5F5F5F5F5F5F5F5F5F5F5F5F5F5F5F5F5F5F5F5F5F5F5F5F5F5F5F5F5F5F5F5F5F5F5F5F5F5F5F5F5F5F5F5F5F5F5F5F5F5F5F5F5F5F5F5F5F5F5F5F5F5F5F5F5F5F5F5F5F5F5F5F5F5F5F5F5F5F5F5F5F5F5F5F5F5F5F5F5F528F5DCF5F5F5F5F5F5F5F5F5F5F5F5F5F5F5F5F5E2F5E2E2F5
310
F5F5F5F5F5F5F5F5F5F5F5F5F5F5F5F5F5F5DCF528F5F5F5F5F5F5F5F5F5F5F5F5F5F5F5F5F5F5F5F5F5F5F5F5F5F5F5F5F5F5F5F5F5F5F5F5F5F5F5F5F5F5F5F5F5F5F5F5F5F5F5F5F5F5F5F5F5F5F5F5F5F5F5F5F5F5F5F5F5F5F5F5F5F5F5F5F5F5F5F5F5F5F5F5F5F5F5F5F5F5F5F5F5F5F5F5F5F5F5F5F5F5F5F5F5F5
310
F5F5F5F5F5F5F5F5F5F5F5F5F5F5F5F5F5F5F5F5F5F5F5F5F5F5F5F528F5DCF5F5F5F5F5F5F5F5F5F5F5F5F5F5F5F5F5F5F5E2E2F5F5F5F5F5F5F5F5F5F5F5F5F5F5F5F5F5F5F5DCF528F5F5F5F5F5F5F5F5F5F5F5F5F5F5F5F5F5F5F5F5F5F5F5F5F5F5F5F5F5F5F5F5F5F5F5F5F5F5F5F5F5F5F5F5F5F5F5F5F5F5F5F5F5
310
F5F5F5F5F5F5F5F5F5F5F5F5F5F5F5F5F5F5F5F5F5F5F5F5F5F5F5F5F5F5F5F5F5F5F5F5F5F5F5F5F5F5F5F5F5F5F5F5F5F5F5F5F5F5F5F5F5F5F5F5F5F5F5F5F5F5F5F5F5F5F5F5F5F5F5F5F5F5F5F5F528F5DCF5F5F5F5F5F5F5F5F5F5F5F5F5F5F5F5F5F5F5E2E2F5F5F5F5F5F5F5F5F5F5F5F5F5F5F5F5F5F5F5DCF528
310
F5F5F5F5F5F5F5F5F5F5F5F5F5F5F5F5F5F5F5F5F5F5F5F5F5F5F5F5F5F5F5F5F5F5F5F5F5F5F5F5F5F5F5F5F5F5F5F5F5F5F5F5F5F5F5F5F5F5F5F5F5F5F5F5F5F5F5F5F5F5F5F5F5F5F5F5F5F5F5F5F5F5F5F5F5F5F5F5F5F5F5F5F5F5F5F5F5F5F5F5F5F5F5F5F5F5F5F5F5F5F5F5F5F5F5F5F5F5F5F5F5F5F5F5F5F5F5
310
F5F5F5F5F5F5F528F5DCF5F5F5F5F5F5F5F5F5F5F5F5F5F5F5F5F5F5F5E2E2F5F5F5F5F5F5F5F5F5F5F5F5F5F5F5F5F5F5F5DCF528F5F5F5F5F5F5F5F5F5F5F5F5F5F5F5F5F5F5F5F5F5F5F5F5F5F5F5F5F5F5F5F5F5F5F5F5F5F5F5F5F5F5F5F5F5F5F5F5F5F5F5F5F5F5F5F5F5F5F5F5F5F5F5F5F5F5F5F5F5F5F5F5F5F5
310
F5F5F5F5F5F5F5F5F5F5F5F5F5F5F5F5F5F5F5F5F5F5F5F5F5F5F5F5F5F5F5F5F5F5F5F5F5F5F5F5F5F5F5F5F5F5F5F5F5F5F5F5F5F5F5F5F5F5F5F528F5DCF5F5F5F5F5F5F5F5F5F5F5F5F5F5F5F5F5F5F5E2E2F5F5F5F5F5F5F5F5F5F5F5F5F5F5F5F5F5F5F5DCF528F5F5F5F5F5F5F5F5F5F5F5F5F5F5F5F5F5F5F5F5F5
310
F5F5F5F5F5F5F5F5F5F5F5F5F5F5F5F5F5F5F5F5F5F5F5F5F5F5F5F5F5F5F5F5F5F5F5F5F5F5F5F5F5F5F5F5F5F5F5F5F5F5F5F5F5F5F5F5F5F5F5F5F5F5F5F5F5F5F5F5F5F5F5F5F5F5F5F5F5F5F5F5F5F5F5F5F5F5F5F5F5F5F5F5F5F5F5F5F5F5F5F5F5F5F5F5F5F5F5F5F5F5F5F5F528F5DCF5F5F5F5F5F5F5F5F5F5F5
310
F5F5F5F5F5F5F5F5E2E2F5F5F5F5F5F5F5F5F5F5F5F5F5F5F5F5F5F5F5DCF528F5F5F5F5F5F5F5F5F5F5F5F5F5F5F5F5F5F5F5F5F5F5F5F5F5F5F5F5F5F5F5F5F5F5F5F5F5F5F5F5F5F5F5F5F5F5F5F5F5F5F5F5F5F5F5F5F5F5F5F5F5F5F5F5F5F5F5F5F5F5F5F5F5F5F5F5F5F5F5F5F5F5F5F5F5F5F5F5F5F5F5F5F5F5F5
310
F5F5F5F5F5F5F5F5F5F5F5F5F5F5F5F5F5F5F5F5F5F5F5F5F5F5F5F5F5F5F5F5F5F5F5F5F5F5F528F5DCF5F5F5F5F5F5F5F5F5F5F5F5F5F5F5F5F5F5F5E2E2F5F5F5F5F5F5F5F5F5F5F5F5F5F5F5F5F5F5F5DCF528F5F5F5F5F5F5F5F5F5F5F5F5F5F5F5F5F5F5F5F5F5F5F5F5F5F5F5F5F5F5F5F5F5F5F5F5F5F5F5F5F5F5
310
F5F5F5F5F5F5F5F5F5F5F5F5F5F5F5F5F5F5F5F5F5F5F5F5F5F5F5F5F5F5F5F5F5F5F5F5F5F5F5F5F5F5F5F5F5F5F5F5F5F5F5F5F5F5F5F5F5F5F5F5F5F5F5F5F5F5F5F5F5F5F5F5F5F5F5F5F5F5F5F5F5F5F5F5F5F5F5F5F5F5F5F528F5DCF5F5F5F5F5F5F5F5F5F5F5F5F5F5F5F5F5F5F5E2E2F5F5F5F5F5F5F5F5F5F5F5
310
F5F5F5F5F5F5F5F5DCF528F5F5F5F5F5F5F5F5F5F5F5F5F5F5F52D2D2D2D2D2D2D2D2D2DF5F5F5F5F5F5F5F5F5F5F5F5F5F5F5F5F5F5F5F5F5F5F5F5F5F5F5F5F5F5F5F5F5F5F5F5F5F5F5F5F5F5F5F5F5F5F5F5F5F5F5F5F5F5F5F5F5F5F5F5F5F5F5F5F5F5F5F5F5F5F5F5F5F5F5F5F5F5F5F5F5F5F5F5F5F5F5F5F5F5F5
310
F5F5F5F5F5F5F5F5F5F5F5F5F5F5F5F5F5F528F5DCF5F5F5F5F5F5F5F5F5F5F5F5F5F5F5F5F5F5F5E2E2F5E2F5F5F5F5F5F5F5F5F5F5F5F5F5F5F5F5F5DCF528F5F5F5F5F5F5F5F5F5F5F5F5F5F5F52D2D2D2D2D2D2D2D2D2DF5F5F5F5F5F5F5F5F5F5F5F5F5F5F5F5F5F5F5F5F5F5F5F5F5F5F5F5F5F5F5F5F5F5F5F5F5F5
310
F5F5F5F5F5F5F5F5F5F5F5F5F5F5F5F5F5F5F5F5F5F5F5F5F5F5F5F5F5F5F5F5F5F5F5F5F5F5F5F5F5F5F5F5F5F5F5F5F5F5F5F5F5F5F5F5F5F5F5F5F5F5F5F5F5F5F5F5F5F5F528F5DCF5F5F5F5F5F5F5F5F5F5F5F5F5F5F5F5F5E2F5E2E2F5E2F5F5F5F5F5F5F5F5F5F5F5F5F5F5F5F5F5DCF528F5F5F5F5F5F5F5F5F5F5
310
F5F5F5F5F5F5F5F5F5F5F5F5F5F5F5F5F5F5F5F5F5F5F5F5F5F5F5F5F5F5F5F5F5F5F5F5F5F5F5F5F5F5F5F5F5F5F5F5F5F5F5F5F5F5F5F5F5F5F5F5F5F5F5F5F5F5F5F5F5F5F5F5F5F5F5F5F5F5F5F5F5F5F5F5F5F5F5F5F5F5F5F5F5F5F5F5F5F5F5F5F5F5F5F5F5F5F5F5F5F5F5F5F5F5F5F5F5F5F5F5F5F5F5F528F5DC
310
F5F5F5F5F5F5F5F5F5F5F5F5F5F5F5F5F5E2F5E2E2F5E2F5F5F5F5F5F5F5F5F5F5F5F5F5F5F5F5F5DCF528F5F5F5F5F5F5F5F5F5F5F5F5F5F5F5F5F5F5F5F5F5F5F5F5F5F5F5F5F5F5F5F5F5F5F5F5F5F5F5F5F5F5F5F5F5F5F5F5F5F5F5F5F5F5F5F5F5F5F5F5F5F5F5F5F5F5F5F5F5F5F5F5F5F5F5F5F5F5F5F5F5F5F5F5
310
F5F5F5F5F5F5F5F5F5F5F5F5F5F5F5F5F5F5F5F5F5F5F5F5F5F5F5F5F5F5F5F5F5F5F5F5F5F5F5F5F5F5F5F5F5F5F5F5F5F528F5DCF5F5F5F5F5F5F5F5F5F5F5F5F5F5F5F5F5E2F5E2E2F5E2F5F5F5F5F5F5F5F5F5F5F5F5F5F5F5F5F5DCF528F5F5F5F5F5F5F5F5F5F5F5F5F5F5F5F5F5F5F5F5F5F5F5F5F5F5F5F5F5F5F5
310
F5F5F5F5F5F5F5F5F5F5F5F5F5F5F5F5F5F5F5F5F5F5F5F5F5F5F5F5F5F5F5F5F5F5F5F5F5F5F5F5F5F5F5F5F5F5F5F5F5F5F5F5F5F5F5F5F5F5F5F5F5F5F5F5F5F5F5F5F5F5F5F5F5F5F5F5F5F5F5F5F5F5F5F5F5F5F5F5F5F5F5F5F5F5F5F5F5F5F5F5F5F5F528F5DCF5F5F5F5F5F5F5F5F5F5F5F5F5F5F5F5F5E2F5E2E2
310
F5E2F5F5F5F5F5F5F5F5F5F5F5F5F5F5F5F5F5DCF528F5F5F5F5F5F5F5F5F5F5F5F5F5F5F5F5F5F5F5F5F5F5F5F5F5F5F5F5F5F5F5F5F5F5F5F5F5F5F5F5F5F5F5F5F5F5F5F5F5F5F5F5F5F5F5F5F5F5F5F5F5F5F5F5F5F5F5F5F5F5F5F5F5F5F5F5F5F5F5F5F5F5F5F5F5F5F5F5F5F5F5F5F5F5F5F5F5F5F5F5F5F5F5F5F5
310
F5F5F5F5F5F5F5F5F5F5F5F5F5F5F5F5F5F5F5F5F5F5F5F5F5F5F5F5F528F5DCF5F5F5F5F5F5F5F5F5F5F5F5F5F5F5F5F5E2F5E2E2F5E2F5F5F5F5F5F5F5F5F5F5F5F5F5F5F5F5F5DCF528F5F5F5F5F5F5F5F5F5F5F5F5F5F5F5F5F5F5F5F5F5F5F5F5F5F5F5F5F5F5F5F5F5F5F5F5F5F5F5F5F5F5F5F5F5F5F5F5F5F5F5F5
310
F5F5F5F5F5F5F5F5F5F5F5F5F5F5F5F5F5F5F5F5F5F5F5F5F5F5F5F5F5F5F5F5F5F5F5F5F5F5F5F5F5F5F5F5F5F5F5F5F5F5F5F5F5F5F5F5F5F5F5F5F5F5F5F5F5F5F5F5F5F5F5F5F5F5F5F5F5F5F5F5F5F528F5DCF5F5F5F5F5F5F5F5F5F5F5F5F5F5F5F5F5E2F5E2E2F5E2F5F5F5F5F5F5F5F5F5F5F5F5F5F5F5F5F5DCF5
310
28F5F5F5F5F5F5F5F5F5F5F5F5F5F5F5F5F5F5F5F5F5F5F5F5F5F5F5F5F5F5F5F5F5F5F5F5F5F5F5F5F5F5F5F5F5F5F5F5F5F5F5F5F5F5F5F5F5F5F5F5F5F5F5F5F5F5F5F5F5F5F5F5F5F5F5F5F5F5F5F5F5F5F5F5F5F5F5F5F5F5F5F5F5F5F5F5F5F5F5F5F5F5F5F5F5F5F5F5F5F5F5F5F5F5F5F5F5F5F5F5F5F5F5F5F5F5
310
F5F5F5F5F5F5F5F528F5DCF5F5F5F5F5F5F5F5F5F5F5F5F5F5F5F5F5E2F5E2E2F5E2F5F5F5F5F5F5F5F5F5F5F5F5F5F5F5F5F5DCF528F5F5F5F5F5F5F5F5F5F5F5F5F5F5F5F5F5F5F5F5F5F5F5F5F5F5F5F5F5F5F5F5F5F5F5F5F5F5F5F5F5F5F5F5F5F5F5F5F5F5F5F5F5F5F5F5F5F5F5F5F5F5F5F5F5F5F5F5F5F5F5F5F5
310
F5F5F5F5F5F5F5F5F5F5F5F5F5F5F5F5F5F5F5F5F5F5F5F5F5F5F5F5F5F5F5F5F5F5F5F5F5F5F5F5F5F5F5F5F5F5F5F5F5F5F5F5F5F5F5F5F5F5F5F5F528F5DCF5F5F5F5F5F5F5F5F5F5F5F5F5F5F5F5F5E2F5E2E2F5E2F5F5F5F5F5F5F5F5F5F5F5F5F5F5F5F5F5DCF528F5F5F5F5F5F5F5F5F5F5F5F5F5F5F5F5F5F5F5F5
310
F5F5F5F5F5F5F5F5F5F5F5F5F5F5F5F5F5F5F5F5F5F5F5F5F5F5F5F5F5F5F5F5F5F5F5F5F5F5F5F5F5F5F5F5F5F5F5F5F5F5F5F5F5F5F5F5F5F5F5F5F5F5F5F5F5F5F5F5F5F5F5F5F5F5F5F5F5F5F5F5F5F5F5F5F5F5F5F5F5F5F5F5F5F5F5F5F5F5F5F5F5F5F5F5F5F5F5F5F5F5F5F5F5F528F5DCF5F5F5F5F5F5F5F5F5F5
310
F5F5F5F5F5F5F5E2F5E2E2F5E2F5F5F5F5F5F5F5F5F5F5F5F5F5F5F5F5F5DCF528F5F5F5F5F5F5F5F5F5DCF5F5F5F5F5F5F5F5F5F5F5F5F5F5F5F5F5F5F5F5F5F5F5F5F5F5F5F5F5F5F5F5F5F5F5F5F5F5F5F5F5F5F5F5F5F5F5F5F5F5F5F5F5F5F5F5F5F5F5F5F5F5F5F5F5F5F5F5F5F5F5F5F5F5F5F5F5F5F5F5F5F5F5F5
310
F5F5F5F5F5F5F5F5F5F5F5F5F5F5F5F5F5F5F5F5F5F5F5F5F5F5F5F5F5F5F5F5F5F5F5F5F5F5F5F528F5DCF5F5F5F5F5F5F5F5F5F5F5F5F5F5F5F5F5E2F5E2E2F5E2F5F5F5F5F5F5F5F5F5F5F5F5F5F5F5F5F5DCF528F5F5F5F5F5F5F5F50FDCF5F5F5F5F52D2D2D2D2D2D2D2DF5F5F5F5F50FF5F5F5F5F5F5F5F5F5F5F5F5
310
F5F5F5F5F5F5F5F5F5F5F5F5F5F5F5F5F5F5F5F5F5F5F5F5F5F5F5F5F5F5F5F5F5F5F5F5F5F5F5F5F5F5F5F5F5F5F5F5F5F5F5F5F5F5F5F5F5F5F5F5F5F5F5F5F5F5F5F5F5F5F5F5F5F5F5F5F5F5F5F5F5F5F5F5F5F5F5F5F5F5F5F5F528F5DCF5F5F5F5F5F5F5F5F5F5F5F5F5F5F5F5F5E2F5E2E2F5E2F5F5F5F5F5F5F5F5
310
F5F5F5F5F5F5F5F5F5DCF528F5F5F5F5DCF5F5DC0FDC0F0F0F0F0F2D2D2D2D2D2D2D2D0F0F0F0F0F0F0FF5F5F5F5F5F5F5F5F5F5F5F5F5F5F5F5F5F5F5F5F5F5F5F5F5F5F5F5F5F5F5F5F5F5F5F5F5F5F5F5F5F5F5F5F5F5F5F5F5F5F5F5F5F5F5F5F5F5F5F5F5F5F5F5F5F5F5F5F5F5F5F5F5F5F5F5F5F5F5F5F5F5F5F5F5
310
F5F5F5F5F5F5F5F5F5F5F5F5F5F5F5F5F5F5F528F5DCF5F5F5F5F5F5F5F5F5F5F5F5F5F5F5F5F5E2F5E2E2F5E2F5F5F5F5F5F5F5F5F5F5F5F5F5F5F5F5F5DCF528F5F5F5DCF5F5DCF5F5DCF5F5F5F5F5F5F5F5F5F5F5F5F5F5F5F5F5F50FF5F5F5F5F5F5F5F5F5F5F5F5F5F5F5F5F5F5F5F5F5F5F5F5F5F5F5F5F5F5F5F5F5
310
F5F5F5F5F5F5F5F5F5F5F5F5F5F5F5F5F5F5F5F5F5F5F5F5F5F5F5F5F5F5F5F5F5F5F5F5F5F5F5F5F5F5F5F5F5F5F5F5F5F5F5F5F5F5F5F5F5F5F5F5F5F5F5F5F5F5F5F5F5F5F5F528F5DCF5F5F5F5F5F5F5F5F5F5F5F5F5F5F5F5F5E2F5E2E2F5E2F5F5F5F5F5F5F5F5F5F5F5F5F5F5F5F5F5DCF528F5F5F5F5F5DCF5F5DC
310
DCF5F5F5F5F5F5F5F5F5F5F5F5F5F5F5F5F5F50FF5F5F5F5F5F5F5F5F5F5F5F5F5F5F5F5F5F5F5F5F5F5F5F5F5F5F5F5F5F5F5F5F5F5F5F5F5F5F5F5F5F5F5F5F5F5F5F5F5F5F5F5F5F5F5F5F5F5F5F5F5F5F5F5F5F5F5F5F5F5F5F5F5F5F5F5F5F5F5F5F5F5F5F5F5F5F5F5F5F5F5F5F5F5F5F5F5F5F5F5F5F5F5F5F528F5
310
DCF5F5F5F5F5F5F5F5F5F5F5F5F5F5F5F5F5E2F5E2E2F5E2F5F5F5F5F5F5F5F5F5F5F5F5F5F5F5F5F5DCF528F5F5F5F5DCF5F5DCF5DCF5F5F5F5F5F5F5F5F5F5F5F5F5F5F5F5F5F50FF5F5F5F5F5F5F5F5F5F5F5F5F5F5F5F5F5F5F5F5F5F5F5F5F5F5F5F5F5F5F5F5F5F5F5F5F5F5F5F5F5F5F5F5F5F5F5F5F5F5F5F5F5F5
310
F5F5F5F5F5F5F5F5F5F5F5F5F5F5F5F5F5F5F5F5F5F5F5F5F5F5F5F5F5F5F5F5F5F5F5F5F5F5F5F5F5F5F5F5F5F5F5F5F5F5F528F5DCF5F5F5F5F5F5F5F5F5F5F5F5F5F5F5F5F5E2F5E2E2F5E2F5F5F5F5F5F5F5F5F5F5F5F5F5F5F5F5F5DCF528F5F5F5DCF5F5DCF5F5DCF5F5F5F5F5F5F5F5F5F5F5F5F5F5F5F5F5F50FF5
310
F5F5F5F5F5F5F5F5F5F5F5F5F5F5F5F5F5F5F5F5F5F5F5F5F5F5F5F5F5F5F5F5F5F5F5F5F5F5F5F5F5F5F5F5F5F5F5F5F5F5F5F5F5F5F5F5F5F5F5F5F5F5F5F5F5F5F5F5F5F5F5F5F5F5F5F5F5F5F5F5F5F5F5F5F5F5F5F5F5F5F5F5F5F5F5F5F5F5F5F5F5F5F5F528F5DCF5F5F5F5F5F5F5F5F5F5F5F5F5F5F5F5F5E2F5E2
310
E2F5F5F5F5F5F5F5F5F5F5F5F5F5F5F5F5F5F5F5DCF528F5F5F5F5F5DCF5F5F5DC1B0F0F0F0F0F0F0F0F0F0F0F0F0F0F0F0F0F0F0F0F0F0F0F0F0FF5F5F5F5F5F5F5F5F5F5F5F5F5F5F5F5F5F5F5F5F5F5F5F5F5F5F5F5F5F5F5F5F5F5F5F5F5F5F5F5F5F5F5F5F5F5F5F5F5F5F5F5F5F5F5F5F5F5F5F5F5F5F5F5F5F5F5F5
310
F5F5F5F5F5F5F5F5F5F5F5F5F5F5F5F5F5F5F5F5F5F5F5F5F5F5F5F5F5F528F5DCF5F5F5F5F5F5F5F5F5F5F5F5F5F5F5F5F5F5F5E2E2F5F5F5F5F5F5F5F5F5F5F5F5F5F5F5F5F5F5F5DCF528F5F5F5F5DCF5F5F5DCDCBEF5F5F5F5F5F5F5F5F5F5F5F5F5F5F5F5F50FF5F5F5F5F50FF5F5F5F5F5F5F5F5F5F5F5F5F5F5F5F5
310
F5F5F5F5F5F5F5F5F5F5F5F5F5F5F5F5F5F5F5F5F5F5F5F5F5F5F5F5F5F5F5F5F5F5F5F5F5F5F5F5F5F5F5F5F5F5F5F5F5F5F5F5F5F5F5F5F5F5F5F5F5F5F5F5F5F5F5F5F5F5F5F5F5F5F5F5F5F5F5F5F5F5F528F5DCF5F5F5F5F5F5F5F5F5F5F5F5F5F5F5F5F5F5F5E2E2F5F5F5F5F5F5F5F5F5F5F5F5F5F5F5F5F5F5F5DC
310
F528F5F5F5DCF5F5F5DCF5DCF5BEBEF5F5F5F5F5F5F5F5F5F5F5F5F5F5F50FF5F5F5F5F50FF5F5F5F5F5F5F5F5F5F5F5F5F5F5F5F5F5F5F5F5F5F5F5F5F5F5F5F5F5F5F5F5F5F5F5F5F5F5F5F5F5F5F5F5F5F5F5F5F5F5F5F5F5F5F5F5F5F5F5F5F5F5F5F5F5F5F5F5F5F5F5F5F5F5F5F5F5F5F5F5F5F5F5F5F5F5F5F5F5F5
310
F5F5F5F5F5F5F5F5F528F5DCF5F5F5F5F5F5F5F5F5F5F5F5F5F5F5F5F5F5F5E2E2F5F5F5F5F5F5F5F5F5F5F5F5F5F5F5F5F5F5F5DCF528F5F5F5F5F5DCDCF5F5DCF5F5BEBEF5F5F5F5F5F5F5F5F5F5F5F5F5F50FF5F5F5F5F50FF5F5F5F5F5F5F5F5F5F5F5F5F5F5F5F5F5F5F5F5F5F5F5F5F5F5F5F5F5F5F5F5F5F5F5F5F5
310
F5F5F5F5F5F5F5F5F5F5F5F5F5F5F5F5F5F5F5F5F5F5F5F5F5F5F5F5F5F5F5F5F5F5F5F5F5F5F5F5F5F5F5F5F5F5F5F5F5F5F5F5F5F5F5F5F5F5F5F5F5F528F5DCF5F5F5F5F5F5F5F5F5F5F5F5F5F5F5F5F5F5F5E2E2F5F5F5F5F5F5F5F5F5F5F5F5F5F5F5F5F5F5F5DCF528F5F5F5F5DCF5F5F5DCDCF5F5F5BEF5F5F5F5F5
310
F5F5F5F5F5F5F5F5F50FF5F5F5F5F50FF5F5F5F5F5F5F5F5F5F5F5F5F5F5F5F5F5F5F5F5F5F5F5F5F5F5F5F5F5F5F5F5F5F5F5F5F5F5F5F5F5F5F5F5F5F5F5F5F5F5F5F5F5F5F5F5F5F5F5F5F5F5F5F5F5F5F5F5F5F5F5F5F5F5F5F5F5F5F5F5F5F5F5F5F5F5F5F5F5F5F5F5F5F5F5F5F5F5F528F5DCF5F5F5F5F5F5F5F5F5
310
F5F5F5F5F5F5F5F5F5F5E2E2F5F5F5F5F5F5F5F5F5F5F5F5F5F5F5F5F5F5F5DCF528F5F5F5DCF5F5F5DCF5DCF5F5F5BEBEBEF5F5F5F5F5F5F5F5F5F5F5F50FF5F5F5F5F50FF5F5F5F5F5F5F5F5F5F5F5F5F5F5F5F5F5F5F5F5F5F5F5F5F5F5F5F5F5F5F5F5F5F5F5F5F5F5F5F5F5F5F5F5F5F5F5F5F5F5F5F5F5F5F5F5F5F5
310
F5F5F5F5F5F5F5F5F5F5F5F5F5F5F5F5F5F5F5F5F5F5F5F5F5F5F5F5F5F5F5F5F5F5F5F5F5F5F5F5F528F5DCF5F5F5F5F5F5F5F5F5F5F5F5F5F5F5F5F5F5F5E2E2F5F5F5F5F5F5F5F5F5F5F5F5F5F5F5F5F5F5F5DCF528F5F5F5F5F5DCDCF5F5DCF5F5F5F5BEBEF5F5F5F5F5F5F5F5F5F5F5F50FF5F5F5F5F50FF5F5F5F5F5
310
F5F5F5F5F5F5F5F5F5F5F5F5F5F5F5F5F5F5F5F5F5F5F5F5F5F5F5F5F5F5F5F5F5F5F5F5F5F5F5F5F5F5F5F5F5F5F5F5F5F5F5F5F5F5F5F5F5F5F5F5F5F5F5F5F5F5F5F5F5F5F5F5F5F5F5F5F5F5F5F5F5F5F5F5F5F5F5F5F5F5F5F5F5F528F5DCF5F5F5F5F5F5F5F5F5F5F5F5F5F5F5F5F5F5F5E2E2F5F5F5F5F5F5F5F5F5
310
F5F5F5F5F5F5F5F5F5F5DCF528F5F5F5F5DCF5F5F5DCDCF5F5F5F5BEF5F5F5F5F5F5F5F5F5F5F5F5F50FF5F5F5F5F50FF5F5F5F5F5F5F5F5F5F5F5F5F5F5F5F5F5F5F5F5F5F5F5F5F5F5F5F5F5F5F5F5F5F5F5F5F5F5F5F5F5F5F5F5F5F5F5F5F5F5F5F5F5F5F5F5F5F5F5F5F5F5F5F5F5F5F5F5F5F5F5F5F5F5F5F5F5F5F5
310
F5F5F5F5F5F5F5F5F5F5F5F5F5F5F5F5F5F5F5F528F5DCF5F5F5F5F5F5F5F5F5F5F5F5F5F5F5F5F5F5F5E2E2F5F5F5F5F5F5F5F5F5F5F5F5F5F5F5F5F5F5F5DCF528F5F5F5DCF5F5F5DCF5DCF5F5F5F5BEF5F5F5F5F5F5F5F5F5F5F5F5F50FF5F5F5F5F50FF5F5F5F5F5F5F5F5F5F5F5F5F5F5F5F5F5F5F5F5F5F5F5F5F5F5
310
F5F5F5F5F5F5F5F5F5F5F5F5F5F5F5F5F5F5F5F5F5F5F5F5F5F5F5F5F5F5F5F5F5F5F5F5F5F5F5F5F5F5F5F5F5F5F5F5F5F5F5F5F5F5F5F5F5F5F5F5F5F5F5F5F5F5F5F5F5F5F5F5F528F5DCF5F5F5F5F5F5F5F5F5F5F5F5F5F5F5F5F5F5F5E2E2F5E2F5F5F5F5F5F5F5F5F5F5F5F5F5F5F5F5F5DCF528F5F5F5F5F5F5DCF5
310
F5DCBEBEF5F5BEF5F5F5F5F5F5F5F5F5F5F5F5F50FF5F52D2D2D2D2D2D2D2DF5F5F5F5F5F5F5F5F5F5F5F5F5F5F5F5F5F5F5F5F5F5F5F5F5F5F5F5F5F5F5F5F5F5F5F5F5F5F5F5F5F5F5F5F5F5F5F5F5F5F5F5F5F5F5F5F5F5F5F5F5F5F5F5F5F5F5F5F5F5F5F5F5F5F5F5F5F5F5F5F5F5F5F5F5F5F5F5F5F5F5F5F5F5F528
310
F5DCF5F5F5F5F5F5F5F5F5F5F5F5F5F5F5F5F5E2F5E2E2F5E2F5F5F5F5F5F5F5F5F5F5F5F5F5F5F5F5F5DCF528F5F5F5F5F5DCF5F5DCDCF5BEF5F5BEF5F5F5F5F5F5F5F5F5F5F5F5F50FF5F52D2D2D2D2D2D2D2DF5F5F5F5F5F5F5F5F5F5F5F5F5F5F5F5F5F5F5F5F5F5F5F5F5F5F5F5F5F5F5F5F5F5F5F5F5F5F5F5F5F5F5
310
F5F5F5F5F5F5F5F5F5F5F5F5F5F5F5F5F5F5F5F5F5F5F5F5F5F5F5F5F5F5F5F5F5F5F5F5F5F5F5F5F5F5F5F5F5F5F5F5F5F5F5F528F5DCF5F5F5F5F5F5F5F5F5F5F5F5F5F5F5F5F5E2F5E2E2F5E2F5F5F5F5F5F5F5F5F5F5F5F5F5F5F5F5F5DCF528F5F5F5F5DCF5F5DCF5DCF5BEF5F5BEBEF5F5F5F5F5F5F5F5F5F5F5F50F
310
F5F5F5F5F50FF5F5F5F5F5F5F5F5F5F5F5F5F5F5F5F5F5F5F5F5F5F5F5F5F5F5F5F5F5F5F5F5F5F5F5F5F5F5F5F5F5F5F5F5F5F5F5F5F5F5F5F5F5F5F5F5F5F5F5F5F5F5F5F5F5F5F5F5F5F5F5F5F5F5F5F5F5F5F5F5F5F5F5F5F5F5F5F5F5F5F5F5F5F5F5F5F5F5F528F5DCF5F5F5F5F5F5F5F5F5F5F5F5F5F5F5F5F5E2F5
310
E2E2F5E2F5F5F5F5F5F5F5F5F5F5F5F5F5F5F5F5F5DCF528F5F5F5DCF5F5DCF5F5DCF5F5BEF5F5BEF5F5F5F5F5F5F5F5F5F5F5F50FF5F5F5F5F50FF5F5F5F5F5F5F5F5F5F5F5F5F5F5F5F5F5F5F5F5F5F5F5F5F5F5F5F5F5F5F5F5F5F5F5F5F5F5F5F5F5F5F5F5F5F5F5F5F5F5F5F5F5F5F5F5F5F5F5F5F5F5F5F5F5F5F5F5
310
F5F5F5F5F5F5F5F5F5F5F5F5F5F5F5F5F5F5F5F5F5F5F5F5F5F5F5F5F5F5F528F5DCF5F5F5F5F5F5F5F5F5F5F5F5F5F5F5F5F5E2F5E2E2F5E2F5F5F5F5F5F5F5F5F5F5F5F5F5F5F5F5F5DCF528F5F5F5F5F5DCF5F5DCDCF5F5BEF5F5F5BEBEF5F5F5F5BEBEF5F5F5F50FF5F5F5F5F50FF5F5F5F5F5F5F5F5F5F5F5F5F5F5F5
310
F5F5F5F5F5F5F5F5F5F5F5F5F5F5F5F5F5F5F5F5F5F5F5F5F5F5F5F5F5F5F5F5F5F5F5F5F5F5F5F5F5F5F5F5F5F5F5F5F5F5F5F5F5F5F5F5F5F5F5F5F5F5F5F5F5F5F5F5F5F5F5F5F5F5F5F5F5F5F5F5F5F5F5F528F5DCF5F5F5F5F5F5F5F5F5F5F5F5F5F5F5F5F5E2F5E2E2F5E2F5F5F5F5F5F5F5F5F5F5F5F5F5F5F5F5F5
310
DCF528F5F5F5F5DCF5F5DCF5DCF5F5F5BEF5F5F5BEBEBEBEBEF5BEF5F5F5F50FF5F5F5F5F50FF5F5F5F5F5F5F5F5F5F5F5F5F5F5F5F5F5F5F5F5F5F5F5F5F5F5F5F5F5F5F5F5F5F5F5F5F5F5F5F5F5F5F5F5F5F5F5F5F5F5F5F5F5F5F5F5F5F5F5F5F5F5F5F5F5F5F5F5F5F5F5F5F5F5F5F5F5F5F5F5F5F5F5F5F5F5F5F5F5
310
F5F5F5F5F5F5F5F5F5F528F5DCF5F5F5F5F5F5F5F5F5F5F5F5F5F5F5F5F5E2F5E2E2F5E2F5F5F5F5F5F5F5F5F5F5F5F5F5F5F5F5F5DCF528F5F5F5DCF5F5DCF5F5DCF5F5F5F5BEF5F5F5F5F5F5F5F5BEBEF5F5F50FF5F5F5F5F50FF5F5F5F5F5F5F5F5F5F5F5F5F5F5F5F5F5F5F5F5F5F5F5F5F5F5F5F5F5F5F5F5F5F5F5F5
310
F5F5F5F5F5F5F5F5F5F5F5F5F5F5F5F5F5F5F5F5F5F5F5F5F5F5F5F5F5F5F5F5F5F5F5F5F5F5F5F5F5F5F5F5F5F5F5F5F5F5F5F5F5F5F5F5F5F5F5F5F5F5F528F5DCF5F5F5F5F5F5F5F5F5F5F5F5F5F5F5F5F5E2F5E2E2F5E2F5F5F5F5F5F5F5F5F5F5F5F5F5F5F5F5F5DCF528F5F5F5F5F5DCF5F5F5DCF5F5F5F5F5BEBEBE
310
F5F5F5F5F5F5F5BEBEF50FF5F5F5F5F50FF5F5F5F5F5F5F5F5F5F5F5F5F5F5F5F5F5F5F5F5F5F5F5F5F5F5F5F5F5F5F5F5F5F5F5F5F5F5F5F5F5F5F5F5F5F5F5F5F5F5F5F5F5F5F5F5F5F5F5F5F5F5F5F5F5F5F5F5F5F5F5F5F5F5F5F5F5F5F5F5F5F5F5F5F5F5F5F5F5F5F5F5F5F5F5F5F5F5F528F5DCF5F5F5F5F5F5F5F5
310
F5F5F5F5F5F5F5F5F5E2F5E2E2F5E2F5F5F5F5F5F5F5F5F5F5F5F5F5F5F5F5F5DCF528F5F5F5F5DCF5F5F5DCDCF5F5F5F5F5F5F5F5BEBEF5F5F5F5F5F5BEF50FF5F5F5F5F50FF5F5F5F5F5F5F5F5F5F5F5F5F5F5F5F5F5F5F5F5F5F5F5F5F5F5F5F5F5F5F5F5F5F5F5F5F5F5F5F5F5F5F5F5F5F5F5F5F5F5F5F5F5F5F5F5F5
310
F5F5F5F5F5F5F5F5F5F5F5F5F5F5F5F5F5F5F5F5F5F5F5F5F5F5F5F5F5F5F5F5F5F5F5F5F5F5F5F5F5F528F5DCF5F5F5F5F5F5F5F5F5F5F5F5F5F5F5F5F5E2F5E2E2F5E2F5F5F5F5F5F5F5F5F5F5F5F5F5F5F5F5F5DCF528F5F5F5DCF5F5F5DCF5DCF5F5F5F5F5F5F5F5F5BEBEF5F5F5F5F5F5BE1BF5F5F5F5F50FF5F5F5F5
310
F5F5F5F5F5F5F5F5F5F5F5F5F5F5F5F5F5F5F5F5F5F5F5F5F5F5F5F5F5F5F5F5F5F5F5F5F5F5F5F5F5F5F5F5F5F5F5F5F5F5F5F5F5F5F5F5F5F5F5F5F5F5F5F5F5F5F5F5F5F5F5F5F5F5F5F5F5F5F5F5F5F5F5F5F5F5F5F5F5F5F5F5F5F5F528F5DCF5F5F5F5F5F5F5F5F5F5F5F5F5F5F5F5F5E2F5E2E2F5E2F5F5F5F5F5F5
310
F5F5F5F5F5F5F5F5F5F5F5DCF528F5F5F5F5F5DCDCF5F5DCF5F5F5F5F5F5F5F5F5F5BEF5F5F5F5F5F5F5BEF5F5F5F5F50F0FF5F5F5F5F5F5F5F5F5F5F5F5F5F5F5F5F5F5F5F5F5F5F5F5F5F5F5F5F5F5F5F5F5F5F5F5F5F5F5F5F5F5F5F5F5F5F5F5F5F5F5F5F5F5F5F5F5F5F5F5F5F5F5F5F5F5F5F5F5F5F5F5F5F5F5F5F5
310
F5F5F5F5F5F5F5F5F5F5F5F5F5F5F5F5F5F5F5F5F528F5DCF5F5F5F5F5F5F5F5F5F5F5F5F5F5F5F5F5E2F5E2E2F5E2F5F5F5F5F5F5F5F5F5F5F5F5F5F5F5F5F5DCF528F5F5F5F5DCF5F5F5DCDCDCDCDCDCDCDCDCDCDCDCDCDCDCDCDCDCDCDCDCDCDCDCDCDCDCDCDCF5F5F5F5F5F5F5F5F5F5F5F5F5F5F5F5F5F5F5F5F5F5F5
310
F5F5F5F5F5F5F5F5F5F5F5F5F5F5F5F5F5F5F5F5F5F5F5F5F5F5F5F5F5F5F5F5F5F5F5F5F5F5F5F5F5F5F5F5F5F5F5F5F5F5F5F5F5F5F5F5F5F5F5F5F5F5F5F5F5F5F5F5F5F5F5F5F5F528F5DCF5F5F5F5F5F5F5F5F5F5F5F5F5F5F5F5F5E2F5E2E2F5E2F5F5F5F5F5F5F5F5F5F5F5F5F5F5F5F5F5DCF528F5F5F5DCF5F5F5
310
DCF5F5DCF5F5DCF5F5F5DCF5F5DCF5F5DCF5F5DCF5F5DCF5F5DCF5F5F5F5F5F5F5F5F5F5F5F5F5F5F5F5F5F5F5F5F5F5F5F5F5F5F5F5F5F5F5F5F5F5F5F5F5F5F5F5F5F5F5F5F5F5F5F5F5F5F5F5F5F5F5F5F5F5F5F5F5F5F5F5F5F5F5F5F5F5F5F5F5F5F5F5F5F5F5F5F5F5F5F5F5F5F5F5F5F5F5F5F5F5F5F5F5F5F5F5F5
310
28F5DCF5F5F5F5F5F5F5F5F5F5F5F5F5F5F5F5F5E2F5E2E2F5E2F5F5F5F5F5F5F5F5F5F5F5F5F5F5F5F5F5DCF528F5F5F5F5F5DCDCF5F5DCF5F5DCF5F5F5DCF5F5DCF5F5DCF5F5DCF5F5DCF5F5DCF5F5F5F5F5F5F5F5F5F5F5F5F5F5F5F5F5F5F5F5F5F5F5F5F5F5F5F5F5F5F5F5F5F5F5F5F5F5F5F5F5F5F5F5F5F5F5F5F5
310
F5F5F5F5F5F5F5F5F5F5F5F5F5F5F5F5F5F5F5F5F5F5F5F5F5F5F5F5F5F5F5F5F5F5F5F5F5F5F5F5F5F5F5F5F5F5F5F5F5F5F5F5F528F5DCF5F5F5F5F5F5F5F5F5F5F5F5F5F5F5F5F5E2F5E2E2F5E2F5F5F5F5F5F5F5F5F5F5F5F5F5F5F5F5F5DCF528F5F5F5F5DCF5F5F5DCF5F5DCF5F5DCDCF5DCDCF5DCDCF5F5DCF5F5DC
310
F5F5DCF5F5F5F5F5F5F5F5F5F5F5F5F5F5F5F5F5F5F5F5F5F5F5F5F5F5F5F5F5F5F5F5F5F5F5F5F5F5F5F5F5F5F5F5F5F5F5F5F5F5F5F5F5F5F5F5F5F5F5F5F5F5F5F5F5F5F5F5F5F5F5F5F5F5F5F5F5F5F5F5F5F5F5F5F5F5F5F5F5F5F5F5F5F5F5F5F5F5F5F5F5F5F528F5DCF5F5F5F5F5F5F5F5F5F5F5F5F5F5F5F5F5E2
310
F5E2E2F5E2F5F5F5F5F5F5F5F5F5F5F5F5F5F5F5F5F5DCF528F5F5F5DCF5F5F5DCF5F5DCF5F5DCF5F5DCF5F5DCF5F5F5DCF5F5DCF5F5DCF5F5F5DCF5F5F5F5F5F5F5F5F5F5F5F5F5F5F5F5F5F5F5F5F5F5F5F5F5F5F5F5F5F5F5F5F5F5F5F5F5F5F5F5F5F5F5F5F5F5F5F5F5F5F5F5F5F5F5F5F5F5F5F5F5F5F5F5F5F5F5F5
310
F5F5F5F5F5F5F5F5F5F5F5F5F5F5F5F5F5F5F5F5F5F5F5F5F5F5F5F5F5F5F5F528F5DCF5F5F5F5F5F5F5F5F5F5F5F5F5F5F5F5F5E2F5E2E2F5F5F5F5F5F5F5F5F5F5F5F5F5F5F5F5F5F5F5DCF528F5F5F5F5F5F5DCF5F5DCF5F5DCF5F5DCF5F5DCF5F5F5DCF5F5DCF5F5DCF5F5DCDCF5F5F5F5F5F5F5F5F5F5F5F5F5F5F5F5
310
F5F5F5F5F5F5F5F5F5F5F5F5F5F5F5F5F5F5F5F5F5F5F5F5F5F5F5F5F5F5F5F5F5F5F5F5F5F5F5F5F5F5F5F5F5F5F5F5F5F5F5F5F5F5F5F5F5F5F5F5F5F5F5F5F5F5F5F5F5F5F5F5F5F5F5F5F5F5F5F5F5F5F5F5F528F5DCF5F5F5F5F5F5F5F5F5F5F5F5F5F5F5F5F5F5F5E2E2F5F5F5F5F5F5F5F5F5F5F5F5F5F5F5F5F5F5
310
F5DCF528F5F5F5F5F5F5F5F5F5F5F5F5F5F5F5F5F5F5F5F5F5F5F5F5F5F5F5F5F5F5F5F5F5F5F5F5F5F5F5F5F5F5F5F5F5F5F5F5F5F5F5F5F5F5F5F5F5F5F5F5F5F5F5F5F5F5F5F5F5F5F5F5F5F5F5F5F5F5F5F5F5F5F5F5F5F5F5F5F5F5F5F5F5F5F5F5F5F5F5F5F5F5F5F5F5F5F5F5F5F5F5F5F5F5F5F5F5F5F5F5F5F5F5
310
F5F5F5F5F5F5F5F5F5F5F528F5DCF5F5F5F5F5F5F5F5F5F5F5F5F5F5F5F5F5F5F5E2E2F5F5F5F5F5F5F5F5F5F5F5F5F5F5F5F5F5F5F5DCF528F5F5F5F5F5F5F5F5F5F5F5F5F5F5F5F5F5F5F5F5F5F5F5F5F5F5F5F5F5F5F5F5F5F5F5F5F5F5F5F5F5F5F5F5F5F5F5F5F5F5F5F5F5F5F5F5F5F5F5F5F5F5F5F5F5F5F5F5F5F5
310
F5F5F5F5F5F5F5F5F5F5F5F5F5F5F5F5F5F5F5F5F5F5F5F5F5F5F5F5F5F5F5F5F5F5F5F5F5F5F5F5F5F5F5F5F5F5F5F5F5F5F5F5F5F5F5F5F5F5F5F5F5F5F5F528F5DCF5F5F5F5F5F5F5F5F5F5F5F5F5F5F5F5F5F5F5E2E2F5F5F5F5F5F5F5F5F5F5F5F5F5F5F5F5F5F5F5DCF528F5F5F5F5F5F5F5F5F5F5F5F5F5F5F5F5F5
310
F5F5F5F5F5F5F5F5F5F5F5F5F5F5F5F5F5F5F5F5F5F5F5F5F5F5F5F5F5F5F5F5F5F5F5F5F5F5F5F5F5F5F5F5F5F5F5F5F5F5F5F5F5F5F5F5F5F5F5F5F5F5F5F5F5F5F5F5F5F5F5F5F5F5F5F5F5F5F5F5F5F5F5F5F5F5F5F5F5F5F5F5F5F5F5F5F5F5F5F5F5F5F5F5F5F5F5F5F5F5F5F5F5F5F5F5F528F5DCF5F5F5F5F5F5F5
310
F5F5F5F5F5F5F5F5F5F5F5F5E2E2F5F5F5F5F5F5F5F5F5F5F5F5F5F5F5F5F5F5F5DCF528F5F5F5F5F5F5F5F5F5F5F5F5F5F5F5F5F5F5F5F5F5F5F5F5F5F5F5F5F5F5F5F5F5F5F5F5F5F5F5F5F5F5F5F5F5F5F5F5F5F5F5F5F5F5F5F5F5F5F5F5F5F5F5F5F5F5F5F5F5F5F5F5F5F5F5F5F5F5F5F5F5F5F5F5F5F5F5F5F5F5F5
310
F5F5F5F5F5F5F5F5F5F5F5F5F5F5F5F5F5F5F5F5F5F5F5F5F5F5F5F5F5F5F5F5F5F5F5F5F5F5F5F5F5F5F528F5DCF5F5F5F5F5F5F5F5F5F5F5F5F5F5F5F5F5F5F5E2E2F5F5F5F5F5F5F5F5F5F5F5F5F5F5F5F5F5F5F5DCF528F5F5F5F5F5F5F5F5F5F5F5F5F5F5F5F5F5F5F5F5F5F5F5F5F5F5F5F5F5F5F5F5F5F5F5F5F5F5
310
F5F5F5F5F5F5F5F5F5F5F5F5F5F5F5F5F5F5F5F5F5F5F5F5F5F5F5F5F5F5F5F5F5F5F5F5F5F5F5F5F5F5F5F5F5F5F5F5F5F5F5F5F5F5F5F5F5F5F5F5F5F5F5F5F5F5F5F5F5F5F5F5F5F5F5F5F5F5F5F5F5F5F5F5F5F5F5F5F5F5F5F5F5F5F5F528F5DCF5F5F5F5F5F5F5F5F5F5F5F5F5F5F5F5F5F5F5E2E2F5F5F5F5F5F5F5
310
F5F5F5F5F5F5F5F5F5F5F5F5DCF528F5F5F5F5F5F5F5F5F5F5F5F5F5F5F5F5F5F5F5F5F5F5F5F5F5F5F5F5F5F5F5F5F5F5F5F5F5F5F5F5F5F5F5F5F5F5F5F5F5F5F5F5F5F5F5F5F5F5F5F5F5F5F5F5F5F5F5F5F5F5F5F5F5F5F5F5F5F5F5F5F5F5F5F5F5F5F5F5F5F5F5F5F5F5F5F5F5F5F5F5F5F5F5F5F5F5F5F5F5F5F5F5
310
F5F5F5F5F5F5F5F5F5F5F5F5F5F5F5F5F5F5F5F5F5F528F5DCF5F5F5F5F5F5F5F5F5F5F5F5F5F5F5F5F5F5F5E2E2F5F5F5F5F5F5F5F5F5F5F5F5F5F5F5F5F5F5F5DCF528F5F5F5F5F5F5F5F5F5F5F5F5F5F5F5F5F5F5F5F5F5F5F5F5F5F5F5F5F5F5F5F5F5F5F5F5F5F5F5F5F5F5F5F5F5F5F5F5F5F5F5F5F5F5F5F5F5F5F5
310
F5F5F5F5F5F5F5F5F5F5F5F5F5F5F5F5F5F5F5F5F5F5F5F5F5F5F5F5F5F5F5F5F5F5F5F5F5F5F5F5F5F5F5F5F5F5F5F5F5F5F5F5F5F5F5F5F5F5F5F5F5F5F5F5F5F5F5F5F5F5F5F5F5F5F528F5DCF5F5F5F5F5F5F5F5F5F5F5F5F5F5F5F5F5F5F5E2E2F5E2F5F5F5F5F5F5F5F5F5F5F5F5F5F5F5F5F5DCF528F5F5F5F5F5F5
310
F5F5F5F5F5F5F5F5F5F5F5F5F5F5F5F5F5F5F5F5F5F5F5F5F5F5F5F5F5F5F5F5F5F5F5F5F5F5F5F5F5F5F5F5F5F5F5F5F5F5F5F5F5F5F5F5F5F5F5F5F5F5F5F5F5F5F5F5F5F5F5F5F5F5F5F5F5F5F5F5F5F5F5F5F5F5F5F5F5F5F5F5F5F5F5F5F5F5F5F5F5F5F5F5F5F5F5F5F5F5F5F5F5F5F5F5F5F5F5F5F5F5F5F5F5F5F5
310
F528F5DCF5F5F5F5F5F5F5F5F5F5F5F5F5F5F5F5F5E2F5E2E2F5E2F5F5F5F5F5F5F5F5F5F5F5F5F5F5F5F5F5DCF528F5F5F5F5F5F5F5F5F5F5F5F5F5F5F5F5F5F5F5F5F5F5F5F5F5F5F5F5F5F5F5F5F5F5F5F5F5F5F5F5F5F5F5F5F5F5F5F5F5F5F5F5F5F5F5F5F5F5F5F5F5F5F5F5F5F5F5F5F5F5F5F5F5F5F5F5F5F5F5F5
310
F5F5F5F5F5F5F5F5F5F5F5F5F5F5F5F5F5F5F5F5F5F5F5F5F5F5F5F5F5F5F5F5F5F5F5F5F5F5F5F5F5F5F5F5F5F5F5F5F5F5F5F5F5F528F5DCF5F5F5F5F5F5F5F5F5F5F5F5F5F5F5F5F5E2F5E2E2F5E2F5F5F5F5F5F5F5F5F5F5F5F5F5F5F5F5F5DCF528F5F5F5F5F5F5F5F5F5F5F5F5F5F5F5F5F5F5F5F5F5F5F5F5F5F5F5
310
F5F5F5F5F5F5F5F5F5F5F5F5F5F5F5F5F5F5F5F5F5F5F5F5F5F5F5F5F5F5F5F5F5F5F5F5F5F5F5F5F5F5F5F5F5F5F5F5F5F5F5F5F5F5F5F5F5F5F5F5F5F5F5F5F5F5F5F5F5F5F5F5F5F5F5F5F5F5F5F5F5F5F5F5F5F5F5F5F5F5F5F5F5F5F5F5F5F5F5F5F5F5F5F5F5F5F528F5DCF5F5F5F5F5F5F5F5F5F5F5F5F5F5F5F5F5
310
E2F5E2E2F5E2F5F5F5F5F5F5F5F5F5F5F5F5F5F5F5F5F5DCF528F5F5F5F5F5F5F5F5F5F5F5F5F5F5F5F5F5F5F5F5F5F5F5F5F5F5F5F5F5F5F5F5F5F5F5F5F5F5F5F5F5F5F5F5F5F5F5F5F5F5F5F5F5F5F5F5F5F5F5F5F5F5F5F5F5F5F5F5F5F5F5F5F5F5F5F5F5F5F5F5F5F5F5F5F5F5F5F5F5F5F5F5F5F5F5F5F5F5F5F5F5
310
F5F5F5F5F5F5F5F5F5F5F5F5F5F5F5F5F5F5F5F5F5F5F5F5F5F5F5F5F5F5F5F5F528F5DCF5F5F5F5F5F5F5F5F5F5F5F5F5F5F5F5F5E2F5E2E2F5E2F5F5F5F5F5F5F5F5F5F5F5F5F5F5F5F5F5DCF528F5F5F5F5F5F5F5F5F5F5F5F5F5F5F5F5F5F5F5F5F5F5F5F5F5F5F5F5F5F5F5F5F5F5F5F5F5F5F5F5F5F5F5F5F5F5F5F5
310
F5F5F5F5F5F5F5F5F5F5F5F5F5F5F5F5F5F5F5F5F5F5F5F5F5F5F5F5F5F5F5F5F5F5F5F5F5F5F5F5F5F5F5F5F5F5F5F5F5F5F5F5F5F5F5F5F5F5F5F5F5F5F5F5F5F5F5F5F5F5F5F5F5F5F5F5F5F5F5F5F5F5F5F5F5F528F5DCF5F5F5F5F5F5F5F5F5F5F5F5F5F5F5F5F5E2F5E2E2F5E2F5F5F5F5F5F5F5F5F5F5F5F5F5F5F5
310
F5F5DCF528F5F5F5F5F5F5F5F5F5F5F5F5F5F5F5F5F5F5F5F5F5F5F5F5F5F5F5F5F5F5F5F5F5F5F5F5F5F5F5F5F5F5F5F5F5F5F5F5F5F5F5F5F5F5F5F5F5F5F5F5F5F5F5F5F5F5F5F5F5F5F5F5F5F5F5F5F5F5F5F5F5F5F5F5F5F5F5F5F5F5F5F5F5F5F5F5F5F5F5F5F5F5F5F5F5F5F5F5F5F5F5F5F5F5F5F5F5F5F5F5F5F5
310
F5F5F5F5F5F5F5F5F5F5F5F528F5DCF5F5F5F5F5F5F5F5F5F5F5F5F5F5F5F5F5E2F5E2E2F5E2F5F5F5F5F5F5F5F5F5F5F5F5F5F5F5F5F5DCF528F5F5F5F5F5F5F5F5F5F5F5F5F5F5F5F5F5F5F5F5F5F5F5F5F5F5F5F5F5F5F5F5F5F5F5F5F5F5F5F5F5F5F5F5F5F5F5F5F5F5F5F5F5F5F5F5F5F5F5F5F5F5F5F5F5F5F5F5F5
310
F5F5F5F5F5F5F5F5F5F5F5F5F5F5F5F5F5F5F5F5F5F5F5F5F5F5F5F5F5F5F5F5F5F5F5F5F5F5F5F5F5F5F5F5F5F5F5F5F5F5F5F5F5F5F5F5F5F5F5F5F5F5F5F5F528F5DCF5F5F5F5F5F5F5F5F5F5F5F5F5F5F5F5F5E2F5E2E2F5E2F5F5F5F5F5F5F5F5F5F5F5F5F5F5F5F5F5DCF528F5F5F5F5F5F5F5F5F5F5F5F5F5F5F5F5
310
F5F5F5F5F5F5F5F5F5F5F5F5F5F5F5F5F5F5F5F5F5F5F5F5F5F5F5F5F5F5F5F5F5F5F5F5F5F5F5F5F5F5F5F5F5F5F5F5F5F5F5F5F5F5F5F5F5F5F5F5F5F5F5F5F5F5F5F5F5F5F5F5F5F5F5F5F5F5F5F5F5F5F5F5F5F5F5F5F5F5F5F5F5F5F5F5F5F5F5F5F5F5F5F5F5F5F5F5F5F5F5F5F5F5F5F5F5F528F5DCF5F5F5F5F5F5
310
F5F5F5F5F5F5F5F5F5F5F5E2F5E2E2F5E2F5F5F5F5F5F5F5F5F5F5F5F5F5F5F5F5F5DCF528282828282828282828282828282828282828282828282828282828282828282828282828282828282828282828282828282828282828282828282828282828282828282828282828282828282828282828282828282828282828
310
282828282828282828282828282828282828282828282828282828282828282828282828282828282828282828F5DCF5F5F5F5F5F5F5F5F5F5F5F5F5F5F5F5F5E2F5E2E2F5E2F5F5F5F5F5F5F5F5F5F5F5F5F5F5F5F5F5DCF528F5F5F5F5F5F5F5F5F5F5F5F5F5F5F5F5F5F5F5F5F5F5F5F5F5F5F5F5F5F5F5F5F5F5F5F5F5
310
F5F5F5F5F5F5F5F5F5F5F5F5F5F5F5F5F5F5F5F5F5F5F5F5F5F5F5F5F528F5F5F5F5F5F5F5F5F5F5F5F5F5F5F5F5F5F5F5F5F5F5F5F5F5F5F5F5F5F5F5F5F5F5F5F5F5F5F5F5F5F5F5F5F5F5F5F5F5F5F5F5F5F5F5F5F5F5F5F5F5F5F5F5F5F5F528F5DCF5F5F5F5F5F5F5F5F5F5F5F5F5F5F5F5F5E2F5E2E2F5E2F5F5F5F5
310
F5F5F5F5F5F5F5F5F5F5F5F5F5DCF528F5F5F5F5F5F5F5F5F5F5F5F5F52D2D2D2D2D2D2D2D2D2D2D2D2D2D2D2D2D2D2D2D2D2D2D2D2D2D2D2D2D2D2D2D2D2D2D2D2D2DF5F5F5F5F5F5F5F5F5F5F5F5F5F5F528F5F5F52D2D2D2DF52D2D2D2D2D2DF5F5F5F5F5F5F5F5F5F5F5F5F5F5F5F5F5F5F5F5F5F5F5F5F5F5F5F5F5F5
310
F5F5F5F5F5F5F5F5F5F5F5F5F5F5F5F5F5F5F5F5F5F5F528F5DCF5F5F5F5F5F5F5F5F5F5F5F5F5F5F5F5F5E2F5E2E2F5E2F5F5F5F5F5F5F5F5F5F5F5F5F5F5F5F5F5DCF528F5F5F5F5F5F5F5F5F5F5F5F5F52D2D2D2D2D2D2D2D2D2D2D2D2D2D2D2D2D2D2D2D2D2D2D2D2D2D2D2D2D2D2D2D2D2D2D2D2D2DF5F5F5F5F5F5F5
310
F5F5F5F5F5F5F5F528F5F5F52D2D2D2DF52D2D2D2DF52DF5F5F5F5F5F5F5F5F5F5F5F5F5F5F5F5F5F5F5F5F5F5F5F5F5F5F5F5F5F5F5F5F5F5F5F5F5F5F5F5F5F5F5F5F5F5F5F5F5F5F5F5F528F5DCF5F5F5F5F5F5F5F5F5F5F5F5F5F5F5F5F5E2F5E2E2F5E2F5F5F5F5F5F5F5F5F5F5F5F5F5F5F5F5F5DCF528F5F5F5F5F5
310
F5F5F5F5F5F5F5F5F5F5F5F5F5F5F5F5F5F5F5F5F5F5F5F5F5F5F5F5F5F5F5F5F5F5F5F5F5F5F5F5F5F5F5F5F5F5F5F5F5F5F5F5F5F5F5F5F5F5F5F5F528F5F5F5F5F5F5F5F5F5F5F5F5F5F5F5F5F5F5F5F5F5F5F5F5F5F5F5F5F5F5F5F5F5F5F5F5F5F5F5F5F5F5F5F5F5F5F5F5F5F5F5F5F5F5F5F5F5F5F5F5F5F5F5F5F5
310
F5F528F5DCF5F5F5F5F5F5F5F5F5F5F5F5F5F5F5F5F5E2F5E2E2F5E2F5F5F5F5F5F5F5F5F5F5F5F5F5F5F5F5F5DCF52828282828282828282828282828282828282828282828282828282D2D2D2D2D2D2D2D2D2D2D2D2D28282828282828282828282828282828282828282828282828282828282828282828282828282828
310
2828282828282828282828282828282828282828282828282828282828282828282828282828282828282828282828282828282828282828F5DCF5F5F5F5F5F5F5F5F5F5F5F5F5F5F5F5F5E2F5E2E2F5E2F5F5F5F5F5F5F5F5F5F5F5F5F5F5F5F5F5DCF528F5F5F5F5F5F5F5F5F5F5F5F5F5F5F5F5F5F5F5F5F5F5F5F5F5F5
310
2D2D2D2D2D2D2D2D2D2D2D2D2DF5F5F5F5F5F5F5F5F5F5F5F5F5F5F5F5F5F5F5F5F5F5F5F5F5F5F528F5F5F52D2D2D2D2D2D2D2D2D2D2DF5F52D2D2D2D2D2D2D2D2D2DF5F5F5F5F5F5F5F5F5F5F5F5F5F5F5F5F5F5F5F5F5F5F5F5F5F5F5F5F5F5F5F5F5F5F5F5F5F5F5F5F528F5DCF5F5F5F5F5F5F5F5F5F5F5F5F5F5F5F5
310
F5E2F5E2E2F5E2F5F5F5F5F5F5F5F5F5F5F5F5F5F5F5F5F5DCF528F5F5F5F5F5F5F5F5F5F5F5F5F5F5F5F5F5F5F5F5F5F5F5F5F5F52D2D2D2D2D2D2D2D2D2D2D2D2DF5F5F5F5F5F5F5F5F5F5F5F5F5F5F5F5F5F5F5F5F5F5F5F5F5F5F528F5F5F52D2D2D2D2D2D2D2D2D2D2DF52D2D2D2D2D2D2D2D2D2D2DF5F5F5F5F5F5F5
310
F5F5F5F5F5F5F5F5F5F5F5F5F5F5F5F5F5F5F5F5F5F5F5F5F5F5F5F5F5F5F5F5F5F528F5DCF5F5F5F5F5F5F5F5F5F5F5F5F5F5F5F5F5E2F5E2E2F5F5F5F5F5F5F5F5F5F5F5F5F5F5F5F5F5F5F5DCF528F5F5F5F5F5F5F5F5F5F5F5F5F5F5F5F5F5F5F5F5F5F5F5F5F5F5F5F5F5F5F5F5F5F5F5F5F5F5F5F5F5F5F5F5F5F5F5
310
F5F5F5F5F5F5F5F5F5F5F5F5F5F5F5F5F5F5F528F5F5F5F5F5F5F5F5F5F5F5F5F5F5F5F5F5F5F5F5F5F5F5F5F5F5F5F5F5F5F5F5F5F5F5F5F5F5F5F5F5F5F5F5F5F5F5F5F5F5F5F5F5F5F5F5F5F5F5F5F5F5F5F5F5F5F528F5DCF5F5F5F5F5F5F5F5F5F5F5F5F5F5F5F5F5F5F5E2E2F5F5F5F5F5F5F5F5F5F5F5F5F5F5F5F5
310
F5F5F5DCF52828282828282828282828282828282828282828282828282828282828282828282828282828282828282828282828282828282828282828282828282828282828282828282828282828282828282828282828282828282828282828282828282828282828282828282828282828282828282828282828282828
310
2828282828282828282828282828F5DCF5F5F5F5F5F5F5F5F5F5F5F5F5F5F5F5F5F5F5E2E2F5F5F5F5F5F5F5F5F5F5F5F5F5F5F5F5F5F5F5DCF5F5F5F5F5F5F5F5F5F5F5F5F5F5F5F5F5F5F5F5F5F5F5F5F5F5F5F5F5F5F5F5F5F5F5F5F5F5F5F5F5F5F5F5F5F5F5F5F5F5F5F5F5F5F5F5F5F5F5F5F5F5F5F5F5F5F5F5F5F5
310
F5F5F5F5F5F5F5F5F5F5F5F5F5F5F5F5F5F5F5F5F5F5F5F5F5F5F5F5F5F5F5F5F5F5F5F5F5F5F5F5F5F5F5F5F5F5F5F5F5F5F5F5F5F5F5F5F5F5F5F5F5F5F5F5F5F5F5F5DCF5F5F5F5F5F5F5F5F5F5F5F5F5F5F5F5F5F5F5E2E2F5F5F5F5F5F5F5F5F5F5F5F5F5F5F5F5F5F5F5DCDCDCDCDCDCDCDCDCDCDCDCDCDCDCDCDCDC
310
DCDCDCDCDCDCDCDCDCDCDCDCDCDCDCDCDCDCDCDCDCDCDCDCDCDCDCDCDCDCDCDCDCDCDCDCDCDCDCDCDCDCDCDCDCDCDCDCDCDCDCDCDCDCDCDCDCDCDCDCDCDCDCDCDCDCDCDCDCDCDCDCDCDCDCDCDCDCDCDCDCDCDCDCDCDCDCDCDCDCDCDCDCDCDCDCDCDCDCDCDCDCDCDCDCDCDCDCDCDCDCDCDCDCDCDCDCDCDCDCDCDCF5F5F5F5F5
310
F5F5F5F5F5F5F5F5F5F5F5F5F5F5E2E2F5F5F5F5F5F5F5F5F5F5F5F5F5F5F5F5F5F5F5DCDCDCDCDCDCDCDCDCDCDCDCDCDCDCDCDCDCDCDCDCDCDCDCDCDCDCDCDCDCDCDCDCDCDCDCDCDCDCDCDCDCDCDCDCDCDCDCDCDCDCDCDCDCDCDCDCDCDCDCDCDCDCDCDCDCDCDCDCDCDCDCDCDCDCDCDCDCDCDCDCDCDCDCDCDCDCDCDCDCDCDC
310
DCDCDCDCDCDCDCDCDCDCDCDCDCDCDCDCDCDCDCDCDCDCDCDCDCDCDCDCDCDCDCDCDCDCDCDCDCDCDCDCDCDCDCDCDCDCDCDCF5F5F5F5F5F5F5F5F5F5F5F5F5F5F5F5F5F5F5E2E2F5F5F5F5F5F5F5F5F5F5F5F5F5F5F5F5F5F5F5F5F5F5F5F5F5F5F5F5F5F5F5F5F5F5F5F5F5F5F5F5F5F5F5F5F5F5F5F5F5F5F5F5F5F5F5F5F5F5
310
F5F5F5F5F5F5F5F5F5F5F5F5F5F5F5F5F5F5F5F5F5F5F5F5F5F5F5F5F5F5F5F5F5F5F5F5F5F5F5F5F5F5F5F5F5F5F5F5F5F5F5F5F5F5F5F5F5F5F5F5F5F5F5F5F5F5F5F5F5F5F5F5F5F5F5F5F5F5F5F5F5F5F5F5F5F5F5F5F5F5F5F5F5F5F5F5F5F5F5F5F5F5F5F5F5F5F5F5F5F5F5F5F5F5F5F5F5F5F5F5E2E2F5F5F5F5F5
310
F5F5F5F5F5F5F5F5F5F5F5F5F5F5F5F5F5F5F5F5F5F5F5F5F5F5F5F5F5F5F5F5F5F5F5F5F5F5F5F5F5F5F5F5F5F5F5F5F5F5F5F5F5F5F5F5F5F5F5F5F5F5F5F5F5F5F5F5F5F5F5F5F5F5F5F5F5F5F5F5F5F5F5F5F5F5F5F5F5F5F5F5F5F5F5F5F5F5F5F5F5F5F5F5F5F5F5F5F5F5F5F5F5F5F5F5F5F5F5F5F5F5F5F5F5F5F5
310
F5F5F5F5F5F5F5F5F5F5F5F5F5F5F5F5F5F5F5F5F5F5F5F5F5F5F5F5F5F5F5F5F5F5F5F5F5F5F5F5F5F5F5F5F5F5E2E2F5F5F5F5F5F5F5F5F5F5F5F5F5F5F5F5F5F5F5F5F5F5F5F5F5F5F5F5F5F5F5F5F5F5F5F5F5F5F5F5F5F5F5F5F5F5F5F5F5F5F5F5F5F5F5F5F5F5F5F5F5F5F5F5F5F5F5F5F5F5F5F5F5F5F5F5F5F5F5
310
F5F5F5F5F5F5F5F5F5F5F5F5F5F5F5F5F5F5F5F5F5F5F5F5F5F5F5F5F5F5F5F5F5F5F5F5F5F5F5F5F5F5F5F5F5F5F5F5F5F5F5F5F5F5F5F5F5F5F5F5F5F5F5F5F5F5F5F5F5F5F5F5F5F5F5F5F5F5F5F5F5F5F5F5F5F5F5F5F5F5F5F5F5F5F5F5F5F5F5E2E2F5F5F5F5F5F5F5F5F5F5F5F5F5F5F5F5F5F5F5F5F5F5F5F5F5F5
310
F5F5F5F5F5F5F5F5F5F5F5F5F5F5F5F5F5F5F5F5F5F5F5F5F5F5F5F5F5F5F5F5F5F5F5F5F5F5F5F5F5F5F5F5F5F5F5F5F5F5F5F5F5F5F5F5F5F5F5F5F5F5F5F5F5F5F5F5F5F5F5F5F5F5F5F5F5F5F5F5F5F5F5F5F5F5F5F5F5F5F5F5F5F5F5F5F5F5F5F5F5F5F5F5F5F5F5F5F5F5F5F5F5F5F5F5F5F5F5F5F5F5F5F5F5F5F5
310
F5F5F5F5F5F5F5F5F5F5F5F5F5F5F5F5F5F5F5F5F5F5F5F5F5E2E2F5E2F5F5F5F5F5F5F5F5F5F5F5F5F5F5F5F5F5F5F5F5F5F5F5F5F5F5F5F5F5F5F5F5F5F5F5F5F5F5F5F5F5F5F5F5F5F5F5F5F5F5F5F5F5F5F5F5F5F5F5F5F5F5F5F5F5F5F5F5F5F5F5F5F5F5F5F5F5F5F5F5F5F5F5F5F5F5F5F5F5F5F5F5F5F5F5F5F5F5
310
F5F5F5F5F5F5F5F5F5F5F5F5F5F5F5F5F5F5F5F5F5F5F5F5F5F5F5F5F5F5F5F5F5F5F5F5F5F5F5F5F5F5F5F5F5F5F5F5F5F5F5F5F5F5F5F5F5F5F5F5F5F5F5F5F5F5F5F5F5F5F5F5F5F5F5F5E2F5E2E2F5E2F5F5F5F5F5F5F5F5F5F5F5F5F5F5F5F5F5F5F5F5F5F5F5F5F5F5F5F5F5F5F5F5F5F5F5F5F5F5F5F5F5F5F5F5F5
310
F5F5F5F5F5F5F5F5F5F5F5F5F5F5F5F5F5F5F5F5F5F5F5F5F5F5F5F5F5F5F5F5F5F5F5F5F5F5F5F5F5F5F5F5F5F5F5F5F5F5F5F5F5F5F5F5F5F5F5F5F5F5F5F5F5F5F5F5F5F5F5F5F5F5F5F5F5F5F5F5F5F5F5F5F5F5F5F5F5F5F5F5F5F5F5F5F5F5F5F5F5F5F5F5F5F5F5F5F5F5F5F5F5F5F5F5F5F5F5F5F5F5F5F5F5F5F5
310
F5F5E2F5E2E2F5E2F5F5F5F5F5F5F5F5F5F5F5F5F5F5F5F5F5F5F5F5F5F5F5F5F5F5F5F5F5F5F5F5F5F5F5F5F5F5F5F5F5F5F5F5F5F5F5F5F5F5F5F5F5F5F5F5F5F5F5F5F5F5F5F5F5F5F5F5F5F5F5F5F5F5F5F5F5F5F5F5F5F5F5F5F5F5F5F5F5F5F5F5F5F5F5F5F5F5F5F5F5F5F5F5F5F5F5F5F5F5F5F5F5F5F5F5F5F5F5
310
F5F5F5F5F5F5F5F5F5F5F5F5F5F5F5F5F5F5F5F5F5F5F5F5F5F5F5F5F5F5F5F5F5F5F5F5F5F5F5F5F5F5F5F5F5F5F5F5F5F5F5F5F5F5F5E2F5E2E2F5E2F5F5F5F5F5F5F5F5F5F5F5F5F5F5F5F5F5F5F5F5F5F5F5F5F5F5F5F5F5F5F5F5F5F5F5F5F5F5F5F5F5F5F5F5F5F5F5F5F5F5F5F5F5F5F5F5F5F5F5F5F5F5F5F5F5F5
310
F5F5F5F5F5F5F5F5F5F5F5F5F5F5F5F5F5F5F5F5F5F5F5F5F5F5F5F5F5F5F5F5F5F5F5F5F5F5F5F5F5F5F5F5F5F5F5F5F5F5F5F5F5F5F5F5F5F5F5F5F5F5F5F5F5F5F5F5F5F5F5F5F5F5F5F5F5F5F5F5F5F5F5F5F5F5F5F5F5F5F5F5F5F5F5F5F5F5F5F5F5F5F5F5F5F5F5F5E2F5E2E2F5E2F5F5F5F5F5F5F5F5F5F5F5F5F5
310
F5F5F5F5F5F5F5F5F5F5F5F5F5F5F5F5F5F5F5F5F5F5F5F5F5F5F5F5F5F5F5F5F5F5F5F5F5F5F5F5F5F5F5F5F5F5F5F5F5F5F5F5F5F5F5F5F5F5F5F5F5F5F5F5F5F5F5F5F5F5F5F5F5F5F5F5F5F5F5F5F5F5F5F5F5F5F5F5F5F5F5F5F5F5F5F5F5F5F5F5F5F5F5F5F5F5F5F5F5F5F5F5F5F5F5F5F5F5F5F5F5F5F5F5F5F5F5
310
F5F5F5F5F5F5F5F5F5F5F5F5F5F5F5F5F5F5F5F5F5F5F5F5F5F5F5F5F5F5F5F5F5F5E2F5E2E2F5E2F5F5F5F5F5F5F5F5F5F5F5F5F5F5F5F5F5F5F5F5F5F5F5F5F5F5F5F5F5F5F5F5F5F5F5F5F5F5F5F5F5F5F5F5F5F5F5F5F5F5F5F5F5F5F5F5F5F5F5F5F5F5F5F5F5F5F5F5F5F5F5F5F5F5F5F5F5F5F5F5F5F5F5F5F5F5F5
310
F5F5F5F5F5F5F5F5F5F5F5F5F5F5F5F5F5F5F5F5F5F5F5F5F5F5F5F5F5F5F5F5F5F5F5F5F5F5F5F5F5F5F5F5F5F5F5F5F5F5F5F5F5F5F5F5F5F5F5F5F5F5F5F5F5F5F5F5F5F5F5F5F5F5F5F5F5F5F5F5F5F5F5F5F5F5F5E2F5E2E2F5E2F5F5F5F5F5F5F5F5F5F5F5F5F5F5F5F5F5F5F5F5F5F5F5F5F5F5F5F5F5F5F5F5F5F5
310
F5F5F5F5F5F5F5F5F5F5F5F5F5F5F5F5F5F5F5F5F5F5F5F5F5F5F5F5F5F5F5F5F5F5F5F5F5F5F5F5F5F5F5F5F5F5F5F5F5F5F5F5F5F5F5F5F5F5F5F5F5F5F5F5F5F5F5F5F5F5F5F5F5F5F5F5F5F5F5F5F5F5F5F5F5F5F5F5F5F5F5F5F5F5F5F5F5F5F5F5F5F5F5F5F5F5F5F5F5F5F5F5F5F5F5F5F5F5F5F5F5F5F5F5F5F5F5
310
F5F5F5F5F5F5F5F5F5F5F5F5F5E2F5E2E2F5E2E2E2E2E2E2E2E2E2F5F5F5F5F5F5F5F5F5E2E2E2E2E2E2E2E2E2E2E2E2E2E2E2E2F5F5F5F5F5F5F5F5F5E2E2E2E2E2E2E2E2E2E2E2E2E2E2E2E2F5F5F5F5F5F5F5F5F5E2E2E2E2E2E2E2E2E2E2E2E2E2E2E2E2F5F5F5F5F5F5F5F5F5E2E2E2E2E2E2E2E2E2E2E2E2E2E2E2E2
310
F5F5F5F5F5F5F5F5F5E2E2E2E2E2E2E2E2E2E2E2E2E2E2E2E2F5F5F5F5F5F5F5F5F5E2E2E2E2E2E2E2E2E2E2E2E2E2E2E2E2F5F5F5F5F5F5F5F5F5E2E2E2E2E2E2E2E2F5E2E2F5F5F5F5F5F5F5F5F5F5F5F5F5F5F5F5F5F5F5F5F5F5F5F5F5F5F5F5F5F5F5F5F5F5F5F5F5F5F5F5F5F5F5F5F5F5F5F5F5F5F5F5F5F5F5F5F5
310
F5F5F5F5F5F5F5F5F5F5F5F5F5F5F5F5F5F5F5F5F5F5F5F5F5F5F5F5F5F5F5F5F5F5F5F5F5F5F5F5F5F5F5F5F5F5F5F5F5F5F5F5F5F5F5F5F5F5F5F5F5F5F5F5F5F5F5F5F5F5F5F5F5F5F5F5F5F5F5F5F5F5F5F5F5F5F5F5F5F5F5F5F5F5F5F5F5F5F5F5F5F5F5F5F5F5F5F5F5F5F5F5F5F5F5F5F5F5F5F5F5E2E2E2E2E2E2
310
E2E2E2E2E2E2E2E2E2E2E2E2E2E2E2E2E2E2E2E2E2E2E2E2E2E2E2E2E2E2E2E2E2E2E2E2E2E2E2E2E2E2E2E2E2E2E2E2E2E2E2E2E2E2E2E2E2E2E2E2E2E2E2E2E2E2E2E2E2E2E2E2E2E2E2E2E2E2E2E2E2E2E2E2E2E2E2E2E2E2E2E2E2E2E2E2E2E2E2E2E2E2E2E2E2E2E2E2E2E2E2E2E2E2E2E2E2E2E2E2E2E2E2E2E2E2E2
310
E2E2E2E2E2E2E2E2E2E2E2E2E2E2E2E2E2E2E2E2E2E2E2E2E2E2E2E2E2E2E2E2E2E2E2E2E2E2E2E2E2E2E2E2E2E2E2E2
  0
ENDSEC
  0
EOF
